  0
SECTION
  2
HEADER
  9
$ACADVER
  1
AC1024
  9
$ACADMAINTVER
 70
    63
  9
$DWGCODEPAGE
  3
ANSI_932
  9
$LASTSAVEDBY
  1
kg-paltec
  9
$INSBASE
 10
0.0
 20
0.0
 30
0.0
  9
$EXTMIN
 10
-0.0158938252684493
 20
-0.027189087619945
 30
-0.0015258207003583
  9
$EXTMAX
 10
420.010483759118
 20
297.0362562658688
 30
0.0000000349246037
  9
$LIMMIN
 10
0.0
 20
0.0
  9
$LIMMAX
 10
420.0
 20
297.0
  9
$ORTHOMODE
 70
     0
  9
$REGENMODE
 70
     1
  9
$FILLMODE
 70
     1
  9
$QTEXTMODE
 70
     0
  9
$MIRRTEXT
 70
     1
  9
$LTSCALE
 40
8.4
  9
$ATTMODE
 70
     1
  9
$TEXTSIZE
 40
0.2
  9
$TRACEWID
 40
0.05
  9
$TEXTSTYLE
  7
STANDARD
  9
$CLAYER
  8
0
  9
$CELTYPE
  6
CONTINUOUS
  9
$CECOLOR
 62
   256
  9
$CELTSCALE
 40
1.0
  9
$DISPSILH
 70
     0
  9
$DIMSCALE
 40
1.0
  9
$DIMASZ
 40
0.18
  9
$DIMEXO
 40
0.0625
  9
$DIMDLI
 40
0.38
  9
$DIMRND
 40
0.0
  9
$DIMDLE
 40
0.0
  9
$DIMEXE
 40
0.18
  9
$DIMTP
 40
0.0
  9
$DIMTM
 40
0.0
  9
$DIMTXT
 40
0.18
  9
$DIMCEN
 40
0.09
  9
$DIMTSZ
 40
0.0
  9
$DIMTOL
 70
     0
  9
$DIMLIM
 70
     0
  9
$DIMTIH
 70
     1
  9
$DIMTOH
 70
     1
  9
$DIMSE1
 70
     0
  9
$DIMSE2
 70
     0
  9
$DIMTAD
 70
     0
  9
$DIMZIN
 70
     0
  9
$DIMBLK
  1

  9
$DIMASO
 70
     1
  9
$DIMSHO
 70
     1
  9
$DIMPOST
  1

  9
$DIMAPOST
  1

  9
$DIMALT
 70
     0
  9
$DIMALTD
 70
     2
  9
$DIMALTF
 40
25.4
  9
$DIMLFAC
 40
1.0
  9
$DIMTOFL
 70
     0
  9
$DIMTVP
 40
0.0
  9
$DIMTIX
 70
     0
  9
$DIMSOXD
 70
     0
  9
$DIMSAH
 70
     0
  9
$DIMBLK1
  1

  9
$DIMBLK2
  1

  9
$DIMSTYLE
  2
STANDARD
  9
$DIMCLRD
 70
     0
  9
$DIMCLRE
 70
     0
  9
$DIMCLRT
 70
     0
  9
$DIMTFAC
 40
1.0
  9
$DIMGAP
 40
0.09
  9
$DIMJUST
 70
     0
  9
$DIMSD1
 70
     0
  9
$DIMSD2
 70
     0
  9
$DIMTOLJ
 70
     1
  9
$DIMTZIN
 70
     0
  9
$DIMALTZ
 70
     0
  9
$DIMALTTZ
 70
     0
  9
$DIMUPT
 70
     0
  9
$DIMDEC
 70
     4
  9
$DIMTDEC
 70
     4
  9
$DIMALTU
 70
     2
  9
$DIMALTTD
 70
     2
  9
$DIMTXSTY
  7
STANDARD
  9
$DIMAUNIT
 70
     0
  9
$DIMADEC
 70
     0
  9
$DIMALTRND
 40
0.0
  9
$DIMAZIN
 70
     0
  9
$DIMDSEP
 70
    46
  9
$DIMATFIT
 70
     3
  9
$DIMFRAC
 70
     0
  9
$DIMLDRBLK
  1

  9
$DIMLUNIT
 70
     2
  9
$DIMLWD
 70
    -2
  9
$DIMLWE
 70
    -2
  9
$DIMTMOVE
 70
     0
  9
$DIMFXL
 40
1.0
  9
$DIMFXLON
 70
     0
  9
$DIMJOGANG
 40
0.7853981633974483
  9
$DIMTFILL
 70
     0
  9
$DIMTFILLCLR
 70
     0
  9
$DIMARCSYM
 70
     0
  9
$DIMLTYPE
  6

  9
$DIMLTEX1
  6

  9
$DIMLTEX2
  6

  9
$DIMTXTDIRECTION
 70
     0
  9
$LUNITS
 70
     2
  9
$LUPREC
 70
     4
  9
$SKETCHINC
 40
0.1
  9
$FILLETRAD
 40
0.0
  9
$AUNITS
 70
     0
  9
$AUPREC
 70
     0
  9
$MENU
  1
.
  9
$ELEVATION
 40
0.0
  9
$PELEVATION
 40
0.0
  9
$THICKNESS
 40
0.0
  9
$LIMCHECK
 70
     0
  9
$CHAMFERA
 40
0.0
  9
$CHAMFERB
 40
0.0
  9
$CHAMFERC
 40
0.0
  9
$CHAMFERD
 40
0.0
  9
$SKPOLY
 70
     0
  9
$TDCREATE
 40
2451212.682759178
  9
$TDUCREATE
 40
2451212.307759178
  9
$TDUPDATE
 40
2460782.802679711
  9
$TDUUPDATE
 40
2460782.427679711
  9
$TDINDWG
 40
0.0619270486
  9
$TDUSRTIMER
 40
0.0619270486
  9
$USRTIMER
 70
     1
  9
$ANGBASE
 50
0.0
  9
$ANGDIR
 70
     0
  9
$PDMODE
 70
     0
  9
$PDSIZE
 40
0.0
  9
$PLINEWID
 40
0.0
  9
$SPLFRAME
 70
     0
  9
$SPLINETYPE
 70
     6
  9
$SPLINESEGS
 70
     8
  9
$HANDSEED
  5
1154
  9
$SURFTAB1
 70
     6
  9
$SURFTAB2
 70
     6
  9
$SURFTYPE
 70
     6
  9
$SURFU
 70
     6
  9
$SURFV
 70
     6
  9
$UCSBASE
  2

  9
$UCSNAME
  2

  9
$UCSORG
 10
0.0
 20
0.0
 30
0.0
  9
$UCSXDIR
 10
1.0
 20
0.0
 30
0.0
  9
$UCSYDIR
 10
0.0
 20
1.0
 30
0.0
  9
$UCSORTHOREF
  2

  9
$UCSORTHOVIEW
 70
     0
  9
$UCSORGTOP
 10
0.0
 20
0.0
 30
0.0
  9
$UCSORGBOTTOM
 10
0.0
 20
0.0
 30
0.0
  9
$UCSORGLEFT
 10
0.0
 20
0.0
 30
0.0
  9
$UCSORGRIGHT
 10
0.0
 20
0.0
 30
0.0
  9
$UCSORGFRONT
 10
0.0
 20
0.0
 30
0.0
  9
$UCSORGBACK
 10
0.0
 20
0.0
 30
0.0
  9
$PUCSBASE
  2

  9
$PUCSNAME
  2

  9
$PUCSORG
 10
0.0
 20
0.0
 30
0.0
  9
$PUCSXDIR
 10
1.0
 20
0.0
 30
0.0
  9
$PUCSYDIR
 10
0.0
 20
1.0
 30
0.0
  9
$PUCSORTHOREF
  2

  9
$PUCSORTHOVIEW
 70
     0
  9
$PUCSORGTOP
 10
0.0
 20
0.0
 30
0.0
  9
$PUCSORGBOTTOM
 10
0.0
 20
0.0
 30
0.0
  9
$PUCSORGLEFT
 10
0.0
 20
0.0
 30
0.0
  9
$PUCSORGRIGHT
 10
0.0
 20
0.0
 30
0.0
  9
$PUCSORGFRONT
 10
0.0
 20
0.0
 30
0.0
  9
$PUCSORGBACK
 10
0.0
 20
0.0
 30
0.0
  9
$USERI1
 70
     0
  9
$USERI2
 70
     0
  9
$USERI3
 70
     0
  9
$USERI4
 70
     0
  9
$USERI5
 70
     0
  9
$USERR1
 40
0.0
  9
$USERR2
 40
0.0
  9
$USERR3
 40
0.0
  9
$USERR4
 40
0.0
  9
$USERR5
 40
0.0
  9
$WORLDVIEW
 70
     1
  9
$SHADEDGE
 70
     3
  9
$SHADEDIF
 70
    70
  9
$TILEMODE
 70
     1
  9
$MAXACTVP
 70
    16
  9
$PINSBASE
 10
0.0
 20
0.0
 30
0.0
  9
$PLIMCHECK
 70
     0
  9
$PEXTMIN
 10
1.000000000000000E+20
 20
1.000000000000000E+20
 30
1.000000000000000E+20
  9
$PEXTMAX
 10
-1.000000000000000E+20
 20
-1.000000000000000E+20
 30
-1.000000000000000E+20
  9
$PLIMMIN
 10
0.0
 20
0.0
  9
$PLIMMAX
 10
12.0
 20
9.0
  9
$UNITMODE
 70
     0
  9
$VISRETAIN
 70
     1
  9
$PLINEGEN
 70
     0
  9
$PSLTSCALE
 70
     1
  9
$TREEDEPTH
 70
  3020
  9
$CMLSTYLE
  2
STANDARD
  9
$CMLJUST
 70
     0
  9
$CMLSCALE
 40
1.0
  9
$PROXYGRAPHICS
 70
     1
  9
$MEASUREMENT
 70
     0
  9
$CELWEIGHT
370
    -1
  9
$ENDCAPS
280
     0
  9
$JOINSTYLE
280
     0
  9
$LWDISPLAY
290
     0
  9
$INSUNITS
 70
     0
  9
$HYPERLINKBASE
  1

  9
$STYLESHEET
  1

  9
$XEDIT
290
     1
  9
$CEPSNTYPE
380
     0
  9
$PSTYLEMODE
290
     0
  9
$FINGERPRINTGUID
  2
{CD040D11-B4F0-4F61-A8BD-26F2D04E472A}
  9
$VERSIONGUID
  2
{E952E4B7-D718-4016-BE36-038425AFC1FE}
  9
$EXTNAMES
290
     1
  9
$PSVPSCALE
 40
0.0
  9
$OLESTARTUP
290
     0
  9
$SORTENTS
280
   127
  9
$INDEXCTL
280
     0
  9
$HIDETEXT
280
     0
  9
$XCLIPFRAME
280
     2
  9
$HALOGAP
280
     0
  9
$OBSCOLOR
 70
   257
  9
$OBSLTYPE
280
     0
  9
$INTERSECTIONDISPLAY
280
     0
  9
$INTERSECTIONCOLOR
 70
   257
  9
$DIMASSOC
280
     1
  9
$PROJECTNAME
  1

  9
$CAMERADISPLAY
290
     0
  9
$LENSLENGTH
 40
50.0
  9
$CAMERAHEIGHT
 40
0.0
  9
$STEPSPERSEC
 40
2.0
  9
$STEPSIZE
 40
6.0
  9
$3DDWFPREC
 40
2.0
  9
$PSOLWIDTH
 40
0.25
  9
$PSOLHEIGHT
 40
4.0
  9
$LOFTANG1
 40
1.570796326794896
  9
$LOFTANG2
 40
1.570796326794896
  9
$LOFTMAG1
 40
0.0
  9
$LOFTMAG2
 40
0.0
  9
$LOFTPARAM
 70
     7
  9
$LOFTNORMALS
280
     1
  9
$LATITUDE
 40
37.795
  9
$LONGITUDE
 40
-122.394
  9
$NORTHDIRECTION
 40
0.0
  9
$TIMEZONE
 70
 -8000
  9
$LIGHTGLYPHDISPLAY
280
     1
  9
$TILEMODELIGHTSYNCH
280
     1
  9
$CMATERIAL
347
938
  9
$SOLIDHIST
280
     0
  9
$SHOWHIST
280
     1
  9
$DWFFRAME
280
     2
  9
$DGNFRAME
280
     0
  9
$REALWORLDSCALE
290
     1
  9
$INTERFERECOLOR
 62
     1
  9
$INTERFEREOBJVS
345
95A
  9
$INTERFEREVPVS
346
957
  9
$CSHADOW
280
     0
  9
$SHADOWPLANELOCATION
 40
0.0
  0
ENDSEC
  0
SECTION
  2
CLASSES
  0
CLASS
  1
ACDBDICTIONARYWDFLT
  2
AcDbDictionaryWithDefault
  3
ObjectDBX Classes
 90
        0
 91
        1
280
     0
281
     0
  0
CLASS
  1
TABLESTYLE
  2
AcDbTableStyle
  3
ObjectDBX Classes
 90
     4095
 91
        1
280
     0
281
     0
  0
CLASS
  1
DICTIONARYVAR
  2
AcDbDictionaryVar
  3
ObjectDBX Classes
 90
        0
 91
        9
280
     0
281
     0
  0
CLASS
  1
MATERIAL
  2
AcDbMaterial
  3
ObjectDBX Classes
 90
     1153
 91
        3
280
     0
281
     0
  0
CLASS
  1
VISUALSTYLE
  2
AcDbVisualStyle
  3
ObjectDBX Classes
 90
     4095
 91
       24
280
     0
281
     0
  0
CLASS
  1
SCALE
  2
AcDbScale
  3
ObjectDBX Classes
 90
     1153
 91
       17
280
     0
281
     0
  0
CLASS
  1
MLEADERSTYLE
  2
AcDbMLeaderStyle
  3
ACDB_MLEADERSTYLE_CLASS
 90
     4095
 91
        1
280
     0
281
     0
  0
CLASS
  1
SORTENTSTABLE
  2
AcDbSortentsTable
  3
ObjectDBX Classes
 90
        0
 91
        1
280
     0
281
     0
  0
CLASS
  1
CELLSTYLEMAP
  2
AcDbCellStyleMap
  3
ObjectDBX Classes
 90
     1152
 91
        2
280
     0
281
     0
  0
ENDSEC
  0
SECTION
  2
TABLES
  0
TABLE
  2
VPORT
  5
1
330
0
100
AcDbSymbolTable
 70
     1
  0
VPORT
  5
92D
330
1
100
AcDbSymbolTableRecord
100
AcDbViewportTableRecord
  2
*Active
 70
     0
 10
0.0
 20
0.0
 11
1.0
 21
1.0
 12
209.9972949669248
 22
148.5045335891244
 13
0.0
 23
0.0
 14
1.0
 24
1.0
 15
0.0
 25
0.0
 16
0.0
 26
0.0
 36
1.0
 17
0.0
 27
0.0
 37
0.0
 40
299.4591182998879
 41
1.612382234185733
 42
50.0
 43
0.0
 44
0.0
 50
0.0
 51
0.0
 71
     0
 72
   100
 73
     1
 74
     1
 75
     0
 76
     0
 77
     0
 78
     0
281
     0
 65
     1
110
0.0
120
0.0
130
0.0
111
1.0
121
0.0
131
0.0
112
0.0
122
1.0
132
0.0
 79
     0
146
0.0
348
956
 60
     3
 61
     5
292
     1
282
     1
141
0.0
142
0.0
 63
   250
421
  3355443
1001
ACAD_NAV_VCDISPLAY
1070
     3
  0
ENDTAB
  0
TABLE
  2
LTYPE
  5
69
330
0
100
AcDbSymbolTable
 70
    25
  0
LTYPE
  5
1D
330
69
100
AcDbSymbolTableRecord
100
AcDbLinetypeTableRecord
  2
BYBLOCK
 70
     0
  3

 72
    65
 73
     0
 40
0.0
  0
LTYPE
  5
1E
330
69
100
AcDbSymbolTableRecord
100
AcDbLinetypeTableRecord
  2
BYLAYER
 70
     0
  3

 72
    65
 73
     0
 40
0.0
  0
LTYPE
  5
1F
330
69
100
AcDbSymbolTableRecord
100
AcDbLinetypeTableRecord
  2
CONTINUOUS
 70
     0
  3
Solid line
 72
    65
 73
     0
 40
0.0
  0
LTYPE
  5
20
330
69
100
AcDbSymbolTableRecord
100
AcDbLinetypeTableRecord
  2
BORDER
 70
     0
  3
__ __ . __ __ . __ __ . __ __ . __ __ . __ __ .
 72
    65
 73
     6
 40
1.75
 49
0.5
 74
     0
 49
-0.25
 74
     0
 49
0.5
 74
     0
 49
-0.25
 74
     0
 49
0.0
 74
     0
 49
-0.25
 74
     0
  0
LTYPE
  5
21
330
69
100
AcDbSymbolTableRecord
100
AcDbLinetypeTableRecord
  2
BORDER2
 70
     0
  3
__.__.__.__.__.__.__.__.__.__.__.__.__.__.__.__
 72
    65
 73
     6
 40
0.875
 49
0.25
 74
     0
 49
-0.125
 74
     0
 49
0.25
 74
     0
 49
-0.125
 74
     0
 49
0.0
 74
     0
 49
-0.125
 74
     0
  0
LTYPE
  5
22
330
69
100
AcDbSymbolTableRecord
100
AcDbLinetypeTableRecord
  2
BORDERX2
 70
     0
  3
____  ____  .  ____  ____  .  ____  ____  .  __
 72
    65
 73
     6
 40
3.5
 49
1.0
 74
     0
 49
-0.5
 74
     0
 49
1.0
 74
     0
 49
-0.5
 74
     0
 49
0.0
 74
     0
 49
-0.5
 74
     0
  0
LTYPE
  5
23
330
69
100
AcDbSymbolTableRecord
100
AcDbLinetypeTableRecord
  2
CENTER
 70
     0
  3
____ _ ____ _ ____ _ ____ _ ____ _ ____ _ ____ 
 72
    65
 73
     4
 40
2.0
 49
1.25
 74
     0
 49
-0.25
 74
     0
 49
0.25
 74
     0
 49
-0.25
 74
     0
  0
LTYPE
  5
24
330
69
100
AcDbSymbolTableRecord
100
AcDbLinetypeTableRecord
  2
CENTER2
 70
     0
  3
___ _ ___ _ ___ _ ___ _ ___ _ ___ _ ___ _ ___ _
 72
    65
 73
     4
 40
1.125
 49
0.75
 74
     0
 49
-0.125
 74
     0
 49
0.125
 74
     0
 49
-0.125
 74
     0
  0
LTYPE
  5
25
330
69
100
AcDbSymbolTableRecord
100
AcDbLinetypeTableRecord
  2
CENTERX2
 70
     0
  3
________  __  ________  __  ________  __  _____
 72
    65
 73
     4
 40
4.0
 49
2.5
 74
     0
 49
-0.5
 74
     0
 49
0.5
 74
     0
 49
-0.5
 74
     0
  0
LTYPE
  5
26
330
69
100
AcDbSymbolTableRecord
100
AcDbLinetypeTableRecord
  2
DASHDOT
 70
     0
  3
__ . __ . __ . __ . __ . __ . __ . __ . __ . __
 72
    65
 73
     4
 40
1.0
 49
0.5
 74
     0
 49
-0.25
 74
     0
 49
0.0
 74
     0
 49
-0.25
 74
     0
  0
LTYPE
  5
27
330
69
100
AcDbSymbolTableRecord
100
AcDbLinetypeTableRecord
  2
DASHDOT2
 70
     0
  3
_._._._._._._._._._._._._._._._._._._._._._._._
 72
    65
 73
     4
 40
0.5
 49
0.25
 74
     0
 49
-0.125
 74
     0
 49
0.0
 74
     0
 49
-0.125
 74
     0
  0
LTYPE
  5
28
330
69
100
AcDbSymbolTableRecord
100
AcDbLinetypeTableRecord
  2
DASHDOTX2
 70
     0
  3
____  .  ____  .  ____  .  ____  .  ____  .  __
 72
    65
 73
     4
 40
2.0
 49
1.0
 74
     0
 49
-0.5
 74
     0
 49
0.0
 74
     0
 49
-0.5
 74
     0
  0
LTYPE
  5
29
330
69
100
AcDbSymbolTableRecord
100
AcDbLinetypeTableRecord
  2
DASHED
 70
     0
  3
__ __ __ __ __ __ __ __ __ __ __ __ __ __ __ __
 72
    65
 73
     2
 40
0.75
 49
0.5
 74
     0
 49
-0.25
 74
     0
  0
LTYPE
  5
2A
330
69
100
AcDbSymbolTableRecord
100
AcDbLinetypeTableRecord
  2
DASHED2
 70
     0
  3
_ _ _ _ _ _ _ _ _ _ _ _ _ _ _ _ _ _ _ _ _ _ _ _
 72
    65
 73
     2
 40
0.375
 49
0.25
 74
     0
 49
-0.125
 74
     0
  0
LTYPE
  5
2B
330
69
100
AcDbSymbolTableRecord
100
AcDbLinetypeTableRecord
  2
DASHEDX2
 70
     0
  3
____  ____  ____  ____  ____  ____  ____  ____ 
 72
    65
 73
     2
 40
1.5
 49
1.0
 74
     0
 49
-0.5
 74
     0
  0
LTYPE
  5
2C
330
69
100
AcDbSymbolTableRecord
100
AcDbLinetypeTableRecord
  2
DIVIDE
 70
     0
  3
____ . . ____ . . ____ . . ____ . . ____ . . __
 72
    65
 73
     6
 40
1.25
 49
0.5
 74
     0
 49
-0.25
 74
     0
 49
0.0
 74
     0
 49
-0.25
 74
     0
 49
0.0
 74
     0
 49
-0.25
 74
     0
  0
LTYPE
  5
2D
330
69
100
AcDbSymbolTableRecord
100
AcDbLinetypeTableRecord
  2
DIVIDE2
 70
     0
  3
__..__..__..__..__..__..__..__..__..__..__..__.
 72
    65
 73
     6
 40
0.625
 49
0.25
 74
     0
 49
-0.125
 74
     0
 49
0.0
 74
     0
 49
-0.125
 74
     0
 49
0.0
 74
     0
 49
-0.125
 74
     0
  0
LTYPE
  5
2E
330
69
100
AcDbSymbolTableRecord
100
AcDbLinetypeTableRecord
  2
DIVIDEX2
 70
     0
  3
________  .  .  ________  .  .  ________  .  . 
 72
    65
 73
     6
 40
2.5
 49
1.0
 74
     0
 49
-0.5
 74
     0
 49
0.0
 74
     0
 49
-0.5
 74
     0
 49
0.0
 74
     0
 49
-0.5
 74
     0
  0
LTYPE
  5
2F
330
69
100
AcDbSymbolTableRecord
100
AcDbLinetypeTableRecord
  2
DOT
 70
     0
  3
. . . . . . . . . . . . . . . . . . . . . . . .
 72
    65
 73
     2
 40
0.25
 49
0.0
 74
     0
 49
-0.25
 74
     0
  0
LTYPE
  5
30
330
69
100
AcDbSymbolTableRecord
100
AcDbLinetypeTableRecord
  2
DOT2
 70
     0
  3
...............................................
 72
    65
 73
     2
 40
0.125
 49
0.0
 74
     0
 49
-0.125
 74
     0
  0
LTYPE
  5
31
330
69
100
AcDbSymbolTableRecord
100
AcDbLinetypeTableRecord
  2
DOTX2
 70
     0
  3
.  .  .  .  .  .  .  .  .  .  .  .  .  .  .  . 
 72
    65
 73
     2
 40
0.5
 49
0.0
 74
     0
 49
-0.5
 74
     0
  0
LTYPE
  5
32
330
69
100
AcDbSymbolTableRecord
100
AcDbLinetypeTableRecord
  2
HIDDEN
 70
     0
  3
__ __ __ __ __ __ __ __ __ __ __ __ __ __ __ __
 72
    65
 73
     2
 40
0.375
 49
0.25
 74
     0
 49
-0.125
 74
     0
  0
LTYPE
  5
33
330
69
100
AcDbSymbolTableRecord
100
AcDbLinetypeTableRecord
  2
HIDDEN2
 70
     0
  3
_ _ _ _ _ _ _ _ _ _ _ _ _ _ _ _ _ _ _ _ _ _ _ _
 72
    65
 73
     2
 40
0.1875
 49
0.125
 74
     0
 49
-0.0625
 74
     0
  0
LTYPE
  5
34
330
69
100
AcDbSymbolTableRecord
100
AcDbLinetypeTableRecord
  2
HIDDENX2
 70
     0
  3
____ ____ ____ ____ ____ ____ ____ ____ ____ __
 72
    65
 73
     2
 40
0.75
 49
0.5
 74
     0
 49
-0.25
 74
     0
  0
LTYPE
  5
35
330
69
100
AcDbSymbolTableRecord
100
AcDbLinetypeTableRecord
  2
PHANTOM
 70
     0
  3
______  __  __  ______  __  __  ______  __  __ 
 72
    65
 73
     6
 40
2.5
 49
1.25
 74
     0
 49
-0.25
 74
     0
 49
0.25
 74
     0
 49
-0.25
 74
     0
 49
0.25
 74
     0
 49
-0.25
 74
     0
  0
LTYPE
  5
36
330
69
100
AcDbSymbolTableRecord
100
AcDbLinetypeTableRecord
  2
PHANTOM2
 70
     0
  3
___ _ _ ___ _ _ ___ _ _ ___ _ _ ___ _ _ ___ _ _
 72
    65
 73
     6
 40
1.25
 49
0.625
 74
     0
 49
-0.125
 74
     0
 49
0.125
 74
     0
 49
-0.125
 74
     0
 49
0.125
 74
     0
 49
-0.125
 74
     0
  0
LTYPE
  5
37
330
69
100
AcDbSymbolTableRecord
100
AcDbLinetypeTableRecord
  2
PHANTOMX2
 70
     0
  3
____________    ____    ____    ____________   
 72
    65
 73
     6
 40
5.0
 49
2.5
 74
     0
 49
-0.5
 74
     0
 49
0.5
 74
     0
 49
-0.5
 74
     0
 49
0.5
 74
     0
 49
-0.5
 74
     0
  0
ENDTAB
  0
TABLE
  2
LAYER
  5
68
102
{ACAD_XDICTIONARY
360
98E
102
}
330
0
100
AcDbSymbolTable
 70
     5
  0
LAYER
  5
38
102
{ACAD_XDICTIONARY
360
983
102
}
330
68
100
AcDbSymbolTableRecord
100
AcDbLayerTableRecord
  2
0
 70
     0
 62
     7
  6
CONTINUOUS
370
    -3
390
910
347
948
  0
LAYER
  5
39
102
{ACAD_XDICTIONARY
360
985
102
}
330
68
100
AcDbSymbolTableRecord
100
AcDbLayerTableRecord
  2
LEVEL001
 70
     0
 62
     7
  6
CONTINUOUS
370
    -3
390
910
347
948
  0
LAYER
  5
3A
102
{ACAD_XDICTIONARY
360
987
102
}
330
68
100
AcDbSymbolTableRecord
100
AcDbLayerTableRecord
  2
LEVEL003
 70
     0
 62
     7
  6
CONTINUOUS
370
    -3
390
910
347
948
  0
LAYER
  5
3B
102
{ACAD_XDICTIONARY
360
989
102
}
330
68
100
AcDbSymbolTableRecord
100
AcDbLayerTableRecord
  2
LEVEL005
 70
     0
 62
     7
  6
CONTINUOUS
370
    -3
390
910
347
948
  0
LAYER
  5
AA9
330
68
100
AcDbSymbolTableRecord
100
AcDbLayerTableRecord
  2
Defpoints
 70
     0
 62
     7
  6
CONTINUOUS
290
     0
370
    -3
390
910
347
948
  0
ENDTAB
  0
TABLE
  2
STYLE
  5
6
330
0
100
AcDbSymbolTable
 70
     3
  0
STYLE
  5
7
330
6
100
AcDbSymbolTableRecord
100
AcDbTextStyleTableRecord
  2
STANDARD
 70
     0
 40
0.0
 41
0.8
 50
0.0
 71
     0
 42
0.2
  3
TXT.shx
  4
BIGFONT.shx
  0
STYLE
  5
8
330
6
100
AcDbSymbolTableRecord
100
AcDbTextStyleTableRecord
  2
STANDARD1
 70
     4
 40
0.0
 41
1.0
 50
0.0
 71
     0
 42
0.2
  3
TXT
  4
BIGFONT
  0
STYLE
  5
FB8
330
6
100
AcDbSymbolTableRecord
100
AcDbTextStyleTableRecord
  2
GMM001
 70
     0
 40
0.0
 41
1.0
 50
0.0
 71
     0
 42
1.0
  3
txt.shx
  4
bigfont.shx
  0
ENDTAB
  0
TABLE
  2
VIEW
  5
2
330
0
100
AcDbSymbolTable
 70
     0
  0
ENDTAB
  0
TABLE
  2
UCS
  5
3
330
0
100
AcDbSymbolTable
 70
     0
  0
ENDTAB
  0
TABLE
  2
APPID
  5
4
330
0
100
AcDbSymbolTable
 70
     6
  0
APPID
  5
5
330
4
100
AcDbSymbolTableRecord
100
AcDbRegAppTableRecord
  2
ACAD
 70
     0
  0
APPID
  5
981
330
4
100
AcDbSymbolTableRecord
100
AcDbRegAppTableRecord
  2
ACAD_EXEMPT_FROM_CAD_STANDARDS
 70
     0
  0
APPID
  5
996
330
4
100
AcDbSymbolTableRecord
100
AcDbRegAppTableRecord
  2
ACAD_NAV_VCDISPLAY
 70
     0
  0
APPID
  5
9FF
330
4
100
AcDbSymbolTableRecord
100
AcDbRegAppTableRecord
  2
GradientColor1ACI
 70
     0
  0
APPID
  5
A00
330
4
100
AcDbSymbolTableRecord
100
AcDbRegAppTableRecord
  2
GradientColor2ACI
 70
     0
  0
APPID
  5
10E6
330
4
100
AcDbSymbolTableRecord
100
AcDbRegAppTableRecord
  2
ACAD_PSEXT
 70
     0
  0
ENDTAB
  0
TABLE
  2
DIMSTYLE
  5
67
330
0
100
AcDbSymbolTable
 70
     3
100
AcDbDimStyleTable
 71
     1
340
3C
  0
DIMSTYLE
105
3C
330
67
100
AcDbSymbolTableRecord
100
AcDbDimStyleTableRecord
  2
STANDARD
 70
     0
340
7
  0
DIMSTYLE
105
FB9
102
{ACAD_REACTORS
330
FE4
330
FE5
102
}
330
67
100
AcDbSymbolTableRecord
100
AcDbDimStyleTableRecord
  2
GMM001
 70
     0
 41
2.0
 42
1.0
 43
8.0
 44
1.0
 73
     0
 74
     0
 77
     3
 78
     8
140
3.0
141
1.0
143
0.0394
146
0.83333333333333
147
1.0
172
     1
173
     1
176
     8
177
     8
178
     8
271
     6
272
     0
275
     1
340
FB8
  0
DIMSTYLE
105
FBA
102
{ACAD_REACTORS
330
FE6
102
}
330
67
100
AcDbSymbolTableRecord
100
AcDbDimStyleTableRecord
  2
GMM002
 70
     0
  3
%%c<>
 41
2.0
 42
1.0
 43
8.0
 44
1.0
 73
     0
 74
     0
 77
     3
 78
     8
140
3.0
141
1.0
143
0.0394
146
0.83333333333333
147
1.0
172
     1
173
     1
176
     8
177
     8
178
     8
271
     6
272
     0
275
     1
288
     1
340
FB8
  0
ENDTAB
  0
TABLE
  2
BLOCK_RECORD
  5
9
330
0
100
AcDbSymbolTable
 70
    26
  0
BLOCK_RECORD
  5
A
102
{ACAD_XDICTIONARY
360
9B7
102
}
330
9
100
AcDbSymbolTableRecord
100
AcDbBlockTableRecord
  2
*MODEL_SPACE
340
917
 70
     0
280
     1
281
     0
  0
BLOCK_RECORD
  5
B
330
9
100
AcDbSymbolTableRecord
100
AcDbBlockTableRecord
  2
*PAPER_SPACE
340
918
 70
     0
280
     1
281
     0
  0
BLOCK_RECORD
  5
C
330
9
100
AcDbSymbolTableRecord
100
AcDbBlockTableRecord
  2
_ARCHTICK
340
0
 70
     0
280
     1
281
     0
  0
BLOCK_RECORD
  5
D
330
9
100
AcDbSymbolTableRecord
100
AcDbBlockTableRecord
  2
_OBLIQUE
340
0
 70
     0
280
     1
281
     0
  0
BLOCK_RECORD
  5
E
330
9
100
AcDbSymbolTableRecord
100
AcDbBlockTableRecord
  2
_BOXBLANK
340
0
 70
     0
280
     1
281
     0
  0
BLOCK_RECORD
  5
F
330
9
100
AcDbSymbolTableRecord
100
AcDbBlockTableRecord
  2
_BOXFILLED
340
0
 70
     0
280
     1
281
     0
  0
BLOCK_RECORD
  5
10
330
9
100
AcDbSymbolTableRecord
100
AcDbBlockTableRecord
  2
_CLOSED
340
0
 70
     0
280
     1
281
     0
  0
BLOCK_RECORD
  5
11
330
9
100
AcDbSymbolTableRecord
100
AcDbBlockTableRecord
  2
_OPEN
340
0
 70
     0
280
     1
281
     0
  0
BLOCK_RECORD
  5
12
330
9
100
AcDbSymbolTableRecord
100
AcDbBlockTableRecord
  2
_OPEN30
340
0
 70
     0
280
     1
281
     0
  0
BLOCK_RECORD
  5
13
330
9
100
AcDbSymbolTableRecord
100
AcDbBlockTableRecord
  2
_OPEN90
340
0
 70
     0
280
     1
281
     0
  0
BLOCK_RECORD
  5
14
330
9
100
AcDbSymbolTableRecord
100
AcDbBlockTableRecord
  2
_CLOSEDBLANK
340
0
 70
     0
280
     1
281
     0
  0
BLOCK_RECORD
  5
15
330
9
100
AcDbSymbolTableRecord
100
AcDbBlockTableRecord
  2
_DOT
340
0
 70
     0
280
     1
281
     0
  0
BLOCK_RECORD
  5
16
330
9
100
AcDbSymbolTableRecord
100
AcDbBlockTableRecord
  2
_DOTSMALL
340
0
 70
     0
280
     1
281
     0
  0
BLOCK_RECORD
  5
17
330
9
100
AcDbSymbolTableRecord
100
AcDbBlockTableRecord
  2
_DATUMBLANK
340
0
 70
     0
280
     1
281
     0
  0
BLOCK_RECORD
  5
18
330
9
100
AcDbSymbolTableRecord
100
AcDbBlockTableRecord
  2
_DATUMFILLED
340
0
 70
     0
280
     1
281
     0
  0
BLOCK_RECORD
  5
19
330
9
100
AcDbSymbolTableRecord
100
AcDbBlockTableRecord
  2
_ORIGIN
340
0
 70
     0
280
     1
281
     0
  0
BLOCK_RECORD
  5
1A
330
9
100
AcDbSymbolTableRecord
100
AcDbBlockTableRecord
  2
_NONE
340
0
 70
     0
280
     1
281
     0
  0
BLOCK_RECORD
  5
1B
330
9
100
AcDbSymbolTableRecord
100
AcDbBlockTableRecord
  2
_DOTBLANK
340
0
 70
     0
280
     1
281
     0
  0
BLOCK_RECORD
  5
1C
330
9
100
AcDbSymbolTableRecord
100
AcDbBlockTableRecord
  2
_INTEGRAL
340
0
 70
     0
280
     1
281
     0
  0
BLOCK_RECORD
  5
FF9
330
9
100
AcDbSymbolTableRecord
100
AcDbBlockTableRecord
  2
*D17
340
0
 70
     0
280
     1
281
     0
  0
BLOCK_RECORD
  5
1005
330
9
100
AcDbSymbolTableRecord
100
AcDbBlockTableRecord
  2
*D18
340
0
 70
     0
280
     1
281
     0
  0
BLOCK_RECORD
  5
1011
330
9
100
AcDbSymbolTableRecord
100
AcDbBlockTableRecord
  2
*D19
340
0
 70
     0
280
     1
281
     0
  0
BLOCK_RECORD
  5
101C
330
9
100
AcDbSymbolTableRecord
100
AcDbBlockTableRecord
  2
*D20
340
0
 70
     0
280
     1
281
     0
  0
BLOCK_RECORD
  5
1028
330
9
100
AcDbSymbolTableRecord
100
AcDbBlockTableRecord
  2
*D21
340
0
 70
     0
280
     1
281
     0
  0
BLOCK_RECORD
  5
1034
330
9
100
AcDbSymbolTableRecord
100
AcDbBlockTableRecord
  2
*D22
340
0
 70
     0
280
     1
281
     0
  0
BLOCK_RECORD
  5
1079
330
9
100
AcDbSymbolTableRecord
100
AcDbBlockTableRecord
  2
*D23
340
0
 70
     0
280
     1
281
     0
  0
BLOCK_RECORD
  5
10B8
330
9
100
AcDbSymbolTableRecord
100
AcDbBlockTableRecord
  2
*D24
340
0
 70
     0
280
     1
281
     0
  0
BLOCK_RECORD
  5
10C4
330
9
100
AcDbSymbolTableRecord
100
AcDbBlockTableRecord
  2
*D25
340
0
 70
     0
280
     1
281
     0
  0
ENDTAB
  0
ENDSEC
  0
SECTION
  2
BLOCKS
  0
BLOCK
  5
41
330
A
100
AcDbEntity
  8
0
100
AcDbBlockBegin
  2
*MODEL_SPACE
 70
     0
 10
0.0
 20
0.0
 30
0.0
  3
*MODEL_SPACE
  1

  0
ENDBLK
  5
54
330
A
100
AcDbEntity
  8
0
100
AcDbBlockEnd
  0
BLOCK
  5
42
330
B
100
AcDbEntity
 67
     1
  8
0
100
AcDbBlockBegin
  2
*PAPER_SPACE
 70
     0
 10
0.0
 20
0.0
 30
0.0
  3
*PAPER_SPACE
  1

  0
ENDBLK
  5
55
330
B
100
AcDbEntity
 67
     1
  8
0
100
AcDbBlockEnd
  0
BLOCK
  5
43
330
C
100
AcDbEntity
  8
0
100
AcDbBlockBegin
  2
_ARCHTICK
 70
     0
 10
0.0
 20
0.0
 30
0.0
  3
_ARCHTICK
  1

  0
LWPOLYLINE
  5
76
330
C
100
AcDbEntity
  8
0
  6
ByBlock
 62
     0
380
     1
100
AcDbPolyline
 90
        2
 70
     1
 43
0.15
 10
-0.5
 20
-0.5
 10
0.5
 20
0.5
  0
ENDBLK
  5
56
330
C
100
AcDbEntity
  8
0
100
AcDbBlockEnd
  0
BLOCK
  5
44
330
D
100
AcDbEntity
  8
0
100
AcDbBlockBegin
  2
_OBLIQUE
 70
     0
 10
0.0
 20
0.0
 30
0.0
  3
_OBLIQUE
  1

  0
LINE
  5
7A
330
D
100
AcDbEntity
  8
0
  6
ByBlock
 62
     0
380
     1
100
AcDbLine
 10
-0.5
 20
-0.5
 30
0.0
 11
0.5
 21
0.5
 31
0.0
  0
ENDBLK
  5
62
330
D
100
AcDbEntity
  8
0
100
AcDbBlockEnd
  0
BLOCK
  5
45
330
E
100
AcDbEntity
  8
0
100
AcDbBlockBegin
  2
_BOXBLANK
 70
     0
 10
0.0
 20
0.0
 30
0.0
  3
_BOXBLANK
  1

  0
LINE
  5
7B
330
E
100
AcDbEntity
  8
0
  6
ByBlock
 62
     0
380
     1
100
AcDbLine
 10
-0.5
 20
-0.5
 30
0.0
 11
0.5
 21
-0.5
 31
0.0
  0
LINE
  5
7C
330
E
100
AcDbEntity
  8
0
  6
ByBlock
 62
     0
380
     1
100
AcDbLine
 10
0.5
 20
-0.5
 30
0.0
 11
0.5
 21
0.5
 31
0.0
  0
LINE
  5
7D
330
E
100
AcDbEntity
  8
0
  6
ByBlock
 62
     0
380
     1
100
AcDbLine
 10
0.5
 20
0.5
 30
0.0
 11
-0.5
 21
0.5
 31
0.0
  0
LINE
  5
7E
330
E
100
AcDbEntity
  8
0
  6
ByBlock
 62
     0
380
     1
100
AcDbLine
 10
-0.5
 20
0.5
 30
0.0
 11
-0.5
 21
-0.5
 31
0.0
  0
LINE
  5
7F
330
E
100
AcDbEntity
  8
0
  6
ByBlock
 62
     0
380
     1
100
AcDbLine
 10
-0.5
 20
0.0
 30
0.0
 11
-1.0
 21
0.0
 31
0.0
  0
ENDBLK
  5
57
330
E
100
AcDbEntity
  8
0
100
AcDbBlockEnd
  0
BLOCK
  5
46
330
F
100
AcDbEntity
  8
0
100
AcDbBlockBegin
  2
_BOXFILLED
 70
     0
 10
0.0
 20
0.0
 30
0.0
  3
_BOXFILLED
  1

  0
SOLID
  5
80
330
F
100
AcDbEntity
  8
0
  6
ByBlock
 62
     0
380
     1
100
AcDbTrace
 10
-0.5
 20
0.5
 30
0.0
 11
0.5
 21
0.5
 31
0.0
 12
-0.5
 22
-0.5
 32
0.0
 13
0.5
 23
-0.5
 33
0.0
  0
LINE
  5
81
330
F
100
AcDbEntity
  8
0
  6
ByBlock
 62
     0
380
     1
100
AcDbLine
 10
-0.5
 20
0.0
 30
0.0
 11
-1.0
 21
0.0
 31
0.0
  0
ENDBLK
  5
58
330
F
100
AcDbEntity
  8
0
100
AcDbBlockEnd
  0
BLOCK
  5
47
330
10
100
AcDbEntity
  8
0
100
AcDbBlockBegin
  2
_CLOSED
 70
     0
 10
0.0
 20
0.0
 30
0.0
  3
_CLOSED
  1

  0
LINE
  5
82
330
10
100
AcDbEntity
  8
0
  6
ByBlock
 62
     0
380
     1
100
AcDbLine
 10
-1.0
 20
0.16666666666667
 30
0.0
 11
0.0
 21
0.0
 31
0.0
  0
LINE
  5
83
330
10
100
AcDbEntity
  8
0
  6
ByBlock
 62
     0
380
     1
100
AcDbLine
 10
0.0
 20
0.0
 30
0.0
 11
-1.0
 21
-0.16666666666667
 31
0.0
  0
LINE
  5
84
330
10
100
AcDbEntity
  8
0
  6
ByBlock
 62
     0
380
     1
100
AcDbLine
 10
-1.0
 20
0.16666666666667
 30
0.0
 11
-1.0
 21
-0.16666666666667
 31
0.0
  0
LINE
  5
85
330
10
100
AcDbEntity
  8
0
  6
ByBlock
 62
     0
380
     1
100
AcDbLine
 10
0.0
 20
0.0
 30
0.0
 11
-1.0
 21
0.0
 31
0.0
  0
ENDBLK
  5
59
330
10
100
AcDbEntity
  8
0
100
AcDbBlockEnd
  0
BLOCK
  5
48
330
11
100
AcDbEntity
  8
0
100
AcDbBlockBegin
  2
_OPEN
 70
     0
 10
0.0
 20
0.0
 30
0.0
  3
_OPEN
  1

  0
LINE
  5
86
330
11
100
AcDbEntity
  8
0
  6
ByBlock
 62
     0
380
     1
100
AcDbLine
 10
-1.0
 20
0.16666666666667
 30
0.0
 11
0.0
 21
0.0
 31
0.0
  0
LINE
  5
87
330
11
100
AcDbEntity
  8
0
  6
ByBlock
 62
     0
380
     1
100
AcDbLine
 10
0.0
 20
0.0
 30
0.0
 11
-1.0
 21
-0.16666666666667
 31
0.0
  0
LINE
  5
88
330
11
100
AcDbEntity
  8
0
  6
ByBlock
 62
     0
380
     1
100
AcDbLine
 10
0.0
 20
0.0
 30
0.0
 11
-1.0
 21
0.0
 31
0.0
  0
ENDBLK
  5
63
330
11
100
AcDbEntity
  8
0
100
AcDbBlockEnd
  0
BLOCK
  5
49
330
12
100
AcDbEntity
  8
0
100
AcDbBlockBegin
  2
_OPEN30
 70
     0
 10
0.0
 20
0.0
 30
0.0
  3
_OPEN30
  1

  0
LINE
  5
89
330
12
100
AcDbEntity
  8
0
  6
ByBlock
 62
     0
380
     1
100
AcDbLine
 10
-1.0
 20
0.2679491924311
 30
0.0
 11
0.0
 21
0.0
 31
0.0
  0
LINE
  5
8A
330
12
100
AcDbEntity
  8
0
  6
ByBlock
 62
     0
380
     1
100
AcDbLine
 10
0.0
 20
0.0
 30
0.0
 11
-1.0
 21
-0.2679491924311
 31
0.0
  0
LINE
  5
8B
330
12
100
AcDbEntity
  8
0
  6
ByBlock
 62
     0
380
     1
100
AcDbLine
 10
0.0
 20
0.0
 30
0.0
 11
-1.0
 21
0.0
 31
0.0
  0
ENDBLK
  5
64
330
12
100
AcDbEntity
  8
0
100
AcDbBlockEnd
  0
BLOCK
  5
4A
330
13
100
AcDbEntity
  8
0
100
AcDbBlockBegin
  2
_OPEN90
 70
     0
 10
0.0
 20
0.0
 30
0.0
  3
_OPEN90
  1

  0
LINE
  5
8C
330
13
100
AcDbEntity
  8
0
  6
ByBlock
 62
     0
380
     1
100
AcDbLine
 10
-0.5
 20
0.5
 30
0.0
 11
0.0
 21
0.0
 31
0.0
  0
LINE
  5
8D
330
13
100
AcDbEntity
  8
0
  6
ByBlock
 62
     0
380
     1
100
AcDbLine
 10
0.0
 20
0.0
 30
0.0
 11
-0.5
 21
-0.5
 31
0.0
  0
LINE
  5
8E
330
13
100
AcDbEntity
  8
0
  6
ByBlock
 62
     0
380
     1
100
AcDbLine
 10
0.0
 20
0.0
 30
0.0
 11
-1.0
 21
0.0
 31
0.0
  0
ENDBLK
  5
65
330
13
100
AcDbEntity
  8
0
100
AcDbBlockEnd
  0
BLOCK
  5
4B
330
14
100
AcDbEntity
  8
0
100
AcDbBlockBegin
  2
_CLOSEDBLANK
 70
     0
 10
0.0
 20
0.0
 30
0.0
  3
_CLOSEDBLANK
  1

  0
LINE
  5
8F
330
14
100
AcDbEntity
  8
0
  6
ByBlock
 62
     0
380
     1
100
AcDbLine
 10
-1.0
 20
0.16666666666667
 30
0.0
 11
0.0
 21
0.0
 31
0.0
  0
LINE
  5
90
330
14
100
AcDbEntity
  8
0
  6
ByBlock
 62
     0
380
     1
100
AcDbLine
 10
0.0
 20
0.0
 30
0.0
 11
-1.0
 21
-0.16666666666667
 31
0.0
  0
LINE
  5
91
330
14
100
AcDbEntity
  8
0
  6
ByBlock
 62
     0
380
     1
100
AcDbLine
 10
-1.0
 20
0.16666666666667
 30
0.0
 11
-1.0
 21
-0.16666666666667
 31
0.0
  0
ENDBLK
  5
5A
330
14
100
AcDbEntity
  8
0
100
AcDbBlockEnd
  0
BLOCK
  5
4C
330
15
100
AcDbEntity
  8
0
100
AcDbBlockBegin
  2
_DOT
 70
     0
 10
0.0
 20
0.0
 30
0.0
  3
_DOT
  1

  0
LWPOLYLINE
  5
92
330
15
100
AcDbEntity
  8
0
  6
ByBlock
 62
     0
380
     1
100
AcDbPolyline
 90
        2
 70
     1
 43
0.5
 10
-0.25
 20
0.0
 42
1.0
 10
0.25
 20
0.0
 42
1.0
  0
LINE
  5
96
330
15
100
AcDbEntity
  8
0
  6
ByBlock
 62
     0
380
     1
100
AcDbLine
 10
-0.5
 20
0.0
 30
0.0
 11
-1.0
 21
0.0
 31
0.0
  0
ENDBLK
  5
5D
330
15
100
AcDbEntity
  8
0
100
AcDbBlockEnd
  0
BLOCK
  5
4D
330
16
100
AcDbEntity
  8
0
100
AcDbBlockBegin
  2
_DOTSMALL
 70
     0
 10
0.0
 20
0.0
 30
0.0
  3
_DOTSMALL
  1

  0
LWPOLYLINE
  5
97
330
16
100
AcDbEntity
  8
0
  6
ByBlock
 62
     0
380
     1
100
AcDbPolyline
 90
        2
 70
     1
 43
0.5
 10
-0.0625
 20
0.0
 42
1.0
 10
0.0625
 20
0.0
 42
1.0
  0
ENDBLK
  5
5F
330
16
100
AcDbEntity
  8
0
100
AcDbBlockEnd
  0
BLOCK
  5
4E
330
17
100
AcDbEntity
  8
0
100
AcDbBlockBegin
  2
_DATUMBLANK
 70
     0
 10
0.0
 20
0.0
 30
0.0
  3
_DATUMBLANK
  1

  0
LINE
  5
9B
330
17
100
AcDbEntity
  8
0
  6
ByBlock
 62
     0
380
     1
100
AcDbLine
 10
0.0
 20
0.5773502700000001
 30
0.0
 11
-1.0
 21
0.0
 31
0.0
  0
LINE
  5
9C
330
17
100
AcDbEntity
  8
0
  6
ByBlock
 62
     0
380
     1
100
AcDbLine
 10
-1.0
 20
0.0
 30
0.0
 11
0.0
 21
-0.5773502700000001
 31
0.0
  0
LINE
  5
9D
330
17
100
AcDbEntity
  8
0
  6
ByBlock
 62
     0
380
     1
100
AcDbLine
 10
0.0
 20
-0.5773502700000001
 30
0.0
 11
0.0
 21
0.5773502700000001
 31
0.0
  0
ENDBLK
  5
5B
330
17
100
AcDbEntity
  8
0
100
AcDbBlockEnd
  0
BLOCK
  5
4F
330
18
100
AcDbEntity
  8
0
100
AcDbBlockBegin
  2
_DATUMFILLED
 70
     0
 10
0.0
 20
0.0
 30
0.0
  3
_DATUMFILLED
  1

  0
SOLID
  5
9E
330
18
100
AcDbEntity
  8
0
  6
ByBlock
 62
     0
380
     1
100
AcDbTrace
 10
0.0
 20
0.5773502700000001
 30
0.0
 11
-1.0
 21
0.0
 31
0.0
 12
0.0
 22
-0.5773502700000001
 32
0.0
 13
0.0
 23
-0.5773502700000001
 33
0.0
  0
ENDBLK
  5
5C
330
18
100
AcDbEntity
  8
0
100
AcDbBlockEnd
  0
BLOCK
  5
50
330
19
100
AcDbEntity
  8
0
100
AcDbBlockBegin
  2
_ORIGIN
 70
     0
 10
0.0
 20
0.0
 30
0.0
  3
_ORIGIN
  1

  0
CIRCLE
  5
9F
330
19
100
AcDbEntity
  8
0
  6
ByBlock
 62
     0
380
     1
100
AcDbCircle
 10
0.0
 20
0.0
 30
0.0
 40
0.5
  0
LINE
  5
A0
330
19
100
AcDbEntity
  8
0
  6
ByBlock
 62
     0
380
     1
100
AcDbLine
 10
0.0
 20
0.0
 30
0.0
 11
-1.0
 21
0.0
 31
0.0
  0
ENDBLK
  5
66
330
19
100
AcDbEntity
  8
0
100
AcDbBlockEnd
  0
BLOCK
  5
51
330
1A
100
AcDbEntity
  8
0
100
AcDbBlockBegin
  2
_NONE
 70
     0
 10
0.0
 20
0.0
 30
0.0
  3
_NONE
  1

  0
CIRCLE
  5
A1
330
1A
100
AcDbEntity
  8
0
  6
ByBlock
 62
     0
380
     1
100
AcDbCircle
 10
0.0
 20
0.0
 30
0.0
 40
0.25
  0
ENDBLK
  5
61
330
1A
100
AcDbEntity
  8
0
100
AcDbBlockEnd
  0
BLOCK
  5
52
330
1B
100
AcDbEntity
  8
0
100
AcDbBlockBegin
  2
_DOTBLANK
 70
     0
 10
0.0
 20
0.0
 30
0.0
  3
_DOTBLANK
  1

  0
CIRCLE
  5
A2
330
1B
100
AcDbEntity
  8
0
  6
ByBlock
 62
     0
380
     1
100
AcDbCircle
 10
0.0
 20
0.0
 30
0.0
 40
0.5
  0
LINE
  5
A3
330
1B
100
AcDbEntity
  8
0
  6
ByBlock
 62
     0
380
     1
100
AcDbLine
 10
-0.5
 20
0.0
 30
0.0
 11
-1.0
 21
0.0
 31
0.0
  0
ENDBLK
  5
5E
330
1B
100
AcDbEntity
  8
0
100
AcDbBlockEnd
  0
BLOCK
  5
53
330
1C
100
AcDbEntity
  8
0
100
AcDbBlockBegin
  2
_INTEGRAL
 70
     0
 10
0.0
 20
0.0
 30
0.0
  3
_INTEGRAL
  1

  0
ARC
  5
A4
330
1C
100
AcDbEntity
  8
0
  6
ByBlock
 62
     0
380
     1
100
AcDbCircle
 10
0.444888
 20
-0.091335
 30
0.0
 40
0.454167
100
AcDbArc
 50
102.0
 51
168.0
  0
ARC
  5
A5
330
1C
100
AcDbEntity
  8
0
  6
ByBlock
 62
     0
380
     1
100
AcDbCircle
 10
-0.444888
 20
0.091335
 30
0.0
 40
0.454167
100
AcDbArc
 50
282.0
 51
348.0
  0
ENDBLK
  5
60
330
1C
100
AcDbEntity
  8
0
100
AcDbBlockEnd
  0
BLOCK
  5
FFA
330
FF9
100
AcDbEntity
  8
0
100
AcDbBlockBegin
  2
*D17
 70
     1
 10
0.0
 20
0.0
 30
0.0
  3
*D17
  1

  0
LINE
  5
1133
330
FF9
100
AcDbEntity
  8
0
  6
Continuous
 62
     8
440
 16777216
370
    -2
100
AcDbLine
 10
212.9624639731927
 20
164.0085465000354
 30
0.0
 11
212.9624639731927
 21
150.0085465000354
 31
0.0
  0
LINE
  5
1134
330
FF9
100
AcDbEntity
  8
0
  6
Continuous
 62
     8
440
 16777216
370
    -2
100
AcDbLine
 10
230.9624639731917
 20
164.0085465000354
 30
0.0
 11
230.9624639731917
 21
150.0085465000354
 31
0.0
  0
LINE
  5
1135
330
FF9
100
AcDbEntity
  8
0
  6
Continuous
 62
     8
440
 16777216
370
    -2
100
AcDbLine
 10
214.9624639731927
 20
151.0085465000354
 30
0.0
 11
228.9624639731917
 21
151.0085465000354
 31
0.0
  0
SOLID
  5
1136
330
FF9
100
AcDbEntity
  8
0
  6
Continuous
 62
     8
440
 16777216
100
AcDbTrace
 10
214.9624639731927
 20
151.3418798333687
 30
0.0
 11
214.9624639731927
 21
150.6752131667021
 31
0.0
 12
212.9624639731927
 22
151.0085465000354
 32
0.0
 13
212.9624639731927
 23
151.0085465000354
 33
0.0
  0
SOLID
  5
1137
330
FF9
100
AcDbEntity
  8
0
  6
Continuous
 62
     8
440
 16777216
100
AcDbTrace
 10
228.9624639731917
 20
151.3418798333687
 30
0.0
 11
228.9624639731917
 21
150.6752131667021
 31
0.0
 12
230.9624639731917
 22
151.0085465000354
 32
0.0
 13
230.9624639731917
 23
151.0085465000354
 33
0.0
  0
MTEXT
  5
1138
330
FF9
100
AcDbEntity
  8
0
  6
Continuous
 62
     8
440
 16777216
370
    15
100
AcDbMText
 10
221.9624639731922
 20
153.5085465000354
 30
0.0
 40
3.0
 41
0.0
 46
0.0
 71
     5
 72
     1
  1
\A1;18
  7
GMM001
 73
     1
 44
1.0
  0
POINT
  5
1139
330
FF9
100
AcDbEntity
  8
Defpoints
  6
Continuous
 62
     0
440
 16777216
100
AcDbPoint
 10
212.9624639731927
 20
165.0085465000354
 30
0.0
  0
POINT
  5
113A
330
FF9
100
AcDbEntity
  8
Defpoints
  6
Continuous
 62
     0
440
 16777216
100
AcDbPoint
 10
230.9624639731917
 20
165.0085465000354
 30
0.0
  0
POINT
  5
113B
330
FF9
100
AcDbEntity
  8
Defpoints
  6
Continuous
 62
     0
440
 16777216
100
AcDbPoint
 10
230.9624639731917
 20
151.0085465000354
 30
0.0
  0
ENDBLK
  5
FFB
330
FF9
100
AcDbEntity
  8
0
100
AcDbBlockEnd
  0
BLOCK
  5
1006
330
1005
100
AcDbEntity
  8
0
100
AcDbBlockBegin
  2
*D18
 70
     1
 10
0.0
 20
0.0
 30
0.0
  3
*D18
  1

  0
LINE
  5
113C
330
1005
100
AcDbEntity
  8
0
  6
Continuous
 62
     8
440
 16777216
370
    -2
100
AcDbLine
 10
215.9624639731927
 20
161.0085465000354
 30
0.0
 11
206.7611933595107
 21
161.0085465000354
 31
0.0
  0
LINE
  5
113D
330
1005
100
AcDbEntity
  8
0
  6
Continuous
 62
     8
440
 16777216
370
    -2
100
AcDbLine
 10
215.9624639731927
 20
169.0085465000354
 30
0.0
 11
206.7611933595107
 21
169.0085465000354
 31
0.0
  0
LINE
  5
113E
330
1005
100
AcDbEntity
  8
0
  6
Continuous
 62
     8
440
 16777216
370
    -2
100
AcDbLine
 10
207.7611933595107
 20
163.0085465000354
 30
0.0
 11
207.7611933595107
 21
167.0085465000354
 31
0.0
  0
SOLID
  5
113F
330
1005
100
AcDbEntity
  8
0
  6
Continuous
 62
     8
440
 16777216
100
AcDbTrace
 10
207.4278600261773
 20
163.0085465000354
 30
0.0
 11
208.094526692844
 21
163.0085465000354
 31
0.0
 12
207.7611933595107
 22
161.0085465000354
 32
0.0
 13
207.7611933595107
 23
161.0085465000354
 33
0.0
  0
SOLID
  5
1140
330
1005
100
AcDbEntity
  8
0
  6
Continuous
 62
     8
440
 16777216
100
AcDbTrace
 10
207.4278600261773
 20
167.0085465000354
 30
0.0
 11
208.094526692844
 21
167.0085465000354
 31
0.0
 12
207.7611933595107
 22
169.0085465000354
 32
0.0
 13
207.7611933595107
 23
169.0085465000354
 33
0.0
  0
MTEXT
  5
1141
330
1005
100
AcDbEntity
  8
0
  6
Continuous
 62
     8
440
 16777216
370
    15
100
AcDbMText
 10
205.2611933595107
 20
165.0085465000355
 30
0.0
 40
3.0
 41
0.0
 46
0.0
 71
     5
 72
     1
  1
\A1;8
  7
GMM001
 11
0.0000000000000001
 21
1.0
 31
0.0
 73
     1
 44
1.0
  0
POINT
  5
1142
330
1005
100
AcDbEntity
  8
Defpoints
  6
Continuous
 62
     0
440
 16777216
100
AcDbPoint
 10
216.9624639731927
 20
161.0085465000354
 30
0.0
  0
POINT
  5
1143
330
1005
100
AcDbEntity
  8
Defpoints
  6
Continuous
 62
     0
440
 16777216
100
AcDbPoint
 10
216.9624639731927
 20
169.0085465000354
 30
0.0
  0
POINT
  5
1144
330
1005
100
AcDbEntity
  8
Defpoints
  6
Continuous
 62
     0
440
 16777216
100
AcDbPoint
 10
207.7611933595107
 20
169.0085465000354
 30
0.0
  0
ENDBLK
  5
1007
330
1005
100
AcDbEntity
  8
0
100
AcDbBlockEnd
  0
BLOCK
  5
1012
330
1011
100
AcDbEntity
  8
0
100
AcDbBlockBegin
  2
*D19
 70
     1
 10
0.0
 20
0.0
 30
0.0
  3
*D19
  1

  0
LINE
  5
1145
330
1011
100
AcDbEntity
  8
0
  6
Continuous
 62
     8
440
 16777216
370
    -2
100
AcDbLine
 10
254.3401902123558
 20
174.4055033534544
 30
0.0
 11
247.6687947728924
 21
168.3646025191161
 31
0.0
  0
LINE
  5
1146
330
1011
100
AcDbEntity
  8
0
  6
Continuous
 62
     8
440
 16777216
370
    -2
100
AcDbLine
 10
240.2561331734909
 20
161.6524904809646
 30
0.0
 11
238.7736008536101
 21
160.3100680733339
 31
0.0
  0
MTEXT
  5
1147
330
1011
100
AcDbEntity
  8
0
  6
Continuous
 62
     8
440
 16777216
370
    15
100
AcDbMText
 10
250.0677306430262
 20
173.9094295399516
 30
0.0
 40
3.0
 41
0.0
 46
0.0
 71
     5
 72
     1
  1
\A1;%%c6
  7
GMM001
 11
0.7412661599403693
 21
0.6712112038153557
 31
0.0
 73
     1
 44
1.0
  0
LINE
  5
1148
330
1011
100
AcDbEntity
  8
0
  6
Continuous
 62
     8
440
 16777216
370
    -2
100
AcDbLine
 10
241.7386654933717
 20
162.9949128885953
 30
0.0
 11
246.1862624530116
 21
167.0221801114854
 31
0.0
  0
SOLID
  5
1149
330
1011
100
AcDbEntity
  8
0
  6
Continuous
 62
     8
440
 16777216
100
AcDbTrace
 10
240.0323961055524
 20
161.8995792009448
 30
0.0
 11
240.4798702414293
 21
161.4054017609845
 31
0.0
 12
241.7386654933717
 22
162.9949128885953
 32
0.0
 13
241.7386654933717
 23
162.9949128885953
 33
0.0
  0
SOLID
  5
114A
330
1011
100
AcDbEntity
  8
0
  6
Continuous
 62
     8
440
 16777216
100
AcDbTrace
 10
247.4450577049539
 20
168.6116912390962
 30
0.0
 11
247.8925318408308
 21
168.117513799136
 31
0.0
 12
246.1862624530116
 22
167.0221801114854
 32
0.0
 13
246.1862624530116
 23
167.0221801114854
 33
0.0
  0
POINT
  5
114B
330
1011
100
AcDbEntity
  8
Defpoints
  6
Continuous
 62
     0
440
 16777216
100
AcDbPoint
 10
246.1862624530116
 20
167.0221801114854
 30
0.0
  0
POINT
  5
114C
330
1011
100
AcDbEntity
  8
Defpoints
  6
Continuous
 62
     0
440
 16777216
100
AcDbPoint
 10
241.7386654933717
 20
162.9949128885953
 30
0.0
  0
ENDBLK
  5
1013
330
1011
100
AcDbEntity
  8
0
100
AcDbBlockEnd
  0
BLOCK
  5
101D
330
101C
100
AcDbEntity
  8
0
100
AcDbBlockBegin
  2
*D20
 70
     1
 10
0.0
 20
0.0
 30
0.0
  3
*D20
  1

  0
LINE
  5
1059
330
101C
100
AcDbEntity
  8
0
  6
Continuous
 62
     8
440
 16777216
370
    -2
100
AcDbLine
 10
501.5812563573973
 20
357.9423174318424
 30
0.0
 11
501.5812563573973
 21
343.9423174318424
 31
0.0
  0
LINE
  5
105A
330
101C
100
AcDbEntity
  8
0
  6
Continuous
 62
     8
440
 16777216
370
    -2
100
AcDbLine
 10
516.5812563573963
 20
357.9423174318424
 30
0.0
 11
516.5812563573963
 21
343.9423174318424
 31
0.0
  0
LINE
  5
105B
330
101C
100
AcDbEntity
  8
0
  6
Continuous
 62
     8
440
 16777216
370
    -2
100
AcDbLine
 10
503.5812563573974
 20
344.9423174318424
 30
0.0
 11
514.5812563573963
 21
344.9423174318424
 31
0.0
  0
SOLID
  5
105C
330
101C
100
AcDbEntity
  8
0
  6
Continuous
 62
     8
440
 16777216
100
AcDbTrace
 10
503.5812563573974
 20
345.2756507651757
 30
0.0
 11
503.5812563573974
 21
344.6089840985091
 31
0.0
 12
501.5812563573973
 22
344.9423174318424
 32
0.0
 13
501.5812563573973
 23
344.9423174318424
 33
0.0
  0
SOLID
  5
105D
330
101C
100
AcDbEntity
  8
0
  6
Continuous
 62
     8
440
 16777216
100
AcDbTrace
 10
514.5812563573963
 20
345.2756507651757
 30
0.0
 11
514.5812563573963
 21
344.6089840985091
 31
0.0
 12
516.5812563573963
 22
344.9423174318424
 32
0.0
 13
516.5812563573963
 23
344.9423174318424
 33
0.0
  0
MTEXT
  5
105E
330
101C
100
AcDbEntity
  8
0
  6
Continuous
 62
     8
440
 16777216
370
    15
100
AcDbMText
 10
509.0812563573968
 20
347.4423174318424
 30
0.0
 40
3.0
 41
0.0
 46
0.0
 71
     5
 72
     1
  1
\A1;15
  7
GMM001
 73
     1
 44
1.0
  0
POINT
  5
105F
330
101C
100
AcDbEntity
  8
Defpoints
  6
Continuous
 62
     0
440
 16777216
100
AcDbPoint
 10
501.5812563573973
 20
358.9423174318424
 30
0.0
  0
POINT
  5
1060
330
101C
100
AcDbEntity
  8
Defpoints
  6
Continuous
 62
     0
440
 16777216
100
AcDbPoint
 10
516.5812563573963
 20
358.9423174318424
 30
0.0
  0
POINT
  5
1061
330
101C
100
AcDbEntity
  8
Defpoints
  6
Continuous
 62
     0
440
 16777216
100
AcDbPoint
 10
516.5812563573963
 20
344.9423174318424
 30
0.0
  0
ENDBLK
  5
101E
330
101C
100
AcDbEntity
  8
0
100
AcDbBlockEnd
  0
BLOCK
  5
1029
330
1028
100
AcDbEntity
  8
0
100
AcDbBlockBegin
  2
*D21
 70
     1
 10
0.0
 20
0.0
 30
0.0
  3
*D21
  1

  0
LINE
  5
1062
330
1028
100
AcDbEntity
  8
0
  6
Continuous
 62
     8
440
 16777216
370
    -2
100
AcDbLine
 10
503.0812563573973
 20
354.4423174318424
 30
0.0
 11
493.8799857437153
 21
354.4423174318424
 31
0.0
  0
LINE
  5
1063
330
1028
100
AcDbEntity
  8
0
  6
Continuous
 62
     8
440
 16777216
370
    -2
100
AcDbLine
 10
503.0812563573973
 20
363.4423174318424
 30
0.0
 11
493.8799857437153
 21
363.4423174318424
 31
0.0
  0
LINE
  5
1064
330
1028
100
AcDbEntity
  8
0
  6
Continuous
 62
     8
440
 16777216
370
    -2
100
AcDbLine
 10
494.8799857437153
 20
356.4423174318424
 30
0.0
 11
494.8799857437153
 21
361.4423174318424
 31
0.0
  0
SOLID
  5
1065
330
1028
100
AcDbEntity
  8
0
  6
Continuous
 62
     8
440
 16777216
100
AcDbTrace
 10
494.546652410382
 20
356.4423174318424
 30
0.0
 11
495.2133190770486
 21
356.4423174318424
 31
0.0
 12
494.8799857437153
 22
354.4423174318424
 32
0.0
 13
494.8799857437153
 23
354.4423174318424
 33
0.0
  0
SOLID
  5
1066
330
1028
100
AcDbEntity
  8
0
  6
Continuous
 62
     8
440
 16777216
100
AcDbTrace
 10
494.546652410382
 20
361.4423174318424
 30
0.0
 11
495.2133190770486
 21
361.4423174318424
 31
0.0
 12
494.8799857437153
 22
363.4423174318424
 32
0.0
 13
494.8799857437153
 23
363.4423174318424
 33
0.0
  0
MTEXT
  5
1067
330
1028
100
AcDbEntity
  8
0
  6
Continuous
 62
     8
440
 16777216
370
    15
100
AcDbMText
 10
492.3799857437153
 20
358.9423174318425
 30
0.0
 40
3.0
 41
0.0
 46
0.0
 71
     5
 72
     1
  1
\A1;9
  7
GMM001
 11
0.0000000000000001
 21
1.0
 31
0.0
 73
     1
 44
1.0
  0
POINT
  5
1068
330
1028
100
AcDbEntity
  8
Defpoints
  6
Continuous
 62
     0
440
 16777216
100
AcDbPoint
 10
504.0812563573974
 20
354.4423174318424
 30
0.0
  0
POINT
  5
1069
330
1028
100
AcDbEntity
  8
Defpoints
  6
Continuous
 62
     0
440
 16777216
100
AcDbPoint
 10
504.0812563573974
 20
363.4423174318424
 30
0.0
  0
POINT
  5
106A
330
1028
100
AcDbEntity
  8
Defpoints
  6
Continuous
 62
     0
440
 16777216
100
AcDbPoint
 10
494.8799857437153
 20
363.4423174318424
 30
0.0
  0
ENDBLK
  5
102A
330
1028
100
AcDbEntity
  8
0
100
AcDbBlockEnd
  0
BLOCK
  5
1035
330
1034
100
AcDbEntity
  8
0
100
AcDbBlockBegin
  2
*D22
 70
     1
 10
0.0
 20
0.0
 30
0.0
  3
*D22
  1

  0
LINE
  5
106B
330
1034
100
AcDbEntity
  8
0
  6
Continuous
 62
     8
440
 16777216
370
    -2
100
AcDbLine
 10
518.8335020910359
 20
400.0301783463287
 30
0.0
 11
511.8118851628181
 21
394.4001787270245
 31
0.0
  0
LINE
  5
106C
330
1034
100
AcDbEntity
  8
0
  6
Continuous
 62
     8
440
 16777216
370
    -2
100
AcDbLine
 10
506.3506275519797
 20
390.0212901342304
 30
0.0
 11
504.790268234598
 21
388.7701791077184
 31
0.0
  0
MTEXT
  5
106D
330
1034
100
AcDbEntity
  8
0
  6
Continuous
 62
     8
440
 16777216
370
    15
100
AcDbMText
 10
514.5389845024777
 20
399.7911831966598
 30
0.0
 40
3.0
 41
0.0
 46
0.0
 71
     5
 72
     1
  1
\A1;%%c3
  7
GMM001
 11
0.780179658690864
 21
0.6255555132560237
 31
0.0
 73
     1
 44
1.0
  0
LINE
  5
106E
330
1034
100
AcDbEntity
  8
0
  6
Continuous
 62
     8
440
 16777216
370
    -2
100
AcDbLine
 10
507.9109868693613
 20
391.2724011607425
 30
0.0
 11
510.2515258454364
 21
393.1490677005125
 31
0.0
  0
SOLID
  5
106F
330
1034
100
AcDbEntity
  8
0
  6
Continuous
 62
     8
440
 16777216
100
AcDbTrace
 10
506.142109047561
 20
390.2813500204607
 30
0.0
 11
506.5591460563983
 21
389.7612302480001
 31
0.0
 12
507.9109868693613
 22
391.2724011607425
 32
0.0
 13
507.9109868693613
 23
391.2724011607425
 33
0.0
  0
SOLID
  5
1070
330
1034
100
AcDbEntity
  8
0
  6
Continuous
 62
     8
440
 16777216
100
AcDbTrace
 10
511.6033666583994
 20
394.6602386132548
 30
0.0
 11
512.0204036672368
 21
394.1401188407942
 31
0.0
 12
510.2515258454364
 22
393.1490677005125
 32
0.0
 13
510.2515258454364
 23
393.1490677005125
 33
0.0
  0
POINT
  5
1071
330
1034
100
AcDbEntity
  8
Defpoints
  6
Continuous
 62
     0
440
 16777216
100
AcDbPoint
 10
510.2515258454364
 20
393.1490677005125
 30
0.0
  0
POINT
  5
1072
330
1034
100
AcDbEntity
  8
Defpoints
  6
Continuous
 62
     0
440
 16777216
100
AcDbPoint
 10
507.9109868693613
 20
391.2724011607425
 30
0.0
  0
ENDBLK
  5
1036
330
1034
100
AcDbEntity
  8
0
100
AcDbBlockEnd
  0
BLOCK
  5
107A
330
1079
100
AcDbEntity
  8
0
100
AcDbBlockBegin
  2
*D23
 70
     1
 10
0.0
 20
0.0
 30
0.0
  3
*D23
  1

  0
LINE
  5
10F8
330
1079
100
AcDbEntity
  8
0
  6
Continuous
 62
     8
440
 16777216
370
    -2
100
AcDbLine
 10
213.8291375026527
 20
150.1949203892566
 30
0.0
 11
206.8075205744348
 21
144.5649207699525
 31
0.0
  0
LINE
  5
10F9
330
1079
100
AcDbEntity
  8
0
  6
Continuous
 62
     8
440
 16777216
370
    -2
100
AcDbLine
 10
201.3462629635963
 20
140.1860321771586
 30
0.0
 11
199.7859036462145
 21
138.9349211506466
 31
0.0
  0
MTEXT
  5
10FA
330
1079
100
AcDbEntity
  8
0
  6
Continuous
 62
     8
440
 16777216
370
    15
100
AcDbMText
 10
209.5346199140946
 20
149.9559252395878
 30
0.0
 40
3.0
 41
0.0
 46
0.0
 71
     5
 72
     1
  1
\A1;φ4
  7
GMM001
 11
0.7801796586908811
 21
0.6255555132560021
 31
0.0
 73
     1
 44
1.0
  0
LINE
  5
10FB
330
1079
100
AcDbEntity
  8
0
  6
Continuous
 62
     8
440
 16777216
370
    -2
100
AcDbLine
 10
202.906622280978
 20
141.4371432036706
 30
0.0
 11
205.247161257053
 21
143.3138097434405
 31
0.0
  0
SOLID
  5
10FC
330
1079
100
AcDbEntity
  8
0
  6
Continuous
 62
     8
440
 16777216
100
AcDbTrace
 10
201.1377444591776
 20
140.4460920633889
 30
0.0
 11
201.5547814680149
 21
139.9259722909283
 31
0.0
 12
202.906622280978
 22
141.4371432036706
 32
0.0
 13
202.906622280978
 23
141.4371432036706
 33
0.0
  0
SOLID
  5
10FD
330
1079
100
AcDbEntity
  8
0
  6
Continuous
 62
     8
440
 16777216
100
AcDbTrace
 10
206.5990020700162
 20
144.8249806561829
 30
0.0
 11
207.0160390788535
 21
144.3048608837223
 31
0.0
 12
205.247161257053
 22
143.3138097434405
 32
0.0
 13
205.247161257053
 23
143.3138097434405
 33
0.0
  0
POINT
  5
10FE
330
1079
100
AcDbEntity
  8
Defpoints
  6
Continuous
 62
     0
440
 16777216
100
AcDbPoint
 10
205.247161257053
 20
143.3138097434405
 30
0.0
  0
POINT
  5
10FF
330
1079
100
AcDbEntity
  8
Defpoints
  6
Continuous
 62
     0
440
 16777216
100
AcDbPoint
 10
202.906622280978
 20
141.4371432036706
 30
0.0
  0
ENDBLK
  5
107B
330
1079
100
AcDbEntity
  8
0
100
AcDbBlockEnd
  0
BLOCK
  5
10B9
330
10B8
100
AcDbEntity
  8
0
100
AcDbBlockBegin
  2
*D24
 70
     1
 10
0.0
 20
0.0
 30
0.0
  3
*D24
  1

  0
LINE
  5
10D0
330
10B8
100
AcDbEntity
  8
0
  6
Continuous
 62
     8
440
 16777216
370
    -2
100
AcDbLine
 10
194.044720565491
 20
735.4284823347182
 30
0.0
 11
194.044720565491
 21
721.4284823347181
 31
0.0
  0
LINE
  5
10D1
330
10B8
100
AcDbEntity
  8
0
  6
Continuous
 62
     8
440
 16777216
370
    -2
100
AcDbLine
 10
209.0447205654899
 20
735.4284823347182
 30
0.0
 11
209.0447205654899
 21
721.4284823347181
 31
0.0
  0
LINE
  5
10D2
330
10B8
100
AcDbEntity
  8
0
  6
Continuous
 62
     8
440
 16777216
370
    -2
100
AcDbLine
 10
196.044720565491
 20
722.4284823347182
 30
0.0
 11
207.04472056549
 21
722.4284823347182
 31
0.0
  0
SOLID
  5
10D3
330
10B8
100
AcDbEntity
  8
0
  6
Continuous
 62
     8
440
 16777216
100
AcDbTrace
 10
196.044720565491
 20
722.7618156680515
 30
0.0
 11
196.044720565491
 21
722.0951490013848
 31
0.0
 12
194.044720565491
 22
722.4284823347182
 32
0.0
 13
194.044720565491
 23
722.4284823347182
 33
0.0
  0
SOLID
  5
10D4
330
10B8
100
AcDbEntity
  8
0
  6
Continuous
 62
     8
440
 16777216
100
AcDbTrace
 10
207.04472056549
 20
722.7618156680515
 30
0.0
 11
207.04472056549
 21
722.0951490013848
 31
0.0
 12
209.0447205654899
 22
722.4284823347182
 32
0.0
 13
209.0447205654899
 23
722.4284823347182
 33
0.0
  0
MTEXT
  5
10D5
330
10B8
100
AcDbEntity
  8
0
  6
Continuous
 62
     8
440
 16777216
370
    15
100
AcDbMText
 10
201.5447205654905
 20
724.9284823347181
 30
0.0
 40
3.0
 41
0.0
 46
0.0
 71
     5
 72
     1
  1
\A1;15
  7
GMM001
 73
     1
 44
1.0
  0
POINT
  5
10D6
330
10B8
100
AcDbEntity
  8
Defpoints
  6
Continuous
 62
     0
440
 16777216
100
AcDbPoint
 10
194.044720565491
 20
736.4284823347182
 30
0.0
  0
POINT
  5
10D7
330
10B8
100
AcDbEntity
  8
Defpoints
  6
Continuous
 62
     0
440
 16777216
100
AcDbPoint
 10
209.0447205654899
 20
736.4284823347182
 30
0.0
  0
POINT
  5
10D8
330
10B8
100
AcDbEntity
  8
Defpoints
  6
Continuous
 62
     0
440
 16777216
100
AcDbPoint
 10
209.0447205654899
 20
722.4284823347182
 30
0.0
  0
ENDBLK
  5
10BA
330
10B8
100
AcDbEntity
  8
0
100
AcDbBlockEnd
  0
BLOCK
  5
10C5
330
10C4
100
AcDbEntity
  8
0
100
AcDbBlockBegin
  2
*D25
 70
     1
 10
0.0
 20
0.0
 30
0.0
  3
*D25
  1

  0
LINE
  5
10D9
330
10C4
100
AcDbEntity
  8
0
  6
Continuous
 62
     8
440
 16777216
370
    -2
100
AcDbLine
 10
195.544720565491
 20
731.9284823347182
 30
0.0
 11
186.3434499518089
 21
731.9284823347182
 31
0.0
  0
LINE
  5
10DA
330
10C4
100
AcDbEntity
  8
0
  6
Continuous
 62
     8
440
 16777216
370
    -2
100
AcDbLine
 10
195.544720565491
 20
740.9284823347181
 30
0.0
 11
186.3434499518089
 21
740.9284823347181
 31
0.0
  0
LINE
  5
10DB
330
10C4
100
AcDbEntity
  8
0
  6
Continuous
 62
     8
440
 16777216
370
    -2
100
AcDbLine
 10
187.3434499518089
 20
733.9284823347181
 30
0.0
 11
187.3434499518089
 21
738.9284823347182
 31
0.0
  0
SOLID
  5
10DC
330
10C4
100
AcDbEntity
  8
0
  6
Continuous
 62
     8
440
 16777216
100
AcDbTrace
 10
187.0101166184756
 20
733.9284823347181
 30
0.0
 11
187.6767832851423
 21
733.9284823347181
 31
0.0
 12
187.3434499518089
 22
731.9284823347182
 32
0.0
 13
187.3434499518089
 23
731.9284823347182
 33
0.0
  0
SOLID
  5
10DD
330
10C4
100
AcDbEntity
  8
0
  6
Continuous
 62
     8
440
 16777216
100
AcDbTrace
 10
187.0101166184756
 20
738.9284823347182
 30
0.0
 11
187.6767832851423
 21
738.9284823347182
 31
0.0
 12
187.3434499518089
 22
740.9284823347181
 32
0.0
 13
187.3434499518089
 23
740.9284823347181
 33
0.0
  0
MTEXT
  5
10DE
330
10C4
100
AcDbEntity
  8
0
  6
Continuous
 62
     8
440
 16777216
370
    15
100
AcDbMText
 10
184.8434499518088
 20
736.4284823347182
 30
0.0
 40
3.0
 41
0.0
 46
0.0
 71
     5
 72
     1
  1
\A1;9
  7
GMM001
 11
0.0000000000000001
 21
1.0
 31
0.0
 73
     1
 44
1.0
  0
POINT
  5
10DF
330
10C4
100
AcDbEntity
  8
Defpoints
  6
Continuous
 62
     0
440
 16777216
100
AcDbPoint
 10
196.544720565491
 20
731.9284823347182
 30
0.0
  0
POINT
  5
10E0
330
10C4
100
AcDbEntity
  8
Defpoints
  6
Continuous
 62
     0
440
 16777216
100
AcDbPoint
 10
196.544720565491
 20
740.9284823347181
 30
0.0
  0
POINT
  5
10E1
330
10C4
100
AcDbEntity
  8
Defpoints
  6
Continuous
 62
     0
440
 16777216
100
AcDbPoint
 10
187.3434499518089
 20
740.9284823347181
 30
0.0
  0
ENDBLK
  5
10C6
330
10C4
100
AcDbEntity
  8
0
100
AcDbBlockEnd
  0
ENDSEC
  0
SECTION
  2
ENTITIES
  0
TEXT
  5
18D
330
A
100
AcDbEntity
  8
LEVEL001
 62
     7
100
AcDbText
 10
326.40000000003
 20
16.375
 30
0.0
 40
3.75
  1
Ａ３
 41
0.8
 72
     1
 11
329.50000000003
 21
18.25
 31
0.0
100
AcDbText
 73
     2
  0
LWPOLYLINE
  5
190
330
A
100
AcDbEntity
  8
LEVEL001
  6
Continuous
 62
     3
370
    40
100
AcDbPolyline
 90
        5
 70
     0
 43
0.0
 10
15.500000000027
 20
12.0
 10
404.50000000003
 20
12.0
 10
404.50000000003
 20
285.0
 10
15.500000000027
 20
285.0
 10
15.500000000027
 20
12.0
  0
LINE
  5
197
330
A
100
AcDbEntity
  8
LEVEL001
  6
Continuous
 62
     3
370
    40
100
AcDbLine
 10
304.50000000003
 20
285.0
 30
0.0
 11
304.50000000003
 21
12.0
 31
0.0
  0
LINE
  5
234
330
A
100
AcDbEntity
  8
LEVEL001
  6
Continuous
 62
     3
100
AcDbLine
 10
304.50000000003
 20
256.75
 30
0.0
 11
404.50000000003
 21
256.75
 31
0.0
  0
LINE
  5
235
330
A
100
AcDbEntity
  8
LEVEL001
  6
Continuous
 62
     3
100
AcDbLine
 10
304.50000000003
 20
236.75
 30
0.0
 11
404.50000000003
 21
236.75
 31
0.0
  0
LINE
  5
236
330
A
100
AcDbEntity
  8
LEVEL001
  6
Continuous
 62
     3
100
AcDbLine
 10
304.50000000003
 20
216.75
 30
0.0
 11
404.50000000003
 21
216.75
 31
0.0
  0
TEXT
  5
237
330
A
100
AcDbEntity
  8
LEVEL001
 62
     3
100
AcDbText
 10
305.84000000003
 20
251.5
 30
0.0
 40
3.0
  1
商品名：
 41
0.8
 72
     1
 11
310.80000000003
 21
253.0
 31
0.0
100
AcDbText
 73
     2
  0
TEXT
  5
238
330
A
100
AcDbEntity
  8
LEVEL001
 62
     3
100
AcDbText
 10
305.78000000003
 20
231.5
 30
0.0
 40
3.0
  1
形式：
 41
0.8
 72
     1
 11
309.30000000003
 21
233.0
 31
0.0
100
AcDbText
 73
     2
  0
TEXT
  5
239
330
A
100
AcDbEntity
  8
LEVEL001
 62
     3
100
AcDbText
 10
305.78000000003
 20
211.5
 30
0.0
 40
3.0
  1
仕様：
 41
0.8
 72
     1
 11
309.30000000003
 21
213.0
 31
0.0
100
AcDbText
 73
     2
  0
LINE
  5
23A
330
A
100
AcDbEntity
  8
LEVEL001
  6
Continuous
 62
     3
100
AcDbLine
 10
304.50000000003
 20
72.0
 30
0.0
 11
404.50000000003
 21
72.0
 31
0.0
  0
TEXT
  5
23B
330
A
100
AcDbEntity
  8
LEVEL001
 62
     3
100
AcDbText
 10
305.82000000003
 20
66.75
 30
0.0
 40
3.0
  1
図面名称：
 41
0.8
 72
     1
 11
312.30000000003
 21
68.25
 31
0.0
100
AcDbText
 73
     2
  0
LINE
  5
23C
330
A
100
AcDbEntity
  8
LEVEL001
  6
Continuous
 62
     3
100
AcDbLine
 10
304.50000000003
 20
52.0
 30
0.0
 11
404.50000000003
 21
52.0
 31
0.0
  0
TEXT
  5
23D
330
A
100
AcDbEntity
  8
LEVEL001
 62
     3
100
AcDbText
 10
305.78000000003
 20
46.74999999999999
 30
0.0
 40
3.0
  1
縮尺：
 41
0.8
 72
     1
 11
309.30000000003
 21
48.25
 31
0.0
100
AcDbText
 73
     2
  0
LINE
  5
23E
330
A
100
AcDbEntity
  8
LEVEL001
  6
Continuous
 62
     3
100
AcDbLine
 10
304.50000000003
 20
32.0
 30
0.0
 11
404.50000000003
 21
32.0
 31
0.0
  0
TEXT
  5
23F
330
A
100
AcDbEntity
  8
LEVEL001
 62
     3
100
AcDbText
 10
305.9600000000301
 20
27.22153522862999
 30
0.0
 40
3.0
  1
用紙サイズ：
 41
0.8
 72
     1
 11
313.80000000003
 21
28.72153522862999
 31
0.0
100
AcDbText
 73
     2
  0
TEXT
  5
240
330
A
100
AcDbEntity
  8
LEVEL001
 62
     3
100
AcDbText
 10
356.3266666666967
 20
47.26666666666998
 30
0.0
 40
2.799999999999999
  1
作成日付：
 41
0.8
 72
     1
 11
362.30000000003
 21
48.66666666666998
 31
0.0
100
AcDbText
 73
     2
  0
TEXT
  5
241
330
A
100
AcDbEntity
  8
LEVEL001
 62
     3
100
AcDbText
 10
356.3266666666967
 20
40.6
 30
0.0
 40
2.799999999999999
  1
変更日付：
 41
0.8
 72
     1
 11
362.30000000003
 21
42.0
 31
0.0
100
AcDbText
 73
     2
  0
LINE
  5
242
330
A
100
AcDbEntity
  8
LEVEL001
  6
Continuous
 62
     3
100
AcDbLine
 10
354.50000000003
 20
45.33333333334002
 30
0.0
 11
404.50000000003
 21
45.33333333334002
 31
0.0
  0
TEXT
  5
243
330
A
100
AcDbEntity
  8
LEVEL001
 62
     3
100
AcDbText
 10
355.88000000003
 20
26.75
 30
0.0
 40
3.0
  1
ファイル名：
 41
0.8
 72
     1
 11
363.80000000003
 21
28.25
 31
0.0
100
AcDbText
 73
     2
  0
LINE
  5
244
330
A
100
AcDbEntity
  8
LEVEL001
  6
Continuous
 62
     3
100
AcDbLine
 10
354.50000000003
 20
52.0
 30
0.0
 11
354.50000000003
 21
12.0
 31
0.0
  0
LINE
  5
245
330
A
100
AcDbEntity
  8
LEVEL001
  6
Continuous
 62
     3
100
AcDbLine
 10
354.50000000003
 20
38.66666666666998
 30
0.0
 11
404.50000000003
 21
38.66666666666998
 31
0.0
  0
TEXT
  5
246
330
A
100
AcDbEntity
  8
LEVEL001
 62
     7
100
AcDbText
 10
321.30000000003
 20
36.375
 30
0.0
 40
3.75
  1
Ｓ＝１：１　
 41
0.8
 72
     1
 11
329.50000000003
 21
38.25
 31
0.0
100
AcDbText
 73
     2
  0
LWPOLYLINE
  5
247
330
A
100
AcDbEntity
  8
0
  6
DOT
 62
     3
100
AcDbPolyline
 90
        5
 70
     0
 43
0.0
 10
0.0
 20
0.0
 10
420.0
 20
0.0
 10
420.0
 20
297.0
 10
0.0
 20
297.0
 10
0.0
 20
0.0
  0
TEXT
  5
24F
330
A
100
AcDbEntity
  8
LEVEL001
 62
     8
100
AcDbText
 10
320.33487664471
 20
240.45460526316
 30
0.0
 40
4.5
  1
コーナープロテクター(軟質タイプ)
 41
0.8
 72
     1
 11
354.77487664471
 21
242.70460526316
 31
0.0
100
AcDbText
 73
     2
  0
TEXT
  5
250
330
A
100
AcDbEntity
  8
LEVEL001
 62
     7
100
AcDbText
 10
343.40000000003
 20
56.375
 30
0.0
 40
3.75
  1
平面図･断面図
 41
0.8
 72
     1
 11
354.50000000003
 21
58.25
 31
0.0
100
AcDbText
 73
     2
  0
LWPOLYLINE
  5
251
330
A
100
AcDbEntity
  8
LEVEL001
  6
Continuous
 62
     2
100
AcDbPolyline
 90
        5
 70
     0
 43
0.0
 10
29.607149893659
 20
165.94177168015
 10
29.607149893659
 20
151.3381136875
 10
129.10714989366
 20
151.3381136875
 10
129.10714989366
 20
165.94177168015
 10
29.607149893659
 20
165.94177168015
  0
LINE
  5
258
330
A
100
AcDbEntity
  8
LEVEL001
  6
Continuous
 62
     2
100
AcDbLine
 10
29.607149893659
 20
163.92461439262
 30
0.0
 11
129.10714989366
 21
163.92461439262
 31
0.0
  0
LINE
  5
259
330
A
100
AcDbEntity
  8
LEVEL001
  6
Continuous
 62
     2
100
AcDbLine
 10
129.10714989366
 20
153.35527097502
 30
0.0
 11
29.607149893659
 21
153.35527097502
 31
0.0
  0
LINE
  5
25A
330
A
100
AcDbEntity
  8
LEVEL001
  6
Continuous
 62
     2
100
AcDbLine
 10
29.607149893659
 20
158.63994268382
 30
0.0
 11
129.10714989366
 21
158.63994268382
 31
0.0
  0
CIRCLE
  5
275
330
A
100
AcDbEntity
  8
LEVEL001
  6
Continuous
 62
     7
100
AcDbCircle
 10
37.407149893659
 20
161.53908048671
 30
0.0
 40
0.3
  0
LINE
  5
276
330
A
100
AcDbEntity
  8
LEVEL001
  6
Continuous
 62
     7
100
AcDbLine
 10
39.107149893659
 20
161.93908048671
 30
0.0
 11
40.107149893659
 21
161.93908048671
 31
0.0
  0
LINE
  5
277
330
A
100
AcDbEntity
  8
LEVEL001
  6
Continuous
 62
     7
100
AcDbLine
 10
39.107149893659
 20
161.13908048671
 30
0.0
 11
40.107149893659
 21
161.13908048671
 31
0.0
  0
ARC
  5
278
330
A
100
AcDbEntity
  8
LEVEL001
  6
Continuous
 62
     7
100
AcDbCircle
 10
39.107149893659
 20
161.53908048671
 30
0.0
 40
0.4
100
AcDbArc
 50
90.0
 51
270.0
  0
ARC
  5
279
330
A
100
AcDbEntity
  8
LEVEL001
  6
Continuous
 62
     7
100
AcDbCircle
 10
40.107149893659
 20
161.53908048671
 30
0.0
 40
0.4
100
AcDbArc
 50
270.0
 51
90.0
  0
CIRCLE
  5
27A
330
A
100
AcDbEntity
  8
LEVEL001
  6
Continuous
 62
     7
100
AcDbCircle
 10
74.90714989365899
 20
161.53908048671
 30
0.0
 40
0.3
  0
LINE
  5
27B
330
A
100
AcDbEntity
  8
LEVEL001
  6
Continuous
 62
     7
100
AcDbLine
 10
76.60714989365899
 20
161.93908048671
 30
0.0
 11
77.607149893659
 21
161.93908048671
 31
0.0
  0
LINE
  5
27C
330
A
100
AcDbEntity
  8
LEVEL001
  6
Continuous
 62
     7
100
AcDbLine
 10
76.60714989365899
 20
161.13908048671
 30
0.0
 11
77.607149893659
 21
161.13908048671
 31
0.0
  0
ARC
  5
27D
330
A
100
AcDbEntity
  8
LEVEL001
  6
Continuous
 62
     7
100
AcDbCircle
 10
76.60714989365899
 20
161.53908048671
 30
0.0
 40
0.4
100
AcDbArc
 50
90.0
 51
270.0
  0
ARC
  5
27E
330
A
100
AcDbEntity
  8
LEVEL001
  6
Continuous
 62
     7
100
AcDbCircle
 10
77.607149893659
 20
161.53908048671
 30
0.0
 40
0.4
100
AcDbArc
 50
270.0
 51
90.0
  0
CIRCLE
  5
27F
330
A
100
AcDbEntity
  8
LEVEL001
  6
Continuous
 62
     7
100
AcDbCircle
 10
112.40714989366
 20
161.53908048671
 30
0.0
 40
0.3
  0
LINE
  5
280
330
A
100
AcDbEntity
  8
LEVEL001
  6
Continuous
 62
     7
100
AcDbLine
 10
114.10714989366
 20
161.93908048671
 30
0.0
 11
115.10714989366
 21
161.93908048671
 31
0.0
  0
LINE
  5
281
330
A
100
AcDbEntity
  8
LEVEL001
  6
Continuous
 62
     7
100
AcDbLine
 10
114.10714989366
 20
161.13908048671
 30
0.0
 11
115.10714989366
 21
161.13908048671
 31
0.0
  0
ARC
  5
282
330
A
100
AcDbEntity
  8
LEVEL001
  6
Continuous
 62
     7
100
AcDbCircle
 10
114.10714989366
 20
161.53908048671
 30
0.0
 40
0.4
100
AcDbArc
 50
90.0
 51
270.0
  0
ARC
  5
283
330
A
100
AcDbEntity
  8
LEVEL001
  6
Continuous
 62
     7
100
AcDbCircle
 10
115.10714989366
 20
161.53908048671
 30
0.0
 40
0.4
100
AcDbArc
 50
270.0
 51
90.0
  0
CIRCLE
  5
284
330
A
100
AcDbEntity
  8
LEVEL001
  6
Continuous
 62
     7
100
AcDbCircle
 10
58.357149893659
 20
161.53908048671
 30
0.0
 40
0.3
  0
CIRCLE
  5
285
330
A
100
AcDbEntity
  8
LEVEL001
  6
Continuous
 62
     7
100
AcDbCircle
 10
95.857149893659
 20
161.53908048671
 30
0.0
 40
0.3
  0
CIRCLE
  5
286
330
A
100
AcDbEntity
  8
LEVEL001
  6
Continuous
 62
     7
100
AcDbCircle
 10
46.307149893659
 20
155.74080488094
 30
0.0
 40
0.3
  0
LINE
  5
287
330
A
100
AcDbEntity
  8
LEVEL001
  6
Continuous
 62
     7
100
AcDbLine
 10
44.60714989365899
 20
156.14080488094
 30
0.0
 11
43.607149893659
 21
156.14080488094
 31
0.0
  0
LINE
  5
288
330
A
100
AcDbEntity
  8
LEVEL001
  6
Continuous
 62
     7
100
AcDbLine
 10
44.60714989365899
 20
155.34080488094
 30
0.0
 11
43.607149893659
 21
155.34080488094
 31
0.0
  0
ARC
  5
289
330
A
100
AcDbEntity
  8
LEVEL001
  6
Continuous
 62
     7
100
AcDbCircle
 10
44.60714989365899
 20
155.74080488094
 30
0.0
 40
0.4
100
AcDbArc
 50
270.0
 51
90.0
  0
ARC
  5
28A
330
A
100
AcDbEntity
  8
LEVEL001
  6
Continuous
 62
     7
100
AcDbCircle
 10
43.607149893659
 20
155.74080488094
 30
0.0
 40
0.4
100
AcDbArc
 50
90.0
 51
270.0
  0
CIRCLE
  5
28B
330
A
100
AcDbEntity
  8
LEVEL001
  6
Continuous
 62
     7
100
AcDbCircle
 10
83.807149893659
 20
155.74080488094
 30
0.0
 40
0.3
  0
LINE
  5
28C
330
A
100
AcDbEntity
  8
LEVEL001
  6
Continuous
 62
     7
100
AcDbLine
 10
82.107149893659
 20
156.14080488094
 30
0.0
 11
81.107149893659
 21
156.14080488094
 31
0.0
  0
LINE
  5
28D
330
A
100
AcDbEntity
  8
LEVEL001
  6
Continuous
 62
     7
100
AcDbLine
 10
82.107149893659
 20
155.34080488094
 30
0.0
 11
81.107149893659
 21
155.34080488094
 31
0.0
  0
ARC
  5
28E
330
A
100
AcDbEntity
  8
LEVEL001
  6
Continuous
 62
     7
100
AcDbCircle
 10
82.107149893659
 20
155.74080488094
 30
0.0
 40
0.4
100
AcDbArc
 50
270.0
 51
90.0
  0
ARC
  5
28F
330
A
100
AcDbEntity
  8
LEVEL001
  6
Continuous
 62
     7
100
AcDbCircle
 10
81.107149893659
 20
155.74080488094
 30
0.0
 40
0.4
100
AcDbArc
 50
90.0
 51
270.0
  0
CIRCLE
  5
290
330
A
100
AcDbEntity
  8
LEVEL001
  6
Continuous
 62
     7
100
AcDbCircle
 10
121.30714989366
 20
155.74080488094
 30
0.0
 40
0.3
  0
LINE
  5
291
330
A
100
AcDbEntity
  8
LEVEL001
  6
Continuous
 62
     7
100
AcDbLine
 10
119.60714989366
 20
156.14080488094
 30
0.0
 11
118.60714989366
 21
156.14080488094
 31
0.0
  0
LINE
  5
292
330
A
100
AcDbEntity
  8
LEVEL001
  6
Continuous
 62
     7
100
AcDbLine
 10
119.60714989366
 20
155.34080488094
 30
0.0
 11
118.60714989366
 21
155.34080488094
 31
0.0
  0
ARC
  5
293
330
A
100
AcDbEntity
  8
LEVEL001
  6
Continuous
 62
     7
100
AcDbCircle
 10
119.60714989366
 20
155.74080488094
 30
0.0
 40
0.4
100
AcDbArc
 50
270.0
 51
90.0
  0
ARC
  5
294
330
A
100
AcDbEntity
  8
LEVEL001
  6
Continuous
 62
     7
100
AcDbCircle
 10
118.60714989366
 20
155.74080488094
 30
0.0
 40
0.4
100
AcDbArc
 50
90.0
 51
270.0
  0
CIRCLE
  5
295
330
A
100
AcDbEntity
  8
LEVEL001
  6
Continuous
 62
     7
100
AcDbCircle
 10
62.85714989365899
 20
155.74080488094
 30
0.0
 40
0.3
  0
CIRCLE
  5
296
330
A
100
AcDbEntity
  8
LEVEL001
  6
Continuous
 62
     7
100
AcDbCircle
 10
100.35714989366
 20
155.74080488094
 30
0.0
 40
0.3
  0
LINE
  5
297
330
A
100
AcDbEntity
  8
LEVEL001
  6
Continuous
 62
     2
100
AcDbLine
 10
18.247160991149
 20
153.35527097502
 30
0.0
 11
23.248989987474
 21
158.35709997135
 31
0.0
  0
ARC
  5
298
330
A
100
AcDbEntity
  8
LEVEL001
  6
Continuous
 62
     2
100
AcDbCircle
 10
22.966147274989
 20
158.63994268383
 30
0.0
 40
0.4
100
AcDbArc
 50
314.9999999999902
 51
44.99999999778021
  0
LINE
  5
299
330
A
100
AcDbEntity
  8
LEVEL001
  6
Continuous
 62
     2
100
AcDbLine
 10
18.247160991149
 20
163.92461439262
 30
0.0
 11
23.248989987474
 21
158.9227853963
 31
0.0
  0
LINE
  5
29A
330
A
100
AcDbEntity
  8
LEVEL001
  6
Continuous
 62
     2
100
AcDbLine
 10
18.047160991149
 20
163.8417716801499
 30
0.0
 11
23.107568631237
 21
158.78136404006
 31
0.0
  0
ARC
  5
29B
330
A
100
AcDbEntity
  8
LEVEL001
  6
Continuous
 62
     2
100
AcDbCircle
 10
22.966147275006
 20
158.63994268382
 30
0.0
 40
0.2
100
AcDbArc
 50
315.0000000000094
 51
45.00000000258899
  0
LINE
  5
29C
330
A
100
AcDbEntity
  8
LEVEL001
  6
Continuous
 62
     2
100
AcDbLine
 10
18.047160991149
 20
153.4381136875
 30
0.0
 11
23.107568631237
 21
158.49852132759
 31
0.0
  0
LINE
  5
29D
330
A
100
AcDbEntity
  8
LEVEL001
  6
DASHDOT
 62
     8
100
AcDbLine
 10
20.269402189554
 20
161.1757877792
 30
0.0
 11
20.924094612743
 21
161.83048020239
 31
0.0
  0
LINE
  5
29E
330
A
100
AcDbEntity
  8
LEVEL001
  6
Continuous
 62
     2
100
AcDbLine
 10
18.047160991153
 20
151.3381136875
 30
0.0
 11
18.247160991153
 21
151.3381136875
 31
0.0
  0
LINE
  5
29F
330
A
100
AcDbEntity
  8
LEVEL001
  6
Continuous
 62
     2
100
AcDbLine
 10
18.047160991153
 20
151.3381136875
 30
0.0
 11
18.047160991149
 21
153.4381136875
 31
0.0
  0
LINE
  5
2A0
330
A
100
AcDbEntity
  8
LEVEL001
  6
Continuous
 62
     2
100
AcDbLine
 10
18.247160991153
 20
151.3381136875
 30
0.0
 11
18.247160991149
 21
153.35527097502
 31
0.0
  0
LINE
  5
2A1
330
A
100
AcDbEntity
  8
LEVEL001
  6
Continuous
 62
     2
100
AcDbLine
 10
20.067009472135
 20
155.17511945601
 30
0.0
 11
19.925588115897
 21
155.31654081225
 31
0.0
  0
LINE
  5
2A2
330
A
100
AcDbEntity
  8
LEVEL001
  6
Continuous
 62
     2
100
AcDbLine
 10
21.198380322033
 20
156.30649030591
 30
0.0
 11
21.056958965796
 21
156.4479116621499
 31
0.0
  0
LINE
  5
2A3
330
A
100
AcDbEntity
  8
LEVEL001
  6
Continuous
 62
     2
100
AcDbLine
 10
18.047160991153
 20
165.94177168015
 30
0.0
 11
18.047160991149
 21
163.8417716801499
 31
0.0
  0
LINE
  5
2A4
330
A
100
AcDbEntity
  8
LEVEL001
  6
Continuous
 62
     2
100
AcDbLine
 10
18.247160991153
 20
165.94177168015
 30
0.0
 11
18.247160991149
 21
163.92461439262
 31
0.0
  0
LINE
  5
2A5
330
A
100
AcDbEntity
  8
LEVEL001
  6
Continuous
 62
     2
100
AcDbLine
 10
20.067009472135
 20
162.10476591164
 30
0.0
 11
19.925588115897
 21
161.9633445554
 31
0.0
  0
LINE
  5
2A6
330
A
100
AcDbEntity
  8
LEVEL001
  6
Continuous
 62
     2
100
AcDbLine
 10
21.198380322033
 20
160.97339506174
 30
0.0
 11
21.056958965796
 21
160.8319737055
 31
0.0
  0
LINE
  5
2A7
330
A
100
AcDbEntity
  8
LEVEL001
  6
Continuous
 62
     2
100
AcDbLine
 10
18.047160991153
 20
165.94177168015
 30
0.0
 11
18.247160991153
 21
165.94177168015
 31
0.0
  0
LINE
  5
2A8
330
A
100
AcDbEntity
  8
LEVEL001
  6
DASHDOT
 62
     8
100
AcDbLine
 10
20.269402189554
 20
156.10409758844
 30
0.0
 11
20.924094612743
 21
155.44940516525
 31
0.0
  0
LINE
  5
2A9
330
A
100
AcDbEntity
  8
LEVEL001
  6
DASHDOT
 62
     8
100
AcDbLine
 10
22.716392551438
 20
45.58865687421001
 30
0.0
 11
23.371084974627
 21
46.24334929740001
 31
0.0
  0
LINE
  5
2AA
330
A
100
AcDbEntity
  8
LEVEL001
  6
Continuous
 62
     2
100
AcDbLine
 10
20.494151353037
 20
35.75098278249999
 30
0.0
 11
20.694151353037
 21
35.75098278249999
 31
0.0
  0
LINE
  5
2AB
330
A
100
AcDbEntity
  8
LEVEL001
  6
Continuous
 62
     2
100
AcDbLine
 10
20.494151353037
 20
35.75098278249999
 30
0.0
 11
20.494151353033
 21
37.85098278250001
 31
0.0
  0
LINE
  5
2AC
330
A
100
AcDbEntity
  8
LEVEL001
  6
Continuous
 62
     2
100
AcDbLine
 10
20.694151353037
 20
35.75098278249999
 30
0.0
 11
20.694151353033
 21
37.76814007002997
 31
0.0
  0
LINE
  5
2AD
330
A
100
AcDbEntity
  8
LEVEL001
  6
Continuous
 62
     2
100
AcDbLine
 10
22.513999834019
 20
39.58798855101003
 30
0.0
 11
22.372578477782
 21
39.72940990724999
 31
0.0
  0
LINE
  5
2AE
330
A
100
AcDbEntity
  8
LEVEL001
  6
Continuous
 62
     2
100
AcDbLine
 10
23.645370683917
 20
40.71935940090997
 30
0.0
 11
23.50394932768
 21
40.86078075715
 31
0.0
  0
LINE
  5
2AF
330
A
100
AcDbEntity
  8
LEVEL001
  6
Continuous
 62
     2
100
AcDbLine
 10
20.494151353037
 20
50.35464077515001
 30
0.0
 11
20.494151353033
 21
48.25464077514999
 31
0.0
  0
LINE
  5
2B0
330
A
100
AcDbEntity
  8
LEVEL001
  6
Continuous
 62
     2
100
AcDbLine
 10
20.694151353037
 20
50.35464077515001
 30
0.0
 11
20.694151353033
 21
48.33748348762998
 31
0.0
  0
LINE
  5
2B1
330
A
100
AcDbEntity
  8
LEVEL001
  6
Continuous
 62
     2
100
AcDbLine
 10
22.513999834019
 20
46.51763500663998
 30
0.0
 11
22.372578477782
 21
46.37621365040001
 31
0.0
  0
LINE
  5
2B2
330
A
100
AcDbEntity
  8
LEVEL001
  6
Continuous
 62
     2
100
AcDbLine
 10
23.645370683917
 20
45.38626415674002
 30
0.0
 11
23.50394932768
 21
45.24484280051001
 31
0.0
  0
LINE
  5
2B3
330
A
100
AcDbEntity
  8
LEVEL001
  6
Continuous
 62
     2
100
AcDbLine
 10
20.694151353033
 20
37.76814007002997
 30
0.0
 11
25.695980349358
 21
42.76996906634997
 31
0.0
  0
ARC
  5
2B4
330
A
100
AcDbEntity
  8
LEVEL001
  6
Continuous
 62
     2
100
AcDbCircle
 10
25.413137636881
 20
43.05281177883
 30
0.0
 40
0.4
100
AcDbArc
 50
314.9999999999998
 51
44.99999999939173
  0
LINE
  5
2B5
330
A
100
AcDbEntity
  8
LEVEL001
  6
Continuous
 62
     2
100
AcDbLine
 10
20.694151353033
 20
48.33748348762998
 30
0.0
 11
25.695980349358
 21
43.33565449129998
 31
0.0
  0
LINE
  5
2B6
330
A
100
AcDbEntity
  8
LEVEL001
  6
Continuous
 62
     2
100
AcDbLine
 10
20.494151353033
 20
48.25464077514999
 30
0.0
 11
25.554558993121
 21
43.19423313507002
 31
0.0
  0
ARC
  5
2B7
330
A
100
AcDbEntity
  8
LEVEL001
  6
Continuous
 62
     2
100
AcDbCircle
 10
25.413137636852
 20
43.05281177886001
 30
0.0
 40
0.2
100
AcDbArc
 50
315.0000000000094
 51
44.99999998727893
  0
LINE
  5
2B8
330
A
100
AcDbEntity
  8
LEVEL001
  6
Continuous
 62
     2
100
AcDbLine
 10
20.494151353033
 20
37.85098278250001
 30
0.0
 11
25.554558993121
 21
42.91139042258999
 31
0.0
  0
LINE
  5
2B9
330
A
100
AcDbEntity
  8
LEVEL001
  6
Continuous
 62
     2
100
AcDbLine
 10
20.494151353037
 20
50.35464077515001
 30
0.0
 11
20.694151353037
 21
50.35464077515001
 31
0.0
  0
LINE
  5
2BA
330
A
100
AcDbEntity
  8
LEVEL001
  6
DASHDOT
 62
     8
100
AcDbLine
 10
22.716392551438
 20
40.51696668344999
 30
0.0
 11
23.371084974628
 21
39.86227426026
 31
0.0
  0
LWPOLYLINE
  5
2BB
330
A
100
AcDbEntity
  8
LEVEL001
  6
Continuous
 62
     2
100
AcDbPolyline
 90
        5
 70
     0
 43
0.0
 10
29.607149893659
 20
50.35464077515001
 10
29.607149893659
 20
35.75098278249999
 10
229.10714989366
 20
35.75098278249999
 10
229.10714989366
 20
50.35464077515001
 10
29.607149893659
 20
50.35464077515001
  0
LINE
  5
2C2
330
A
100
AcDbEntity
  8
LEVEL001
  6
Continuous
 62
     2
100
AcDbLine
 10
29.607149893659
 20
48.33748348762998
 30
0.0
 11
229.10714989366
 21
48.33748348762998
 31
0.0
  0
LINE
  5
2C3
330
A
100
AcDbEntity
  8
LEVEL001
  6
Continuous
 62
     2
100
AcDbLine
 10
29.607149893659
 20
43.05281177883
 30
0.0
 11
229.10714989366
 21
43.05281177883
 31
0.0
  0
LINE
  5
2C4
330
A
100
AcDbEntity
  8
LEVEL001
  6
Continuous
 62
     2
100
AcDbLine
 10
229.10714989366
 20
37.76814007002997
 30
0.0
 11
29.607149893659
 21
37.76814007002997
 31
0.0
  0
CIRCLE
  5
2C8
330
A
100
AcDbEntity
  8
LEVEL001
  6
Continuous
 62
     7
100
AcDbCircle
 10
37.407149893659
 20
45.95194958171998
 30
0.0
 40
0.3
  0
LINE
  5
2C9
330
A
100
AcDbEntity
  8
LEVEL001
  6
Continuous
 62
     7
100
AcDbLine
 10
39.107149893659
 20
45.55194958172001
 30
0.0
 11
40.107149893659
 21
45.55194958172001
 31
0.0
  0
ARC
  5
2CA
330
A
100
AcDbEntity
  8
LEVEL001
  6
Continuous
 62
     7
100
AcDbCircle
 10
39.107149893659
 20
45.95194958171998
 30
0.0
 40
0.4
100
AcDbArc
 50
90.0
 51
270.0
  0
ARC
  5
2CB
330
A
100
AcDbEntity
  8
LEVEL001
  6
Continuous
 62
     7
100
AcDbCircle
 10
40.107149893659
 20
45.95194958171998
 30
0.0
 40
0.4
100
AcDbArc
 50
270.0
 51
90.0
  0
LINE
  5
2CC
330
A
100
AcDbEntity
  8
LEVEL001
  6
Continuous
 62
     7
100
AcDbLine
 10
39.107149893659
 20
46.35194958172002
 30
0.0
 11
40.107149893659
 21
46.35194958172002
 31
0.0
  0
CIRCLE
  5
2D0
330
A
100
AcDbEntity
  8
LEVEL001
  6
Continuous
 62
     7
100
AcDbCircle
 10
79.90714989365899
 20
45.95194958171998
 30
0.0
 40
0.3
  0
LINE
  5
2D1
330
A
100
AcDbEntity
  8
LEVEL001
  6
Continuous
 62
     7
100
AcDbLine
 10
81.60714989365899
 20
45.55194958172001
 30
0.0
 11
82.60714989365899
 21
45.55194958172001
 31
0.0
  0
ARC
  5
2D2
330
A
100
AcDbEntity
  8
LEVEL001
  6
Continuous
 62
     7
100
AcDbCircle
 10
81.60714989365899
 20
45.95194958171998
 30
0.0
 40
0.4
100
AcDbArc
 50
90.0
 51
270.0
  0
ARC
  5
2D3
330
A
100
AcDbEntity
  8
LEVEL001
  6
Continuous
 62
     7
100
AcDbCircle
 10
82.60714989365899
 20
45.95194958171998
 30
0.0
 40
0.4
100
AcDbArc
 50
270.0
 51
90.0
  0
LINE
  5
2D4
330
A
100
AcDbEntity
  8
LEVEL001
  6
Continuous
 62
     7
100
AcDbLine
 10
81.60714989365899
 20
46.35194958172002
 30
0.0
 11
82.60714989365899
 21
46.35194958172002
 31
0.0
  0
CIRCLE
  5
2D8
330
A
100
AcDbEntity
  8
LEVEL001
  6
Continuous
 62
     7
100
AcDbCircle
 10
122.40714989366
 20
45.95194958171998
 30
0.0
 40
0.3
  0
LINE
  5
2D9
330
A
100
AcDbEntity
  8
LEVEL001
  6
Continuous
 62
     7
100
AcDbLine
 10
124.10714989366
 20
45.55194958172001
 30
0.0
 11
125.10714989366
 21
45.55194958172001
 31
0.0
  0
ARC
  5
2DA
330
A
100
AcDbEntity
  8
LEVEL001
  6
Continuous
 62
     7
100
AcDbCircle
 10
124.10714989366
 20
45.95194958171998
 30
0.0
 40
0.4
100
AcDbArc
 50
90.0
 51
270.0
  0
ARC
  5
2DB
330
A
100
AcDbEntity
  8
LEVEL001
  6
Continuous
 62
     7
100
AcDbCircle
 10
125.10714989366
 20
45.95194958171998
 30
0.0
 40
0.4
100
AcDbArc
 50
270.0
 51
90.0
  0
LINE
  5
2DC
330
A
100
AcDbEntity
  8
LEVEL001
  6
Continuous
 62
     7
100
AcDbLine
 10
124.10714989366
 20
46.35194958172002
 30
0.0
 11
125.10714989366
 21
46.35194958172002
 31
0.0
  0
CIRCLE
  5
2E0
330
A
100
AcDbEntity
  8
LEVEL001
  6
Continuous
 62
     7
100
AcDbCircle
 10
164.90714989366
 20
45.95194958171998
 30
0.0
 40
0.3
  0
LINE
  5
2E1
330
A
100
AcDbEntity
  8
LEVEL001
  6
Continuous
 62
     7
100
AcDbLine
 10
166.60714989366
 20
45.55194958172001
 30
0.0
 11
167.60714989366
 21
45.55194958172001
 31
0.0
  0
ARC
  5
2E2
330
A
100
AcDbEntity
  8
LEVEL001
  6
Continuous
 62
     7
100
AcDbCircle
 10
166.60714989366
 20
45.95194958171998
 30
0.0
 40
0.4
100
AcDbArc
 50
90.0
 51
270.0
  0
ARC
  5
2E3
330
A
100
AcDbEntity
  8
LEVEL001
  6
Continuous
 62
     7
100
AcDbCircle
 10
167.60714989366
 20
45.95194958171998
 30
0.0
 40
0.4
100
AcDbArc
 50
270.0
 51
90.0
  0
LINE
  5
2E4
330
A
100
AcDbEntity
  8
LEVEL001
  6
Continuous
 62
     7
100
AcDbLine
 10
166.60714989366
 20
46.35194958172002
 30
0.0
 11
167.60714989366
 21
46.35194958172002
 31
0.0
  0
CIRCLE
  5
2E8
330
A
100
AcDbEntity
  8
LEVEL001
  6
Continuous
 62
     7
100
AcDbCircle
 10
207.40714989366
 20
45.95194958171998
 30
0.0
 40
0.3
  0
LINE
  5
2E9
330
A
100
AcDbEntity
  8
LEVEL001
  6
Continuous
 62
     7
100
AcDbLine
 10
209.10714989366
 20
45.55194958172001
 30
0.0
 11
210.10714989366
 21
45.55194958172001
 31
0.0
  0
ARC
  5
2EA
330
A
100
AcDbEntity
  8
LEVEL001
  6
Continuous
 62
     7
100
AcDbCircle
 10
209.10714989366
 20
45.95194958171998
 30
0.0
 40
0.4
100
AcDbArc
 50
90.0
 51
270.0
  0
ARC
  5
2EB
330
A
100
AcDbEntity
  8
LEVEL001
  6
Continuous
 62
     7
100
AcDbCircle
 10
210.10714989366
 20
45.95194958171998
 30
0.0
 40
0.4
100
AcDbArc
 50
270.0
 51
90.0
  0
LINE
  5
2EC
330
A
100
AcDbEntity
  8
LEVEL001
  6
Continuous
 62
     7
100
AcDbLine
 10
209.10714989366
 20
46.35194958172002
 30
0.0
 11
210.10714989366
 21
46.35194958172002
 31
0.0
  0
CIRCLE
  5
2F0
330
A
100
AcDbEntity
  8
LEVEL001
  6
Continuous
 62
     7
100
AcDbCircle
 10
221.30714989366
 20
40.15367397594002
 30
0.0
 40
0.3
  0
LINE
  5
2F1
330
A
100
AcDbEntity
  8
LEVEL001
  6
Continuous
 62
     7
100
AcDbLine
 10
219.60714989366
 20
40.55367397593999
 30
0.0
 11
218.60714989366
 21
40.55367397593999
 31
0.0
  0
ARC
  5
2F2
330
A
100
AcDbEntity
  8
LEVEL001
  6
Continuous
 62
     7
100
AcDbCircle
 10
219.60714989366
 20
40.15367397594002
 30
0.0
 40
0.4
100
AcDbArc
 50
270.0
 51
90.0
  0
ARC
  5
2F3
330
A
100
AcDbEntity
  8
LEVEL001
  6
Continuous
 62
     7
100
AcDbCircle
 10
218.60714989366
 20
40.15367397594002
 30
0.0
 40
0.4
100
AcDbArc
 50
90.0
 51
270.0
  0
LINE
  5
2F4
330
A
100
AcDbEntity
  8
LEVEL001
  6
Continuous
 62
     7
100
AcDbLine
 10
219.60714989366
 20
39.75367397593999
 30
0.0
 11
218.60714989366
 21
39.75367397593999
 31
0.0
  0
CIRCLE
  5
2F8
330
A
100
AcDbEntity
  8
LEVEL001
  6
Continuous
 62
     7
100
AcDbCircle
 10
178.80714989366
 20
40.15367397594002
 30
0.0
 40
0.3
  0
LINE
  5
2F9
330
A
100
AcDbEntity
  8
LEVEL001
  6
Continuous
 62
     7
100
AcDbLine
 10
177.10714989366
 20
40.55367397593999
 30
0.0
 11
176.10714989366
 21
40.55367397593999
 31
0.0
  0
ARC
  5
2FA
330
A
100
AcDbEntity
  8
LEVEL001
  6
Continuous
 62
     7
100
AcDbCircle
 10
177.10714989366
 20
40.15367397594002
 30
0.0
 40
0.4
100
AcDbArc
 50
270.0
 51
90.0
  0
ARC
  5
2FB
330
A
100
AcDbEntity
  8
LEVEL001
  6
Continuous
 62
     7
100
AcDbCircle
 10
176.10714989366
 20
40.15367397594002
 30
0.0
 40
0.4
100
AcDbArc
 50
90.0
 51
270.0
  0
LINE
  5
2FC
330
A
100
AcDbEntity
  8
LEVEL001
  6
Continuous
 62
     7
100
AcDbLine
 10
177.10714989366
 20
39.75367397593999
 30
0.0
 11
176.10714989366
 21
39.75367397593999
 31
0.0
  0
CIRCLE
  5
300
330
A
100
AcDbEntity
  8
LEVEL001
  6
Continuous
 62
     7
100
AcDbCircle
 10
136.30714989366
 20
40.15367397594002
 30
0.0
 40
0.3
  0
LINE
  5
301
330
A
100
AcDbEntity
  8
LEVEL001
  6
Continuous
 62
     7
100
AcDbLine
 10
134.60714989366
 20
40.55367397593999
 30
0.0
 11
133.60714989366
 21
40.55367397593999
 31
0.0
  0
ARC
  5
302
330
A
100
AcDbEntity
  8
LEVEL001
  6
Continuous
 62
     7
100
AcDbCircle
 10
134.60714989366
 20
40.15367397594002
 30
0.0
 40
0.4
100
AcDbArc
 50
270.0
 51
90.0
  0
ARC
  5
303
330
A
100
AcDbEntity
  8
LEVEL001
  6
Continuous
 62
     7
100
AcDbCircle
 10
133.60714989366
 20
40.15367397594002
 30
0.0
 40
0.4
100
AcDbArc
 50
90.0
 51
270.0
  0
LINE
  5
304
330
A
100
AcDbEntity
  8
LEVEL001
  6
Continuous
 62
     7
100
AcDbLine
 10
134.60714989366
 20
39.75367397593999
 30
0.0
 11
133.60714989366
 21
39.75367397593999
 31
0.0
  0
CIRCLE
  5
308
330
A
100
AcDbEntity
  8
LEVEL001
  6
Continuous
 62
     7
100
AcDbCircle
 10
93.807149893659
 20
40.15367397594002
 30
0.0
 40
0.3
  0
LINE
  5
309
330
A
100
AcDbEntity
  8
LEVEL001
  6
Continuous
 62
     7
100
AcDbLine
 10
92.107149893659
 20
40.55367397593999
 30
0.0
 11
91.107149893659
 21
40.55367397593999
 31
0.0
  0
ARC
  5
30A
330
A
100
AcDbEntity
  8
LEVEL001
  6
Continuous
 62
     7
100
AcDbCircle
 10
92.107149893659
 20
40.15367397594002
 30
0.0
 40
0.4
100
AcDbArc
 50
270.0
 51
90.0
  0
ARC
  5
30B
330
A
100
AcDbEntity
  8
LEVEL001
  6
Continuous
 62
     7
100
AcDbCircle
 10
91.107149893659
 20
40.15367397594002
 30
0.0
 40
0.4
100
AcDbArc
 50
90.0
 51
270.0
  0
LINE
  5
30C
330
A
100
AcDbEntity
  8
LEVEL001
  6
Continuous
 62
     7
100
AcDbLine
 10
92.107149893659
 20
39.75367397593999
 30
0.0
 11
91.107149893659
 21
39.75367397593999
 31
0.0
  0
CIRCLE
  5
310
330
A
100
AcDbEntity
  8
LEVEL001
  6
Continuous
 62
     7
100
AcDbCircle
 10
51.307149893659
 20
40.15367397594002
 30
0.0
 40
0.3
  0
LINE
  5
311
330
A
100
AcDbEntity
  8
LEVEL001
  6
Continuous
 62
     7
100
AcDbLine
 10
49.607149893659
 20
40.55367397593999
 30
0.0
 11
48.607149893659
 21
40.55367397593999
 31
0.0
  0
ARC
  5
312
330
A
100
AcDbEntity
  8
LEVEL001
  6
Continuous
 62
     7
100
AcDbCircle
 10
49.607149893659
 20
40.15367397594002
 30
0.0
 40
0.4
100
AcDbArc
 50
270.0
 51
90.0
  0
ARC
  5
313
330
A
100
AcDbEntity
  8
LEVEL001
  6
Continuous
 62
     7
100
AcDbCircle
 10
48.607149893659
 20
40.15367397594002
 30
0.0
 40
0.4
100
AcDbArc
 50
90.0
 51
270.0
  0
LINE
  5
314
330
A
100
AcDbEntity
  8
LEVEL001
  6
Continuous
 62
     7
100
AcDbLine
 10
49.607149893659
 20
39.75367397593999
 30
0.0
 11
48.607149893659
 21
39.75367397593999
 31
0.0
  0
CIRCLE
  5
317
330
A
100
AcDbEntity
  8
LEVEL001
  6
Continuous
 62
     7
100
AcDbCircle
 10
60.857149893659
 20
45.95194958171998
 30
0.0
 40
0.3
  0
CIRCLE
  5
31A
330
A
100
AcDbEntity
  8
LEVEL001
  6
Continuous
 62
     7
100
AcDbCircle
 10
103.35714989366
 20
45.95194958171998
 30
0.0
 40
0.3
  0
CIRCLE
  5
31D
330
A
100
AcDbEntity
  8
LEVEL001
  6
Continuous
 62
     7
100
AcDbCircle
 10
145.85714989366
 20
45.95194958171998
 30
0.0
 40
0.3
  0
CIRCLE
  5
320
330
A
100
AcDbEntity
  8
LEVEL001
  6
Continuous
 62
     7
100
AcDbCircle
 10
188.35714989366
 20
45.95194958171998
 30
0.0
 40
0.3
  0
CIRCLE
  5
323
330
A
100
AcDbEntity
  8
LEVEL001
  6
Continuous
 62
     7
100
AcDbCircle
 10
197.85714989366
 20
40.15367397594002
 30
0.0
 40
0.3
  0
CIRCLE
  5
326
330
A
100
AcDbEntity
  8
LEVEL001
  6
Continuous
 62
     7
100
AcDbCircle
 10
155.35714989366
 20
40.15367397594002
 30
0.0
 40
0.3
  0
CIRCLE
  5
329
330
A
100
AcDbEntity
  8
LEVEL001
  6
Continuous
 62
     7
100
AcDbCircle
 10
112.85714989366
 20
40.15367397594002
 30
0.0
 40
0.3
  0
CIRCLE
  5
32C
330
A
100
AcDbEntity
  8
LEVEL001
  6
Continuous
 62
     7
100
AcDbCircle
 10
70.35714989365899
 20
40.15367397594002
 30
0.0
 40
0.3
  0
LINE
  5
32D
330
A
100
AcDbEntity
  8
LEVEL001
  6
DASHDOT
 62
     8
100
AcDbLine
 10
22.716392551438
 20
102.49663580122
 30
0.0
 11
23.371084974627
 21
103.15132822441
 31
0.0
  0
LINE
  5
32E
330
A
100
AcDbEntity
  8
LEVEL001
  6
Continuous
 62
     2
100
AcDbLine
 10
20.494151353037
 20
92.65896170951998
 30
0.0
 11
20.694151353037
 21
92.65896170951998
 31
0.0
  0
LINE
  5
32F
330
A
100
AcDbEntity
  8
LEVEL001
  6
Continuous
 62
     2
100
AcDbLine
 10
20.494151353037
 20
92.65896170951998
 30
0.0
 11
20.494151353033
 21
94.75896170952001
 31
0.0
  0
LINE
  5
330
330
A
100
AcDbEntity
  8
LEVEL001
  6
Continuous
 62
     2
100
AcDbLine
 10
20.694151353037
 20
92.65896170951998
 30
0.0
 11
20.694151353033
 21
94.67611899704001
 31
0.0
  0
LINE
  5
331
330
A
100
AcDbEntity
  8
LEVEL001
  6
Continuous
 62
     2
100
AcDbLine
 10
22.513999834019
 20
96.49596747803002
 30
0.0
 11
22.372578477782
 21
96.63738883426999
 31
0.0
  0
LINE
  5
332
330
A
100
AcDbEntity
  8
LEVEL001
  6
Continuous
 62
     2
100
AcDbLine
 10
23.645370683917
 20
97.62733832792998
 30
0.0
 11
23.50394932768
 21
97.76875968417
 31
0.0
  0
LINE
  5
333
330
A
100
AcDbEntity
  8
LEVEL001
  6
Continuous
 62
     2
100
AcDbLine
 10
20.494151353037
 20
107.26261970217
 30
0.0
 11
20.494151353033
 21
105.16261970217
 31
0.0
  0
LINE
  5
334
330
A
100
AcDbEntity
  8
LEVEL001
  6
Continuous
 62
     2
100
AcDbLine
 10
20.694151353037
 20
107.26261970217
 30
0.0
 11
20.694151353033
 21
105.2454624146399
 31
0.0
  0
LINE
  5
335
330
A
100
AcDbEntity
  8
LEVEL001
  6
Continuous
 62
     2
100
AcDbLine
 10
22.513999834019
 20
103.4256139336599
 30
0.0
 11
22.372578477782
 21
103.28419257742
 31
0.0
  0
LINE
  5
336
330
A
100
AcDbEntity
  8
LEVEL001
  6
Continuous
 62
     2
100
AcDbLine
 10
23.645370683917
 20
102.29424308376
 30
0.0
 11
23.50394932768
 21
102.15282172752
 31
0.0
  0
LINE
  5
337
330
A
100
AcDbEntity
  8
LEVEL001
  6
Continuous
 62
     2
100
AcDbLine
 10
20.694151353033
 20
94.67611899704001
 30
0.0
 11
25.695980349358
 21
99.67794799337003
 31
0.0
  0
ARC
  5
338
330
A
100
AcDbEntity
  8
LEVEL001
  6
Continuous
 62
     2
100
AcDbCircle
 10
25.413137636886
 20
99.96079070584
 30
0.0
 40
0.4
100
AcDbArc
 50
314.9999999999998
 51
45.00000000036846
  0
LINE
  5
339
330
A
100
AcDbEntity
  8
LEVEL001
  6
Continuous
 62
     2
100
AcDbLine
 10
20.694151353033
 20
105.2454624146399
 30
0.0
 11
25.695980349358
 21
100.2436334183199
 31
0.0
  0
LINE
  5
33A
330
A
100
AcDbEntity
  8
LEVEL001
  6
Continuous
 62
     2
100
AcDbLine
 10
20.494151353033
 20
105.16261970217
 30
0.0
 11
25.554558993121
 21
100.10221206208
 31
0.0
  0
ARC
  5
33B
330
A
100
AcDbEntity
  8
LEVEL001
  6
Continuous
 62
     2
100
AcDbCircle
 10
25.413137636868
 20
99.96079070586
 30
0.0
 40
0.2
100
AcDbArc
 50
314.9999999999902
 51
44.99999999365424
  0
LINE
  5
33C
330
A
100
AcDbEntity
  8
LEVEL001
  6
Continuous
 62
     2
100
AcDbLine
 10
20.494151353033
 20
94.75896170952001
 30
0.0
 11
25.554558993121
 21
99.81936934960998
 31
0.0
  0
LINE
  5
33D
330
A
100
AcDbEntity
  8
LEVEL001
  6
Continuous
 62
     2
100
AcDbLine
 10
20.494151353037
 20
107.26261970217
 30
0.0
 11
20.694151353037
 21
107.26261970217
 31
0.0
  0
LINE
  5
33E
330
A
100
AcDbEntity
  8
LEVEL001
  6
DASHDOT
 62
     8
100
AcDbLine
 10
22.716392551438
 20
97.42494561045999
 30
0.0
 11
23.371084974628
 21
96.77025318727999
 31
0.0
  0
LWPOLYLINE
  5
33F
330
A
100
AcDbEntity
  8
LEVEL001
  6
Continuous
 62
     2
100
AcDbPolyline
 90
        5
 70
     0
 43
0.0
 10
29.607149893659
 20
107.26261970217
 10
29.607149893659
 20
92.65896170951998
 10
179.10714989366
 20
92.65896170951998
 10
179.10714989366
 20
107.26261970217
 10
29.607149893659
 20
107.26261970217
  0
LINE
  5
346
330
A
100
AcDbEntity
  8
LEVEL001
  6
Continuous
 62
     2
100
AcDbLine
 10
29.607149893659
 20
105.2454624146399
 30
0.0
 11
179.10714989366
 21
105.2454624146399
 31
0.0
  0
LINE
  5
347
330
A
100
AcDbEntity
  8
LEVEL001
  6
Continuous
 62
     2
100
AcDbLine
 10
29.607149893659
 20
99.96079070584
 30
0.0
 11
179.10714989366
 21
99.96079070584
 31
0.0
  0
LINE
  5
348
330
A
100
AcDbEntity
  8
LEVEL001
  6
Continuous
 62
     2
100
AcDbLine
 10
179.10714989366
 20
94.67611899704001
 30
0.0
 11
29.607149893659
 21
94.67611899704001
 31
0.0
  0
CIRCLE
  5
34C
330
A
100
AcDbEntity
  8
LEVEL001
  6
Continuous
 62
     7
100
AcDbCircle
 10
37.407149893659
 20
102.85992850873
 30
0.0
 40
0.3
  0
LINE
  5
34D
330
A
100
AcDbEntity
  8
LEVEL001
  6
Continuous
 62
     7
100
AcDbLine
 10
39.107149893659
 20
103.25992850873
 30
0.0
 11
40.107149893659
 21
103.25992850873
 31
0.0
  0
LINE
  5
34E
330
A
100
AcDbEntity
  8
LEVEL001
  6
Continuous
 62
     7
100
AcDbLine
 10
39.107149893659
 20
102.45992850873
 30
0.0
 11
40.107149893659
 21
102.45992850873
 31
0.0
  0
ARC
  5
34F
330
A
100
AcDbEntity
  8
LEVEL001
  6
Continuous
 62
     7
100
AcDbCircle
 10
39.107149893659
 20
102.85992850873
 30
0.0
 40
0.4
100
AcDbArc
 50
90.0
 51
270.0
  0
ARC
  5
350
330
A
100
AcDbEntity
  8
LEVEL001
  6
Continuous
 62
     7
100
AcDbCircle
 10
40.107149893659
 20
102.85992850873
 30
0.0
 40
0.4
100
AcDbArc
 50
270.0
 51
90.0
  0
CIRCLE
  5
354
330
A
100
AcDbEntity
  8
LEVEL001
  6
Continuous
 62
     7
100
AcDbCircle
 10
77.40714989365899
 20
102.85992850873
 30
0.0
 40
0.3
  0
LINE
  5
355
330
A
100
AcDbEntity
  8
LEVEL001
  6
Continuous
 62
     7
100
AcDbLine
 10
79.10714989365899
 20
103.25992850873
 30
0.0
 11
80.10714989365899
 21
103.25992850873
 31
0.0
  0
LINE
  5
356
330
A
100
AcDbEntity
  8
LEVEL001
  6
Continuous
 62
     7
100
AcDbLine
 10
79.10714989365899
 20
102.45992850873
 30
0.0
 11
80.10714989365899
 21
102.45992850873
 31
0.0
  0
ARC
  5
357
330
A
100
AcDbEntity
  8
LEVEL001
  6
Continuous
 62
     7
100
AcDbCircle
 10
79.10714989365899
 20
102.85992850873
 30
0.0
 40
0.4
100
AcDbArc
 50
90.0
 51
270.0
  0
ARC
  5
358
330
A
100
AcDbEntity
  8
LEVEL001
  6
Continuous
 62
     7
100
AcDbCircle
 10
80.10714989365899
 20
102.85992850873
 30
0.0
 40
0.4
100
AcDbArc
 50
270.0
 51
90.0
  0
CIRCLE
  5
35C
330
A
100
AcDbEntity
  8
LEVEL001
  6
Continuous
 62
     7
100
AcDbCircle
 10
117.40714989366
 20
102.85992850873
 30
0.0
 40
0.3
  0
LINE
  5
35D
330
A
100
AcDbEntity
  8
LEVEL001
  6
Continuous
 62
     7
100
AcDbLine
 10
119.10714989366
 20
103.25992850873
 30
0.0
 11
120.10714989366
 21
103.25992850873
 31
0.0
  0
LINE
  5
35E
330
A
100
AcDbEntity
  8
LEVEL001
  6
Continuous
 62
     7
100
AcDbLine
 10
119.10714989366
 20
102.45992850873
 30
0.0
 11
120.10714989366
 21
102.45992850873
 31
0.0
  0
ARC
  5
35F
330
A
100
AcDbEntity
  8
LEVEL001
  6
Continuous
 62
     7
100
AcDbCircle
 10
119.10714989366
 20
102.85992850873
 30
0.0
 40
0.4
100
AcDbArc
 50
90.0
 51
270.0
  0
ARC
  5
360
330
A
100
AcDbEntity
  8
LEVEL001
  6
Continuous
 62
     7
100
AcDbCircle
 10
120.10714989366
 20
102.85992850873
 30
0.0
 40
0.4
100
AcDbArc
 50
270.0
 51
90.0
  0
CIRCLE
  5
364
330
A
100
AcDbEntity
  8
LEVEL001
  6
Continuous
 62
     7
100
AcDbCircle
 10
157.40714989366
 20
102.85992850873
 30
0.0
 40
0.3
  0
LINE
  5
365
330
A
100
AcDbEntity
  8
LEVEL001
  6
Continuous
 62
     7
100
AcDbLine
 10
159.10714989366
 20
103.25992850873
 30
0.0
 11
160.10714989366
 21
103.25992850873
 31
0.0
  0
LINE
  5
366
330
A
100
AcDbEntity
  8
LEVEL001
  6
Continuous
 62
     7
100
AcDbLine
 10
159.10714989366
 20
102.45992850873
 30
0.0
 11
160.10714989366
 21
102.45992850873
 31
0.0
  0
ARC
  5
367
330
A
100
AcDbEntity
  8
LEVEL001
  6
Continuous
 62
     7
100
AcDbCircle
 10
159.10714989366
 20
102.85992850873
 30
0.0
 40
0.4
100
AcDbArc
 50
90.0
 51
270.0
  0
ARC
  5
368
330
A
100
AcDbEntity
  8
LEVEL001
  6
Continuous
 62
     7
100
AcDbCircle
 10
160.10714989366
 20
102.85992850873
 30
0.0
 40
0.4
100
AcDbArc
 50
270.0
 51
90.0
  0
CIRCLE
  5
36C
330
A
100
AcDbEntity
  8
LEVEL001
  6
Continuous
 62
     7
100
AcDbCircle
 10
171.30714989366
 20
97.06165290296002
 30
0.0
 40
0.3
  0
LINE
  5
36D
330
A
100
AcDbEntity
  8
LEVEL001
  6
Continuous
 62
     7
100
AcDbLine
 10
169.60714989366
 20
96.66165290296
 30
0.0
 11
168.60714989366
 21
96.66165290296
 31
0.0
  0
LINE
  5
36E
330
A
100
AcDbEntity
  8
LEVEL001
  6
Continuous
 62
     7
100
AcDbLine
 10
169.60714989366
 20
97.46165290296
 30
0.0
 11
168.60714989366
 21
97.46165290296
 31
0.0
  0
ARC
  5
36F
330
A
100
AcDbEntity
  8
LEVEL001
  6
Continuous
 62
     7
100
AcDbCircle
 10
169.60714989366
 20
97.06165290296002
 30
0.0
 40
0.4
100
AcDbArc
 50
270.0
 51
90.0
  0
ARC
  5
370
330
A
100
AcDbEntity
  8
LEVEL001
  6
Continuous
 62
     7
100
AcDbCircle
 10
168.60714989366
 20
97.06165290296002
 30
0.0
 40
0.4
100
AcDbArc
 50
90.0
 51
270.0
  0
CIRCLE
  5
374
330
A
100
AcDbEntity
  8
LEVEL001
  6
Continuous
 62
     7
100
AcDbCircle
 10
131.30714989366
 20
97.06165290296002
 30
0.0
 40
0.3
  0
LINE
  5
375
330
A
100
AcDbEntity
  8
LEVEL001
  6
Continuous
 62
     7
100
AcDbLine
 10
129.60714989366
 20
96.66165290296
 30
0.0
 11
128.60714989366
 21
96.66165290296
 31
0.0
  0
LINE
  5
376
330
A
100
AcDbEntity
  8
LEVEL001
  6
Continuous
 62
     7
100
AcDbLine
 10
129.60714989366
 20
97.46165290296
 30
0.0
 11
128.60714989366
 21
97.46165290296
 31
0.0
  0
ARC
  5
377
330
A
100
AcDbEntity
  8
LEVEL001
  6
Continuous
 62
     7
100
AcDbCircle
 10
129.60714989366
 20
97.06165290296002
 30
0.0
 40
0.4
100
AcDbArc
 50
270.0
 51
90.0
  0
ARC
  5
378
330
A
100
AcDbEntity
  8
LEVEL001
  6
Continuous
 62
     7
100
AcDbCircle
 10
128.60714989366
 20
97.06165290296002
 30
0.0
 40
0.4
100
AcDbArc
 50
90.0
 51
270.0
  0
CIRCLE
  5
37C
330
A
100
AcDbEntity
  8
LEVEL001
  6
Continuous
 62
     7
100
AcDbCircle
 10
91.307149893659
 20
97.06165290296002
 30
0.0
 40
0.3
  0
LINE
  5
37D
330
A
100
AcDbEntity
  8
LEVEL001
  6
Continuous
 62
     7
100
AcDbLine
 10
89.607149893659
 20
96.66165290296
 30
0.0
 11
88.607149893659
 21
96.66165290296
 31
0.0
  0
LINE
  5
37E
330
A
100
AcDbEntity
  8
LEVEL001
  6
Continuous
 62
     7
100
AcDbLine
 10
89.607149893659
 20
97.46165290296
 30
0.0
 11
88.607149893659
 21
97.46165290296
 31
0.0
  0
ARC
  5
37F
330
A
100
AcDbEntity
  8
LEVEL001
  6
Continuous
 62
     7
100
AcDbCircle
 10
89.607149893659
 20
97.06165290296002
 30
0.0
 40
0.4
100
AcDbArc
 50
270.0
 51
90.0
  0
ARC
  5
380
330
A
100
AcDbEntity
  8
LEVEL001
  6
Continuous
 62
     7
100
AcDbCircle
 10
88.607149893659
 20
97.06165290296002
 30
0.0
 40
0.4
100
AcDbArc
 50
90.0
 51
270.0
  0
CIRCLE
  5
384
330
A
100
AcDbEntity
  8
LEVEL001
  6
Continuous
 62
     7
100
AcDbCircle
 10
51.307149893659
 20
97.06165290296002
 30
0.0
 40
0.3
  0
LINE
  5
385
330
A
100
AcDbEntity
  8
LEVEL001
  6
Continuous
 62
     7
100
AcDbLine
 10
49.607149893659
 20
96.66165290296
 30
0.0
 11
48.607149893659
 21
96.66165290296
 31
0.0
  0
LINE
  5
386
330
A
100
AcDbEntity
  8
LEVEL001
  6
Continuous
 62
     7
100
AcDbLine
 10
49.607149893659
 20
97.46165290296
 30
0.0
 11
48.607149893659
 21
97.46165290296
 31
0.0
  0
ARC
  5
387
330
A
100
AcDbEntity
  8
LEVEL001
  6
Continuous
 62
     7
100
AcDbCircle
 10
49.607149893659
 20
97.06165290296002
 30
0.0
 40
0.4
100
AcDbArc
 50
270.0
 51
90.0
  0
ARC
  5
388
330
A
100
AcDbEntity
  8
LEVEL001
  6
Continuous
 62
     7
100
AcDbCircle
 10
48.607149893659
 20
97.06165290296002
 30
0.0
 40
0.4
100
AcDbArc
 50
90.0
 51
270.0
  0
CIRCLE
  5
38B
330
A
100
AcDbEntity
  8
LEVEL001
  6
Continuous
 62
     7
100
AcDbCircle
 10
59.607149893659
 20
102.85992850873
 30
0.0
 40
0.3
  0
CIRCLE
  5
38E
330
A
100
AcDbEntity
  8
LEVEL001
  6
Continuous
 62
     7
100
AcDbCircle
 10
99.607149893659
 20
102.85992850873
 30
0.0
 40
0.3
  0
CIRCLE
  5
391
330
A
100
AcDbEntity
  8
LEVEL001
  6
Continuous
 62
     7
100
AcDbCircle
 10
139.60714989366
 20
102.85992850873
 30
0.0
 40
0.3
  0
CIRCLE
  5
394
330
A
100
AcDbEntity
  8
LEVEL001
  6
Continuous
 62
     7
100
AcDbCircle
 10
149.10714989366
 20
97.06165290296002
 30
0.0
 40
0.3
  0
CIRCLE
  5
397
330
A
100
AcDbEntity
  8
LEVEL001
  6
Continuous
 62
     7
100
AcDbCircle
 10
109.10714989366
 20
97.06165290296002
 30
0.0
 40
0.3
  0
CIRCLE
  5
39A
330
A
100
AcDbEntity
  8
LEVEL001
  6
Continuous
 62
     7
100
AcDbCircle
 10
69.10714989365899
 20
97.06165290296002
 30
0.0
 40
0.3
  0
TEXT
  5
39B
330
A
100
AcDbEntity
  8
LEVEL001
 62
     8
100
AcDbText
 10
341.2466666666967
 20
223.5833333333399
 30
0.0
 40
3.5
  1
ＣＰＬ６５タイプ
 41
0.8
 72
     1
 11
354.50000000003
 21
225.33333333334
 31
0.0
100
AcDbText
 73
     2
  0
TEXT
  5
39C
330
A
100
AcDbEntity
  8
LEVEL001
 62
     7
100
AcDbText
 10
370.90000000003
 20
16.375
 30
0.0
 40
3.75
  1
ＣＰＬ－２
 41
0.8
 72
     1
 11
379.50000000003
 21
18.25
 31
0.0
100
AcDbText
 73
     2
  0
TEXT
  5
39E
330
A
100
AcDbEntity
  8
LEVEL001
 62
     8
100
AcDbText
 10
314.50000000003
 20
204.75
 30
0.0
 40
3.0
  1
●ＣＰＬ６５
 41
0.8
100
AcDbText
  0
TEXT
  5
39F
330
A
100
AcDbEntity
  8
LEVEL001
 62
     8
100
AcDbText
 10
314.50000000003
 20
200.75
 30
0.0
 40
3.0
  1
　材質：本体－特殊樹脂
 41
0.8
100
AcDbText
  0
TEXT
  5
3A0
330
A
100
AcDbEntity
  8
LEVEL001
 62
     8
100
AcDbText
 10
314.50000000003
 20
196.75
 30
0.0
 40
3.0
  1
　　　　芯材－亜鉛鋼板
 41
0.8
100
AcDbText
  0
TEXT
  5
3A1
330
A
100
AcDbEntity
  8
LEVEL001
 62
     8
100
AcDbText
 10
314.50000000003
 20
192.75
 30
0.0
 40
3.0
  1
              アルミ(Ｂ２シルバー)(※１ｍのみ)
 41
0.8
100
AcDbText
  0
TEXT
  5
3A2
330
A
100
AcDbEntity
  8
LEVEL001
 62
     8
100
AcDbText
 10
314.50000000003
 20
485.7499999999999
 30
0.0
 40
3.0
  1
　
100
AcDbText
  0
TEXT
  5
3A3
330
A
100
AcDbEntity
  8
LEVEL001
 62
     8
100
AcDbText
 10
314.50000000003
 20
184.75
 30
0.0
 40
3.0
  1
　長さ：１０００m/m･１５００m/m･２０００m/m
 41
0.8
100
AcDbText
  0
TEXT
  5
3A4
330
A
100
AcDbEntity
  8
LEVEL001
 62
     8
100
AcDbText
 10
314.50000000003
 20
477.7499999999999
 30
0.0
 40
3.0
  1
　
100
AcDbText
  0
TEXT
  5
3AC
330
A
100
AcDbEntity
  8
LEVEL001
 62
     8
100
AcDbText
 10
314.50000000003
 20
445.75
 30
0.0
 40
3.0
  1

 41
0.5
100
AcDbText
  0
TEXT
  5
3AD
330
A
100
AcDbEntity
  8
LEVEL001
 62
     8
100
AcDbText
 10
314.50000000003
 20
144.75
 30
0.0
 40
3.0
  1
●ＣＰ６５(キャップ)
 41
0.8
100
AcDbText
  0
TEXT
  5
3AE
330
A
100
AcDbEntity
  8
LEVEL001
 62
     8
100
AcDbText
 10
314.50000000003
 20
140.75
 30
0.0
 40
3.0
  1
　材質：合成ゴム
 41
0.8
100
AcDbText
  0
TEXT
  5
3AF
330
A
100
AcDbEntity
  8
LEVEL001
 62
     8
100
AcDbText
 10
314.50000000003
 20
136.75
 30
0.0
 40
3.0
  1
　適応：ＣＰＬ６５用　
 41
0.8
100
AcDbText
  0
TEXT
  5
3B3
330
A
100
AcDbEntity
  8
LEVEL001
 62
     8
100
AcDbText
 10
314.50000000003
 20
192.75
 30
0.0
 40
3.0
  1
　
100
AcDbText
  0
TEXT
  5
3B5
330
A
100
AcDbEntity
  8
LEVEL001
 62
     8
100
AcDbText
 10
314.50000000003
 20
184.75
 30
0.0
 40
3.0
  1
　
100
AcDbText
  0
TEXT
  5
3BB
330
A
100
AcDbEntity
  8
LEVEL001
 62
     8
100
AcDbText
 10
314.50000000003
 20
160.75
 30
0.0
 40
3.0
  1

 41
0.5
100
AcDbText
  0
TEXT
  5
488
330
A
100
AcDbEntity
  8
LEVEL001
 62
     8
100
AcDbText
 10
314.50000000003
 20
786.75
 30
0.0
 40
3.0
  1
              
 41
0.5
100
AcDbText
  0
TEXT
  5
48A
330
A
100
AcDbEntity
  8
LEVEL001
 62
     8
100
AcDbText
 10
314.50000000003
 20
778.75
 30
0.0
 40
3.0
  1
　
100
AcDbText
  0
TEXT
  5
48F
330
A
100
AcDbEntity
  8
LEVEL001
 62
     8
100
AcDbText
 10
314.50000000003
 20
758.75
 30
0.0
 40
3.0
  1

 41
0.5
100
AcDbText
  0
TEXT
  5
4E8
330
A
100
AcDbEntity
  8
LEVEL001
 62
     8
100
AcDbText
 10
18.779937791403
 20
186.15038592875
 30
0.0
 40
3.5
  1
･ＣＰＬ６５１０用芯金
 41
0.8
 11
18.779937791403
 21
187.9003859287499
 31
0.0
100
AcDbText
 73
     2
  0
TEXT
  5
4E9
330
A
100
AcDbEntity
  8
LEVEL001
 62
     8
100
AcDbText
 10
18.779937791403
 20
70.56325502376001
 30
0.0
 40
3.5
  1
･ＣＰＬ６５２０用芯金
 41
0.8
 11
18.779937791403
 21
72.31325502376001
 31
0.0
100
AcDbText
 73
     2
  0
TEXT
  5
4EA
330
A
100
AcDbEntity
  8
LEVEL001
 62
     8
100
AcDbText
 10
18.779937791403
 20
127.47123395077
 30
0.0
 40
3.5
  1
･ＣＰＬ６５１５用芯金
 41
0.8
 11
18.779937791403
 21
129.22123395077
 31
0.0
100
AcDbText
 73
     2
  0
TEXT
  5
4F1
330
A
100
AcDbEntity
  8
LEVEL001
 62
     8
100
AcDbText
 10
117.0903873431567
 20
14.28268776140999
 30
0.0
 40
4.0
  1
ＣＰＬ６５用芯材ピッチ図(Ｓ＝１：１０)
 41
0.8
 72
     1
 11
153.46372067649
 21
16.28268776140999
 31
0.0
100
AcDbText
 73
     2
  0
TEXT
  5
583
330
A
100
AcDbEntity
  8
LEVEL001
 62
     7
100
AcDbText
 10
371.85508456083
 20
47.16666666666998
 30
0.0
 40
3.0
  1
平成２６年１０月３１日
 41
0.8
 72
     1
 11
387.21508456083
 21
48.66666666666998
 31
0.0
100
AcDbText
 73
     2
  0
ARC
  5
584
330
A
100
AcDbEntity
  8
LEVEL001
  6
Continuous
 62
     1
100
AcDbCircle
 10
87.28731823294699
 20
249.5644763481999
 30
0.0
 40
2.0
100
AcDbArc
 50
45.00000000000023
 51
134.9999999998799
  0
ARC
  5
585
330
A
100
AcDbEntity
  8
LEVEL001
  6
Continuous
 62
     1
100
AcDbCircle
 10
87.28731823295701
 20
249.5644763481901
 30
0.0
 40
1.0
100
AcDbArc
 50
45.0000000005718
 51
134.9999999999997
  0
LINE
  5
586
330
A
100
AcDbEntity
  8
LEVEL001
  6
Continuous
 62
     1
100
AcDbLine
 10
76.327163124561
 20
240.0185348021801
 30
0.0
 11
75.620056343369
 21
240.72564158337
 31
0.0
  0
LINE
  5
587
330
A
100
AcDbEntity
  8
LEVEL001
  6
Continuous
 62
     1
100
AcDbLine
 10
70.67030887506899
 20
234.36168055268
 30
0.0
 11
69.963202093877
 21
235.06878733388
 31
0.0
  0
ARC
  5
588
330
A
100
AcDbEntity
  8
LEVEL001
  6
Continuous
 62
     1
100
AcDbCircle
 10
52.290557817378
 20
226.58853121275
 30
0.0
 40
0.5
100
AcDbArc
 50
89.999999999972
 51
269.99999999997
  0
LINE
  5
589
330
A
100
AcDbEntity
  8
LEVEL001
  6
Continuous
 62
     1
100
AcDbLine
 10
61.982945972749
 20
227.08853121275
 30
0.0
 11
52.290557817378
 21
227.08853121275
 31
0.0
  0
LINE
  5
58A
330
A
100
AcDbEntity
  8
LEVEL001
  6
Continuous
 62
     1
100
AcDbLine
 10
85.87310467057701
 20
250.97868991058
 30
0.0
 11
61.982945972749
 21
227.08853121275
 31
0.0
  0
LINE
  5
58B
330
A
100
AcDbEntity
  8
LEVEL001
  6
Continuous
 62
     1
100
AcDbLine
 10
52.290557817377
 20
226.08853121275
 30
0.0
 11
62.397159535111
 21
226.08853121273
 31
0.0
  0
LINE
  5
58C
330
A
100
AcDbEntity
  8
LEVEL001
  6
Continuous
 62
     1
100
AcDbLine
 10
62.397159535111
 20
226.08853121273
 30
0.0
 11
86.580211451764
 21
250.27158312938
 31
0.0
  0
LINE
  5
58D
330
A
100
AcDbEntity
  8
LEVEL001
  6
Continuous
 62
     1
100
AcDbLine
 10
98.247473341327
 20
240.0185348021801
 30
0.0
 11
98.954580122519
 21
240.72564158337
 31
0.0
  0
LINE
  5
58E
330
A
100
AcDbEntity
  8
LEVEL001
  6
Continuous
 62
     1
100
AcDbLine
 10
103.90432759082
 20
234.36168055268
 30
0.0
 11
104.61143437201
 21
235.06878733388
 31
0.0
  0
ARC
  5
58F
330
A
100
AcDbEntity
  8
LEVEL001
  6
Continuous
 62
     1
100
AcDbCircle
 10
122.28407864851
 20
226.58853121275
 30
0.0
 40
0.5
100
AcDbArc
 50
270.00000000004
 51
90.00000000003899
  0
LINE
  5
590
330
A
100
AcDbEntity
  8
LEVEL001
  6
Continuous
 62
     1
100
AcDbLine
 10
112.59169049314
 20
227.08853121275
 30
0.0
 11
122.28407864851
 21
227.08853121275
 31
0.0
  0
LINE
  5
591
330
A
100
AcDbEntity
  8
LEVEL001
  6
Continuous
 62
     1
100
AcDbLine
 10
88.70153179531099
 20
250.97868991058
 30
0.0
 11
112.59169049314
 21
227.08853121275
 31
0.0
  0
LINE
  5
592
330
A
100
AcDbEntity
  8
LEVEL001
  6
Continuous
 62
     1
100
AcDbLine
 10
122.28407864851
 20
226.08853121275
 30
0.0
 11
112.17747693078
 21
226.08853121273
 31
0.0
  0
LINE
  5
593
330
A
100
AcDbEntity
  8
LEVEL001
  6
Continuous
 62
     1
100
AcDbLine
 10
112.17747693078
 20
226.08853121273
 30
0.0
 11
87.994425014124
 21
250.27158312938
 31
0.0
  0
TEXT
  5
594
330
A
100
AcDbEntity
  8
LEVEL001
 62
     8
100
AcDbText
 10
58.19960883378967
 20
197.59919604132
 30
0.0
 40
4.0
  1
ＣＰＬ６５断面図(Ｓ＝１：１)
 41
0.8
 72
     1
 11
84.97294216712299
 21
199.59919604132
 31
0.0
100
AcDbText
 73
     2
  0
LINE
  5
595
330
A
100
AcDbEntity
  8
LEVEL003
  6
DASHDOT
 62
     6
370
    15
100
AcDbLine
 10
87.28731823294401
 20
279.11301942665
 30
0.0
 11
87.287318232945
 21
206.5664958163
 31
0.0
  0
LINE
  5
596
330
A
100
AcDbEntity
  8
LEVEL001
  6
DASHDOT
 62
     6
370
    15
100
AcDbLine
 10
236.07231014739
 20
280.87337428541
 30
0.0
 11
236.07231014739
 21
204.55749867165
 31
0.0
  0
TEXT
  5
597
330
A
100
AcDbEntity
  8
LEVEL001
 62
     8
100
AcDbText
 10
207.1656434807233
 20
197.59919604132
 30
0.0
 40
4.0
  1
ＣＰ６５(キャップ)(Ｓ＝１：１)
 41
0.8
 72
     1
 11
236.07231014739
 21
199.59919604132
 31
0.0
100
AcDbText
 73
     2
  0
TEXT
  5
598
330
A
100
AcDbEntity
  8
LEVEL001
 62
     8
100
AcDbText
 10
141.4721795880596
 20
142.0612795310794
 30
0.0
 40
4.0
  1
※アルミ芯金は１ｍのみ
 41
0.8
 72
     1
 11
162.1655129213929
 21
144.0612795310794
 31
0.0
100
AcDbText
 73
     2
  0
ARC
  5
59E
330
A
100
AcDbEntity
  8
LEVEL003
  6
Continuous
 62
     3
370
    30
100
AcDbCircle
 10
87.28731823294401
 20
246.7360492234
 30
0.0
 40
18.0
100
AcDbArc
 50
45.00000000000073
 51
90.000000000002
  0
ARC
  5
59F
330
A
100
AcDbEntity
  8
LEVEL003
  6
Continuous
 62
     3
370
    30
100
AcDbCircle
 10
87.28731823294401
 20
246.7360492234
 30
0.0
 40
13.0
100
AcDbArc
 50
55.47568169638886
 51
90.000000000003
  0
ARC
  5
5A0
330
A
100
AcDbEntity
  8
LEVEL003
  6
Continuous
 62
     3
370
    30
100
AcDbCircle
 10
93.521633940965
 20
255.79879205616
 30
0.0
 40
2.0
100
AcDbArc
 50
314.999999999959
 51
55.47568169657671
  0
LINE
  5
5A1
330
A
100
AcDbEntity
  8
LEVEL003
  6
Continuous
 62
     3
370
    30
100
AcDbLine
 10
100.0152402943
 20
259.46397128475
 30
0.0
 11
127.94595815117
 21
231.53325342789
 31
0.0
  0
LINE
  5
5A2
330
A
100
AcDbEntity
  8
LEVEL003
  6
Continuous
 62
     3
370
    30
100
AcDbLine
 10
90.11574535769
 20
249.56447634814
 30
0.0
 11
93.65127926362299
 21
246.02894244221
 31
0.0
  0
LINE
  5
5A3
330
A
100
AcDbEntity
  8
LEVEL003
  6
Continuous
 62
     3
370
    30
100
AcDbLine
 10
90.11574535769
 20
249.56447634814
 30
0.0
 11
94.93584750333299
 21
254.38457849379
 31
0.0
  0
LINE
  5
5A4
330
A
100
AcDbEntity
  8
LEVEL003
  6
Continuous
 62
     3
370
    30
100
AcDbLine
 10
93.65127926362299
 20
246.02894244221
 30
0.0
 11
100.0152402943
 21
252.39290347289
 31
0.0
  0
ARC
  5
5A5
330
A
100
AcDbEntity
  8
LEVEL003
  6
Continuous
 62
     3
370
    30
100
AcDbCircle
 10
87.28731823294401
 20
246.7360492234
 30
0.0
 40
18.0
100
AcDbArc
 50
90.000000000002
 51
134.9999999999997
  0
ARC
  5
5A6
330
A
100
AcDbEntity
  8
LEVEL003
  6
Continuous
 62
     3
370
    30
100
AcDbCircle
 10
87.287318232945
 20
246.7360492234
 30
0.0
 40
13.0
100
AcDbArc
 50
90.00000000000699
 51
124.5243183036191
  0
ARC
  5
5A7
330
A
100
AcDbEntity
  8
LEVEL003
  6
Continuous
 62
     3
370
    30
100
AcDbCircle
 10
81.053002524927
 20
255.79879205616
 30
0.0
 40
2.0
100
AcDbArc
 50
124.5243183036105
 51
225.0000000000194
  0
LINE
  5
5A8
330
A
100
AcDbEntity
  8
LEVEL003
  6
Continuous
 62
     3
370
    30
100
AcDbLine
 10
74.559396126696
 20
259.46397123987
 30
0.0
 11
46.275124924124
 21
231.17970003729
 31
0.0
  0
LINE
  5
5A9
330
A
100
AcDbEntity
  8
LEVEL003
  6
Continuous
 62
     3
370
    30
100
AcDbLine
 10
117.36469689137
 20
225.61889692392
 30
0.0
 11
116.99328968728
 21
225.24748971982
 31
0.0
  0
ARC
  5
5AA
330
A
100
AcDbEntity
  8
LEVEL003
  6
Continuous
 62
     3
370
    30
100
AcDbCircle
 10
118.07180367256
 20
224.9117901427299
 30
0.0
 40
1.0
100
AcDbArc
 50
91.97493401076
 51
134.9999999998296
  0
LINE
  5
5AB
330
A
100
AcDbEntity
  8
LEVEL003
  6
Continuous
 62
     3
370
    30
100
AcDbLine
 10
84.458891108198
 20
249.56447634814
 30
0.0
 11
80.92335720226499
 21
246.02894244221
 31
0.0
  0
LINE
  5
5AC
330
A
100
AcDbEntity
  8
LEVEL003
  6
Continuous
 62
     3
370
    30
100
AcDbLine
 10
84.458891108198
 20
249.56447634814
 30
0.0
 11
79.638788962555
 21
254.38457849379
 31
0.0
  0
LINE
  5
5AD
330
A
100
AcDbEntity
  8
LEVEL003
  6
Continuous
 62
     3
370
    30
100
AcDbLine
 10
80.92335720226499
 20
246.02894244221
 30
0.0
 11
74.559396171586
 21
252.39290347289
 31
0.0
  0
LINE
  5
5AE
330
A
100
AcDbEntity
  8
LEVEL003
  6
Continuous
 62
     3
370
    30
100
AcDbLine
 10
123.34976407346
 20
218.45177797594
 30
0.0
 11
127.94595815117
 21
223.04797205365
 31
0.0
  0
ARC
  5
5AF
330
A
100
AcDbEntity
  8
LEVEL003
  6
Continuous
 62
     3
370
    30
100
AcDbCircle
 10
121.93555051109
 20
219.86599153831
 30
0.0
 40
2.0
100
AcDbArc
 50
225.0000000000002
 51
314.9999999998607
  0
ARC
  5
5B0
330
A
100
AcDbEntity
  8
LEVEL003
  6
Continuous
 62
     3
370
    30
100
AcDbCircle
 10
123.70331746405
 20
227.29061274077
 30
0.0
 40
6.0
100
AcDbArc
 50
314.9999999999998
 51
44.99999999996862
  0
ARC
  5
5B1
330
A
100
AcDbEntity
  8
LEVEL003
  6
Continuous
 62
     3
370
    30
100
AcDbCircle
 10
121.93555051108
 20
219.8659915383
 30
0.0
 40
2.0
100
AcDbArc
 50
213.0555994899502
 51
315.0000000002995
  0
LINE
  5
5B2
330
A
100
AcDbEntity
  8
LEVEL003
  6
Continuous
 62
     3
370
    30
100
AcDbLine
 10
116.86225480985
 20
223.99493031916
 30
0.0
 11
120.25926719386
 21
218.77508629935
 31
0.0
  0
ARC
  5
5B3
330
A
100
AcDbEntity
  8
LEVEL003
  6
Continuous
 62
     3
370
    30
100
AcDbCircle
 10
117.70039646846
 20
224.54038293864
 30
0.0
 40
1.0
100
AcDbArc
 50
135.0000000000309
 51
213.0555994901601
  0
LINE
  5
5B4
330
A
100
AcDbEntity
  8
LEVEL003
  6
Continuous
 62
     3
370
    30
100
AcDbLine
 10
122.78407864851
 20
226.07487673698
 30
0.0
 11
118.03734139672
 21
225.91119614209
 31
0.0
  0
LINE
  5
5B5
330
A
100
AcDbEntity
  8
LEVEL003
  6
Continuous
 62
     3
370
    30
100
AcDbLine
 10
122.78407864851
 20
227.64416613136
 30
0.0
 11
122.78407864851
 21
226.07487673698
 31
0.0
  0
LINE
  5
5B6
330
A
100
AcDbEntity
  8
LEVEL003
  6
Continuous
 62
     3
370
    30
100
AcDbLine
 10
122.78407864851
 20
227.64416613136
 30
0.0
 11
100.0152402943
 21
252.39290347289
 31
0.0
  0
LINE
  5
5B7
330
A
100
AcDbEntity
  8
LEVEL003
  6
Continuous
 62
     3
370
    30
100
AcDbLine
 10
57.209939574516
 20
225.61889692392
 30
0.0
 11
57.581346778612
 21
225.24748971982
 31
0.0
  0
ARC
  5
5B8
330
A
100
AcDbEntity
  8
LEVEL003
  6
Continuous
 62
     3
370
    30
100
AcDbCircle
 10
56.502832793346
 20
224.9117901427299
 30
0.0
 40
1.0
100
AcDbArc
 50
45.00000000069548
 51
88.02506599007999
  0
LINE
  5
5B9
330
A
100
AcDbEntity
  8
LEVEL003
  6
Continuous
 62
     3
370
    30
100
AcDbLine
 10
57.71238165604
 20
223.99493031916
 30
0.0
 11
54.315369272032
 21
218.77508629935
 31
0.0
  0
ARC
  5
5BA
330
A
100
AcDbEntity
  8
LEVEL003
  6
Continuous
 62
     3
370
    30
100
AcDbCircle
 10
56.87423999741899
 20
224.54038293864
 30
0.0
 40
1.0
100
AcDbArc
 50
326.9444005098595
 51
44.99999999941906
  0
LINE
  5
5BB
330
A
100
AcDbEntity
  8
LEVEL003
  6
Continuous
 62
     3
370
    30
100
AcDbLine
 10
51.804699953003
 20
226.07438907713
 30
0.0
 11
56.53729506916899
 21
225.91119614209
 31
0.0
  0
LINE
  5
5BC
330
A
100
AcDbEntity
  8
LEVEL003
  6
Continuous
 62
     3
370
    30
100
AcDbLine
 10
51.790557817378
 20
227.64416613136
 30
0.0
 11
74.559396171586
 21
252.39290347289
 31
0.0
  0
LINE
  5
5BD
330
A
100
AcDbEntity
  8
LEVEL003
  6
Continuous
 62
     7
100
AcDbLine
 10
100.0152402943
 20
259.46397128475
 30
0.0
 11
99.827629977422
 21
259.6523067427
 31
0.0
  0
LINE
  5
5BE
330
A
100
AcDbEntity
  8
LEVEL003
  6
Continuous
 62
     3
370
    30
100
AcDbLine
 10
127.94595815117
 20
223.04797205365
 30
0.0
 11
123.34976407346
 21
218.45177797594
 31
0.0
  0
LINE
  5
5BF
330
A
100
AcDbEntity
  8
LEVEL003
  6
Continuous
 62
     3
370
    30
100
AcDbLine
 10
51.22487239243
 20
218.45177797594
 30
0.0
 11
46.62867831471699
 21
223.04797205365
 31
0.0
  0
LINE
  5
5C0
330
A
100
AcDbEntity
  8
LEVEL003
  6
Continuous
 62
     3
370
    30
100
AcDbLine
 10
51.22487239243
 20
218.45177797594
 30
0.0
 11
46.628678314718
 21
223.04797205365
 31
0.0
  0
ARC
  5
5C1
330
A
100
AcDbEntity
  8
LEVEL003
  6
Continuous
 62
     3
370
    30
100
AcDbCircle
 10
50.871319001838
 20
227.29061274077
 30
0.0
 40
6.0
100
AcDbArc
 50
134.9999999999997
 51
224.9999999999907
  0
ARC
  5
5C2
330
A
100
AcDbEntity
  8
LEVEL003
  6
Continuous
 62
     3
370
    30
100
AcDbCircle
 10
52.639085954804
 20
219.86599153831
 30
0.0
 40
2.0
100
AcDbArc
 50
225.0000000000099
 51
326.9444005099295
  0
LINE
  5
5C3
330
A
100
AcDbEntity
  8
LEVEL003
  6
Continuous
 62
     3
370
    30
100
AcDbLine
 10
51.790557817378
 20
227.64416613136
 30
0.0
 11
51.790557817378
 21
226.08853121275
 31
0.0
  0
ARC
  5
5C4
330
A
100
AcDbEntity
  8
LEVEL001
  6
Continuous
 62
     3
370
    30
100
AcDbCircle
 10
236.07231014737
 20
245.2360492233999
 30
0.0
 40
18.0
100
AcDbArc
 50
44.99999999999973
 51
134.9999999999206
  0
ARC
  5
5C5
330
A
100
AcDbEntity
  8
LEVEL001
  6
Continuous
 62
     3
370
    30
100
AcDbCircle
 10
236.07231014737
 20
245.2360492233999
 30
0.0
 40
19.5
100
AcDbArc
 50
44.99999999999973
 51
134.9999999999206
  0
LINE
  5
5C6
330
A
100
AcDbEntity
  8
LEVEL001
  6
Continuous
 62
     3
370
    30
100
AcDbLine
 10
195.41367022911
 20
230.03325342793
 30
0.0
 11
223.34438808603
 21
257.96397128477
 31
0.0
  0
ARC
  5
5C7
330
A
100
AcDbEntity
  8
LEVEL001
  6
Continuous
 62
     3
370
    30
100
AcDbCircle
 10
199.65631091622
 20
225.7906127408
 30
0.0
 40
6.0
100
AcDbArc
 50
134.9999999999206
 51
225.0000000000002
  0
LINE
  5
5C8
330
A
100
AcDbEntity
  8
LEVEL001
  6
Continuous
 62
     3
370
    30
100
AcDbLine
 10
202.13118465037
 20
214.83045763242
 30
0.0
 11
195.4136702291
 21
221.5479720536801
 31
0.0
  0
ARC
  5
5C9
330
A
100
AcDbEntity
  8
LEVEL001
  6
Continuous
 62
     3
370
    30
100
AcDbCircle
 10
199.65631091623
 20
225.7906127408
 30
0.0
 40
7.5
100
AcDbArc
 50
134.9999999999206
 51
224.999999999981
  0
LWPOLYLINE
  5
5CA
330
A
100
AcDbEntity
  8
LEVEL001
  6
Continuous
 62
     3
370
    30
100
AcDbPolyline
 90
        5
 70
     0
 43
0.0
 10
277.79161023733
 20
220.48731188191
 10
271.07409581606
 20
213.76979746064
 10
236.07231014732
 20
248.77158312937
 10
201.07052447859
 20
213.76979746064
 10
194.35301005733
 20
220.48731188191
  0
LINE
  5
5D1
330
A
100
AcDbEntity
  8
LEVEL001
  6
Continuous
 62
     3
370
    30
100
AcDbLine
 10
194.35301005733
 20
231.09391359971
 30
0.0
 11
222.28372791425
 21
259.02463145655
 31
0.0
  0
LINE
  5
5D2
330
A
100
AcDbEntity
  8
LEVEL001
  6
Continuous
 62
     3
370
    30
100
AcDbLine
 10
217.6875338366
 20
244.52894244225
 30
0.0
 11
207.78803889999
 21
234.62944750564
 31
0.0
  0
LINE
  5
5D3
330
A
100
AcDbEntity
  8
LEVEL001
  6
Continuous
 62
     3
370
    30
100
AcDbLine
 10
218.39464061779
 20
243.82183566107
 30
0.0
 11
208.49514568117
 21
233.92234072446
 31
0.0
  0
ARC
  5
5D4
330
A
100
AcDbEntity
  8
LEVEL001
  6
Continuous
 62
     3
370
    30
100
AcDbCircle
 10
210.65218217013
 20
228.3012026203599
 30
0.0
 40
0.5
100
AcDbArc
 50
270.58469140281
 51
90.58469140280998
  0
ARC
  5
5D5
330
A
100
AcDbEntity
  8
LEVEL001
  6
Continuous
 62
     3
370
    30
100
AcDbCircle
 10
224.01577872188
 20
241.66479917211
 30
0.0
 40
0.5
100
AcDbArc
 50
179.4153085971897
 51
359.4153085971898
  0
ARC
  5
5D6
330
A
100
AcDbEntity
  8
LEVEL001
  6
Continuous
 62
     3
370
    30
100
AcDbCircle
 10
220.51596096135
 20
241.7005153175101
 30
0.0
 40
4.0
100
AcDbArc
 50
359.4153085971214
 51
135.0000000001004
  0
ARC
  5
5D7
330
A
100
AcDbEntity
  8
LEVEL001
  6
Continuous
 62
     3
370
    30
100
AcDbCircle
 10
220.51596096134
 20
241.7005153175001
 30
0.0
 40
3.0
100
AcDbArc
 50
359.4153085973103
 51
134.9999999998296
  0
ARC
  5
5D8
330
A
100
AcDbEntity
  8
LEVEL001
  6
Continuous
 62
     3
370
    30
100
AcDbCircle
 10
210.61646602474
 20
231.8010203809
 30
0.0
 40
4.0
100
AcDbArc
 50
135.0000000000693
 51
270.5846914027599
  0
ARC
  5
5D9
330
A
100
AcDbEntity
  8
LEVEL001
  6
Continuous
 62
     3
370
    30
100
AcDbCircle
 10
210.61646602474
 20
231.8010203809
 30
0.0
 40
3.0
100
AcDbArc
 50
135.0000000000789
 51
270.58469140275
  0
LINE
  5
5DA
330
A
100
AcDbEntity
  8
LEVEL001
  6
Continuous
 62
     3
370
    30
100
AcDbLine
 10
248.80023220873
 20
257.96397128476
 30
0.0
 11
276.73095006555
 21
230.03325342793
 31
0.0
  0
ARC
  5
5DB
330
A
100
AcDbEntity
  8
LEVEL001
  6
Continuous
 62
     3
370
    30
100
AcDbCircle
 10
272.48830937843
 20
225.7906127408101
 30
0.0
 40
6.0
100
AcDbArc
 50
314.9999999999806
 51
44.99999999999973
  0
LINE
  5
5DC
330
A
100
AcDbEntity
  8
LEVEL001
  6
Continuous
 62
     3
370
    30
100
AcDbLine
 10
276.73095006555
 20
221.5479720536901
 30
0.0
 11
270.01343564428
 21
214.83045763242
 31
0.0
  0
ARC
  5
5DD
330
A
100
AcDbEntity
  8
LEVEL001
  6
Continuous
 62
     3
370
    30
100
AcDbCircle
 10
272.48830937843
 20
225.7906127408101
 30
0.0
 40
7.5
100
AcDbArc
 50
314.9999999999998
 51
45.00000000000073
  0
LINE
  5
5DE
330
A
100
AcDbEntity
  8
LEVEL001
  6
Continuous
 62
     3
370
    30
100
AcDbLine
 10
249.86089238051
 20
259.02463145653
 30
0.0
 11
277.79161023733
 21
231.09391359971
 31
0.0
  0
LINE
  5
5DF
330
A
100
AcDbEntity
  8
LEVEL001
  6
Continuous
 62
     3
370
    30
100
AcDbLine
 10
254.45708645817
 20
244.52894244225
 30
0.0
 11
264.35658139479
 21
234.62944750564
 31
0.0
  0
LINE
  5
5E0
330
A
100
AcDbEntity
  8
LEVEL001
  6
Continuous
 62
     3
370
    30
100
AcDbLine
 10
253.74997967699
 20
243.82183566107
 30
0.0
 11
263.6494746136
 21
233.92234072446
 31
0.0
  0
ARC
  5
5E1
330
A
100
AcDbEntity
  8
LEVEL001
  6
Continuous
 62
     3
370
    30
100
AcDbCircle
 10
261.49243812464
 20
228.3012026203599
 30
0.0
 40
0.5
100
AcDbArc
 50
89.41530859718602
 51
269.41530859719
  0
ARC
  5
5E2
330
A
100
AcDbEntity
  8
LEVEL001
  6
Continuous
 62
     3
370
    30
100
AcDbCircle
 10
248.12884157289
 20
241.66479917211
 30
0.0
 40
0.5
100
AcDbArc
 50
180.5846914028102
 51
0.584691402806948
  0
ARC
  5
5E3
330
A
100
AcDbEntity
  8
LEVEL001
  6
Continuous
 62
     3
370
    30
100
AcDbCircle
 10
251.62865933343
 20
241.7005153175101
 30
0.0
 40
4.0
100
AcDbArc
 50
45.00000000002375
 51
180.5846914027906
  0
ARC
  5
5E4
330
A
100
AcDbEntity
  8
LEVEL001
  6
Continuous
 62
     3
370
    30
100
AcDbCircle
 10
251.62865933343
 20
241.7005153175001
 30
0.0
 40
3.0
100
AcDbArc
 50
45.00000000012922
 51
180.5846914027092
  0
ARC
  5
5E5
330
A
100
AcDbEntity
  8
LEVEL001
  6
Continuous
 62
     3
370
    30
100
AcDbCircle
 10
261.52815427004
 20
231.8010203809
 30
0.0
 40
4.0
100
AcDbArc
 50
269.41530859721
 51
44.99999999997341
  0
ARC
  5
5E6
330
A
100
AcDbEntity
  8
LEVEL001
  6
Continuous
 62
     3
370
    30
100
AcDbCircle
 10
261.52815427004
 20
231.8010203809
 30
0.0
 40
3.0
100
AcDbArc
 50
269.41530859727
 51
44.99999999989856
  0
LWPOLYLINE
  5
5E7
330
A
100
AcDbEntity
  8
LEVEL001
  6
Continuous
 62
     3
370
    30
100
AcDbPolyline
 90
        5
 70
     0
 43
0.0
 10
162.01257201318
 20
264.7360492234
 10
162.01257201318
 20
213.76979746064
 10
177.01257201318
 20
213.76979746064
 10
177.01257201318
 20
264.7360492234
 10
162.01257201318
 20
264.7360492234
  0
LINE
  5
733
330
A
100
AcDbEntity
  8
LEVEL001
  6
Continuous
 62
     6
370
    15
100
AcDbLine
 10
29.607149893659
 20
181.94177168015
 30
0.0
 11
129.10714989366
 21
181.94177168015
 31
0.0
  0
LINE
  5
734
330
A
100
AcDbEntity
  8
LEVEL001
  6
Continuous
 62
     6
370
    15
100
AcDbLine
 10
29.607149893659
 20
174.94177168015
 30
0.0
 11
29.607149893659
 21
182.94177168015
 31
0.0
  0
LINE
  5
735
330
A
100
AcDbEntity
  8
LEVEL001
  6
Continuous
 62
     6
370
    15
100
AcDbLine
 10
129.10714989366
 20
174.94177168015
 30
0.0
 11
129.10714989366
 21
182.94177168015
 31
0.0
  0
CIRCLE
  5
736
330
A
100
AcDbEntity
  8
LEVEL001
  6
Continuous
 62
     6
370
    15
100
AcDbCircle
 10
29.607149893659
 20
181.94177168015
 30
0.0
 40
0.2
  0
CIRCLE
  5
737
330
A
100
AcDbEntity
  8
LEVEL001
  6
Continuous
 62
     6
370
    15
100
AcDbCircle
 10
129.10714989366
 20
181.94177168015
 30
0.0
 40
0.2
  0
TEXT
  5
738
330
A
100
AcDbEntity
  8
LEVEL001
 62
     6
370
    15
100
AcDbText
 10
75.35714989365899
 20
182.44177168015
 30
0.0
 40
3.0
  1
９９５
 41
0.8
100
AcDbText
  0
LINE
  5
739
330
A
100
AcDbEntity
  8
LEVEL001
  6
Continuous
 62
     6
370
    15
100
AcDbLine
 10
29.607149893659
 20
171.67356728534
 30
0.0
 11
39.607149893659
 21
171.67356728534
 31
0.0
  0
LINE
  5
73A
330
A
100
AcDbEntity
  8
LEVEL001
  6
Continuous
 62
     6
370
    15
100
AcDbLine
 10
29.607149893659
 20
166.94177168015
 30
0.0
 11
29.607149893659
 21
172.67356728534
 31
0.0
  0
CIRCLE
  5
73B
330
A
100
AcDbEntity
  8
LEVEL001
  6
Continuous
 62
     6
370
    15
100
AcDbCircle
 10
29.607149893659
 20
171.67356728534
 30
0.0
 40
0.2
  0
TEXT
  5
73C
330
A
100
AcDbEntity
  8
LEVEL001
 62
     6
370
    15
100
AcDbText
 10
30.607149893659
 20
172.17356728534
 30
0.0
 40
3.0
  1
１００
 41
0.8
100
AcDbText
  0
LINE
  5
73D
330
A
100
AcDbEntity
  8
LEVEL001
  6
Continuous
 62
     6
370
    15
100
AcDbLine
 10
39.607149893659
 20
171.67356728534
 30
0.0
 11
77.107149893659
 21
171.67356728534
 31
0.0
  0
LINE
  5
73E
330
A
100
AcDbEntity
  8
LEVEL001
  6
Continuous
 62
     6
370
    15
100
AcDbLine
 10
39.607149893659
 20
162.53908048671
 30
0.0
 11
39.607149893659
 21
172.67356728534
 31
0.0
  0
CIRCLE
  5
73F
330
A
100
AcDbEntity
  8
LEVEL001
  6
Continuous
 62
     6
370
    15
100
AcDbCircle
 10
39.607149893659
 20
171.67356728534
 30
0.0
 40
0.2
  0
TEXT
  5
740
330
A
100
AcDbEntity
  8
LEVEL001
 62
     6
370
    15
100
AcDbText
 10
51.973721593568
 20
172.14945193805
 30
0.0
 40
3.0
  1
３７５
 41
0.8
100
AcDbText
  0
LINE
  5
741
330
A
100
AcDbEntity
  8
LEVEL001
  6
Continuous
 62
     6
370
    15
100
AcDbLine
 10
77.107149893659
 20
171.67356728534
 30
0.0
 11
114.60714989366
 21
171.67356728534
 31
0.0
  0
LINE
  5
742
330
A
100
AcDbEntity
  8
LEVEL001
  6
Continuous
 62
     6
370
    15
100
AcDbLine
 10
77.107149893659
 20
162.53908048671
 30
0.0
 11
77.107149893659
 21
172.67356728534
 31
0.0
  0
CIRCLE
  5
743
330
A
100
AcDbEntity
  8
LEVEL001
  6
Continuous
 62
     6
370
    15
100
AcDbCircle
 10
77.107149893659
 20
171.67356728534
 30
0.0
 40
0.2
  0
TEXT
  5
744
330
A
100
AcDbEntity
  8
LEVEL001
 62
     6
370
    15
100
AcDbText
 10
89.420530104213
 20
172.05343448033
 30
0.0
 40
3.0
  1
３７５
 41
0.8
100
AcDbText
  0
LINE
  5
745
330
A
100
AcDbEntity
  8
LEVEL001
  6
Continuous
 62
     6
370
    15
100
AcDbLine
 10
114.60714989366
 20
171.67356728534
 30
0.0
 11
129.10714989366
 21
171.67356728534
 31
0.0
  0
LINE
  5
746
330
A
100
AcDbEntity
  8
LEVEL001
  6
Continuous
 62
     6
370
    15
100
AcDbLine
 10
114.60714989366
 20
162.53908048671
 30
0.0
 11
114.60714989366
 21
172.67356728534
 31
0.0
  0
LINE
  5
747
330
A
100
AcDbEntity
  8
LEVEL001
  6
Continuous
 62
     6
370
    15
100
AcDbLine
 10
129.10714989366
 20
166.94177168015
 30
0.0
 11
129.10714989366
 21
172.67356728534
 31
0.0
  0
CIRCLE
  5
748
330
A
100
AcDbEntity
  8
LEVEL001
  6
Continuous
 62
     6
370
    15
100
AcDbCircle
 10
114.60714989366
 20
171.67356728534
 30
0.0
 40
0.2
  0
CIRCLE
  5
749
330
A
100
AcDbEntity
  8
LEVEL001
  6
Continuous
 62
     6
370
    15
100
AcDbCircle
 10
129.10714989366
 20
171.67356728534
 30
0.0
 40
0.2
  0
TEXT
  5
74A
330
A
100
AcDbEntity
  8
LEVEL001
 62
     6
370
    15
100
AcDbText
 10
117.85714989366
 20
172.17356728534
 30
0.0
 40
3.0
  1
１４５
 41
0.8
100
AcDbText
  0
LINE
  5
74B
330
A
100
AcDbEntity
  8
LEVEL001
  6
Continuous
 62
     6
370
    15
100
AcDbLine
 10
29.607149893659
 20
177.41090673426
 30
0.0
 11
58.357149893659
 21
177.41090673426
 31
0.0
  0
LINE
  5
74C
330
A
100
AcDbEntity
  8
LEVEL001
  6
Continuous
 62
     6
370
    15
100
AcDbLine
 10
29.607149893659
 20
170.94177168015
 30
0.0
 11
29.607149893659
 21
178.41090673426
 31
0.0
  0
CIRCLE
  5
74D
330
A
100
AcDbEntity
  8
LEVEL001
  6
Continuous
 62
     6
370
    15
100
AcDbCircle
 10
29.607149893659
 20
177.41090673426
 30
0.0
 40
0.2
  0
TEXT
  5
74E
330
A
100
AcDbEntity
  8
LEVEL001
 62
     6
370
    15
100
AcDbText
 10
38.107149893659
 20
177.9109067342599
 30
0.0
 40
3.0
  1
２８７.５
 41
0.8
100
AcDbText
  0
LINE
  5
74F
330
A
100
AcDbEntity
  8
LEVEL001
  6
Continuous
 62
     6
370
    15
100
AcDbLine
 10
58.357149893659
 20
177.41090673426
 30
0.0
 11
95.857149893659
 21
177.41090673426
 31
0.0
  0
LINE
  5
750
330
A
100
AcDbEntity
  8
LEVEL001
  6
Continuous
 62
     6
370
    15
100
AcDbLine
 10
58.357149893659
 20
162.53908048671
 30
0.0
 11
58.357149893659
 21
178.41090673426
 31
0.0
  0
CIRCLE
  5
751
330
A
100
AcDbEntity
  8
LEVEL001
  6
Continuous
 62
     6
370
    15
100
AcDbCircle
 10
58.357149893659
 20
177.41090673426
 30
0.0
 40
0.2
  0
TEXT
  5
752
330
A
100
AcDbEntity
  8
LEVEL001
 62
     6
370
    15
100
AcDbText
 10
73.107149893659
 20
177.9109067342599
 30
0.0
 40
3.0
  1
３７５
 41
0.8
100
AcDbText
  0
LINE
  5
753
330
A
100
AcDbEntity
  8
LEVEL001
  6
Continuous
 62
     6
370
    15
100
AcDbLine
 10
95.857149893659
 20
177.41090673426
 30
0.0
 11
129.10714989366
 21
177.41090673426
 31
0.0
  0
LINE
  5
754
330
A
100
AcDbEntity
  8
LEVEL001
  6
Continuous
 62
     6
370
    15
100
AcDbLine
 10
95.857149893659
 20
162.53908048671
 30
0.0
 11
95.857149893659
 21
178.41090673426
 31
0.0
  0
LINE
  5
755
330
A
100
AcDbEntity
  8
LEVEL001
  6
Continuous
 62
     6
370
    15
100
AcDbLine
 10
129.10714989366
 20
170.94177168015
 30
0.0
 11
129.10714989366
 21
178.41090673426
 31
0.0
  0
CIRCLE
  5
756
330
A
100
AcDbEntity
  8
LEVEL001
  6
Continuous
 62
     6
370
    15
100
AcDbCircle
 10
95.857149893659
 20
177.41090673426
 30
0.0
 40
0.2
  0
CIRCLE
  5
757
330
A
100
AcDbEntity
  8
LEVEL001
  6
Continuous
 62
     6
370
    15
100
AcDbCircle
 10
129.10714989366
 20
177.41090673426
 30
0.0
 40
0.2
  0
TEXT
  5
758
330
A
100
AcDbEntity
  8
LEVEL001
 62
     6
370
    15
100
AcDbText
 10
106.60714989366
 20
177.9109067342599
 30
0.0
 40
3.0
  1
３３２.５
 41
0.8
100
AcDbText
  0
LINE
  5
759
330
A
100
AcDbEntity
  8
LEVEL001
  6
Continuous
 62
     6
370
    15
100
AcDbLine
 10
29.607149893659
 20
145.07317529487
 30
0.0
 11
44.10714989365899
 21
145.07317529487
 31
0.0
  0
LINE
  5
75A
330
A
100
AcDbEntity
  8
LEVEL001
  6
Continuous
 62
     6
370
    15
100
AcDbLine
 10
29.607149893659
 20
150.3381136875
 30
0.0
 11
29.607149893659
 21
144.07317529487
 31
0.0
  0
CIRCLE
  5
75B
330
A
100
AcDbEntity
  8
LEVEL001
  6
Continuous
 62
     6
370
    15
100
AcDbCircle
 10
29.607149893659
 20
145.07317529487
 30
0.0
 40
0.2
  0
TEXT
  5
75C
330
A
100
AcDbEntity
  8
LEVEL001
 62
     6
370
    15
100
AcDbText
 10
32.857149893659
 20
145.57317529487
 30
0.0
 40
3.0
  1
１４５
 41
0.8
100
AcDbText
  0
LINE
  5
75D
330
A
100
AcDbEntity
  8
LEVEL001
  6
Continuous
 62
     6
370
    15
100
AcDbLine
 10
44.10714989365899
 20
145.07317529487
 30
0.0
 11
81.60714989365899
 21
145.07317529487
 31
0.0
  0
LINE
  5
75E
330
A
100
AcDbEntity
  8
LEVEL001
  6
Continuous
 62
     6
370
    15
100
AcDbLine
 10
44.10714989365899
 20
154.74080488094
 30
0.0
 11
44.10714989365899
 21
144.07317529487
 31
0.0
  0
CIRCLE
  5
75F
330
A
100
AcDbEntity
  8
LEVEL001
  6
Continuous
 62
     6
370
    15
100
AcDbCircle
 10
44.10714989365899
 20
145.07317529487
 30
0.0
 40
0.2
  0
TEXT
  5
760
330
A
100
AcDbEntity
  8
LEVEL001
 62
     6
370
    15
100
AcDbText
 10
62.343607027285
 20
145.85184783686
 30
0.0
 40
3.0
  1
３７５
 41
0.8
100
AcDbText
  0
LINE
  5
761
330
A
100
AcDbEntity
  8
LEVEL001
  6
Continuous
 62
     6
370
    15
100
AcDbLine
 10
81.60714989365899
 20
145.07317529487
 30
0.0
 11
119.10714989366
 21
145.07317529487
 31
0.0
  0
LINE
  5
762
330
A
100
AcDbEntity
  8
LEVEL001
  6
Continuous
 62
     6
370
    15
100
AcDbLine
 10
81.60714989365899
 20
154.74080488094
 30
0.0
 11
81.60714989365899
 21
144.07317529487
 31
0.0
  0
CIRCLE
  5
763
330
A
100
AcDbEntity
  8
LEVEL001
  6
Continuous
 62
     6
370
    15
100
AcDbCircle
 10
81.60714989365899
 20
145.07317529487
 30
0.0
 40
0.2
  0
TEXT
  5
764
330
A
100
AcDbEntity
  8
LEVEL001
 62
     6
370
    15
100
AcDbText
 10
99.59838062249101
 20
145.56379546371
 30
0.0
 40
3.0
  1
３７５
 41
0.8
100
AcDbText
  0
LINE
  5
765
330
A
100
AcDbEntity
  8
LEVEL001
  6
Continuous
 62
     6
370
    15
100
AcDbLine
 10
119.10714989366
 20
145.07317529487
 30
0.0
 11
129.10714989366
 21
145.07317529487
 31
0.0
  0
LINE
  5
766
330
A
100
AcDbEntity
  8
LEVEL001
  6
Continuous
 62
     6
370
    15
100
AcDbLine
 10
119.10714989366
 20
154.74080488094
 30
0.0
 11
119.10714989366
 21
144.07317529487
 31
0.0
  0
LINE
  5
767
330
A
100
AcDbEntity
  8
LEVEL001
  6
Continuous
 62
     6
370
    15
100
AcDbLine
 10
129.10714989366
 20
150.3381136875
 30
0.0
 11
129.10714989366
 21
144.07317529487
 31
0.0
  0
CIRCLE
  5
768
330
A
100
AcDbEntity
  8
LEVEL001
  6
Continuous
 62
     6
370
    15
100
AcDbCircle
 10
119.10714989366
 20
145.07317529487
 30
0.0
 40
0.2
  0
CIRCLE
  5
769
330
A
100
AcDbEntity
  8
LEVEL001
  6
Continuous
 62
     6
370
    15
100
AcDbCircle
 10
129.10714989366
 20
145.07317529487
 30
0.0
 40
0.2
  0
TEXT
  5
76A
330
A
100
AcDbEntity
  8
LEVEL001
 62
     6
370
    15
100
AcDbText
 10
120.10714989366
 20
145.57317529487
 30
0.0
 40
3.0
  1
１００
 41
0.8
100
AcDbText
  0
LINE
  5
76B
330
A
100
AcDbEntity
  8
LEVEL001
  6
Continuous
 62
     6
370
    15
100
AcDbLine
 10
29.607149893659
 20
138.0318950621
 30
0.0
 11
62.85714989365899
 21
138.0318950621
 31
0.0
  0
LINE
  5
76C
330
A
100
AcDbEntity
  8
LEVEL001
  6
Continuous
 62
     6
370
    15
100
AcDbLine
 10
29.607149893659
 20
145.3381136875
 30
0.0
 11
29.607149893659
 21
137.0318950621
 31
0.0
  0
CIRCLE
  5
76D
330
A
100
AcDbEntity
  8
LEVEL001
  6
Continuous
 62
     6
370
    15
100
AcDbCircle
 10
29.607149893659
 20
138.0318950621
 30
0.0
 40
0.2
  0
TEXT
  5
76E
330
A
100
AcDbEntity
  8
LEVEL001
 62
     6
370
    15
100
AcDbText
 10
40.35714989365899
 20
138.5318950620999
 30
0.0
 40
3.0
  1
３３２.５
 41
0.8
100
AcDbText
  0
LINE
  5
76F
330
A
100
AcDbEntity
  8
LEVEL001
  6
Continuous
 62
     6
370
    15
100
AcDbLine
 10
62.85714989365899
 20
138.0318950621
 30
0.0
 11
100.35714989366
 21
138.0318950621
 31
0.0
  0
LINE
  5
770
330
A
100
AcDbEntity
  8
LEVEL001
  6
Continuous
 62
     6
370
    15
100
AcDbLine
 10
62.85714989365899
 20
154.74080488094
 30
0.0
 11
62.85714989365899
 21
137.0318950621
 31
0.0
  0
CIRCLE
  5
771
330
A
100
AcDbEntity
  8
LEVEL001
  6
Continuous
 62
     6
370
    15
100
AcDbCircle
 10
62.85714989365899
 20
138.0318950621
 30
0.0
 40
0.2
  0
TEXT
  5
772
330
A
100
AcDbEntity
  8
LEVEL001
 62
     6
370
    15
100
AcDbText
 10
77.607149893659
 20
138.5318950620999
 30
0.0
 40
3.0
  1
３７５
 41
0.8
100
AcDbText
  0
LINE
  5
773
330
A
100
AcDbEntity
  8
LEVEL001
  6
Continuous
 62
     6
370
    15
100
AcDbLine
 10
100.35714989366
 20
138.0318950621
 30
0.0
 11
129.10714989366
 21
138.0318950621
 31
0.0
  0
LINE
  5
774
330
A
100
AcDbEntity
  8
LEVEL001
  6
Continuous
 62
     6
370
    15
100
AcDbLine
 10
100.35714989366
 20
154.74080488094
 30
0.0
 11
100.35714989366
 21
137.0318950621
 31
0.0
  0
LINE
  5
775
330
A
100
AcDbEntity
  8
LEVEL001
  6
Continuous
 62
     6
370
    15
100
AcDbLine
 10
129.10714989366
 20
145.3381136875
 30
0.0
 11
129.10714989366
 21
137.0318950621
 31
0.0
  0
CIRCLE
  5
776
330
A
100
AcDbEntity
  8
LEVEL001
  6
Continuous
 62
     6
370
    15
100
AcDbCircle
 10
100.35714989366
 20
138.0318950621
 30
0.0
 40
0.2
  0
CIRCLE
  5
777
330
A
100
AcDbEntity
  8
LEVEL001
  6
Continuous
 62
     6
370
    15
100
AcDbCircle
 10
129.10714989366
 20
138.0318950621
 30
0.0
 40
0.2
  0
TEXT
  5
778
330
A
100
AcDbEntity
  8
LEVEL001
 62
     6
370
    15
100
AcDbText
 10
108.85714989366
 20
138.5318950620999
 30
0.0
 40
3.0
  1
２８７.５
 41
0.8
100
AcDbText
  0
LINE
  5
779
330
A
100
AcDbEntity
  8
LEVEL001
  6
Continuous
 62
     6
370
    15
100
AcDbLine
 10
29.607149893659
 20
66.35464077515002
 30
0.0
 11
229.10714989366
 21
66.35464077515002
 31
0.0
  0
LINE
  5
77A
330
A
100
AcDbEntity
  8
LEVEL001
  6
Continuous
 62
     6
370
    15
100
AcDbLine
 10
29.607149893659
 20
59.35464077515002
 30
0.0
 11
29.607149893659
 21
67.35464077515001
 31
0.0
  0
LINE
  5
77B
330
A
100
AcDbEntity
  8
LEVEL001
  6
Continuous
 62
     6
370
    15
100
AcDbLine
 10
229.10714989366
 20
59.35464077515002
 30
0.0
 11
229.10714989366
 21
67.35464077515001
 31
0.0
  0
CIRCLE
  5
77C
330
A
100
AcDbEntity
  8
LEVEL001
  6
Continuous
 62
     6
370
    15
100
AcDbCircle
 10
29.607149893659
 20
66.35464077515002
 30
0.0
 40
0.2
  0
CIRCLE
  5
77D
330
A
100
AcDbEntity
  8
LEVEL001
  6
Continuous
 62
     6
370
    15
100
AcDbCircle
 10
229.10714989366
 20
66.35464077515002
 30
0.0
 40
0.2
  0
TEXT
  5
77E
330
A
100
AcDbEntity
  8
LEVEL001
 62
     6
370
    15
100
AcDbText
 10
124.10714989366
 20
66.85464077515002
 30
0.0
 40
3.0
  1
１９９５
 41
0.8
100
AcDbText
  0
LINE
  5
77F
330
A
100
AcDbEntity
  8
LEVEL001
  6
Continuous
 62
     6
370
    15
100
AcDbLine
 10
29.607149893659
 20
54.97481846681001
 30
0.0
 11
39.607149893659
 21
54.97481846681001
 31
0.0
  0
LINE
  5
780
330
A
100
AcDbEntity
  8
LEVEL001
  6
Continuous
 62
     6
370
    15
100
AcDbLine
 10
29.607149893659
 20
51.35464077515002
 30
0.0
 11
29.607149893659
 21
55.97481846681001
 31
0.0
  0
CIRCLE
  5
781
330
A
100
AcDbEntity
  8
LEVEL001
  6
Continuous
 62
     6
370
    15
100
AcDbCircle
 10
29.607149893659
 20
54.97481846681001
 30
0.0
 40
0.2
  0
TEXT
  5
782
330
A
100
AcDbEntity
  8
LEVEL001
 62
     6
370
    15
100
AcDbText
 10
30.607149893659
 20
55.47481846681001
 30
0.0
 40
3.0
  1
１００
 41
0.8
100
AcDbText
  0
LINE
  5
783
330
A
100
AcDbEntity
  8
LEVEL001
  6
Continuous
 62
     6
370
    15
100
AcDbLine
 10
39.607149893659
 20
54.97481846681001
 30
0.0
 11
82.107149893659
 21
54.97481846681001
 31
0.0
  0
LINE
  5
784
330
A
100
AcDbEntity
  8
LEVEL001
  6
Continuous
 62
     6
370
    15
100
AcDbLine
 10
39.607149893659
 20
46.95194958171998
 30
0.0
 11
39.607149893659
 21
55.97481846681001
 31
0.0
  0
CIRCLE
  5
785
330
A
100
AcDbEntity
  8
LEVEL001
  6
Continuous
 62
     6
370
    15
100
AcDbCircle
 10
39.607149893659
 20
54.97481846681001
 30
0.0
 40
0.2
  0
TEXT
  5
786
330
A
100
AcDbEntity
  8
LEVEL001
 62
     6
370
    15
100
AcDbText
 10
53.46930856115299
 20
55.47481846681001
 30
0.0
 40
3.0
  1
４２５
 41
0.8
100
AcDbText
  0
LINE
  5
787
330
A
100
AcDbEntity
  8
LEVEL001
  6
Continuous
 62
     6
370
    15
100
AcDbLine
 10
82.107149893659
 20
54.97481846681001
 30
0.0
 11
124.60714989366
 21
54.97481846681001
 31
0.0
  0
LINE
  5
788
330
A
100
AcDbEntity
  8
LEVEL001
  6
Continuous
 62
     6
370
    15
100
AcDbLine
 10
82.107149893659
 20
46.95194958171998
 30
0.0
 11
82.107149893659
 21
55.97481846681001
 31
0.0
  0
CIRCLE
  5
789
330
A
100
AcDbEntity
  8
LEVEL001
  6
Continuous
 62
     6
370
    15
100
AcDbCircle
 10
82.107149893659
 20
54.97481846681001
 30
0.0
 40
0.2
  0
TEXT
  5
78A
330
A
100
AcDbEntity
  8
LEVEL001
 62
     6
370
    15
100
AcDbText
 10
95.72659170354199
 20
55.47481846681001
 30
0.0
 40
3.0
  1
４２５
 41
0.8
100
AcDbText
  0
LINE
  5
78B
330
A
100
AcDbEntity
  8
LEVEL001
  6
Continuous
 62
     6
370
    15
100
AcDbLine
 10
124.60714989366
 20
54.97481846681001
 30
0.0
 11
167.10714989366
 21
54.97481846681001
 31
0.0
  0
LINE
  5
78C
330
A
100
AcDbEntity
  8
LEVEL001
  6
Continuous
 62
     6
370
    15
100
AcDbLine
 10
124.60714989366
 20
46.95194958171998
 30
0.0
 11
124.60714989366
 21
55.97481846681001
 31
0.0
  0
CIRCLE
  5
78D
330
A
100
AcDbEntity
  8
LEVEL001
  6
Continuous
 62
     6
370
    15
100
AcDbCircle
 10
124.60714989366
 20
54.97481846681001
 30
0.0
 40
0.2
  0
TEXT
  5
78E
330
A
100
AcDbEntity
  8
LEVEL001
 62
     6
370
    15
100
AcDbText
 10
138.15670626983
 20
55.47481846681001
 30
0.0
 40
3.0
  1
４２５
 41
0.8
100
AcDbText
  0
LINE
  5
78F
330
A
100
AcDbEntity
  8
LEVEL001
  6
Continuous
 62
     6
370
    15
100
AcDbLine
 10
167.10714989366
 20
54.97481846681001
 30
0.0
 11
209.60714989366
 21
54.97481846681001
 31
0.0
  0
LINE
  5
790
330
A
100
AcDbEntity
  8
LEVEL001
  6
Continuous
 62
     6
370
    15
100
AcDbLine
 10
167.10714989366
 20
46.95194958171998
 30
0.0
 11
167.10714989366
 21
55.97481846681001
 31
0.0
  0
CIRCLE
  5
791
330
A
100
AcDbEntity
  8
LEVEL001
  6
Continuous
 62
     6
370
    15
100
AcDbCircle
 10
167.10714989366
 20
54.97481846681001
 30
0.0
 40
0.2
  0
TEXT
  5
792
330
A
100
AcDbEntity
  8
LEVEL001
 62
     6
370
    15
100
AcDbText
 10
180.71644440403
 20
55.47481846681001
 30
0.0
 40
3.0
  1
４２５
 41
0.8
100
AcDbText
  0
LINE
  5
793
330
A
100
AcDbEntity
  8
LEVEL001
  6
Continuous
 62
     6
370
    15
100
AcDbLine
 10
209.60714989366
 20
54.97481846681001
 30
0.0
 11
229.10714989366
 21
54.97481846681001
 31
0.0
  0
LINE
  5
794
330
A
100
AcDbEntity
  8
LEVEL001
  6
Continuous
 62
     6
370
    15
100
AcDbLine
 10
209.60714989366
 20
46.95194958171998
 30
0.0
 11
209.60714989366
 21
55.97481846681001
 31
0.0
  0
LINE
  5
795
330
A
100
AcDbEntity
  8
LEVEL001
  6
Continuous
 62
     6
370
    15
100
AcDbLine
 10
229.10714989366
 20
51.35464077515002
 30
0.0
 11
229.10714989366
 21
55.97481846681001
 31
0.0
  0
CIRCLE
  5
796
330
A
100
AcDbEntity
  8
LEVEL001
  6
Continuous
 62
     6
370
    15
100
AcDbCircle
 10
209.60714989366
 20
54.97481846681001
 30
0.0
 40
0.2
  0
CIRCLE
  5
797
330
A
100
AcDbEntity
  8
LEVEL001
  6
Continuous
 62
     6
370
    15
100
AcDbCircle
 10
229.10714989366
 20
54.97481846681001
 30
0.0
 40
0.2
  0
TEXT
  5
798
330
A
100
AcDbEntity
  8
LEVEL001
 62
     6
370
    15
100
AcDbText
 10
215.35714989366
 20
55.47481846681001
 30
0.0
 40
3.0
  1
１９５
 41
0.8
100
AcDbText
  0
LINE
  5
799
330
A
100
AcDbEntity
  8
LEVEL001
  6
Continuous
 62
     6
370
    15
100
AcDbLine
 10
29.607149893659
 20
60.66474188722998
 30
0.0
 11
60.857149893659
 21
60.66474188722998
 31
0.0
  0
LINE
  5
79A
330
A
100
AcDbEntity
  8
LEVEL001
  6
Continuous
 62
     6
370
    15
100
AcDbLine
 10
29.607149893659
 20
55.35464077515001
 30
0.0
 11
29.607149893659
 21
61.66474188722998
 31
0.0
  0
CIRCLE
  5
79B
330
A
100
AcDbEntity
  8
LEVEL001
  6
Continuous
 62
     6
370
    15
100
AcDbCircle
 10
29.607149893659
 20
60.66474188722998
 30
0.0
 40
0.2
  0
TEXT
  5
79C
330
A
100
AcDbEntity
  8
LEVEL001
 62
     6
370
    15
100
AcDbText
 10
39.357149893659
 20
61.16474188722998
 30
0.0
 40
3.0
  1
３１２.５
 41
0.8
100
AcDbText
  0
LINE
  5
79D
330
A
100
AcDbEntity
  8
LEVEL001
  6
Continuous
 62
     6
370
    15
100
AcDbLine
 10
60.857149893659
 20
60.66474188722998
 30
0.0
 11
103.35714989366
 21
60.66474188722998
 31
0.0
  0
LINE
  5
79E
330
A
100
AcDbEntity
  8
LEVEL001
  6
Continuous
 62
     6
370
    15
100
AcDbLine
 10
60.857149893659
 20
46.95194958171998
 30
0.0
 11
60.857149893659
 21
61.66474188722998
 31
0.0
  0
CIRCLE
  5
79F
330
A
100
AcDbEntity
  8
LEVEL001
  6
Continuous
 62
     6
370
    15
100
AcDbCircle
 10
60.857149893659
 20
60.66474188722998
 30
0.0
 40
0.2
  0
TEXT
  5
7A0
330
A
100
AcDbEntity
  8
LEVEL001
 62
     6
370
    15
100
AcDbText
 10
78.107149893659
 20
61.16474188722998
 30
0.0
 40
3.0
  1
４２５
 41
0.8
100
AcDbText
  0
LINE
  5
7A1
330
A
100
AcDbEntity
  8
LEVEL001
  6
Continuous
 62
     6
370
    15
100
AcDbLine
 10
103.35714989366
 20
60.66474188722998
 30
0.0
 11
145.85714989366
 21
60.66474188722998
 31
0.0
  0
LINE
  5
7A2
330
A
100
AcDbEntity
  8
LEVEL001
  6
Continuous
 62
     6
370
    15
100
AcDbLine
 10
103.35714989366
 20
46.95194958171998
 30
0.0
 11
103.35714989366
 21
61.66474188722998
 31
0.0
  0
CIRCLE
  5
7A3
330
A
100
AcDbEntity
  8
LEVEL001
  6
Continuous
 62
     6
370
    15
100
AcDbCircle
 10
103.35714989366
 20
60.66474188722998
 30
0.0
 40
0.2
  0
TEXT
  5
7A4
330
A
100
AcDbEntity
  8
LEVEL001
 62
     6
370
    15
100
AcDbText
 10
120.60714989366
 20
61.16474188722998
 30
0.0
 40
3.0
  1
４２５
 41
0.8
100
AcDbText
  0
LINE
  5
7A5
330
A
100
AcDbEntity
  8
LEVEL001
  6
Continuous
 62
     6
370
    15
100
AcDbLine
 10
145.85714989366
 20
60.66474188722998
 30
0.0
 11
188.35714989366
 21
60.66474188722998
 31
0.0
  0
LINE
  5
7A6
330
A
100
AcDbEntity
  8
LEVEL001
  6
Continuous
 62
     6
370
    15
100
AcDbLine
 10
145.85714989366
 20
46.95194958171998
 30
0.0
 11
145.85714989366
 21
61.66474188722998
 31
0.0
  0
CIRCLE
  5
7A7
330
A
100
AcDbEntity
  8
LEVEL001
  6
Continuous
 62
     6
370
    15
100
AcDbCircle
 10
145.85714989366
 20
60.66474188722998
 30
0.0
 40
0.2
  0
TEXT
  5
7A8
330
A
100
AcDbEntity
  8
LEVEL001
 62
     6
370
    15
100
AcDbText
 10
163.10714989366
 20
61.16474188722998
 30
0.0
 40
3.0
  1
４２５
 41
0.8
100
AcDbText
  0
LINE
  5
7A9
330
A
100
AcDbEntity
  8
LEVEL001
  6
Continuous
 62
     6
370
    15
100
AcDbLine
 10
188.35714989366
 20
60.66474188722998
 30
0.0
 11
229.10714989366
 21
60.66474188722998
 31
0.0
  0
LINE
  5
7AA
330
A
100
AcDbEntity
  8
LEVEL001
  6
Continuous
 62
     6
370
    15
100
AcDbLine
 10
188.35714989366
 20
46.95194958171998
 30
0.0
 11
188.35714989366
 21
61.66474188722998
 31
0.0
  0
LINE
  5
7AB
330
A
100
AcDbEntity
  8
LEVEL001
  6
Continuous
 62
     6
370
    15
100
AcDbLine
 10
229.10714989366
 20
55.35464077515001
 30
0.0
 11
229.10714989366
 21
61.66474188722998
 31
0.0
  0
CIRCLE
  5
7AC
330
A
100
AcDbEntity
  8
LEVEL001
  6
Continuous
 62
     6
370
    15
100
AcDbCircle
 10
188.35714989366
 20
60.66474188722998
 30
0.0
 40
0.2
  0
CIRCLE
  5
7AD
330
A
100
AcDbEntity
  8
LEVEL001
  6
Continuous
 62
     6
370
    15
100
AcDbCircle
 10
229.10714989366
 20
60.66474188722998
 30
0.0
 40
0.2
  0
TEXT
  5
7AE
330
A
100
AcDbEntity
  8
LEVEL001
 62
     6
370
    15
100
AcDbText
 10
202.85714989366
 20
61.16474188722998
 30
0.0
 40
3.0
  1
４０７.５
 41
0.8
100
AcDbText
  0
LINE
  5
7AF
330
A
100
AcDbEntity
  8
LEVEL001
  6
Continuous
 62
     6
370
    15
100
AcDbLine
 10
29.607149893659
 20
29.03825087539002
 30
0.0
 11
49.10714989365899
 21
29.03825087539002
 31
0.0
  0
LINE
  5
7B0
330
A
100
AcDbEntity
  8
LEVEL001
  6
Continuous
 62
     6
370
    15
100
AcDbLine
 10
29.607149893659
 20
34.75098278249999
 30
0.0
 11
29.607149893659
 21
28.03825087539002
 31
0.0
  0
CIRCLE
  5
7B1
330
A
100
AcDbEntity
  8
LEVEL001
  6
Continuous
 62
     6
370
    15
100
AcDbCircle
 10
29.607149893659
 20
29.03825087539002
 30
0.0
 40
0.2
  0
TEXT
  5
7B2
330
A
100
AcDbEntity
  8
LEVEL001
 62
     6
370
    15
100
AcDbText
 10
35.357149893659
 20
29.53825087539002
 30
0.0
 40
3.0
  1
１９５
 41
0.8
100
AcDbText
  0
LINE
  5
7B3
330
A
100
AcDbEntity
  8
LEVEL001
  6
Continuous
 62
     6
370
    15
100
AcDbLine
 10
49.10714989365899
 20
29.03825087539002
 30
0.0
 11
91.60714989365899
 21
29.03825087539002
 31
0.0
  0
LINE
  5
7B4
330
A
100
AcDbEntity
  8
LEVEL001
  6
Continuous
 62
     6
370
    15
100
AcDbLine
 10
49.10714989365899
 20
39.15367397594002
 30
0.0
 11
49.10714989365899
 21
28.03825087539002
 31
0.0
  0
CIRCLE
  5
7B5
330
A
100
AcDbEntity
  8
LEVEL001
  6
Continuous
 62
     6
370
    15
100
AcDbCircle
 10
49.10714989365899
 20
29.03825087539002
 30
0.0
 40
0.2
  0
TEXT
  5
7B6
330
A
100
AcDbEntity
  8
LEVEL001
 62
     6
370
    15
100
AcDbText
 10
71.47258188357501
 20
29.53825087539002
 30
0.0
 40
3.0
  1
４２５
 41
0.8
100
AcDbText
  0
LINE
  5
7B7
330
A
100
AcDbEntity
  8
LEVEL001
  6
Continuous
 62
     6
370
    15
100
AcDbLine
 10
91.60714989365899
 20
29.03825087539002
 30
0.0
 11
134.10714989366
 21
29.03825087539002
 31
0.0
  0
LINE
  5
7B8
330
A
100
AcDbEntity
  8
LEVEL001
  6
Continuous
 62
     6
370
    15
100
AcDbLine
 10
91.60714989365899
 20
39.15367397594002
 30
0.0
 11
91.60714989365899
 21
28.03825087539002
 31
0.0
  0
CIRCLE
  5
7B9
330
A
100
AcDbEntity
  8
LEVEL001
  6
Continuous
 62
     6
370
    15
100
AcDbCircle
 10
91.60714989365899
 20
29.03825087539002
 30
0.0
 40
0.2
  0
TEXT
  5
7BA
330
A
100
AcDbEntity
  8
LEVEL001
 62
     6
370
    15
100
AcDbText
 10
113.09614980502
 20
29.53825087539002
 30
0.0
 40
3.0
  1
４２５
 41
0.8
100
AcDbText
  0
LINE
  5
7BB
330
A
100
AcDbEntity
  8
LEVEL001
  6
Continuous
 62
     6
370
    15
100
AcDbLine
 10
134.10714989366
 20
29.03825087539002
 30
0.0
 11
176.60714989366
 21
29.03825087539002
 31
0.0
  0
LINE
  5
7BC
330
A
100
AcDbEntity
  8
LEVEL001
  6
Continuous
 62
     6
370
    15
100
AcDbLine
 10
134.10714989366
 20
39.15367397594002
 30
0.0
 11
134.10714989366
 21
28.03825087539002
 31
0.0
  0
CIRCLE
  5
7BD
330
A
100
AcDbEntity
  8
LEVEL001
  6
Continuous
 62
     6
370
    15
100
AcDbCircle
 10
134.10714989366
 20
29.03825087539002
 30
0.0
 40
0.2
  0
TEXT
  5
7BE
330
A
100
AcDbEntity
  8
LEVEL001
 62
     6
370
    15
100
AcDbText
 10
155.82871936312
 20
29.53825087539002
 30
0.0
 40
3.0
  1
４２５
 41
0.8
100
AcDbText
  0
LINE
  5
7BF
330
A
100
AcDbEntity
  8
LEVEL001
  6
Continuous
 62
     6
370
    15
100
AcDbLine
 10
176.60714989366
 20
29.03825087539002
 30
0.0
 11
219.10714989366
 21
29.03825087539002
 31
0.0
  0
LINE
  5
7C0
330
A
100
AcDbEntity
  8
LEVEL001
  6
Continuous
 62
     6
370
    15
100
AcDbLine
 10
176.60714989366
 20
39.15367397594002
 30
0.0
 11
176.60714989366
 21
28.03825087539002
 31
0.0
  0
CIRCLE
  5
7C1
330
A
100
AcDbEntity
  8
LEVEL001
  6
Continuous
 62
     6
370
    15
100
AcDbCircle
 10
176.60714989366
 20
29.03825087539002
 30
0.0
 40
0.2
  0
TEXT
  5
7C2
330
A
100
AcDbEntity
  8
LEVEL001
 62
     6
370
    15
100
AcDbText
 10
198.12921036148
 20
29.53825087539002
 30
0.0
 40
3.0
  1
４２５
 41
0.8
100
AcDbText
  0
LINE
  5
7C3
330
A
100
AcDbEntity
  8
LEVEL001
  6
Continuous
 62
     6
370
    15
100
AcDbLine
 10
219.10714989366
 20
29.03825087539002
 30
0.0
 11
229.10714989366
 21
29.03825087539002
 31
0.0
  0
LINE
  5
7C4
330
A
100
AcDbEntity
  8
LEVEL001
  6
Continuous
 62
     6
370
    15
100
AcDbLine
 10
219.10714989366
 20
39.15367397594002
 30
0.0
 11
219.10714989366
 21
28.03825087539002
 31
0.0
  0
LINE
  5
7C5
330
A
100
AcDbEntity
  8
LEVEL001
  6
Continuous
 62
     6
370
    15
100
AcDbLine
 10
229.10714989366
 20
34.75098278249999
 30
0.0
 11
229.10714989366
 21
28.03825087539002
 31
0.0
  0
CIRCLE
  5
7C6
330
A
100
AcDbEntity
  8
LEVEL001
  6
Continuous
 62
     6
370
    15
100
AcDbCircle
 10
219.10714989366
 20
29.03825087539002
 30
0.0
 40
0.2
  0
CIRCLE
  5
7C7
330
A
100
AcDbEntity
  8
LEVEL001
  6
Continuous
 62
     6
370
    15
100
AcDbCircle
 10
229.10714989366
 20
29.03825087539002
 30
0.0
 40
0.2
  0
TEXT
  5
7C8
330
A
100
AcDbEntity
  8
LEVEL001
 62
     6
370
    15
100
AcDbText
 10
220.10714989366
 20
29.53825087539002
 30
0.0
 40
3.0
  1
１００
 41
0.8
100
AcDbText
  0
LINE
  5
7C9
330
A
100
AcDbEntity
  8
LEVEL001
  6
Continuous
 62
     6
370
    15
100
AcDbLine
 10
29.607149893659
 20
22.77933511293003
 30
0.0
 11
70.35714989365899
 21
22.77933511293003
 31
0.0
  0
LINE
  5
7CA
330
A
100
AcDbEntity
  8
LEVEL001
  6
Continuous
 62
     6
370
    15
100
AcDbLine
 10
29.607149893659
 20
29.75098278249999
 30
0.0
 11
29.607149893659
 21
21.77933511293003
 31
0.0
  0
CIRCLE
  5
7CB
330
A
100
AcDbEntity
  8
LEVEL001
  6
Continuous
 62
     6
370
    15
100
AcDbCircle
 10
29.607149893659
 20
22.77933511293003
 30
0.0
 40
0.2
  0
TEXT
  5
7CC
330
A
100
AcDbEntity
  8
LEVEL001
 62
     6
370
    15
100
AcDbText
 10
44.10714989365899
 20
23.27933511293003
 30
0.0
 40
3.0
  1
４０７.５
 41
0.8
100
AcDbText
  0
LINE
  5
7CD
330
A
100
AcDbEntity
  8
LEVEL001
  6
Continuous
 62
     6
370
    15
100
AcDbLine
 10
70.35714989365899
 20
22.77933511293003
 30
0.0
 11
112.85714989366
 21
22.77933511293003
 31
0.0
  0
LINE
  5
7CE
330
A
100
AcDbEntity
  8
LEVEL001
  6
Continuous
 62
     6
370
    15
100
AcDbLine
 10
70.35714989365899
 20
39.15367397594002
 30
0.0
 11
70.35714989365899
 21
21.77933511293003
 31
0.0
  0
CIRCLE
  5
7CF
330
A
100
AcDbEntity
  8
LEVEL001
  6
Continuous
 62
     6
370
    15
100
AcDbCircle
 10
70.35714989365899
 20
22.77933511293003
 30
0.0
 40
0.2
  0
TEXT
  5
7D0
330
A
100
AcDbEntity
  8
LEVEL001
 62
     6
370
    15
100
AcDbText
 10
87.60714989365899
 20
23.27933511293003
 30
0.0
 40
3.0
  1
４２５
 41
0.8
100
AcDbText
  0
LINE
  5
7D1
330
A
100
AcDbEntity
  8
LEVEL001
  6
Continuous
 62
     6
370
    15
100
AcDbLine
 10
112.85714989366
 20
22.77933511293003
 30
0.0
 11
155.35714989366
 21
22.77933511293003
 31
0.0
  0
LINE
  5
7D2
330
A
100
AcDbEntity
  8
LEVEL001
  6
Continuous
 62
     6
370
    15
100
AcDbLine
 10
112.85714989366
 20
39.15367397594002
 30
0.0
 11
112.85714989366
 21
21.77933511293003
 31
0.0
  0
CIRCLE
  5
7D3
330
A
100
AcDbEntity
  8
LEVEL001
  6
Continuous
 62
     6
370
    15
100
AcDbCircle
 10
112.85714989366
 20
22.77933511293003
 30
0.0
 40
0.2
  0
TEXT
  5
7D4
330
A
100
AcDbEntity
  8
LEVEL001
 62
     6
370
    15
100
AcDbText
 10
130.10714989366
 20
23.27933511293003
 30
0.0
 40
3.0
  1
４２５
 41
0.8
100
AcDbText
  0
LINE
  5
7D5
330
A
100
AcDbEntity
  8
LEVEL001
  6
Continuous
 62
     6
370
    15
100
AcDbLine
 10
155.35714989366
 20
22.77933511293003
 30
0.0
 11
197.85714989366
 21
22.77933511293003
 31
0.0
  0
LINE
  5
7D6
330
A
100
AcDbEntity
  8
LEVEL001
  6
Continuous
 62
     6
370
    15
100
AcDbLine
 10
155.35714989366
 20
39.15367397594002
 30
0.0
 11
155.35714989366
 21
21.77933511293003
 31
0.0
  0
CIRCLE
  5
7D7
330
A
100
AcDbEntity
  8
LEVEL001
  6
Continuous
 62
     6
370
    15
100
AcDbCircle
 10
155.35714989366
 20
22.77933511293003
 30
0.0
 40
0.2
  0
TEXT
  5
7D8
330
A
100
AcDbEntity
  8
LEVEL001
 62
     6
370
    15
100
AcDbText
 10
172.60714989366
 20
23.27933511293003
 30
0.0
 40
3.0
  1
４２５
 41
0.8
100
AcDbText
  0
LINE
  5
7D9
330
A
100
AcDbEntity
  8
LEVEL001
  6
Continuous
 62
     6
370
    15
100
AcDbLine
 10
197.85714989366
 20
22.77933511293003
 30
0.0
 11
229.10714989366
 21
22.77933511293003
 31
0.0
  0
LINE
  5
7DA
330
A
100
AcDbEntity
  8
LEVEL001
  6
Continuous
 62
     6
370
    15
100
AcDbLine
 10
197.85714989366
 20
39.15367397594002
 30
0.0
 11
197.85714989366
 21
21.77933511293003
 31
0.0
  0
LINE
  5
7DB
330
A
100
AcDbEntity
  8
LEVEL001
  6
Continuous
 62
     6
370
    15
100
AcDbLine
 10
229.10714989366
 20
29.75098278249999
 30
0.0
 11
229.10714989366
 21
21.77933511293003
 31
0.0
  0
CIRCLE
  5
7DC
330
A
100
AcDbEntity
  8
LEVEL001
  6
Continuous
 62
     6
370
    15
100
AcDbCircle
 10
197.85714989366
 20
22.77933511293003
 30
0.0
 40
0.2
  0
CIRCLE
  5
7DD
330
A
100
AcDbEntity
  8
LEVEL001
  6
Continuous
 62
     6
370
    15
100
AcDbCircle
 10
229.10714989366
 20
22.77933511293003
 30
0.0
 40
0.2
  0
TEXT
  5
7DE
330
A
100
AcDbEntity
  8
LEVEL001
 62
     6
370
    15
100
AcDbText
 10
207.60714989366
 20
23.27933511293003
 30
0.0
 40
3.0
  1
３１２.５
 41
0.8
100
AcDbText
  0
LINE
  5
7DF
330
A
100
AcDbEntity
  8
LEVEL001
  6
Continuous
 62
     6
370
    15
100
AcDbLine
 10
29.607149893659
 20
123.26261970217
 30
0.0
 11
179.10714989366
 21
123.26261970217
 31
0.0
  0
LINE
  5
7E0
330
A
100
AcDbEntity
  8
LEVEL001
  6
Continuous
 62
     6
370
    15
100
AcDbLine
 10
29.607149893659
 20
116.26261970217
 30
0.0
 11
29.607149893659
 21
124.26261970217
 31
0.0
  0
LINE
  5
7E1
330
A
100
AcDbEntity
  8
LEVEL001
  6
Continuous
 62
     6
370
    15
100
AcDbLine
 10
179.10714989366
 20
116.26261970217
 30
0.0
 11
179.10714989366
 21
124.26261970217
 31
0.0
  0
CIRCLE
  5
7E2
330
A
100
AcDbEntity
  8
LEVEL001
  6
Continuous
 62
     6
370
    15
100
AcDbCircle
 10
29.607149893659
 20
123.26261970217
 30
0.0
 40
0.2
  0
CIRCLE
  5
7E3
330
A
100
AcDbEntity
  8
LEVEL001
  6
Continuous
 62
     6
370
    15
100
AcDbCircle
 10
179.10714989366
 20
123.26261970217
 30
0.0
 40
0.2
  0
TEXT
  5
7E4
330
A
100
AcDbEntity
  8
LEVEL001
 62
     6
370
    15
100
AcDbText
 10
99.10714989365899
 20
123.76261970217
 30
0.0
 40
3.0
  1
１４９５
 41
0.8
100
AcDbText
  0
LINE
  5
7E5
330
A
100
AcDbEntity
  8
LEVEL001
  6
Continuous
 62
     6
370
    15
100
AcDbLine
 10
29.607149893659
 20
112.00049541368
 30
0.0
 11
39.607149893659
 21
112.00049541368
 31
0.0
  0
LINE
  5
7E6
330
A
100
AcDbEntity
  8
LEVEL001
  6
Continuous
 62
     6
370
    15
100
AcDbLine
 10
29.607149893659
 20
108.26261970217
 30
0.0
 11
29.607149893659
 21
113.00049541368
 31
0.0
  0
CIRCLE
  5
7E7
330
A
100
AcDbEntity
  8
LEVEL001
  6
Continuous
 62
     6
370
    15
100
AcDbCircle
 10
29.607149893659
 20
112.00049541368
 30
0.0
 40
0.2
  0
TEXT
  5
7E8
330
A
100
AcDbEntity
  8
LEVEL001
 62
     6
370
    15
100
AcDbText
 10
30.607149893659
 20
112.50049541368
 30
0.0
 40
3.0
  1
１００
 41
0.8
100
AcDbText
  0
LINE
  5
7E9
330
A
100
AcDbEntity
  8
LEVEL001
  6
Continuous
 62
     6
370
    15
100
AcDbLine
 10
39.607149893659
 20
112.00049541368
 30
0.0
 11
79.607149893659
 21
112.00049541368
 31
0.0
  0
LINE
  5
7EA
330
A
100
AcDbEntity
  8
LEVEL001
  6
Continuous
 62
     6
370
    15
100
AcDbLine
 10
39.607149893659
 20
103.85992850873
 30
0.0
 11
39.607149893659
 21
113.00049541368
 31
0.0
  0
CIRCLE
  5
7EB
330
A
100
AcDbEntity
  8
LEVEL001
  6
Continuous
 62
     6
370
    15
100
AcDbCircle
 10
39.607149893659
 20
112.00049541368
 30
0.0
 40
0.2
  0
TEXT
  5
7EC
330
A
100
AcDbEntity
  8
LEVEL001
 62
     6
370
    15
100
AcDbText
 10
52.382731424763
 20
112.50049541368
 30
0.0
 40
3.0
  1
４００
 41
0.8
100
AcDbText
  0
LINE
  5
7ED
330
A
100
AcDbEntity
  8
LEVEL001
  6
Continuous
 62
     6
370
    15
100
AcDbLine
 10
79.607149893659
 20
112.00049541368
 30
0.0
 11
119.60714989366
 21
112.00049541368
 31
0.0
  0
LINE
  5
7EE
330
A
100
AcDbEntity
  8
LEVEL001
  6
Continuous
 62
     6
370
    15
100
AcDbLine
 10
79.607149893659
 20
103.85992850873
 30
0.0
 11
79.607149893659
 21
113.00049541368
 31
0.0
  0
CIRCLE
  5
7EF
330
A
100
AcDbEntity
  8
LEVEL001
  6
Continuous
 62
     6
370
    15
100
AcDbCircle
 10
79.607149893659
 20
112.00049541368
 30
0.0
 40
0.2
  0
TEXT
  5
7F0
330
A
100
AcDbEntity
  8
LEVEL001
 62
     6
370
    15
100
AcDbText
 10
91.957513820665
 20
112.50049541368
 30
0.0
 40
3.0
  1
４００
 41
0.8
100
AcDbText
  0
LINE
  5
7F1
330
A
100
AcDbEntity
  8
LEVEL001
  6
Continuous
 62
     6
370
    15
100
AcDbLine
 10
119.60714989366
 20
112.00049541368
 30
0.0
 11
159.60714989366
 21
112.00049541368
 31
0.0
  0
LINE
  5
7F2
330
A
100
AcDbEntity
  8
LEVEL001
  6
Continuous
 62
     6
370
    15
100
AcDbLine
 10
119.60714989366
 20
103.85992850873
 30
0.0
 11
119.60714989366
 21
113.00049541368
 31
0.0
  0
CIRCLE
  5
7F3
330
A
100
AcDbEntity
  8
LEVEL001
  6
Continuous
 62
     6
370
    15
100
AcDbCircle
 10
119.60714989366
 20
112.00049541368
 30
0.0
 40
0.2
  0
TEXT
  5
7F4
330
A
100
AcDbEntity
  8
LEVEL001
 62
     6
370
    15
100
AcDbText
 10
132.25733039787
 20
112.50049541368
 30
0.0
 40
3.0
  1
４００
 41
0.8
100
AcDbText
  0
LINE
  5
7F5
330
A
100
AcDbEntity
  8
LEVEL001
  6
Continuous
 62
     6
370
    15
100
AcDbLine
 10
159.60714989366
 20
112.00049541368
 30
0.0
 11
179.10714989366
 21
112.00049541368
 31
0.0
  0
LINE
  5
7F6
330
A
100
AcDbEntity
  8
LEVEL001
  6
Continuous
 62
     6
370
    15
100
AcDbLine
 10
159.60714989366
 20
103.85992850873
 30
0.0
 11
159.60714989366
 21
113.00049541368
 31
0.0
  0
LINE
  5
7F7
330
A
100
AcDbEntity
  8
LEVEL001
  6
Continuous
 62
     6
370
    15
100
AcDbLine
 10
179.10714989366
 20
108.26261970217
 30
0.0
 11
179.10714989366
 21
113.00049541368
 31
0.0
  0
CIRCLE
  5
7F8
330
A
100
AcDbEntity
  8
LEVEL001
  6
Continuous
 62
     6
370
    15
100
AcDbCircle
 10
159.60714989366
 20
112.00049541368
 30
0.0
 40
0.2
  0
CIRCLE
  5
7F9
330
A
100
AcDbEntity
  8
LEVEL001
  6
Continuous
 62
     6
370
    15
100
AcDbCircle
 10
179.10714989366
 20
112.00049541368
 30
0.0
 40
0.2
  0
TEXT
  5
7FA
330
A
100
AcDbEntity
  8
LEVEL001
 62
     6
370
    15
100
AcDbText
 10
165.35714989366
 20
112.50049541368
 30
0.0
 40
3.0
  1
１９５
 41
0.8
100
AcDbText
  0
LINE
  5
7FB
330
A
100
AcDbEntity
  8
LEVEL001
  6
Continuous
 62
     6
370
    15
100
AcDbLine
 10
29.607149893659
 20
117.97491500512
 30
0.0
 11
59.607149893659
 21
117.97491500512
 31
0.0
  0
LINE
  5
7FC
330
A
100
AcDbEntity
  8
LEVEL001
  6
Continuous
 62
     6
370
    15
100
AcDbLine
 10
29.607149893659
 20
112.26261970217
 30
0.0
 11
29.607149893659
 21
118.97491500512
 31
0.0
  0
CIRCLE
  5
7FD
330
A
100
AcDbEntity
  8
LEVEL001
  6
Continuous
 62
     6
370
    15
100
AcDbCircle
 10
29.607149893659
 20
117.97491500512
 30
0.0
 40
0.2
  0
TEXT
  5
7FE
330
A
100
AcDbEntity
  8
LEVEL001
 62
     6
370
    15
100
AcDbText
 10
40.607149893659
 20
118.47491500512
 30
0.0
 40
3.0
  1
３００
 41
0.8
100
AcDbText
  0
LINE
  5
7FF
330
A
100
AcDbEntity
  8
LEVEL001
  6
Continuous
 62
     6
370
    15
100
AcDbLine
 10
59.607149893659
 20
117.97491500512
 30
0.0
 11
99.607149893659
 21
117.97491500512
 31
0.0
  0
LINE
  5
800
330
A
100
AcDbEntity
  8
LEVEL001
  6
Continuous
 62
     6
370
    15
100
AcDbLine
 10
59.607149893659
 20
103.85992850873
 30
0.0
 11
59.607149893659
 21
118.97491500512
 31
0.0
  0
CIRCLE
  5
801
330
A
100
AcDbEntity
  8
LEVEL001
  6
Continuous
 62
     6
370
    15
100
AcDbCircle
 10
59.607149893659
 20
117.97491500512
 30
0.0
 40
0.2
  0
TEXT
  5
802
330
A
100
AcDbEntity
  8
LEVEL001
 62
     6
370
    15
100
AcDbText
 10
75.607149893659
 20
118.47491500512
 30
0.0
 40
3.0
  1
４００
 41
0.8
100
AcDbText
  0
LINE
  5
803
330
A
100
AcDbEntity
  8
LEVEL001
  6
Continuous
 62
     6
370
    15
100
AcDbLine
 10
99.607149893659
 20
117.97491500512
 30
0.0
 11
139.60714989366
 21
117.97491500512
 31
0.0
  0
LINE
  5
804
330
A
100
AcDbEntity
  8
LEVEL001
  6
Continuous
 62
     6
370
    15
100
AcDbLine
 10
99.607149893659
 20
103.85992850873
 30
0.0
 11
99.607149893659
 21
118.97491500512
 31
0.0
  0
CIRCLE
  5
805
330
A
100
AcDbEntity
  8
LEVEL001
  6
Continuous
 62
     6
370
    15
100
AcDbCircle
 10
99.607149893659
 20
117.97491500512
 30
0.0
 40
0.2
  0
TEXT
  5
806
330
A
100
AcDbEntity
  8
LEVEL001
 62
     6
370
    15
100
AcDbText
 10
115.60714989366
 20
118.47491500512
 30
0.0
 40
3.0
  1
４００
 41
0.8
100
AcDbText
  0
LINE
  5
807
330
A
100
AcDbEntity
  8
LEVEL001
  6
Continuous
 62
     6
370
    15
100
AcDbLine
 10
139.60714989366
 20
117.97491500512
 30
0.0
 11
179.10714989366
 21
117.97491500512
 31
0.0
  0
LINE
  5
808
330
A
100
AcDbEntity
  8
LEVEL001
  6
Continuous
 62
     6
370
    15
100
AcDbLine
 10
139.60714989366
 20
103.85992850873
 30
0.0
 11
139.60714989366
 21
118.97491500512
 31
0.0
  0
LINE
  5
809
330
A
100
AcDbEntity
  8
LEVEL001
  6
Continuous
 62
     6
370
    15
100
AcDbLine
 10
179.10714989366
 20
112.26261970217
 30
0.0
 11
179.10714989366
 21
118.97491500512
 31
0.0
  0
CIRCLE
  5
80A
330
A
100
AcDbEntity
  8
LEVEL001
  6
Continuous
 62
     6
370
    15
100
AcDbCircle
 10
139.60714989366
 20
117.97491500512
 30
0.0
 40
0.2
  0
CIRCLE
  5
80B
330
A
100
AcDbEntity
  8
LEVEL001
  6
Continuous
 62
     6
370
    15
100
AcDbCircle
 10
179.10714989366
 20
117.97491500512
 30
0.0
 40
0.2
  0
TEXT
  5
80C
330
A
100
AcDbEntity
  8
LEVEL001
 62
     6
370
    15
100
AcDbText
 10
155.35714989366
 20
118.47491500512
 30
0.0
 40
3.0
  1
３９５
 41
0.8
100
AcDbText
  0
LINE
  5
80D
330
A
100
AcDbEntity
  8
LEVEL001
  6
Continuous
 62
     6
370
    15
100
AcDbLine
 10
29.607149893659
 20
87.24142586343999
 30
0.0
 11
49.10714989365899
 21
87.24142586343999
 31
0.0
  0
LINE
  5
80E
330
A
100
AcDbEntity
  8
LEVEL001
  6
Continuous
 62
     6
370
    15
100
AcDbLine
 10
29.607149893659
 20
91.65896170951999
 30
0.0
 11
29.607149893659
 21
86.24142586343998
 31
0.0
  0
CIRCLE
  5
80F
330
A
100
AcDbEntity
  8
LEVEL001
  6
Continuous
 62
     6
370
    15
100
AcDbCircle
 10
29.607149893659
 20
87.24142586343999
 30
0.0
 40
0.2
  0
TEXT
  5
810
330
A
100
AcDbEntity
  8
LEVEL001
 62
     6
370
    15
100
AcDbText
 10
35.357149893659
 20
87.74142586343998
 30
0.0
 40
3.0
  1
１９５
 41
0.8
100
AcDbText
  0
LINE
  5
811
330
A
100
AcDbEntity
  8
LEVEL001
  6
Continuous
 62
     6
370
    15
100
AcDbLine
 10
49.10714989365899
 20
87.24142586343999
 30
0.0
 11
89.10714989365899
 21
87.24142586343999
 31
0.0
  0
LINE
  5
812
330
A
100
AcDbEntity
  8
LEVEL001
  6
Continuous
 62
     6
370
    15
100
AcDbLine
 10
49.10714989365899
 20
96.06165290296003
 30
0.0
 11
49.10714989365899
 21
86.24142586343998
 31
0.0
  0
CIRCLE
  5
813
330
A
100
AcDbEntity
  8
LEVEL001
  6
Continuous
 62
     6
370
    15
100
AcDbCircle
 10
49.10714989365899
 20
87.24142586343999
 30
0.0
 40
0.2
  0
TEXT
  5
814
330
A
100
AcDbEntity
  8
LEVEL001
 62
     6
370
    15
100
AcDbText
 10
70.206488381696
 20
87.74142586343998
 30
0.0
 40
3.0
  1
４００
 41
0.8
100
AcDbText
  0
LINE
  5
815
330
A
100
AcDbEntity
  8
LEVEL001
  6
Continuous
 62
     6
370
    15
100
AcDbLine
 10
89.10714989365899
 20
87.24142586343999
 30
0.0
 11
129.10714989366
 21
87.24142586343999
 31
0.0
  0
LINE
  5
816
330
A
100
AcDbEntity
  8
LEVEL001
  6
Continuous
 62
     6
370
    15
100
AcDbLine
 10
89.10714989365899
 20
96.06165290296003
 30
0.0
 11
89.10714989365899
 21
86.24142586343998
 31
0.0
  0
CIRCLE
  5
817
330
A
100
AcDbEntity
  8
LEVEL001
  6
Continuous
 62
     6
370
    15
100
AcDbCircle
 10
89.10714989365899
 20
87.24142586343999
 30
0.0
 40
0.2
  0
TEXT
  5
818
330
A
100
AcDbEntity
  8
LEVEL001
 62
     6
370
    15
100
AcDbText
 10
109.02602683874
 20
87.74142586343998
 30
0.0
 40
3.0
  1
４００
 41
0.8
100
AcDbText
  0
LINE
  5
819
330
A
100
AcDbEntity
  8
LEVEL001
  6
Continuous
 62
     6
370
    15
100
AcDbLine
 10
129.10714989366
 20
87.24142586343999
 30
0.0
 11
169.10714989366
 21
87.24142586343999
 31
0.0
  0
LINE
  5
81A
330
A
100
AcDbEntity
  8
LEVEL001
  6
Continuous
 62
     6
370
    15
100
AcDbLine
 10
129.10714989366
 20
96.06165290296003
 30
0.0
 11
129.10714989366
 21
86.24142586343998
 31
0.0
  0
CIRCLE
  5
81B
330
A
100
AcDbEntity
  8
LEVEL001
  6
Continuous
 62
     6
370
    15
100
AcDbCircle
 10
129.10714989366
 20
87.24142586343999
 30
0.0
 40
0.2
  0
TEXT
  5
81C
330
A
100
AcDbEntity
  8
LEVEL001
 62
     6
370
    15
100
AcDbText
 10
145.10714989366
 20
87.74142586343998
 30
0.0
 40
3.0
  1
４００
 41
0.8
100
AcDbText
  0
LINE
  5
81D
330
A
100
AcDbEntity
  8
LEVEL001
  6
Continuous
 62
     6
370
    15
100
AcDbLine
 10
169.10714989366
 20
87.24142586343999
 30
0.0
 11
179.10714989366
 21
87.24142586343999
 31
0.0
  0
LINE
  5
81E
330
A
100
AcDbEntity
  8
LEVEL001
  6
Continuous
 62
     6
370
    15
100
AcDbLine
 10
169.10714989366
 20
96.06165290296003
 30
0.0
 11
169.10714989366
 21
86.24142586343998
 31
0.0
  0
LINE
  5
81F
330
A
100
AcDbEntity
  8
LEVEL001
  6
Continuous
 62
     6
370
    15
100
AcDbLine
 10
179.10714989366
 20
91.65896170951999
 30
0.0
 11
179.10714989366
 21
86.24142586343998
 31
0.0
  0
CIRCLE
  5
820
330
A
100
AcDbEntity
  8
LEVEL001
  6
Continuous
 62
     6
370
    15
100
AcDbCircle
 10
169.10714989366
 20
87.24142586343999
 30
0.0
 40
0.2
  0
CIRCLE
  5
821
330
A
100
AcDbEntity
  8
LEVEL001
  6
Continuous
 62
     6
370
    15
100
AcDbCircle
 10
179.10714989366
 20
87.24142586343999
 30
0.0
 40
0.2
  0
TEXT
  5
822
330
A
100
AcDbEntity
  8
LEVEL001
 62
     6
370
    15
100
AcDbText
 10
170.10714989366
 20
87.74142586343998
 30
0.0
 40
3.0
  1
１００
 41
0.8
100
AcDbText
  0
LINE
  5
823
330
A
100
AcDbEntity
  8
LEVEL001
  6
Continuous
 62
     6
370
    15
100
AcDbLine
 10
29.607149893659
 20
79.13328498933998
 30
0.0
 11
69.10714989365899
 21
79.13328498933998
 31
0.0
  0
LINE
  5
824
330
A
100
AcDbEntity
  8
LEVEL001
  6
Continuous
 62
     6
370
    15
100
AcDbLine
 10
29.607149893659
 20
86.65896170951999
 30
0.0
 11
29.607149893659
 21
78.13328498933998
 31
0.0
  0
CIRCLE
  5
825
330
A
100
AcDbEntity
  8
LEVEL001
  6
Continuous
 62
     6
370
    15
100
AcDbCircle
 10
29.607149893659
 20
79.13328498933998
 30
0.0
 40
0.2
  0
TEXT
  5
826
330
A
100
AcDbEntity
  8
LEVEL001
 62
     6
370
    15
100
AcDbText
 10
45.35714989365899
 20
79.63328498933998
 30
0.0
 40
3.0
  1
３９５
 41
0.8
100
AcDbText
  0
LINE
  5
827
330
A
100
AcDbEntity
  8
LEVEL001
  6
Continuous
 62
     6
370
    15
100
AcDbLine
 10
69.10714989365899
 20
79.13328498933998
 30
0.0
 11
109.10714989366
 21
79.13328498933998
 31
0.0
  0
LINE
  5
828
330
A
100
AcDbEntity
  8
LEVEL001
  6
Continuous
 62
     6
370
    15
100
AcDbLine
 10
69.10714989365899
 20
96.06165290296003
 30
0.0
 11
69.10714989365899
 21
78.13328498933998
 31
0.0
  0
CIRCLE
  5
829
330
A
100
AcDbEntity
  8
LEVEL001
  6
Continuous
 62
     6
370
    15
100
AcDbCircle
 10
69.10714989365899
 20
79.13328498933998
 30
0.0
 40
0.2
  0
TEXT
  5
82A
330
A
100
AcDbEntity
  8
LEVEL001
 62
     6
370
    15
100
AcDbText
 10
85.10714989365899
 20
79.63328498933998
 30
0.0
 40
3.0
  1
４００
 41
0.8
100
AcDbText
  0
LINE
  5
82B
330
A
100
AcDbEntity
  8
LEVEL001
  6
Continuous
 62
     6
370
    15
100
AcDbLine
 10
109.10714989366
 20
79.13328498933998
 30
0.0
 11
149.10714989366
 21
79.13328498933998
 31
0.0
  0
LINE
  5
82C
330
A
100
AcDbEntity
  8
LEVEL001
  6
Continuous
 62
     6
370
    15
100
AcDbLine
 10
109.10714989366
 20
96.06165290296003
 30
0.0
 11
109.10714989366
 21
78.13328498933998
 31
0.0
  0
CIRCLE
  5
82D
330
A
100
AcDbEntity
  8
LEVEL001
  6
Continuous
 62
     6
370
    15
100
AcDbCircle
 10
109.10714989366
 20
79.13328498933998
 30
0.0
 40
0.2
  0
TEXT
  5
82E
330
A
100
AcDbEntity
  8
LEVEL001
 62
     6
370
    15
100
AcDbText
 10
125.10714989366
 20
79.63328498933998
 30
0.0
 40
3.0
  1
４００
 41
0.8
100
AcDbText
  0
LINE
  5
82F
330
A
100
AcDbEntity
  8
LEVEL001
  6
Continuous
 62
     6
370
    15
100
AcDbLine
 10
149.10714989366
 20
79.13328498933998
 30
0.0
 11
179.10714989366
 21
79.13328498933998
 31
0.0
  0
LINE
  5
830
330
A
100
AcDbEntity
  8
LEVEL001
  6
Continuous
 62
     6
370
    15
100
AcDbLine
 10
149.10714989366
 20
96.06165290296003
 30
0.0
 11
149.10714989366
 21
78.13328498933998
 31
0.0
  0
LINE
  5
831
330
A
100
AcDbEntity
  8
LEVEL001
  6
Continuous
 62
     6
370
    15
100
AcDbLine
 10
179.10714989366
 20
86.65896170951999
 30
0.0
 11
179.10714989366
 21
78.13328498933998
 31
0.0
  0
CIRCLE
  5
832
330
A
100
AcDbEntity
  8
LEVEL001
  6
Continuous
 62
     6
370
    15
100
AcDbCircle
 10
149.10714989366
 20
79.13328498933998
 30
0.0
 40
0.2
  0
CIRCLE
  5
833
330
A
100
AcDbEntity
  8
LEVEL001
  6
Continuous
 62
     6
370
    15
100
AcDbCircle
 10
179.10714989366
 20
79.13328498933998
 30
0.0
 40
0.2
  0
TEXT
  5
834
330
A
100
AcDbEntity
  8
LEVEL001
 62
     6
370
    15
100
AcDbText
 10
160.10714989366
 20
79.63328498933998
 30
0.0
 40
3.0
  1
３００
 41
0.8
100
AcDbText
  0
LINE
  5
8E3
330
A
100
AcDbEntity
  8
LEVEL001
  6
Continuous
 62
     6
370
    15
100
AcDbLine
 10
131.99887103424
 20
206.97424389041
 30
0.0
 11
142.25191936136
 21
217.22729221753
 31
0.0
  0
LINE
  5
8E4
330
A
100
AcDbEntity
  8
LEVEL001
  6
Continuous
 62
     6
370
    15
100
AcDbLine
 10
122.64265729225
 20
216.3304576324
 30
0.0
 11
132.70597781542
 21
206.26713710922
 31
0.0
  0
LINE
  5
8E5
330
A
100
AcDbEntity
  8
LEVEL001
  6
Continuous
 62
     6
370
    15
100
AcDbLine
 10
132.89570561937
 20
226.58350595952
 30
0.0
 11
142.95902614254
 21
216.5201854363399
 31
0.0
  0
CIRCLE
  5
8E6
330
A
100
AcDbEntity
  8
LEVEL001
  6
Continuous
 62
     6
370
    15
100
AcDbCircle
 10
131.99887103424
 20
206.97424389041
 30
0.0
 40
0.26666666666667
  0
CIRCLE
  5
8E7
330
A
100
AcDbEntity
  8
LEVEL001
  6
Continuous
 62
     6
370
    15
100
AcDbCircle
 10
142.25191936136
 20
217.22729221753
 30
0.0
 40
0.26666666666667
  0
TEXT
  5
8E8
330
A
100
AcDbEntity
  8
LEVEL001
 62
     6
370
    15
100
AcDbText
 10
134.09493756414
 20
210.8885850005
 30
0.0
 40
3.0
  1
１５
 50
45.000000000009
 41
0.8
100
AcDbText
  0
LINE
  5
8E9
330
A
100
AcDbEntity
  8
LEVEL001
  6
Continuous
 62
     6
370
    15
100
AcDbLine
 10
78.37686899108099
 20
281.10234258786
 30
0.0
 11
33.475588385823
 21
236.20106198259
 31
0.0
  0
LINE
  5
8EA
330
A
100
AcDbEntity
  8
LEVEL001
  6
Continuous
 62
     6
370
    15
100
AcDbLine
 10
86.58021145178301
 20
272.89900012716
 30
0.0
 11
77.669762209895
 21
281.80944936905
 31
0.0
  0
LINE
  5
8EB
330
A
100
AcDbEntity
  8
LEVEL001
  6
Continuous
 62
     6
370
    15
100
AcDbLine
 10
41.67893084651999
 20
227.99771952189
 30
0.0
 11
32.768481604637
 21
236.90816876377
 31
0.0
  0
CIRCLE
  5
8EC
330
A
100
AcDbEntity
  8
LEVEL001
  6
Continuous
 62
     6
370
    15
100
AcDbCircle
 10
78.37686899108099
 20
281.10234258786
 30
0.0
 40
0.26666666666667
  0
CIRCLE
  5
8ED
330
A
100
AcDbEntity
  8
LEVEL001
  6
Continuous
 62
     6
370
    15
100
AcDbCircle
 10
33.475588385823
 20
236.20106198259
 30
0.0
 40
0.26666666666667
  0
TEXT
  5
8EE
330
A
100
AcDbEntity
  8
LEVEL001
 62
     6
370
    15
100
AcDbText
 10
52.895771054796
 20
257.43951923176
 30
0.0
 40
3.0
  1
６５
 50
45.000000000009
 41
0.8
100
AcDbText
  0
LINE
  5
8EF
330
A
100
AcDbEntity
  8
LEVEL001
  6
Continuous
 62
     6
370
    15
100
AcDbLine
 10
96.197767474805
 20
281.10234258786
 30
0.0
 11
141.09904808007
 21
236.2010619826
 31
0.0
  0
LINE
  5
8F0
330
A
100
AcDbEntity
  8
LEVEL001
  6
Continuous
 62
     6
370
    15
100
AcDbLine
 10
87.994425014104
 20
272.89900012716
 30
0.0
 11
96.90487425599101
 21
281.80944936905
 31
0.0
  0
LINE
  5
8F1
330
A
100
AcDbEntity
  8
LEVEL001
  6
Continuous
 62
     6
370
    15
100
AcDbLine
 10
132.89570561937
 20
227.99771952189
 30
0.0
 11
141.80615486126
 21
236.90816876378
 31
0.0
  0
CIRCLE
  5
8F2
330
A
100
AcDbEntity
  8
LEVEL001
  6
Continuous
 62
     6
370
    15
100
AcDbCircle
 10
96.197767474805
 20
281.10234258786
 30
0.0
 40
0.26666666666667
  0
CIRCLE
  5
8F3
330
A
100
AcDbEntity
  8
LEVEL001
  6
Continuous
 62
     6
370
    15
100
AcDbCircle
 10
141.09904808007
 20
236.2010619826
 30
0.0
 40
0.26666666666667
  0
TEXT
  5
8F4
330
A
100
AcDbEntity
  8
LEVEL001
 62
     6
370
    15
100
AcDbText
 10
117.43622472397
 20
261.68215991889
 30
0.0
 40
3.0
  1
６５
 50
315.0
 41
0.8
100
AcDbText
  0
LINE
  5
8F5
330
A
100
AcDbEntity
  8
LEVEL001
  6
Continuous
 62
     6
370
    15
100
AcDbLine
 10
280.91635936024
 20
203.92753391656
 30
0.0
 11
292.93717464026
 21
215.9483491966999
 31
0.0
  0
LINE
  5
8F6
330
A
100
AcDbEntity
  8
LEVEL001
  6
Continuous
 62
     6
370
    15
100
AcDbLine
 10
271.78120259725
 20
213.06269067946
 30
0.0
 11
281.62346614143
 21
203.22042713538
 31
0.0
  0
LINE
  5
8F7
330
A
100
AcDbEntity
  8
LEVEL001
  6
Continuous
 62
     6
370
    15
100
AcDbLine
 10
283.80201787727
 20
225.0835059596
 30
0.0
 11
293.64428142145
 21
215.24124241552
 31
0.0
  0
CIRCLE
  5
8F8
330
A
100
AcDbEntity
  8
LEVEL001
  6
Continuous
 62
     6
370
    15
100
AcDbCircle
 10
280.91635936024
 20
203.92753391656
 30
0.0
 40
0.26666666666667
  0
CIRCLE
  5
8F9
330
A
100
AcDbEntity
  8
LEVEL001
  6
Continuous
 62
     6
370
    15
100
AcDbCircle
 10
292.93717464026
 20
215.9483491966999
 30
0.0
 40
0.26666666666667
  0
TEXT
  5
8FA
330
A
100
AcDbEntity
  8
LEVEL001
 62
     6
370
    15
100
AcDbText
 10
283.8963093666
 20
208.72575850315
 30
0.0
 40
3.0
  1
１７
 50
45.000000000295
 41
0.8
100
AcDbText
  0
LINE
  5
8FB
330
A
100
AcDbEntity
  8
LEVEL001
  6
Continuous
 62
     6
370
    15
100
AcDbLine
 10
289.8791191619
 20
232.57482080661
 30
0.0
 11
242.85651821312
 21
279.59742175539
 31
0.0
  0
LINE
  5
8FC
330
A
100
AcDbEntity
  8
LEVEL001
  6
Continuous
 62
     6
370
    15
100
AcDbLine
 10
283.30540215695
 20
226.00110380165
 30
0.0
 11
290.58622594309
 21
233.2819275878001
 31
0.0
  0
LINE
  5
8FD
330
A
100
AcDbEntity
  8
LEVEL001
  6
Continuous
 62
     6
370
    15
100
AcDbLine
 10
235.42164463424
 20
272.16254817652
 30
0.0
 11
243.5636249943
 21
280.3045285365801
 31
0.0
  0
CIRCLE
  5
8FE
330
A
100
AcDbEntity
  8
LEVEL001
  6
Continuous
 62
     6
370
    15
100
AcDbCircle
 10
289.8791191619
 20
232.57482080661
 30
0.0
 40
0.26666666666667
  0
CIRCLE
  5
8FF
330
A
100
AcDbEntity
  8
LEVEL001
  6
Continuous
 62
     6
370
    15
100
AcDbCircle
 10
242.85651821312
 20
279.59742175539
 30
0.0
 40
0.26666666666667
  0
TEXT
  5
900
330
A
100
AcDbEntity
  8
LEVEL001
 62
     6
370
    15
100
AcDbText
 10
263.56464537638
 20
260.70756917233
 30
0.0
 40
3.0
  1
６６.５
 50
315.0
 41
0.8
100
AcDbText
  0
LINE
  5
901
330
A
100
AcDbEntity
  8
LEVEL001
  6
Continuous
 62
     6
370
    15
100
AcDbLine
 10
182.26550113287
 20
232.57482080661
 30
0.0
 11
229.28810208165
 21
279.5974217554
 31
0.0
  0
LINE
  5
902
330
A
100
AcDbEntity
  8
LEVEL001
  6
Continuous
 62
     6
370
    15
100
AcDbLine
 10
188.83921813783
 20
226.00110380165
 30
0.0
 11
181.55839435169
 21
233.2819275878001
 31
0.0
  0
LINE
  5
903
330
A
100
AcDbEntity
  8
LEVEL001
  6
Continuous
 62
     6
370
    15
100
AcDbLine
 10
236.72297566054
 20
272.16254817652
 30
0.0
 11
228.58099530046
 21
280.3045285365901
 31
0.0
  0
CIRCLE
  5
904
330
A
100
AcDbEntity
  8
LEVEL001
  6
Continuous
 62
     6
370
    15
100
AcDbCircle
 10
182.26550113287
 20
232.57482080661
 30
0.0
 40
0.26666666666667
  0
CIRCLE
  5
905
330
A
100
AcDbEntity
  8
LEVEL001
  6
Continuous
 62
     6
370
    15
100
AcDbCircle
 10
229.28810208165
 20
279.5974217554
 30
0.0
 40
0.26666666666667
  0
TEXT
  5
906
330
A
100
AcDbEntity
  8
LEVEL001
 62
     6
370
    15
100
AcDbText
 10
201.15535371594
 20
253.2829479698699
 30
0.0
 40
3.0
  1
６６.５
 50
45.000000000009
 41
0.8
100
AcDbText
  0
LINE
  5
907
330
A
100
AcDbEntity
  8
LEVEL001
  6
Continuous
 62
     6
370
    15
100
AcDbLine
 10
162.01257201318
 20
203.76979746064
 30
0.0
 11
177.01257201318
 21
203.76979746064
 31
0.0
  0
LINE
  5
908
330
A
100
AcDbEntity
  8
LEVEL001
  6
Continuous
 62
     6
370
    15
100
AcDbLine
 10
162.01257201318
 20
212.76979746064
 30
0.0
 11
162.01257201318
 21
202.76979746064
 31
0.0
  0
LINE
  5
909
330
A
100
AcDbEntity
  8
LEVEL001
  6
Continuous
 62
     6
370
    15
100
AcDbLine
 10
177.01257201318
 20
212.76979746064
 30
0.0
 11
177.01257201318
 21
202.76979746064
 31
0.0
  0
CIRCLE
  5
90A
330
A
100
AcDbEntity
  8
LEVEL001
  6
Continuous
 62
     6
370
    15
100
AcDbCircle
 10
162.01257201318
 20
203.76979746064
 30
0.0
 40
0.26666666666667
  0
CIRCLE
  5
90B
330
A
100
AcDbEntity
  8
LEVEL001
  6
Continuous
 62
     6
370
    15
100
AcDbCircle
 10
177.01257201318
 20
203.76979746064
 30
0.0
 40
0.26666666666667
  0
TEXT
  5
90C
330
A
100
AcDbEntity
  8
LEVEL001
 62
     6
370
    15
100
AcDbText
 10
166.51257201318
 20
205.05551174635
 30
0.0
 40
3.0
  1
１５
 41
0.8
100
AcDbText
  0
HATCH
  5
A02
330
A
100
AcDbEntity
  8
0
  6
Continuous
100
AcDbHatch
 10
0.0
 20
0.0
 30
0.0
210
0.0
220
0.0
230
1.0
  2
SOLID
 70
     1
 71
     0
 91
        9
 92
        7
 72
     0
 73
     1
 93
        6
 10
324.45000000004
 20
280.475
 10
319.05000000004
 20
280.475
 10
312.65000000004
 20
270.875
 10
319.05000000004
 20
261.275
 10
324.45000000004
 20
261.275
 10
318.05000000004
 20
270.875
 97
        0
 92
        7
 72
     0
 73
     1
 93
        6
 10
332.55000000004
 20
280.475
 10
327.15000000004
 20
280.475
 10
320.75000000004
 20
270.875
 10
327.15000000004
 20
261.275
 10
332.55000000004
 20
261.275
 10
326.15000000004
 20
270.875
 97
        0
 92
        7
 72
     0
 73
     1
 93
        3
 10
333.35000000004
 20
270.875
 10
328.85000000004
 20
270.875
 10
333.35000000004
 20
263.675
 97
        0
 92
        7
 72
     1
 73
     1
 93
        6
 10
344.15000000004
 20
272.0750000000001
 42
0.0
 10
336.95000000004
 20
272.0750000000001
 42
0.0
 10
336.95000000004
 20
261.275
 42
0.0
 10
340.55000000004
 20
261.275
 42
0.0
 10
340.55000000004
 20
263.075
 42
0.0
 10
344.15000000004
 20
263.075
 42
1.0
 97
        0
 92
       22
 72
     1
 73
     1
 93
        4
 10
340.55000000004
 20
268.475
 42
0.0
 10
344.15000000004
 20
268.4749999999999
 42
-1.0
 10
344.15000000004
 20
266.6749999999999
 42
0.0
 10
340.55000000004
 20
266.6749999999999
 42
0.0
 97
        0
 92
        7
 72
     0
 73
     1
 93
        4
 10
358.55000000004
 20
272.0750000000001
 10
353.15000000004
 20
272.0750000000001
 10
345.95000000004
 20
261.275
 10
351.35000000004
 20
261.275
 97
        0
 92
       23
 72
     0
 73
     1
 93
        3
 10
357.35000000004
 20
268.11166923472
 10
352.79222051023
 20
261.275
 10
357.35000000004
 20
261.275
 97
        0
 92
        7
 72
     0
 73
     1
 93
       22
 10
371.15000000004
 20
268.475
 10
374.75000000004
 20
268.475
 10
374.75000000004
 20
261.275
 10
385.55000000004
 20
261.275
 10
385.55000000004
 20
264.875
 10
378.35000000004
 20
264.875
 10
378.35000000004
 20
265.775
 10
384.65000000004
 20
265.775
 10
384.65000000004
 20
267.575
 10
378.35000000004
 20
267.575
 10
378.35000000004
 20
268.475
 10
385.55000000004
 20
268.475
 10
385.55000000004
 20
272.0750000000001
 10
363.95000000004
 20
272.0750000000001
 10
363.95000000004
 20
268.475
 10
367.55000000004
 20
268.475
 10
367.55000000004
 20
264.875
 10
362.15000000004
 20
264.875
 10
362.15000000004
 20
272.0750000000001
 10
358.55000000004
 20
272.0750000000001
 10
358.55000000004
 20
261.275
 10
371.15000000004
 20
261.275
 97
        0
 92
        7
 72
     1
 73
     1
 93
        8
 10
396.35000000004
 20
264.875
 42
0.0
 10
390.95000000004
 20
264.875
 42
-1.0
 10
390.95000000004
 20
268.475
 42
0.0
 10
396.35000000004
 20
268.475
 42
0.0
 10
396.35000000004
 20
272.0750000000001
 42
0.0
 10
390.95000000004
 20
272.0750000000001
 42
1.0
 10
390.95000000004
 20
261.2750000000001
 42
0.0
 10
396.35000000004
 20
261.275
 42
0.0
 97
        0
 75
     1
 76
     1
 47
0.1180688714556397
 98
        9
 10
318.6882549024695
 20
274.8453077936651
 10
323.6507959620758
 20
272.9562075117278
 10
332.9851059702451
 20
269.0599329308184
 10
340.0744542930288
 20
269.8864153540485
 10
340.0744542930288
 20
269.8864153540485
 10
351.4174131902501
 20
265.5178678024204
 10
356.3799542498564
 20
262.8022829974871
 10
365.9505770543601
 20
263.2745580679716
 10
390.910566356717
 20
262.8006115841003
450
        0
451
        0
460
0.0
461
0.0
452
        0
462
1.0
453
        2
463
0.0
 63
     5
421
      255
463
1.0
 63
     2
421
 16776960
470
LINEAR
1001
GradientColor1ACI
1070
     5
1001
GradientColor2ACI
1070
     2
1001
ACAD
1010
0.0
1020
0.0
1030
0.0
  0
LWPOLYLINE
  5
A03
330
A
100
AcDbEntity
  8
LEVEL001
  6
Continuous
 62
     3
100
AcDbPolyline
 90
        6
 70
     0
 43
0.0
 10
344.15000000004
 20
272.0750000000001
 10
336.95000000004
 20
272.0750000000001
 10
336.95000000004
 20
261.275
 10
340.55000000004
 20
261.275
 10
340.55000000004
 20
263.075
 10
344.15000000004
 20
263.075
  0
ARC
  5
A04
330
A
100
AcDbEntity
  8
LEVEL001
  6
Continuous
 62
     3
100
AcDbCircle
 10
344.15000000004
 20
267.575
 30
0.0
 40
4.5
100
AcDbArc
 50
270.0
 51
90.0
  0
LINE
  5
A05
330
A
100
AcDbEntity
  8
LEVEL001
  6
Continuous
 62
     3
100
AcDbLine
 10
340.55000000004
 20
266.6749999999999
 30
0.0
 11
344.15000000004
 21
266.6749999999999
 31
0.0
  0
ARC
  5
A06
330
A
100
AcDbEntity
  8
LEVEL001
  6
Continuous
 62
     3
100
AcDbCircle
 10
344.15000000004
 20
267.575
 30
0.0
 40
0.9
100
AcDbArc
 50
270.0
 51
90.0
  0
LINE
  5
A07
330
A
100
AcDbEntity
  8
LEVEL001
  6
Continuous
 62
     3
100
AcDbLine
 10
344.15000000004
 20
268.475
 30
0.0
 11
340.55000000004
 21
268.475
 31
0.0
  0
LINE
  5
A08
330
A
100
AcDbEntity
  8
LEVEL001
  6
Continuous
 62
     3
100
AcDbLine
 10
340.55000000004
 20
268.475
 30
0.0
 11
340.55000000004
 21
266.6749999999999
 31
0.0
  0
LWPOLYLINE
  5
A09
330
A
100
AcDbEntity
  8
LEVEL001
  6
Continuous
 62
     3
100
AcDbPolyline
 90
       26
 70
     0
 43
0.0
 10
345.95000000004
 20
261.275
 10
353.15000000004
 20
272.0750000000001
 10
362.15000000004
 20
272.0750000000001
 10
362.15000000004
 20
264.875
 10
367.55000000004
 20
264.875
 10
367.55000000004
 20
268.475
 10
363.95000000004
 20
268.475
 10
363.95000000004
 20
272.0750000000001
 10
385.55000000004
 20
272.0750000000001
 10
385.55000000004
 20
268.475
 10
378.35000000004
 20
268.475
 10
378.35000000004
 20
267.575
 10
384.65000000004
 20
267.575
 10
384.65000000004
 20
265.775
 10
378.35000000004
 20
265.775
 10
378.35000000004
 20
264.875
 10
385.55000000004
 20
264.875
 10
385.55000000004
 20
261.275
 10
374.75000000004
 20
261.275
 10
374.75000000004
 20
268.475
 10
371.15000000004
 20
268.475
 10
371.15000000004
 20
261.275
 10
358.55000000004
 20
261.275
 10
358.55000000004
 20
272.0750000000001
 10
351.35000000004
 20
261.275
 10
345.95000000004
 20
261.275
  0
LWPOLYLINE
  5
A0A
330
A
100
AcDbEntity
  8
LEVEL001
  6
Continuous
 62
     3
100
AcDbPolyline
 90
        4
 70
     0
 43
0.0
 10
357.35000000004
 20
268.11166923472
 10
352.79222051023
 20
261.275
 10
357.35000000004
 20
261.275
 10
357.35000000004
 20
268.11166923472
  0
ARC
  5
A0B
330
A
100
AcDbEntity
  8
LEVEL001
  6
Continuous
 62
     3
100
AcDbCircle
 10
390.95000000004
 20
266.6749999999999
 30
0.0
 40
5.4
100
AcDbArc
 50
90.0
 51
270.0
  0
ARC
  5
A0C
330
A
100
AcDbEntity
  8
LEVEL001
  6
Continuous
 62
     3
100
AcDbCircle
 10
390.95000000004
 20
266.6749999999999
 30
0.0
 40
1.8
100
AcDbArc
 50
90.0
 51
270.0
  0
LWPOLYLINE
  5
A0D
330
A
100
AcDbEntity
  8
LEVEL001
  6
Continuous
 62
     3
100
AcDbPolyline
 90
        4
 70
     0
 43
0.0
 10
390.95000000004
 20
272.0750000000001
 10
396.35000000004
 20
272.0750000000001
 10
396.35000000004
 20
268.475
 10
390.95000000004
 20
268.475
  0
LINE
  5
A0E
330
A
100
AcDbEntity
  8
LEVEL001
  6
Continuous
 62
     3
100
AcDbLine
 10
336.95000000004
 20
272.0750000000001
 30
0.0
 11
336.95000000004
 21
261.275
 31
0.0
  0
LINE
  5
A0F
330
A
100
AcDbEntity
  8
LEVEL001
  6
Continuous
 62
     3
100
AcDbLine
 10
336.95000000004
 20
261.275
 30
0.0
 11
340.55000000004
 21
261.275
 31
0.0
  0
LINE
  5
A10
330
A
100
AcDbEntity
  8
LEVEL001
  6
Continuous
 62
     3
100
AcDbLine
 10
340.55000000004
 20
261.275
 30
0.0
 11
340.55000000004
 21
263.075
 31
0.0
  0
LINE
  5
A11
330
A
100
AcDbEntity
  8
LEVEL001
  6
Continuous
 62
     3
100
AcDbLine
 10
340.55000000004
 20
263.075
 30
0.0
 11
344.15000000004
 21
263.075
 31
0.0
  0
ARC
  5
A12
330
A
100
AcDbEntity
  8
LEVEL001
  6
Continuous
 62
     3
100
AcDbCircle
 10
344.15000000004
 20
267.575
 30
0.0
 40
4.5
100
AcDbArc
 50
270.0
 51
90.0
  0
LINE
  5
A13
330
A
100
AcDbEntity
  8
LEVEL001
  6
Continuous
 62
     3
100
AcDbLine
 10
344.15000000004
 20
272.0750000000001
 30
0.0
 11
336.95000000004
 21
272.0750000000001
 31
0.0
  0
LINE
  5
A14
330
A
100
AcDbEntity
  8
LEVEL001
  6
Continuous
 62
     3
100
AcDbLine
 10
340.55000000004
 20
268.475
 30
0.0
 11
340.55000000004
 21
266.6749999999999
 31
0.0
  0
LINE
  5
A15
330
A
100
AcDbEntity
  8
LEVEL001
  6
Continuous
 62
     3
100
AcDbLine
 10
340.55000000004
 20
266.6749999999999
 30
0.0
 11
344.15000000004
 21
266.6749999999999
 31
0.0
  0
ARC
  5
A16
330
A
100
AcDbEntity
  8
LEVEL001
  6
Continuous
 62
     3
100
AcDbCircle
 10
344.15000000004
 20
267.575
 30
0.0
 40
0.9
100
AcDbArc
 50
270.0
 51
90.0
  0
LINE
  5
A17
330
A
100
AcDbEntity
  8
LEVEL001
  6
Continuous
 62
     3
100
AcDbLine
 10
344.15000000004
 20
268.475
 30
0.0
 11
340.55000000004
 21
268.475
 31
0.0
  0
LINE
  5
A18
330
A
100
AcDbEntity
  8
LEVEL001
  6
Continuous
 62
     3
100
AcDbLine
 10
353.15000000004
 20
272.0750000000001
 30
0.0
 11
345.95000000004
 21
261.275
 31
0.0
  0
LINE
  5
A19
330
A
100
AcDbEntity
  8
LEVEL001
  6
Continuous
 62
     3
100
AcDbLine
 10
345.95000000004
 20
261.275
 30
0.0
 11
351.35000000004
 21
261.275
 31
0.0
  0
LINE
  5
A1A
330
A
100
AcDbEntity
  8
LEVEL001
  6
Continuous
 62
     3
100
AcDbLine
 10
351.35000000004
 20
261.275
 30
0.0
 11
358.55000000004
 21
272.0750000000001
 31
0.0
  0
LINE
  5
A1B
330
A
100
AcDbEntity
  8
LEVEL001
  6
Continuous
 62
     3
100
AcDbLine
 10
358.55000000004
 20
272.0750000000001
 30
0.0
 11
353.15000000004
 21
272.0750000000001
 31
0.0
  0
LINE
  5
A1C
330
A
100
AcDbEntity
  8
LEVEL001
  6
Continuous
 62
     3
100
AcDbLine
 10
357.35000000004
 20
261.275
 30
0.0
 11
357.35000000004
 21
268.11166923472
 31
0.0
  0
LINE
  5
A1D
330
A
100
AcDbEntity
  8
LEVEL001
  6
Continuous
 62
     3
100
AcDbLine
 10
357.35000000004
 20
268.11166923472
 30
0.0
 11
352.79222051023
 21
261.275
 31
0.0
  0
LINE
  5
A1E
330
A
100
AcDbEntity
  8
LEVEL001
  6
Continuous
 62
     3
100
AcDbLine
 10
352.79222051023
 20
261.275
 30
0.0
 11
357.35000000004
 21
261.275
 31
0.0
  0
LINE
  5
A1F
330
A
100
AcDbEntity
  8
LEVEL001
  6
Continuous
 62
     3
100
AcDbLine
 10
358.55000000004
 20
261.275
 30
0.0
 11
371.15000000004
 21
261.275
 31
0.0
  0
LINE
  5
A20
330
A
100
AcDbEntity
  8
LEVEL001
  6
Continuous
 62
     3
100
AcDbLine
 10
371.15000000004
 20
261.275
 30
0.0
 11
371.15000000004
 21
268.475
 31
0.0
  0
LINE
  5
A21
330
A
100
AcDbEntity
  8
LEVEL001
  6
Continuous
 62
     3
100
AcDbLine
 10
371.15000000004
 20
268.475
 30
0.0
 11
374.75000000004
 21
268.475
 31
0.0
  0
LINE
  5
A22
330
A
100
AcDbEntity
  8
LEVEL001
  6
Continuous
 62
     3
100
AcDbLine
 10
374.75000000004
 20
268.475
 30
0.0
 11
374.75000000004
 21
261.275
 31
0.0
  0
LINE
  5
A23
330
A
100
AcDbEntity
  8
LEVEL001
  6
Continuous
 62
     3
100
AcDbLine
 10
374.75000000004
 20
261.275
 30
0.0
 11
385.55000000004
 21
261.275
 31
0.0
  0
LINE
  5
A24
330
A
100
AcDbEntity
  8
LEVEL001
  6
Continuous
 62
     3
100
AcDbLine
 10
385.55000000004
 20
261.275
 30
0.0
 11
385.55000000004
 21
264.875
 31
0.0
  0
LINE
  5
A25
330
A
100
AcDbEntity
  8
LEVEL001
  6
Continuous
 62
     3
100
AcDbLine
 10
385.55000000004
 20
264.875
 30
0.0
 11
378.35000000004
 21
264.875
 31
0.0
  0
LINE
  5
A26
330
A
100
AcDbEntity
  8
LEVEL001
  6
Continuous
 62
     3
100
AcDbLine
 10
378.35000000004
 20
264.875
 30
0.0
 11
378.35000000004
 21
265.775
 31
0.0
  0
LINE
  5
A27
330
A
100
AcDbEntity
  8
LEVEL001
  6
Continuous
 62
     3
100
AcDbLine
 10
378.35000000004
 20
265.775
 30
0.0
 11
384.65000000004
 21
265.775
 31
0.0
  0
LINE
  5
A28
330
A
100
AcDbEntity
  8
LEVEL001
  6
Continuous
 62
     3
100
AcDbLine
 10
384.65000000004
 20
265.775
 30
0.0
 11
384.65000000004
 21
267.575
 31
0.0
  0
LINE
  5
A29
330
A
100
AcDbEntity
  8
LEVEL001
  6
Continuous
 62
     3
100
AcDbLine
 10
384.65000000004
 20
267.575
 30
0.0
 11
378.35000000004
 21
267.575
 31
0.0
  0
LINE
  5
A2A
330
A
100
AcDbEntity
  8
LEVEL001
  6
Continuous
 62
     3
100
AcDbLine
 10
378.35000000004
 20
267.575
 30
0.0
 11
378.35000000004
 21
268.475
 31
0.0
  0
LINE
  5
A2B
330
A
100
AcDbEntity
  8
LEVEL001
  6
Continuous
 62
     3
100
AcDbLine
 10
378.35000000004
 20
268.475
 30
0.0
 11
385.55000000004
 21
268.475
 31
0.0
  0
LINE
  5
A2C
330
A
100
AcDbEntity
  8
LEVEL001
  6
Continuous
 62
     3
100
AcDbLine
 10
385.55000000004
 20
268.475
 30
0.0
 11
385.55000000004
 21
272.0750000000001
 31
0.0
  0
LINE
  5
A2D
330
A
100
AcDbEntity
  8
LEVEL001
  6
Continuous
 62
     3
100
AcDbLine
 10
385.55000000004
 20
272.0750000000001
 30
0.0
 11
363.95000000004
 21
272.0750000000001
 31
0.0
  0
LINE
  5
A2E
330
A
100
AcDbEntity
  8
LEVEL001
  6
Continuous
 62
     3
100
AcDbLine
 10
363.95000000004
 20
272.0750000000001
 30
0.0
 11
363.95000000004
 21
268.475
 31
0.0
  0
LINE
  5
A2F
330
A
100
AcDbEntity
  8
LEVEL001
  6
Continuous
 62
     3
100
AcDbLine
 10
363.95000000004
 20
268.475
 30
0.0
 11
367.55000000004
 21
268.475
 31
0.0
  0
LINE
  5
A30
330
A
100
AcDbEntity
  8
LEVEL001
  6
Continuous
 62
     3
100
AcDbLine
 10
367.55000000004
 20
268.475
 30
0.0
 11
367.55000000004
 21
264.875
 31
0.0
  0
LINE
  5
A31
330
A
100
AcDbEntity
  8
LEVEL001
  6
Continuous
 62
     3
100
AcDbLine
 10
367.55000000004
 20
264.875
 30
0.0
 11
362.15000000004
 21
264.875
 31
0.0
  0
LINE
  5
A32
330
A
100
AcDbEntity
  8
LEVEL001
  6
Continuous
 62
     3
100
AcDbLine
 10
362.15000000004
 20
264.875
 30
0.0
 11
362.15000000004
 21
272.0750000000001
 31
0.0
  0
LINE
  5
A33
330
A
100
AcDbEntity
  8
LEVEL001
  6
Continuous
 62
     3
100
AcDbLine
 10
362.15000000004
 20
272.0750000000001
 30
0.0
 11
358.55000000004
 21
272.0750000000001
 31
0.0
  0
LINE
  5
A34
330
A
100
AcDbEntity
  8
LEVEL001
  6
Continuous
 62
     3
100
AcDbLine
 10
358.55000000004
 20
272.0750000000001
 30
0.0
 11
358.55000000004
 21
261.275
 31
0.0
  0
LINE
  5
A35
330
A
100
AcDbEntity
  8
LEVEL001
  6
Continuous
 62
     3
100
AcDbLine
 10
390.95000000004
 20
261.275
 30
0.0
 11
396.35000000004
 21
261.275
 31
0.0
  0
LINE
  5
A36
330
A
100
AcDbEntity
  8
LEVEL001
  6
Continuous
 62
     3
100
AcDbLine
 10
396.35000000004
 20
261.275
 30
0.0
 11
396.35000000004
 21
264.875
 31
0.0
  0
LINE
  5
A37
330
A
100
AcDbEntity
  8
LEVEL001
  6
Continuous
 62
     3
100
AcDbLine
 10
396.35000000004
 20
264.875
 30
0.0
 11
390.95000000004
 21
264.875
 31
0.0
  0
ARC
  5
A38
330
A
100
AcDbEntity
  8
LEVEL001
  6
Continuous
 62
     3
100
AcDbCircle
 10
390.95000000004
 20
266.6749999999999
 30
0.0
 40
1.8
100
AcDbArc
 50
90.0
 51
270.0
  0
LINE
  5
A39
330
A
100
AcDbEntity
  8
LEVEL001
  6
Continuous
 62
     3
100
AcDbLine
 10
390.95000000004
 20
268.475
 30
0.0
 11
396.35000000004
 21
268.475
 31
0.0
  0
LINE
  5
A3A
330
A
100
AcDbEntity
  8
LEVEL001
  6
Continuous
 62
     3
100
AcDbLine
 10
396.35000000004
 20
268.475
 30
0.0
 11
396.35000000004
 21
272.0750000000001
 31
0.0
  0
LINE
  5
A3B
330
A
100
AcDbEntity
  8
LEVEL001
  6
Continuous
 62
     3
100
AcDbLine
 10
396.35000000004
 20
272.0750000000001
 30
0.0
 11
390.95000000004
 21
272.0750000000001
 31
0.0
  0
ARC
  5
A3C
330
A
100
AcDbEntity
  8
LEVEL001
  6
Continuous
 62
     3
100
AcDbCircle
 10
390.95000000004
 20
266.6749999999999
 30
0.0
 40
5.4
100
AcDbArc
 50
90.0
 51
270.0
  0
TEXT
  5
A3D
330
A
100
AcDbEntity
  8
LEVEL001
 62
     3
100
AcDbText
 10
336.95000000004
 20
273.875
 30
0.0
 40
3.75
  1
ケージーパルテック株式会社
 41
0.8
100
AcDbText
  0
LWPOLYLINE
  5
A3E
330
A
100
AcDbEntity
  8
LEVEL001
  6
Continuous
 62
     3
100
AcDbPolyline
 90
        4
 70
     0
 43
0.0
 10
333.35000000004
 20
263.675
 10
328.85000000004
 20
270.875
 10
333.35000000004
 20
270.875
 10
333.35000000004
 20
263.675
  0
LINE
  5
A3F
330
A
100
AcDbEntity
  8
LEVEL001
  6
Continuous
 62
     3
100
AcDbLine
 10
328.85000000004
 20
270.875
 30
0.0
 11
333.35000000004
 21
263.675
 31
0.0
  0
LINE
  5
A40
330
A
100
AcDbEntity
  8
LEVEL001
  6
Continuous
 62
     3
100
AcDbLine
 10
333.35000000004
 20
263.675
 30
0.0
 11
333.35000000004
 21
270.875
 31
0.0
  0
LINE
  5
A41
330
A
100
AcDbEntity
  8
LEVEL001
  6
Continuous
 62
     3
100
AcDbLine
 10
333.35000000004
 20
270.875
 30
0.0
 11
328.85000000004
 21
270.875
 31
0.0
  0
LWPOLYLINE
  5
A42
330
A
100
AcDbEntity
  8
LEVEL001
  6
Continuous
 62
     3
100
AcDbPolyline
 90
        3
 70
     0
 43
0.0
 10
319.05000000004
 20
280.475
 10
312.65000000004
 20
270.875
 10
319.05000000004
 20
261.275
  0
LWPOLYLINE
  5
A43
330
A
100
AcDbEntity
  8
LEVEL001
  6
Continuous
 62
     3
100
AcDbPolyline
 90
        3
 70
     0
 43
0.0
 10
324.45000000004
 20
261.275
 10
318.05000000004
 20
270.875
 10
324.45000000004
 20
280.475
  0
LWPOLYLINE
  5
A44
330
A
100
AcDbEntity
  8
LEVEL001
  6
Continuous
 62
     3
100
AcDbPolyline
 90
        3
 70
     0
 43
0.0
 10
327.15000000004
 20
280.475
 10
320.75000000004
 20
270.875
 10
327.15000000004
 20
261.275
  0
LWPOLYLINE
  5
A45
330
A
100
AcDbEntity
  8
LEVEL001
  6
Continuous
 62
     3
100
AcDbPolyline
 90
        3
 70
     0
 43
0.0
 10
332.55000000004
 20
261.275
 10
326.15000000004
 20
270.875
 10
332.55000000004
 20
280.475
  0
LWPOLYLINE
  5
A46
330
A
100
AcDbEntity
  8
LEVEL001
  6
Continuous
 62
     3
100
AcDbPolyline
 90
        3
 70
     0
 43
0.0
 10
319.05000000004
 20
261.275
 10
312.65000000004
 20
270.875
 10
319.05000000004
 20
280.475
  0
LINE
  5
A47
330
A
100
AcDbEntity
  8
LEVEL001
  6
Continuous
 62
     3
100
AcDbLine
 10
319.05000000004
 20
280.475
 30
0.0
 11
324.45000000004
 21
280.475
 31
0.0
  0
LWPOLYLINE
  5
A48
330
A
100
AcDbEntity
  8
LEVEL001
  6
Continuous
 62
     3
100
AcDbPolyline
 90
        3
 70
     0
 43
0.0
 10
324.45000000004
 20
280.475
 10
318.05000000004
 20
270.875
 10
324.45000000004
 20
261.275
  0
LINE
  5
A49
330
A
100
AcDbEntity
  8
LEVEL001
  6
Continuous
 62
     3
100
AcDbLine
 10
324.45000000004
 20
261.275
 30
0.0
 11
319.05000000004
 21
261.275
 31
0.0
  0
LWPOLYLINE
  5
A4A
330
A
100
AcDbEntity
  8
LEVEL001
  6
Continuous
 62
     3
100
AcDbPolyline
 90
        3
 70
     0
 43
0.0
 10
327.15000000004
 20
261.275
 10
320.75000000004
 20
270.875
 10
327.15000000004
 20
280.475
  0
LINE
  5
A4B
330
A
100
AcDbEntity
  8
LEVEL001
  6
Continuous
 62
     3
100
AcDbLine
 10
327.15000000004
 20
280.475
 30
0.0
 11
332.55000000004
 21
280.475
 31
0.0
  0
LWPOLYLINE
  5
A4C
330
A
100
AcDbEntity
  8
LEVEL001
  6
Continuous
 62
     3
100
AcDbPolyline
 90
        3
 70
     0
 43
0.0
 10
332.55000000004
 20
280.475
 10
326.15000000004
 20
270.875
 10
332.55000000004
 20
261.275
  0
LINE
  5
A4D
330
A
100
AcDbEntity
  8
LEVEL001
  6
Continuous
 62
     3
100
AcDbLine
 10
332.55000000004
 20
261.275
 30
0.0
 11
327.15000000004
 21
261.275
 31
0.0
  0
TEXT
  5
F65
330
A
100
AcDbEntity
  8
LEVEL001
 62
     7
100
AcDbText
 10
306.69647188433
 20
77.2067590062245
 30
0.0
 40
3.0
  1
※カラーバリエーションはカタログ参照願います
 41
0.8
100
AcDbText
  0
TEXT
  5
F66
330
A
100
AcDbEntity
  8
LEVEL001
 62
     7
100
AcDbText
 10
306.69647188433
 20
73.2067590062245
 30
0.0
 40
3.0
  1
※本製品は予告無しに変更する事があります。
 41
0.8
100
AcDbText
  0
LINE
  5
F67
330
A
100
AcDbEntity
  8
LEVEL001
  6
Continuous
 62
     3
100
AcDbLine
 10
304.50000000003
 20
83.34590242265198
 30
0.0
 11
404.50000000003
 21
83.34590242265198
 31
0.0
  0
TEXT
  5
F68
330
A
100
AcDbEntity
  8
LEVEL001
 62
     7
100
AcDbText
 10
371.8550845608299
 20
40.50000000000648
 30
0.0
 40
3.0
  1
令和　２年　４月　１日
 41
0.8
 72
     1
 11
387.21508456083
 21
42.00000000000648
 31
0.0
100
AcDbText
 73
     2
  0
LINE
  5
FDC
330
A
100
AcDbEntity
  8
0
  6
DASHDOT
 62
     8
370
    15
100
AcDbLine
 10
221.9624639731917
 20
158.8528287384754
 30
0.0
 11
221.9624639731917
 21
171.1642642615954
 31
0.0
  0
LINE
  5
FDD
330
A
100
AcDbEntity
  8
0
  6
DASHDOT
 62
     8
370
    15
100
AcDbLine
 10
210.2532182310987
 20
165.0085465000354
 30
0.0
 11
252.5403228539817
 21
165.0085465000354
 31
0.0
  0
CIRCLE
  5
FDE
330
A
100
AcDbEntity
  8
0
  6
Continuous
 62
     3
370
    40
100
AcDbCircle
 10
243.9624639731917
 20
165.0085465000354
 30
0.0
 40
3.0
  0
LINE
  5
FDF
330
A
100
AcDbEntity
  8
0
  6
DASHDOT
 62
     8
370
    15
100
AcDbLine
 10
243.9624639731917
 20
159.3881085438354
 30
0.0
 11
243.9624639731917
 21
170.6289844562454
 31
0.0
  0
LINE
  5
FE0
330
A
100
AcDbEntity
  8
0
  6
Continuous
 62
     3
370
    40
100
AcDbLine
 10
216.9624639731927
 20
169.0085465000354
 30
0.0
 11
226.9624639731917
 21
169.0085465000354
 31
0.0
  0
LINE
  5
FE1
330
A
100
AcDbEntity
  8
0
  6
Continuous
 62
     3
370
    40
100
AcDbLine
 10
226.9624639731917
 20
161.0085465000354
 30
0.0
 11
216.9624639731927
 21
161.0085465000354
 31
0.0
  0
ARC
  5
FE2
330
A
100
AcDbEntity
  8
0
  6
Continuous
 62
     3
370
    40
100
AcDbCircle
 10
216.9624639731927
 20
165.0085465000354
 30
0.0
 40
4.0
100
AcDbArc
 50
90.0
 51
270.0
  0
ARC
  5
FE3
330
A
100
AcDbEntity
  8
0
  6
Continuous
 62
     3
370
    40
100
AcDbCircle
 10
226.9624639731917
 20
165.0085465000354
 30
0.0
 40
4.0
100
AcDbArc
 50
270.0
 51
90.0
  0
DIMENSION
  5
FE4
330
A
100
AcDbEntity
  8
0
  6
Continuous
 62
     8
370
    15
100
AcDbDimension
280
     0
  2
*D17
 10
230.9624639731917
 20
151.0085465000354
 30
0.0
 11
221.9624639731922
 21
153.5085465000354
 31
0.0
 70
    32
 71
     5
 42
17.99999999999897
 73
     0
 74
     0
 75
     0
  3
GMM001
100
AcDbAlignedDimension
 13
212.9624639731927
 23
165.0085465000354
 33
0.0
 14
230.9624639731917
 24
165.0085465000354
 34
0.0
100
AcDbRotatedDimension
  0
DIMENSION
  5
FE5
330
A
100
AcDbEntity
  8
0
  6
Continuous
 62
     8
370
    15
100
AcDbDimension
280
     0
  2
*D18
 10
207.7611933595107
 20
169.0085465000354
 30
0.0
 11
205.2611933595107
 21
165.0085465000355
 31
0.0
 70
    32
 71
     5
 42
8.0
 73
     0
 74
     0
 75
     0
  3
GMM001
100
AcDbAlignedDimension
 13
216.9624639731927
 23
161.0085465000354
 33
0.0
 14
216.9624639731927
 24
169.0085465000354
 34
0.0
 50
90.0
100
AcDbRotatedDimension
  0
DIMENSION
  5
FE6
330
A
100
AcDbEntity
  8
0
  6
Continuous
 62
     8
370
    15
100
AcDbDimension
280
     0
  2
*D19
 10
241.7386654933717
 20
162.9949128885953
 30
0.0
 11
251.7457586525645
 21
172.0562641401006
 31
0.0
 70
   163
 71
     5
 42
5.999999999996987
 73
     0
 74
     0
 75
     0
  3
GMM002
100
AcDbDiametricDimension
 15
246.1862624530116
 25
167.0221801114854
 35
0.0
 40
0.0
  0
MTEXT
  5
FE7
330
A
100
AcDbEntity
  8
0
 62
     8
370
    15
100
AcDbMText
 10
231.4347688003216
 20
142.2569169304854
 30
0.0
 40
3.0
 41
0.0
 46
0.0
 71
     5
 72
     1
  1
\T1.000000;穴－詳細図
  7
GMM001
 73
     1
 44
0.7999998400000301
  0
LINE
  5
FE8
330
A
100
AcDbEntity
  8
0
  6
Continuous
 62
     8
370
    15
100
AcDbLine
 10
220.3812408197877
 20
140.0087417479954
 30
0.0
 11
242.4882967808617
 21
140.0087417479954
 31
0.0
  0
TEXT
  5
10E4
330
A
100
AcDbEntity
  8
LEVEL001
 62
     7
100
AcDbText
 10
371.8550845608299
 20
33.83333333333644
 30
0.0
 40
3.0
  1
令和　２年　９月１０日
 41
0.8
 72
     1
 11
387.21508456083
 21
35.33333333333644
 31
0.0
100
AcDbText
 73
     2
  0
ENDSEC
  0
SECTION
  2
OBJECTS
  0
DICTIONARY
  5
3D
330
0
100
AcDbDictionary
281
     1
  3
ACAD_CIP_PREVIOUS_PRODUCT_INFO
350
980
  3
ACAD_COLOR
350
912
  3
ACAD_GROUP
350
3E
  3
ACAD_LAYOUT
350
915
  3
ACAD_MATERIAL
350
911
  3
ACAD_MLEADERSTYLE
350
97B
  3
ACAD_MLINESTYLE
350
3F
  3
ACAD_PLOTSETTINGS
350
916
  3
ACAD_PLOTSTYLENAME
350
90F
  3
ACAD_SCALELIST
350
969
  3
ACAD_TABLESTYLE
350
913
  3
ACAD_VISUALSTYLE
350
950
  3
ACDB_RECOMPOSE_DATA
350
1153
  3
AcDbVariableDictionary
350
933
  0
DICTIONARY
  5
98E
330
68
100
AcDbDictionary
280
     1
281
     1
  3
ACAD_LAYERSTATES
360
98F
  0
DICTIONARY
  5
983
330
38
100
AcDbDictionary
280
     1
281
     1
  3
ADSK_XREC_LAYER_RECONCILED
360
984
  0
DICTIONARY
  5
985
330
39
100
AcDbDictionary
280
     1
281
     1
  3
ADSK_XREC_LAYER_RECONCILED
360
986
  0
DICTIONARY
  5
987
330
3A
100
AcDbDictionary
280
     1
281
     1
  3
ADSK_XREC_LAYER_RECONCILED
360
988
  0
DICTIONARY
  5
989
330
3B
100
AcDbDictionary
280
     1
281
     1
  3
ADSK_XREC_LAYER_RECONCILED
360
98A
  0
DICTIONARY
  5
9B7
330
A
100
AcDbDictionary
280
     1
281
     1
  3
ACAD_SORTENTS
360
9B8
  0
XRECORD
  5
980
102
{ACAD_REACTORS
330
3D
102
}
330
3D
100
AcDbXrecord
280
     1
300
ACDLT
300
2012
300
ACDLT_F_S
  0
DICTIONARY
  5
912
102
{ACAD_REACTORS
330
3D
102
}
330
3D
100
AcDbDictionary
281
     1
  0
DICTIONARY
  5
3E
102
{ACAD_REACTORS
330
3D
102
}
330
0
100
AcDbDictionary
281
     1
  0
DICTIONARY
  5
915
102
{ACAD_REACTORS
330
3D
102
}
330
3D
100
AcDbDictionary
281
     1
  3
Model
350
917
  3
レイアウト1
350
918
  0
DICTIONARY
  5
911
102
{ACAD_REACTORS
330
3D
102
}
330
3D
100
AcDbDictionary
281
     1
  3
ByBlock
350
940
  3
ByLayer
350
938
  3
Global
350
948
  0
DICTIONARY
  5
97B
102
{ACAD_REACTORS
330
3D
102
}
330
3D
100
AcDbDictionary
281
     1
  3
Standard
350
97C
  0
DICTIONARY
  5
3F
102
{ACAD_REACTORS
330
3D
102
}
330
0
100
AcDbDictionary
281
     1
  3
STANDARD
350
40
  0
DICTIONARY
  5
916
102
{ACAD_REACTORS
330
3D
102
}
330
3D
100
AcDbDictionary
281
     1
  0
ACDBDICTIONARYWDFLT
  5
90F
102
{ACAD_REACTORS
330
3D
102
}
330
3D
100
AcDbDictionary
281
     1
  3
Normal
350
910
100
AcDbDictionaryWithDefault
340
910
  0
DICTIONARY
  5
969
102
{ACAD_REACTORS
330
3D
102
}
330
3D
100
AcDbDictionary
281
     1
  3
A0
350
96A
  3
A1
350
96B
  3
A2
350
96C
  3
A3
350
96D
  3
A4
350
96E
  3
A5
350
96F
  3
A6
350
970
  3
A7
350
971
  3
A8
350
972
  3
A9
350
973
  3
B0
350
974
  3
B1
350
975
  3
B2
350
976
  3
B3
350
977
  3
B4
350
978
  3
B5
350
979
  3
B6
350
97A
  0
DICTIONARY
  5
913
102
{ACAD_REACTORS
330
3D
102
}
330
3D
100
AcDbDictionary
281
     1
  3
Standard
350
914
  0
DICTIONARY
  5
950
102
{ACAD_REACTORS
330
3D
102
}
330
3D
100
AcDbDictionary
281
     1
  3
2dWireframe
350
956
  3
Basic
350
955
  3
Brighten
350
95C
  3
ColorChange
350
960
  3
Conceptual
350
959
  3
Dim
350
95B
  3
EdgeColorOff
350
968
  3
Facepattern
350
95F
  3
Flat
350
951
  3
FlatWithEdges
350
952
  3
Gouraud
350
953
  3
GouraudWithEdges
350
954
  3
Hidden
350
958
  3
JitterOff
350
966
  3
Linepattern
350
95E
  3
OverhangOff
350
967
  3
Realistic
350
95A
  3
Shaded
350
965
  3
Shaded with edges
350
964
  3
Shades of Gray
350
961
  3
Sketchy
350
962
  3
Thicken
350
95D
  3
Wireframe
350
957
  3
X-Ray
350
963
  0
XRECORD
  5
1153
102
{ACAD_REACTORS
330
3D
102
}
330
3D
100
AcDbXrecord
280
     1
 90
        1
330
914
  0
DICTIONARY
  5
933
102
{ACAD_REACTORS
330
3D
102
}
330
3D
100
AcDbDictionary
281
     1
  3
CANNOSCALE
350
9AD
  3
CMLEADERSTYLE
350
9AB
  3
CTABLESTYLE
350
934
  3
DIMASSOC
350
935
  3
LAYEREVAL
350
9AF
  3
LAYERNOTIFY
350
9B0
  3
LIGHTINGUNITS
350
9AE
  3
MSLTSCALE
350
9AC
  3
PROJECTNAME
350
936
  0
DICTIONARY
  5
98F
102
{ACAD_REACTORS
330
98E
102
}
330
98E
100
AcDbDictionary
281
     1
  0
XRECORD
  5
984
102
{ACAD_REACTORS
330
983
102
}
330
983
100
AcDbXrecord
280
     1
290
     1
  0
XRECORD
  5
986
102
{ACAD_REACTORS
330
985
102
}
330
985
100
AcDbXrecord
280
     1
290
     1
  0
XRECORD
  5
988
102
{ACAD_REACTORS
330
987
102
}
330
987
100
AcDbXrecord
280
     1
290
     1
  0
XRECORD
  5
98A
102
{ACAD_REACTORS
330
989
102
}
330
989
100
AcDbXrecord
280
     1
290
     1
  0
SORTENTSTABLE
  5
9B8
102
{ACAD_REACTORS
330
9B7
102
}
330
9B7
100
AcDbSortentsTable
330
A
331
2B0
  5
2B9
331
27A
  5
283
331
299
  5
2A2
331
A28
  5
A28
331
A47
  5
A47
331
2B1
  5
2BA
331
27B
  5
284
331
29A
  5
2A3
331
2D0
  5
2DC
331
A29
  5
A29
331
A48
  5
A48
331
364
  5
370
331
2D1
  5
2E0
331
2B2
  5
2BB
331
27C
  5
285
331
29B
  5
2A4
331
2F0
  5
2FC
331
326
  5
333
331
39A
  5
3A3
331
A2A
  5
A2A
331
A49
  5
A49
331
384
  5
397
331
365
  5
374
331
2F1
  5
300
331
2D2
  5
2E1
331
27D
  5
286
331
197
  5
1C7
331
29C
  5
2A5
331
2B3
  5
2C2
331
310
  5
323
331
346
  5
355
331
39B
  5
3A4
331
488
  5
491
331
A2B
  5
A2B
331
A4A
  5
A4A
331
39C
  5
3A5
331
385
  5
39A
331
2D3
  5
2E2
331
2B4
  5
2C3
331
27E
  5
287
331
24F
  5
278
331
29D
  5
2A6
331
2F2
  5
301
331
311
  5
326
331
347
  5
356
331
366
  5
375
331
3BB
  5
3CA
331
588
  5
591
331
A2C
  5
A2C
331
A4B
  5
A4B
331
386
  5
39B
331
367
  5
376
331
2F3
  5
302
331
2D4
  5
2E3
331
27F
  5
288
331
250
  5
279
331
29E
  5
2A7
331
2B5
  5
2C4
331
312
  5
329
331
329
  5
334
331
348
  5
357
331
48A
  5
493
331
589
  5
592
331
5A8
  5
5B1
331
A2D
  5
A2D
331
A4C
  5
A4C
331
5A9
  5
5B2
331
39E
  5
3A7
331
387
  5
39C
331
2B6
  5
2C8
331
280
  5
289
331
251
  5
27A
331
29F
  5
2A8
331
2F4
  5
303
331
313
  5
32C
331
368
  5
377
331
58A
  5
593
331
5C8
  5
5D7
331
A2E
  5
A2E
331
A4D
  5
A4D
331
5C9
  5
5D8
331
39F
  5
3A8
331
314
  5
32D
331
2B7
  5
2C9
331
281
  5
28A
331
388
  5
39D
331
58B
  5
594
331
5AA
  5
5B3
331
A2F
  5
A2F
331
5AB
  5
5B4
331
3A0
  5
3A9
331
2B8
  5
2CA
331
234
  5
23D
331
282
  5
28B
331
32C
  5
335
331
58C
  5
595
331
5CA
  5
5D9
331
5AC
  5
5B5
331
3A1
  5
3AA
331
2D8
  5
2E4
331
2B9
  5
2CB
331
235
  5
23E
331
283
  5
28C
331
32D
  5
336
331
34C
  5
358
331
58D
  5
596
331
5AD
  5
5B6
331
38B
  5
39E
331
34D
  5
35C
331
2F8
  5
304
331
2BA
  5
2CC
331
236
  5
23F
331
284
  5
28D
331
2D9
  5
2E8
331
317
  5
32E
331
32E
  5
337
331
36C
  5
378
331
3A2
  5
3AB
331
48F
  5
4AA
331
58E
  5
597
331
5AE
  5
5B7
331
36D
  5
37C
331
2DA
  5
2E9
331
2BB
  5
2D0
331
237
  5
240
331
285
  5
28E
331
2F9
  5
308
331
32F
  5
338
331
34E
  5
35D
331
3A3
  5
3AC
331
58F
  5
598
331
34F
  5
35E
331
2FA
  5
309
331
286
  5
28F
331
2DB
  5
2EA
331
330
  5
339
331
36E
  5
37D
331
3A4
  5
3AD
331
590
  5
599
331
5AF
  5
5B8
331
5B0
  5
5B9
331
36F
  5
37E
331
2DC
  5
2EB
331
287
  5
290
331
2FB
  5
30A
331
331
  5
33A
331
350
  5
35F
331
38E
  5
39F
331
591
  5
59A
331
2FC
  5
30B
331
332
  5
33B
331
370
  5
37F
331
4E8
  5
4F1
331
592
  5
59B
331
5B1
  5
5BA
331
5B2
  5
5BB
331
4E9
  5
4F2
331
333
  5
33C
331
593
  5
59C
331
5D1
  5
5DA
331
5D2
  5
5DB
331
594
  5
59D
331
334
  5
33D
331
4EA
  5
4F3
331
5B3
  5
5BC
331
5B4
  5
5BD
331
595
  5
59E
331
354
  5
360
331
335
  5
33E
331
5D3
  5
5DC
331
5D4
  5
5DD
331
596
  5
59F
331
374
  5
380
331
336
  5
33F
331
355
  5
364
331
5B5
  5
5BE
331
5B6
  5
5BF
331
597
  5
5A0
331
375
  5
384
331
356
  5
365
331
337
  5
346
331
5D5
  5
5DE
331
750
  5
759
331
751
  5
75A
331
5D6
  5
5DF
331
598
  5
5A1
331
376
  5
385
331
357
  5
366
331
3AC
  5
3B5
331
5B7
  5
5C0
331
768
  5
771
331
788
  5
791
331
733
  5
73C
331
5B8
  5
5C1
331
3AD
  5
3B6
331
377
  5
386
331
5D7
  5
5E0
331
752
  5
75B
331
769
  5
772
331
7A8
  5
7B1
331
789
  5
792
331
753
  5
75C
331
5D8
  5
5E1
331
583
  5
58C
331
3AE
  5
3B7
331
5B9
  5
5C2
331
734
  5
73D
331
76A
  5
773
331
7C8
  5
7D1
331
7A9
  5
7B2
331
735
  5
73E
331
5BA
  5
5C3
331
584
  5
58D
331
4F1
  5
4FA
331
3AF
  5
3B8
331
5D9
  5
5E2
331
754
  5
75D
331
76B
  5
774
331
78A
  5
793
331
7E0
  5
7E9
331
7AA
  5
7B3
331
78B
  5
794
331
755
  5
75E
331
5DA
  5
5E3
331
585
  5
58E
331
5BB
  5
5C4
331
736
  5
73F
331
76C
  5
775
331
7C9
  5
7D2
331
800
  5
809
331
7CA
  5
7D3
331
7AB
  5
7B4
331
737
  5
740
331
5BC
  5
5C5
331
586
  5
58F
331
5DB
  5
5E4
331
756
  5
75F
331
76D
  5
776
331
78C
  5
795
331
7E1
  5
7EA
331
820
  5
829
331
7E2
  5
7EB
331
7CB
  5
7D4
331
78D
  5
796
331
757
  5
760
331
5DC
  5
5E5
331
5BD
  5
5C6
331
59E
  5
5A7
331
587
  5
590
331
738
  5
741
331
76E
  5
777
331
7AC
  5
7B5
331
801
  5
80A
331
802
  5
80B
331
7CC
  5
7D5
331
7AD
  5
7B6
331
739
  5
742
331
5BE
  5
5C7
331
59F
  5
5A8
331
5DD
  5
5E6
331
758
  5
761
331
76F
  5
778
331
78E
  5
797
331
7E3
  5
7EC
331
821
  5
82A
331
822
  5
82B
331
7E4
  5
7ED
331
7CD
  5
7D6
331
78F
  5
798
331
759
  5
762
331
73A
  5
743
331
5DE
  5
5E7
331
5BF
  5
5C8
331
5A0
  5
5A9
331
770
  5
779
331
7AE
  5
7B7
331
803
  5
80C
331
804
  5
80D
331
7E5
  5
7EE
331
7AF
  5
7B8
331
73B
  5
744
331
5DF
  5
5EE
331
5A1
  5
5AA
331
5C0
  5
5C9
331
75A
  5
763
331
771
  5
77A
331
790
  5
799
331
7CE
  5
7D7
331
823
  5
82C
331
824
  5
82D
331
7E6
  5
7EF
331
7CF
  5
7D8
331
791
  5
79A
331
75B
  5
764
331
73C
  5
745
331
5E0
  5
5EF
331
5C1
  5
5CA
331
5A2
  5
5AB
331
772
  5
77B
331
7B0
  5
7B9
331
805
  5
80E
331
806
  5
80F
331
7E7
  5
7F0
331
7B1
  5
7BA
331
75C
  5
765
331
5E1
  5
5F0
331
5A3
  5
5AC
331
5C2
  5
5D1
331
73D
  5
746
331
773
  5
77C
331
792
  5
79B
331
7D0
  5
7D9
331
825
  5
82E
331
826
  5
82F
331
807
  5
810
331
7D1
  5
7DA
331
793
  5
79C
331
774
  5
77D
331
75D
  5
766
331
73E
  5
747
331
5C3
  5
5D2
331
5A4
  5
5AD
331
5E2
  5
5F1
331
7B2
  5
7BB
331
7E8
  5
7F1
331
8F0
  5
8F9
331
808
  5
811
331
7E9
  5
7F2
331
7B3
  5
7BC
331
775
  5
77E
331
75E
  5
767
331
5E3
  5
5F2
331
5A5
  5
5AE
331
5C4
  5
5D3
331
73F
  5
748
331
794
  5
79D
331
7D2
  5
7DB
331
827
  5
830
331
8F1
  5
8FA
331
828
  5
831
331
809
  5
812
331
7D3
  5
7DC
331
795
  5
79E
331
776
  5
77F
331
740
  5
749
331
5C5
  5
5D4
331
5A6
  5
5AF
331
5E4
  5
5F3
331
75F
  5
768
331
7B4
  5
7BD
331
7EA
  5
7F3
331
8F2
  5
8FB
331
829
  5
832
331
7EB
  5
7F4
331
7B5
  5
7BE
331
777
  5
780
331
760
  5
769
331
5E5
  5
5F4
331
5A7
  5
5B0
331
5C6
  5
5D5
331
741
  5
74A
331
796
  5
79F
331
7D4
  5
7DD
331
80A
  5
813
331
8F3
  5
8FC
331
82A
  5
833
331
80B
  5
814
331
7D5
  5
7DE
331
797
  5
7A0
331
778
  5
781
331
742
  5
74B
331
5C7
  5
5D6
331
5E6
  5
5F5
331
761
  5
76A
331
7B6
  5
7BF
331
7EC
  5
7F5
331
82B
  5
834
331
7ED
  5
7F6
331
7B7
  5
7C0
331
798
  5
7A1
331
779
  5
782
331
762
  5
76B
331
5E7
  5
5FC
331
743
  5
74C
331
7D6
  5
7DF
331
80C
  5
815
331
8F4
  5
8FD
331
8F5
  5
8FE
331
80D
  5
816
331
7D7
  5
7E0
331
799
  5
7A2
331
77A
  5
783
331
744
  5
74D
331
763
  5
76C
331
7B8
  5
7C1
331
7EE
  5
7F7
331
82C
  5
835
331
82D
  5
836
331
7EF
  5
7F8
331
7B9
  5
7C2
331
79A
  5
7A3
331
77B
  5
784
331
764
  5
76D
331
745
  5
74E
331
7D8
  5
7E1
331
80E
  5
817
331
8F6
  5
8FF
331
8F7
  5
900
331
80F
  5
818
331
7F0
  5
7F9
331
7BA
  5
7C3
331
77C
  5
785
331
746
  5
74F
331
765
  5
76E
331
79B
  5
7A4
331
7D9
  5
7E2
331
82E
  5
837
331
A10
  5
A10
331
82F
  5
838
331
7F1
  5
7FA
331
7BB
  5
7C4
331
79C
  5
7A5
331
77D
  5
786
331
766
  5
76F
331
747
  5
750
331
7DA
  5
7E3
331
810
  5
819
331
8F8
  5
901
331
A11
  5
A11
331
A30
  5
A30
331
8F9
  5
902
331
811
  5
81A
331
7F2
  5
7FB
331
7BC
  5
7C5
331
77E
  5
787
331
748
  5
751
331
767
  5
770
331
79D
  5
7A6
331
7DB
  5
7E4
331
830
  5
839
331
A12
  5
A12
331
A31
  5
A31
331
831
  5
83A
331
7F3
  5
7FC
331
7DC
  5
7E5
331
79E
  5
7A7
331
77F
  5
788
331
749
  5
752
331
7BD
  5
7C6
331
812
  5
81B
331
8FA
  5
903
331
A13
  5
A13
331
A32
  5
A32
331
8FB
  5
904
331
813
  5
81C
331
7F4
  5
7FD
331
7BE
  5
7C7
331
780
  5
789
331
74A
  5
753
331
79F
  5
7A8
331
7DD
  5
7E6
331
832
  5
83B
331
A14
  5
A14
331
A33
  5
A33
331
238
  5
241
331
833
  5
83C
331
7F5
  5
7FE
331
7DE
  5
7E7
331
7A0
  5
7A9
331
781
  5
78A
331
74B
  5
754
331
7BF
  5
7C8
331
814
  5
81D
331
8FC
  5
905
331
A15
  5
A15
331
A34
  5
A34
331
258
  5
27B
331
239
  5
242
331
8FD
  5
906
331
815
  5
81E
331
7F6
  5
7FF
331
7C0
  5
7C9
331
782
  5
78B
331
74C
  5
755
331
7A1
  5
7AA
331
7DF
  5
7E8
331
834
  5
83D
331
A16
  5
A16
331
A35
  5
A35
331
288
  5
291
331
23A
  5
243
331
259
  5
27C
331
7F7
  5
800
331
7A2
  5
7AB
331
783
  5
78C
331
74D
  5
756
331
7C1
  5
7CA
331
816
  5
81F
331
8FE
  5
907
331
A17
  5
A17
331
A36
  5
A36
331
2A0
  5
2A9
331
25A
  5
27D
331
23B
  5
244
331
289
  5
292
331
8FF
  5
908
331
817
  5
820
331
7C2
  5
7CB
331
784
  5
78D
331
74E
  5
757
331
7A3
  5
7AC
331
7F8
  5
801
331
A18
  5
A18
331
A37
  5
A37
331
23C
  5
245
331
28A
  5
293
331
2A1
  5
2AA
331
818
  5
821
331
7A4
  5
7AD
331
785
  5
78E
331
74F
  5
758
331
7C3
  5
7CC
331
7F9
  5
802
331
900
  5
909
331
A02
  5
A02
331
A19
  5
A19
331
A38
  5
A38
331
2E0
  5
2EC
331
23D
  5
246
331
28B
  5
294
331
2A2
  5
2AB
331
901
  5
90A
331
819
  5
822
331
7C4
  5
7CD
331
786
  5
78F
331
7A5
  5
7AE
331
7FA
  5
803
331
A03
  5
A03
331
A1A
  5
A1A
331
A39
  5
A39
331
300
  5
30C
331
2C2
  5
2D1
331
28C
  5
295
331
23E
  5
247
331
2A3
  5
2AC
331
2E1
  5
2F0
331
902
  5
90B
331
81A
  5
823
331
7A6
  5
7AF
331
787
  5
790
331
7C5
  5
7CE
331
7FB
  5
804
331
8E3
  5
8EC
331
A04
  5
A04
331
A1B
  5
A1B
331
A3A
  5
A3A
331
2E2
  5
2F1
331
2C3
  5
2D2
331
23F
  5
24E
331
28D
  5
296
331
2A4
  5
2AD
331
301
  5
310
331
903
  5
90C
331
8E4
  5
8ED
331
7C6
  5
7CF
331
7A7
  5
7B0
331
7FC
  5
805
331
81B
  5
824
331
A05
  5
A05
331
A1C
  5
A1C
331
A3B
  5
A3B
331
338
  5
347
331
302
  5
311
331
2E3
  5
2F2
331
28E
  5
297
331
240
  5
24F
331
2A5
  5
2AE
331
2C4
  5
2D3
331
904
  5
9B6
331
81C
  5
825
331
7C7
  5
7D0
331
7FD
  5
806
331
8E5
  5
8EE
331
A06
  5
A06
331
A1D
  5
A1D
331
A3C
  5
A3C
331
358
  5
367
331
31A
  5
32F
331
2E4
  5
2F3
331
241
  5
250
331
28F
  5
298
331
2A6
  5
2AF
331
303
  5
312
331
339
  5
348
331
8E6
  5
8EF
331
7FE
  5
807
331
81D
  5
826
331
905
  5
9B9
331
A07
  5
A07
331
A1E
  5
A1E
331
A3D
  5
A3D
331
33A
  5
34C
331
304
  5
313
331
290
  5
299
331
242
  5
251
331
2A7
  5
2B0
331
378
  5
387
331
906
  5
9BA
331
81E
  5
827
331
7FF
  5
808
331
8E7
  5
8F0
331
A08
  5
A08
331
A1F
  5
A1F
331
A3E
  5
A3E
331
33B
  5
34D
331
243
  5
258
331
291
  5
29A
331
2A8
  5
2B1
331
81F
  5
828
331
8E8
  5
8F1
331
907
  5
9BB
331
A09
  5
A09
331
A20
  5
A20
331
A3F
  5
A3F
331
33C
  5
34E
331
31D
  5
330
331
2A9
  5
2B2
331
18D
  5
1A3
331
244
  5
259
331
292
  5
29B
331
2C8
  5
2D4
331
391
  5
3A0
331
908
  5
9BC
331
8E9
  5
8F2
331
A0A
  5
A0A
331
A21
  5
A21
331
A40
  5
A40
331
35C
  5
368
331
33D
  5
34F
331
2C9
  5
2D8
331
245
  5
25A
331
293
  5
29C
331
2AA
  5
2B3
331
2E8
  5
2F4
331
8EA
  5
8F3
331
909
  5
9BD
331
A0B
  5
A0B
331
A22
  5
A22
331
A41
  5
A41
331
37C
  5
388
331
33E
  5
350
331
2E9
  5
2F8
331
2AB
  5
2B4
331
275
  5
27E
331
246
  5
275
331
294
  5
29D
331
2CA
  5
2D9
331
308
  5
314
331
35D
  5
36C
331
90A
  5
9BE
331
8EB
  5
8F4
331
A0C
  5
A0C
331
A23
  5
A23
331
A42
  5
A42
331
394
  5
3A1
331
35E
  5
36D
331
320
  5
331
331
309
  5
317
331
2CB
  5
2DA
331
295
  5
29E
331
247
  5
276
331
190
  5
1C1
331
276
  5
27F
331
2AC
  5
2B5
331
2EA
  5
2F9
331
33F
  5
354
331
37D
  5
38B
331
3B3
  5
3BC
331
8EC
  5
8F5
331
90B
  5
9BF
331
A0D
  5
A0D
331
A24
  5
A24
331
A43
  5
A43
331
37E
  5
38E
331
35F
  5
36E
331
2EB
  5
2FA
331
2AD
  5
2B6
331
277
  5
280
331
296
  5
29F
331
2CC
  5
2DB
331
30A
  5
31A
331
90C
  5
9C0
331
8ED
  5
8F6
331
A0E
  5
A0E
331
A25
  5
A25
331
A44
  5
A44
331
360
  5
36F
331
30B
  5
31D
331
297
  5
2A0
331
278
  5
281
331
2AE
  5
2B7
331
2EC
  5
2FB
331
37F
  5
391
331
3B5
  5
3BE
331
8EE
  5
8F7
331
A0F
  5
A0F
331
A26
  5
A26
331
A45
  5
A45
331
380
  5
394
331
323
  5
332
331
2AF
  5
2B8
331
279
  5
282
331
298
  5
2A1
331
30C
  5
320
331
397
  5
3A2
331
8EF
  5
8F8
331
A27
  5
A27
331
A46
  5
A46
  0
LAYOUT
  5
917
102
{ACAD_XDICTIONARY
360
994
102
}
102
{ACAD_REACTORS
330
915
102
}
330
915
100
AcDbPlotSettings
  1

  2
クセロPDF2
  4
A4
  6

 40
3.174999952316284
 41
3.174999952316284
 42
3.175003051757812
 43
3.17498779296875
 44
209.9733276367187
 45
296.9259948730469
 46
0.0
 47
0.0
 48
0.0
 49
0.0
140
0.0
141
0.0
142
1.0
143
198.9791556404411
 70
 11952
 72
     0
 73
     1
 74
     0
  7

 75
     0
147
0.0050256520427045
 76
     0
 77
     2
 78
   300
148
25464.19511950132
149
7779.136399506601
100
AcDbLayout
  1
Model
 70
     1
 71
     0
 10
0.0
 20
0.0
 11
12.0
 21
9.0
 12
0.0
 22
0.0
 32
0.0
 14
0.0
 24
0.0
 34
0.0
 15
0.0
 25
0.0
 35
0.0
146
0.0
 13
0.0
 23
0.0
 33
0.0
 16
1.0
 26
0.0
 36
0.0
 17
0.0
 27
1.0
 37
0.0
 76
     0
330
A
331
92D
1001
ACAD_PSEXT
1000
クセロPDF2
1000
XeloPDF2
1000
Xelo PDF Port2
1000

1070
     0
  0
LAYOUT
  5
918
102
{ACAD_REACTORS
330
915
102
}
330
915
100
AcDbPlotSettings
  1

  2
クセロPDF2
  4

  6

 40
0.0
 41
0.0
 42
0.0
 43
0.0
 44
0.0
 45
0.0
 46
0.0
 47
0.0
 48
0.0
 49
0.0
140
0.0
141
0.0
142
1.0
143
1.0
 70
   688
 72
     0
 73
     0
 74
     5
  7

 75
    16
147
1.0
 76
     0
 77
     2
 78
   300
148
0.0
149
0.0
100
AcDbLayout
  1
レイアウト1
 70
     1
 71
     1
 10
0.0
 20
0.0
 11
12.0
 21
9.0
 12
0.0
 22
0.0
 32
0.0
 14
1.000000000000000E+20
 24
1.000000000000000E+20
 34
1.000000000000000E+20
 15
-1.000000000000000E+20
 25
-1.000000000000000E+20
 35
-1.000000000000000E+20
146
0.0
 13
0.0
 23
0.0
 33
0.0
 16
1.0
 26
0.0
 36
0.0
 17
0.0
 27
1.0
 37
0.0
 76
     0
330
B
  0
MATERIAL
  5
940
102
{ACAD_XDICTIONARY
360
941
102
}
102
{ACAD_REACTORS
330
911
102
}
330
911
100
AcDbMaterial
  1
ByBlock
 72
     0
 43
0.0208333333333333
 43
0.0
 43
0.0
 43
0.0
 43
0.0
 43
0.0208333333333333
 43
0.0
 43
0.0
 43
0.0
 43
0.0
 43
1.0
 43
0.0
 43
0.0
 43
0.0
 43
0.0
 43
1.0
 77
     0
 47
0.0208333333333333
 47
0.0
 47
0.0
 47
0.0
 47
0.0
 47
0.0208333333333333
 47
0.0
 47
0.0
 47
0.0
 47
0.0
 47
1.0
 47
0.0
 47
0.0
 47
0.0
 47
0.0
 47
1.0
171
     0
 49
0.0208333333333333
 49
0.0
 49
0.0
 49
0.0
 49
0.0
 49
0.0208333333333333
 49
0.0
 49
0.0
 49
0.0
 49
0.0
 49
1.0
 49
0.0
 49
0.0
 49
0.0
 49
0.0
 49
1.0
175
     0
142
0.0208333333333333
142
0.0
142
0.0
142
0.0
142
0.0
142
0.0208333333333333
142
0.0
142
0.0
142
0.0
142
0.0
142
1.0
142
0.0
142
0.0
142
0.0
142
0.0
142
1.0
179
     0
144
0.0208333333333333
144
0.0
144
0.0
144
0.0
144
0.0
144
0.0208333333333333
144
0.0
144
0.0
144
0.0
144
0.0
144
1.0
144
0.0
144
0.0
144
0.0
144
0.0
144
1.0
147
0.0208333333333333
147
0.0
147
0.0
147
0.0
147
0.0
147
0.0208333333333333
147
0.0
147
0.0
147
0.0
147
0.0
147
1.0
147
0.0
147
0.0
147
0.0
147
0.0
147
1.0
  0
MATERIAL
  5
938
102
{ACAD_XDICTIONARY
360
939
102
}
102
{ACAD_REACTORS
330
911
102
}
330
911
100
AcDbMaterial
  1
ByLayer
 72
     0
 43
0.0208333333333333
 43
0.0
 43
0.0
 43
0.0
 43
0.0
 43
0.0208333333333333
 43
0.0
 43
0.0
 43
0.0
 43
0.0
 43
1.0
 43
0.0
 43
0.0
 43
0.0
 43
0.0
 43
1.0
 77
     0
 47
0.0208333333333333
 47
0.0
 47
0.0
 47
0.0
 47
0.0
 47
0.0208333333333333
 47
0.0
 47
0.0
 47
0.0
 47
0.0
 47
1.0
 47
0.0
 47
0.0
 47
0.0
 47
0.0
 47
1.0
171
     0
 49
0.0208333333333333
 49
0.0
 49
0.0
 49
0.0
 49
0.0
 49
0.0208333333333333
 49
0.0
 49
0.0
 49
0.0
 49
0.0
 49
1.0
 49
0.0
 49
0.0
 49
0.0
 49
0.0
 49
1.0
175
     0
142
0.0208333333333333
142
0.0
142
0.0
142
0.0
142
0.0
142
0.0208333333333333
142
0.0
142
0.0
142
0.0
142
0.0
142
1.0
142
0.0
142
0.0
142
0.0
142
0.0
142
1.0
179
     0
144
0.0208333333333333
144
0.0
144
0.0
144
0.0
144
0.0
144
0.0208333333333333
144
0.0
144
0.0
144
0.0
144
0.0
144
1.0
144
0.0
144
0.0
144
0.0
144
0.0
144
1.0
147
0.0208333333333333
147
0.0
147
0.0
147
0.0
147
0.0
147
0.0208333333333333
147
0.0
147
0.0
147
0.0
147
0.0
147
1.0
147
0.0
147
0.0
147
0.0
147
0.0
147
1.0
  0
MATERIAL
  5
948
102
{ACAD_XDICTIONARY
360
949
102
}
102
{ACAD_REACTORS
330
911
102
}
330
911
100
AcDbMaterial
  1
Global
 72
     0
 43
0.0208333333333333
 43
0.0
 43
0.0
 43
0.0
 43
0.0
 43
0.0208333333333333
 43
0.0
 43
0.0
 43
0.0
 43
0.0
 43
1.0
 43
0.0
 43
0.0
 43
0.0
 43
0.0
 43
1.0
 77
     0
 47
0.0208333333333333
 47
0.0
 47
0.0
 47
0.0
 47
0.0
 47
0.0208333333333333
 47
0.0
 47
0.0
 47
0.0
 47
0.0
 47
1.0
 47
0.0
 47
0.0
 47
0.0
 47
0.0
 47
1.0
171
     0
 49
0.0208333333333333
 49
0.0
 49
0.0
 49
0.0
 49
0.0
 49
0.0208333333333333
 49
0.0
 49
0.0
 49
0.0
 49
0.0
 49
1.0
 49
0.0
 49
0.0
 49
0.0
 49
0.0
 49
1.0
175
     0
142
0.0208333333333333
142
0.0
142
0.0
142
0.0
142
0.0
142
0.0208333333333333
142
0.0
142
0.0
142
0.0
142
0.0
142
1.0
142
0.0
142
0.0
142
0.0
142
0.0
142
1.0
179
     0
144
0.0208333333333333
144
0.0
144
0.0
144
0.0
144
0.0
144
0.0208333333333333
144
0.0
144
0.0
144
0.0
144
0.0
144
1.0
144
0.0
144
0.0
144
0.0
144
0.0
144
1.0
147
0.0208333333333333
147
0.0
147
0.0
147
0.0
147
0.0
147
0.0208333333333333
147
0.0
147
0.0
147
0.0
147
0.0
147
1.0
147
0.0
147
0.0
147
0.0
147
0.0
147
1.0
  0
MLEADERSTYLE
  5
97C
102
{ACAD_XDICTIONARY
360
1151
102
}
102
{ACAD_REACTORS
330
97B
102
}
330
97B
100
AcDbMLeaderStyle
179
     2
170
     2
171
     1
172
     0
 90
        2
 40
0.0
 41
0.0
173
     1
 91
-1056964608
340
1D
 92
       -2
290
     1
 42
0.09
291
     1
 43
0.36
  3
Standard
 44
0.18
300

342
7
174
     1
178
     6
175
     1
176
     0
 93
-1056964608
 45
0.18
292
     0
297
     0
 46
0.18
 94
-1056964608
 47
1.0
 49
1.0
140
1.0
293
     1
141
0.0
294
     1
177
     0
142
1.0
295
     0
296
     0
143
0.125
271
     0
272
     9
273
     9
  0
MLINESTYLE
  5
40
102
{ACAD_REACTORS
330
3F
102
}
330
0
100
AcDbMlineStyle
  2
STANDARD
 70
     0
  3

 62
   256
 51
90.0
 52
90.0
 71
     2
 49
0.5
 62
   256
  6
BYLAYER
 49
-0.5
 62
   256
  6
BYLAYER
  0
ACDBPLACEHOLDER
  5
910
102
{ACAD_REACTORS
330
90F
102
}
330
90F
  0
SCALE
  5
96A
102
{ACAD_REACTORS
330
969
102
}
330
969
100
AcDbScale
 70
     0
300
1:1
140
1.0
141
1.0
290
     1
  0
SCALE
  5
96B
102
{ACAD_REACTORS
330
969
102
}
330
969
100
AcDbScale
 70
     0
300
1/128" = 1'-0"
140
0.0078125
141
12.0
290
     0
  0
SCALE
  5
96C
102
{ACAD_REACTORS
330
969
102
}
330
969
100
AcDbScale
 70
     0
300
1/64" = 1'-0"
140
0.015625
141
12.0
290
     0
  0
SCALE
  5
96D
102
{ACAD_REACTORS
330
969
102
}
330
969
100
AcDbScale
 70
     0
300
1/32" = 1'-0"
140
0.03125
141
12.0
290
     0
  0
SCALE
  5
96E
102
{ACAD_REACTORS
330
969
102
}
330
969
100
AcDbScale
 70
     0
300
1/16" = 1'-0"
140
0.0625
141
12.0
290
     0
  0
SCALE
  5
96F
102
{ACAD_REACTORS
330
969
102
}
330
969
100
AcDbScale
 70
     0
300
3/32" = 1'-0"
140
0.09375
141
12.0
290
     0
  0
SCALE
  5
970
102
{ACAD_REACTORS
330
969
102
}
330
969
100
AcDbScale
 70
     0
300
1/8" = 1'-0"
140
0.125
141
12.0
290
     0
  0
SCALE
  5
971
102
{ACAD_REACTORS
330
969
102
}
330
969
100
AcDbScale
 70
     0
300
3/16" = 1'-0"
140
0.1875
141
12.0
290
     0
  0
SCALE
  5
972
102
{ACAD_REACTORS
330
969
102
}
330
969
100
AcDbScale
 70
     0
300
1/4" = 1'-0"
140
0.25
141
12.0
290
     0
  0
SCALE
  5
973
102
{ACAD_REACTORS
330
969
102
}
330
969
100
AcDbScale
 70
     0
300
3/8" = 1'-0"
140
0.375
141
12.0
290
     0
  0
SCALE
  5
974
102
{ACAD_REACTORS
330
969
102
}
330
969
100
AcDbScale
 70
     0
300
1/2" = 1'-0"
140
0.5
141
12.0
290
     0
  0
SCALE
  5
975
102
{ACAD_REACTORS
330
969
102
}
330
969
100
AcDbScale
 70
     0
300
3/4" = 1'-0"
140
0.75
141
12.0
290
     0
  0
SCALE
  5
976
102
{ACAD_REACTORS
330
969
102
}
330
969
100
AcDbScale
 70
     0
300
1" = 1'-0"
140
1.0
141
12.0
290
     0
  0
SCALE
  5
977
102
{ACAD_REACTORS
330
969
102
}
330
969
100
AcDbScale
 70
     0
300
1-1/2" = 1'-0"
140
1.5
141
12.0
290
     0
  0
SCALE
  5
978
102
{ACAD_REACTORS
330
969
102
}
330
969
100
AcDbScale
 70
     0
300
3" = 1'-0"
140
3.0
141
12.0
290
     0
  0
SCALE
  5
979
102
{ACAD_REACTORS
330
969
102
}
330
969
100
AcDbScale
 70
     0
300
6" = 1'-0"
140
6.0
141
12.0
290
     0
  0
SCALE
  5
97A
102
{ACAD_REACTORS
330
969
102
}
330
969
100
AcDbScale
 70
     0
300
1'-0" = 1'-0"
140
12.0
141
12.0
290
     0
  0
TABLESTYLE
  5
914
102
{ACAD_XDICTIONARY
360
114F
102
}
102
{ACAD_REACTORS
330
913
102
}
330
913
100
AcDbTableStyle
280
     0
  3
Standard
 70
     0
 71
     0
 40
0.06
 41
0.06
280
     0
281
     0
  7
STANDARD
140
0.18
170
     2
 62
     0
 63
     7
283
     0
 90
        4
 91
        0
  1

274
    -2
284
     1
 64
     0
275
    -2
285
     1
 65
     0
276
    -2
286
     1
 66
     0
277
    -2
287
     1
 67
     0
278
    -2
288
     1
 68
     0
279
    -2
289
     1
 69
     0
  7
STANDARD
140
0.25
170
     5
 62
     0
 63
     7
283
     0
 90
        4
 91
        0
  1

274
    -2
284
     1
 64
     0
275
    -2
285
     1
 65
     0
276
    -2
286
     1
 66
     0
277
    -2
287
     1
 67
     0
278
    -2
288
     1
 68
     0
279
    -2
289
     1
 69
     0
  7
STANDARD
140
0.18
170
     5
 62
     0
 63
     7
283
     0
 90
        4
 91
        0
  1

274
    -2
284
     1
 64
     0
275
    -2
285
     1
 65
     0
276
    -2
286
     1
 66
     0
277
    -2
287
     1
 67
     0
278
    -2
288
     1
 68
     0
279
    -2
289
     1
 69
     0
  0
VISUALSTYLE
  5
956
102
{ACAD_REACTORS
330
950
102
}
330
950
100
AcDbVisualStyle
  2
2dWireframe
 70
     4
177
     2
291
     0
 71
     0
176
     1
 72
     2
176
     1
 73
     0
176
     1
 90
        0
176
     1
 40
0.6
176
     1
 41
30.0
176
     1
 63
     7
421
 16777215
176
     1
 74
     1
176
     1
 91
        4
176
     1
 64
     7
176
     1
 65
   257
176
     1
 75
     1
176
     1
175
     1
176
     1
 42
1.0
176
     1
 92
        0
176
     1
 66
   257
176
     1
 43
1.0
176
     1
 76
     1
176
     1
 77
     6
176
     1
 78
     2
176
     1
 67
     7
176
     1
 79
     5
176
     1
170
     0
176
     1
171
     0
176
     1
290
     0
176
     1
 93
        1
176
     1
 44
0.0
176
     1
173
     0
176
     1
  0
VISUALSTYLE
  5
955
102
{ACAD_REACTORS
330
950
102
}
330
950
100
AcDbVisualStyle
  2
Basic
 70
     7
177
     2
291
     1
 71
     1
176
     1
 72
     0
176
     1
 73
     1
176
     1
 90
        0
176
     1
 40
0.6
176
     1
 41
30.0
176
     1
 63
     7
421
 16777215
176
     1
 74
     0
176
     1
 91
        4
176
     1
 64
     7
176
     1
 65
   257
176
     1
 75
     1
176
     1
175
     1
176
     1
 42
1.0
176
     1
 92
        8
176
     1
 66
     7
176
     1
 43
1.0
176
     1
 76
     1
176
     1
 77
     6
176
     1
 78
     2
176
     1
 67
     7
176
     1
 79
     5
176
     1
170
     0
176
     1
171
     0
176
     1
290
     0
176
     1
 93
        1
176
     1
 44
0.0
176
     1
173
     0
176
     1
  0
VISUALSTYLE
  5
95C
102
{ACAD_REACTORS
330
950
102
}
330
950
100
AcDbVisualStyle
  2
Brighten
 70
    12
177
     2
291
     1
 71
     2
176
     1
 72
     2
176
     1
 73
     0
176
     1
 90
        0
176
     1
 40
0.6
176
     1
 41
30.0
176
     1
 63
     7
421
 16777215
176
     1
 74
     1
176
     1
 91
        4
176
     1
 64
     7
176
     1
 65
   257
176
     1
 75
     1
176
     1
175
     1
176
     1
 42
1.0
176
     1
 92
        8
176
     1
 66
     7
176
     1
 43
1.0
176
     1
 76
     1
176
     1
 77
     6
176
     1
 78
     2
176
     1
 67
     7
176
     1
 79
     5
176
     1
170
     0
176
     1
171
     0
176
     1
290
     0
176
     1
 93
        1
176
     1
 44
50.0
176
     1
173
     0
176
     1
  0
VISUALSTYLE
  5
960
102
{ACAD_REACTORS
330
950
102
}
330
950
100
AcDbVisualStyle
  2
ColorChange
 70
    16
177
     2
291
     1
 71
     2
176
     1
 72
     2
176
     1
 73
     3
176
     1
 90
        0
176
     1
 40
0.6
176
     1
 41
30.0
176
     1
 63
     8
421
  8421504
176
     1
 74
     1
176
     1
 91
        4
176
     1
 64
     7
176
     1
 65
   257
176
     1
 75
     1
176
     1
175
     1
176
     1
 42
1.0
176
     1
 92
        8
176
     1
 66
     8
424
  8421504
176
     1
 43
1.0
176
     1
 76
     1
176
     1
 77
     6
176
     1
 78
     2
176
     1
 67
     7
176
     1
 79
     5
176
     1
170
     0
176
     1
171
     0
176
     1
290
     0
176
     1
 93
        1
176
     1
 44
0.0
176
     1
173
     0
176
     1
  0
VISUALSTYLE
  5
959
102
{ACAD_REACTORS
330
950
102
}
330
950
100
AcDbVisualStyle
  2
Conceptual
 70
     9
177
     2
291
     0
 71
     3
176
     1
 72
     2
176
     1
 73
     0
176
     1
 90
        0
176
     1
 40
0.6
176
     1
 41
30.0
176
     1
 63
     7
421
 16777215
176
     1
 74
     2
176
     1
 91
        2
176
     1
 64
     7
176
     1
 65
   257
176
     1
 75
     1
176
     1
175
     1
176
     1
 42
179.0
176
     1
 92
        8
176
     1
 66
     7
176
     1
 43
1.0
176
     1
 76
     1
176
     1
 77
     6
176
     1
 78
     2
176
     1
 67
     7
176
     1
 79
     3
176
     1
170
     0
176
     1
171
     0
176
     1
290
     0
176
     1
 93
        1
176
     1
 44
0.0
176
     1
173
     0
176
     1
  0
VISUALSTYLE
  5
95B
102
{ACAD_REACTORS
330
950
102
}
330
950
100
AcDbVisualStyle
  2
Dim
 70
    11
177
     2
291
     1
 71
     2
176
     1
 72
     2
176
     1
 73
     0
176
     1
 90
        0
176
     1
 40
0.6
176
     1
 41
30.0
176
     1
 63
     7
421
 16777215
176
     1
 74
     1
176
     1
 91
        4
176
     1
 64
     7
176
     1
 65
   257
176
     1
 75
     1
176
     1
175
     1
176
     1
 42
1.0
176
     1
 92
        8
176
     1
 66
     7
176
     1
 43
1.0
176
     1
 76
     1
176
     1
 77
     6
176
     1
 78
     2
176
     1
 67
     7
176
     1
 79
     5
176
     1
170
     0
176
     1
171
     0
176
     1
290
     0
176
     1
 93
        1
176
     1
 44
-50.0
176
     1
173
     0
176
     1
  0
VISUALSTYLE
  5
968
102
{ACAD_REACTORS
330
950
102
}
330
950
100
AcDbVisualStyle
  2
EdgeColorOff
 70
    22
177
     2
291
     1
 71
     2
176
     0
 72
     2
176
     0
 73
     0
176
     0
 90
        0
176
     0
 40
0.6
176
     0
 41
30.0
176
     0
 63
     7
421
 16777215
176
     0
 74
     1
176
     0
 91
        4
176
     0
 64
     7
176
     0
 65
   257
176
     0
 75
     1
176
     0
175
     1
176
     0
 42
1.0
176
     0
 92
        8
176
     2
 66
     7
176
     0
 43
1.0
176
     0
 76
     1
176
     0
 77
     6
176
     0
 78
     2
176
     0
 67
     7
176
     0
 79
     5
176
     0
170
     0
176
     0
171
     0
176
     0
290
     0
176
     0
 93
        1
176
     0
 44
0.0
176
     0
173
     0
176
     0
  0
VISUALSTYLE
  5
95F
102
{ACAD_REACTORS
330
950
102
}
330
950
100
AcDbVisualStyle
  2
Facepattern
 70
    15
177
     2
291
     1
 71
     2
176
     1
 72
     2
176
     1
 73
     0
176
     1
 90
        0
176
     1
 40
0.6
176
     1
 41
30.0
176
     1
 63
     7
421
 16777215
176
     1
 74
     1
176
     1
 91
        4
176
     1
 64
     7
176
     1
 65
   257
176
     1
 75
     1
176
     1
175
     1
176
     1
 42
1.0
176
     1
 92
        8
176
     1
 66
     7
176
     1
 43
1.0
176
     1
 76
     1
176
     1
 77
     6
176
     1
 78
     2
176
     1
 67
     7
176
     1
 79
     5
176
     1
170
     0
176
     1
171
     0
176
     1
290
     0
176
     1
 93
        1
176
     1
 44
0.0
176
     1
173
     0
176
     1
  0
VISUALSTYLE
  5
951
102
{ACAD_REACTORS
330
950
102
}
330
950
100
AcDbVisualStyle
  2
Flat
 70
     0
177
     2
291
     1
 71
     2
176
     1
 72
     1
176
     1
 73
     1
176
     1
 90
        2
176
     1
 40
0.6
176
     1
 41
30.0
176
     1
 63
     7
421
 16777215
176
     1
 74
     0
176
     1
 91
        0
176
     1
 64
     7
176
     1
 65
   257
176
     1
 75
     1
176
     1
175
     1
176
     1
 42
1.0
176
     1
 92
        8
176
     1
 66
     7
176
     1
 43
1.0
176
     1
 76
     1
176
     1
 77
     6
176
     1
 78
     2
176
     1
 67
     7
176
     1
 79
     5
176
     1
170
     0
176
     1
171
     0
176
     1
290
     0
176
     1
 93
       13
176
     1
 44
0.0
176
     1
173
     0
176
     1
  0
VISUALSTYLE
  5
952
102
{ACAD_REACTORS
330
950
102
}
330
950
100
AcDbVisualStyle
  2
FlatWithEdges
 70
     1
177
     2
291
     1
 71
     2
176
     1
 72
     1
176
     1
 73
     1
176
     1
 90
        2
176
     1
 40
0.6
176
     1
 41
30.0
176
     1
 63
     7
421
 16777215
176
     1
 74
     1
176
     1
 91
        0
176
     1
 64
     7
176
     1
 65
   257
176
     1
 75
     1
176
     1
175
     1
176
     1
 42
1.0
176
     1
 92
        0
176
     1
 66
   257
176
     1
 43
1.0
176
     1
 76
     1
176
     1
 77
     6
176
     1
 78
     2
176
     1
 67
     7
176
     1
 79
     5
176
     1
170
     0
176
     1
171
     0
176
     1
290
     0
176
     1
 93
       13
176
     1
 44
0.0
176
     1
173
     0
176
     1
  0
VISUALSTYLE
  5
953
102
{ACAD_REACTORS
330
950
102
}
330
950
100
AcDbVisualStyle
  2
Gouraud
 70
     2
177
     2
291
     1
 71
     2
176
     1
 72
     2
176
     1
 73
     1
176
     1
 90
        2
176
     1
 40
0.6
176
     1
 41
30.0
176
     1
 63
     7
421
 16777215
176
     1
 74
     0
176
     1
 91
        0
176
     1
 64
     7
176
     1
 65
   257
176
     1
 75
     1
176
     1
175
     1
176
     1
 42
1.0
176
     1
 92
        0
176
     1
 66
     7
176
     1
 43
1.0
176
     1
 76
     1
176
     1
 77
     6
176
     1
 78
     2
176
     1
 67
     7
176
     1
 79
     5
176
     1
170
     0
176
     1
171
     0
176
     1
290
     0
176
     1
 93
       13
176
     1
 44
0.0
176
     1
173
     0
176
     1
  0
VISUALSTYLE
  5
954
102
{ACAD_REACTORS
330
950
102
}
330
950
100
AcDbVisualStyle
  2
GouraudWithEdges
 70
     3
177
     2
291
     1
 71
     2
176
     1
 72
     2
176
     1
 73
     1
176
     1
 90
        2
176
     1
 40
0.6
176
     1
 41
30.0
176
     1
 63
     7
421
 16777215
176
     1
 74
     1
176
     1
 91
        0
176
     1
 64
     7
176
     1
 65
   257
176
     1
 75
     1
176
     1
175
     1
176
     1
 42
1.0
176
     1
 92
        0
176
     1
 66
   257
176
     1
 43
1.0
176
     1
 76
     1
176
     1
 77
     6
176
     1
 78
     2
176
     1
 67
     7
176
     1
 79
     5
176
     1
170
     0
176
     1
171
     0
176
     1
290
     0
176
     1
 93
       13
176
     1
 44
0.0
176
     1
173
     0
176
     1
  0
VISUALSTYLE
  5
958
102
{ACAD_REACTORS
330
950
102
}
330
950
100
AcDbVisualStyle
  2
Hidden
 70
     6
177
     2
291
     0
 71
     1
176
     1
 72
     2
176
     1
 73
     2
176
     1
 90
        0
176
     1
 40
0.6
176
     1
 41
30.0
176
     1
 63
     7
421
 16777215
176
     1
 74
     2
176
     1
 91
        2
176
     1
 64
     7
176
     1
 65
   257
176
     1
 75
     2
176
     1
175
     1
176
     1
 42
40.0
176
     1
 92
        0
176
     1
 66
   257
176
     1
 43
1.0
176
     1
 76
     1
176
     1
 77
     6
176
     1
 78
     2
176
     1
 67
     7
176
     1
 79
     3
176
     1
170
     0
176
     1
171
     0
176
     1
290
     0
176
     1
 93
        1
176
     1
 44
0.0
176
     1
173
     0
176
     1
  0
VISUALSTYLE
  5
966
102
{ACAD_REACTORS
330
950
102
}
330
950
100
AcDbVisualStyle
  2
JitterOff
 70
    20
177
     2
291
     1
 71
     2
176
     0
 72
     2
176
     0
 73
     0
176
     0
 90
        0
176
     0
 40
0.6
176
     0
 41
30.0
176
     0
 63
     7
421
 16777215
176
     0
 74
     1
176
     0
 91
        4
176
     0
 64
     7
176
     0
 65
   257
176
     0
 75
     1
176
     0
175
     1
176
     0
 42
1.0
176
     0
 92
       10
176
     2
 66
     7
176
     0
 43
1.0
176
     0
 76
     1
176
     0
 77
     6
176
     0
 78
     2
176
     0
 67
     7
176
     0
 79
     5
176
     0
170
     0
176
     0
171
     0
176
     0
290
     0
176
     0
 93
        1
176
     0
 44
0.0
176
     0
173
     0
176
     0
  0
VISUALSTYLE
  5
95E
102
{ACAD_REACTORS
330
950
102
}
330
950
100
AcDbVisualStyle
  2
Linepattern
 70
    14
177
     2
291
     1
 71
     2
176
     1
 72
     2
176
     1
 73
     0
176
     1
 90
        0
176
     1
 40
0.6
176
     1
 41
30.0
176
     1
 63
     7
421
 16777215
176
     1
 74
     1
176
     1
 91
        4
176
     1
 64
     7
176
     1
 65
   257
176
     1
 75
     7
176
     1
175
     7
176
     1
 42
1.0
176
     1
 92
        8
176
     1
 66
     7
176
     1
 43
1.0
176
     1
 76
     1
176
     1
 77
     6
176
     1
 78
     2
176
     1
 67
     7
176
     1
 79
     5
176
     1
170
     0
176
     1
171
     0
176
     1
290
     0
176
     1
 93
        1
176
     1
 44
0.0
176
     1
173
     0
176
     1
  0
VISUALSTYLE
  5
967
102
{ACAD_REACTORS
330
950
102
}
330
950
100
AcDbVisualStyle
  2
OverhangOff
 70
    21
177
     2
291
     1
 71
     2
176
     0
 72
     2
176
     0
 73
     0
176
     0
 90
        0
176
     0
 40
0.6
176
     0
 41
30.0
176
     0
 63
     7
421
 16777215
176
     0
 74
     1
176
     0
 91
        4
176
     0
 64
     7
176
     0
 65
   257
176
     0
 75
     1
176
     0
175
     1
176
     0
 42
1.0
176
     0
 92
        9
176
     2
 66
     7
176
     0
 43
1.0
176
     0
 76
     1
176
     0
 77
     6
176
     0
 78
     2
176
     0
 67
     7
176
     0
 79
     5
176
     0
170
     0
176
     0
171
     0
176
     0
290
     0
176
     0
 93
        1
176
     0
 44
0.0
176
     0
173
     0
176
     0
  0
VISUALSTYLE
  5
95A
102
{ACAD_REACTORS
330
950
102
}
330
950
100
AcDbVisualStyle
  2
Realistic
 70
     8
177
     2
291
     0
 71
     2
176
     1
 72
     3
176
     1
 73
     0
176
     1
 90
        2
176
     1
 40
0.6
176
     1
 41
30.0
176
     1
 63
     7
421
 16777215
176
     1
 74
     0
176
     1
 91
        0
176
     1
 64
     7
176
     1
 65
   257
176
     1
 75
     1
176
     1
175
     1
176
     1
 42
1.0
176
     1
 92
        8
176
     1
 66
   257
176
     1
 43
1.0
176
     1
 76
     1
176
     1
 77
     6
176
     1
 78
     2
176
     1
 67
     7
176
     1
 79
     3
176
     1
170
     0
176
     1
171
     0
176
     1
290
     0
176
     1
 93
       13
176
     1
 44
0.0
176
     1
173
     0
176
     1
  0
VISUALSTYLE
  5
965
102
{ACAD_REACTORS
330
950
102
}
330
950
100
AcDbVisualStyle
  2
Shaded
 70
    27
177
     2
291
     0
 71
     2
176
     1
 72
     2
176
     1
 73
     1
176
     1
 90
        2
176
     1
 40
0.6
176
     1
 41
30.0
176
     1
 63
     7
421
 16777215
176
     1
 74
     0
176
     1
 91
        4
176
     1
 64
     7
176
     1
 65
   257
176
     1
 75
     1
176
     1
175
     1
176
     1
 42
1.0
176
     1
 92
        8
176
     1
 66
   257
176
     1
 43
1.0
176
     1
 76
     1
176
     1
 77
     6
176
     1
 78
     2
176
     1
 67
     8
425
  7895160
176
     1
 79
     3
176
     1
170
     0
176
     1
171
     0
176
     1
290
     0
176
     1
 93
        5
176
     1
 44
0.0
176
     1
173
     0
176
     1
  0
VISUALSTYLE
  5
964
102
{ACAD_REACTORS
330
950
102
}
330
950
100
AcDbVisualStyle
  2
Shaded with edges
 70
    26
177
     2
291
     0
 71
     2
176
     1
 72
     2
176
     1
 73
     1
176
     1
 90
        2
176
     1
 40
0.6
176
     1
 41
30.0
176
     1
 63
     7
421
 16777215
176
     1
 74
     1
176
     1
 91
       10
176
     1
 64
     7
176
     1
 65
   257
176
     1
 75
     2
176
     1
175
     1
176
     1
 42
1.0
176
     1
 92
        8
176
     1
 66
   257
176
     1
 43
1.0
176
     1
 76
     1
176
     1
 77
     6
176
     1
 78
     2
176
     1
 67
     7
176
     1
 79
     3
176
     1
170
     0
176
     1
171
     0
176
     1
290
     0
176
     1
 93
        5
176
     1
 44
0.0
176
     1
173
     0
176
     1
  0
VISUALSTYLE
  5
961
102
{ACAD_REACTORS
330
950
102
}
330
950
100
AcDbVisualStyle
  2
Shades of Gray
 70
    23
177
     2
291
     0
 71
     2
176
     1
 72
     2
176
     1
 73
     3
176
     1
 90
        0
176
     1
 40
0.6
176
     1
 41
30.0
176
     1
 63
     7
421
 16777215
176
     1
 74
     2
176
     1
 91
        2
176
     1
 64
     7
176
     1
 65
     7
176
     1
 75
     1
176
     1
175
     1
176
     1
 42
40.0
176
     1
 92
        8
176
     1
 66
     7
176
     1
 43
1.0
176
     1
 76
     1
176
     1
 77
     6
176
     1
 78
     2
176
     1
 67
     7
176
     1
 79
     3
176
     1
170
     0
176
     1
171
     0
176
     1
290
     0
176
     1
 93
        1
176
     1
 44
0.0
176
     1
173
     0
176
     1
  0
VISUALSTYLE
  5
962
102
{ACAD_REACTORS
330
950
102
}
330
950
100
AcDbVisualStyle
  2
Sketchy
 70
    24
177
     2
291
     0
 71
     1
176
     1
 72
     2
176
     1
 73
     2
176
     1
 90
        0
176
     1
 40
0.6
176
     1
 41
30.0
176
     1
 63
     7
421
 16777215
176
     1
 74
     2
176
     1
 91
        2
176
     1
 64
     7
176
     1
 65
     7
176
     1
 75
     1
176
     1
175
     1
176
     1
 42
40.0
176
     1
 92
       11
176
     1
 66
     7
176
     1
 43
1.0
176
     1
 76
     1
176
     1
 77
     6
176
     1
 78
     2
176
     1
 67
     7
176
     1
 79
     6
176
     1
170
     0
176
     1
171
     0
176
     1
290
     0
176
     1
 93
        1
176
     1
 44
0.0
176
     1
173
     0
176
     1
  0
VISUALSTYLE
  5
95D
102
{ACAD_REACTORS
330
950
102
}
330
950
100
AcDbVisualStyle
  2
Thicken
 70
    13
177
     2
291
     1
 71
     2
176
     1
 72
     2
176
     1
 73
     0
176
     1
 90
        0
176
     1
 40
0.6
176
     1
 41
30.0
176
     1
 63
     7
421
 16777215
176
     1
 74
     1
176
     1
 91
        4
176
     1
 64
     7
176
     1
 65
   257
176
     1
 75
     1
176
     1
175
     1
176
     1
 42
1.0
176
     1
 92
       12
176
     1
 66
     7
176
     1
 43
1.0
176
     1
 76
     1
176
     1
 77
     6
176
     1
 78
     2
176
     1
 67
     7
176
     1
 79
     5
176
     1
170
     0
176
     1
171
     0
176
     1
290
     0
176
     1
 93
        1
176
     1
 44
0.0
176
     1
173
     0
176
     1
  0
VISUALSTYLE
  5
957
102
{ACAD_REACTORS
330
950
102
}
330
950
100
AcDbVisualStyle
  2
Wireframe
 70
     5
177
     2
291
     0
 71
     0
176
     1
 72
     2
176
     1
 73
     0
176
     1
 90
        0
176
     1
 40
0.6
176
     1
 41
30.0
176
     1
 63
     7
421
 16777215
176
     1
 74
     1
176
     1
 91
        4
176
     1
 64
     7
176
     1
 65
   257
176
     1
 75
     1
176
     1
175
     1
176
     1
 42
1.0
176
     1
 92
        0
176
     1
 66
   257
176
     1
 43
1.0
176
     1
 76
     1
176
     1
 77
     6
176
     1
 78
     2
176
     1
 67
     7
176
     1
 79
     3
176
     1
170
     0
176
     1
171
     0
176
     1
290
     0
176
     1
 93
        1
176
     1
 44
0.0
176
     1
173
     0
176
     1
  0
VISUALSTYLE
  5
963
102
{ACAD_REACTORS
330
950
102
}
330
950
100
AcDbVisualStyle
  2
X-Ray
 70
    25
177
     2
291
     0
 71
     2
176
     1
 72
     2
176
     1
 73
     1
176
     1
 90
        1
176
     1
 40
0.5
176
     1
 41
30.0
176
     1
 63
     7
421
 16777215
176
     1
 74
     1
176
     1
 91
        0
176
     1
 64
     7
176
     1
 65
   257
176
     1
 75
     1
176
     1
175
     1
176
     1
 42
1.0
176
     1
 92
        8
176
     1
 66
     7
176
     1
 43
1.0
176
     1
 76
     1
176
     1
 77
     6
176
     1
 78
     2
176
     1
 67
     7
176
     1
 79
     3
176
     1
170
     0
176
     1
171
     0
176
     1
290
     0
176
     1
 93
       13
176
     1
 44
0.0
176
     1
173
     0
176
     1
  0
DICTIONARYVAR
  5
9AD
102
{ACAD_REACTORS
330
933
102
}
330
933
100
DictionaryVariables
280
     0
  1
1:1
  0
DICTIONARYVAR
  5
9AB
102
{ACAD_REACTORS
330
933
102
}
330
933
100
DictionaryVariables
280
     0
  1
STANDARD
  0
DICTIONARYVAR
  5
934
102
{ACAD_REACTORS
330
933
102
}
330
933
100
DictionaryVariables
280
     0
  1
STANDARD
  0
DICTIONARYVAR
  5
935
102
{ACAD_REACTORS
330
933
102
}
330
933
100
DictionaryVariables
280
     0
  1
1
  0
DICTIONARYVAR
  5
9AF
102
{ACAD_REACTORS
330
933
102
}
330
933
100
DictionaryVariables
280
     0
  1
1
  0
DICTIONARYVAR
  5
9B0
102
{ACAD_REACTORS
330
933
102
}
330
933
100
DictionaryVariables
280
     0
  1
15
  0
DICTIONARYVAR
  5
9AE
102
{ACAD_REACTORS
330
933
102
}
330
933
100
DictionaryVariables
280
     0
  1
0
  0
DICTIONARYVAR
  5
9AC
102
{ACAD_REACTORS
330
933
102
}
330
933
100
DictionaryVariables
280
     0
  1
0
  0
DICTIONARYVAR
  5
936
102
{ACAD_REACTORS
330
933
102
}
330
933
100
DictionaryVariables
280
     0
  1

  0
DICTIONARY
  5
994
330
917
100
AcDbDictionary
280
     1
281
     1
  3
ADSK_XREC_LAYOUTTHUMBNAIL
360
995
  0
DICTIONARY
  5
941
330
940
100
AcDbDictionary
280
     1
281
     1
  3
BUMPTILE
360
943
  3
DIFFUSETILE
360
942
  3
OPACITYTILE
360
946
  3
REFLECTIONTILE
360
945
  3
REFRACTIONTILE
360
947
  3
SPECULARTILE
360
944
  0
DICTIONARY
  5
939
330
938
100
AcDbDictionary
280
     1
281
     1
  3
BUMPTILE
360
93B
  3
DIFFUSETILE
360
93A
  3
OPACITYTILE
360
93E
  3
REFLECTIONTILE
360
93D
  3
REFRACTIONTILE
360
93F
  3
SPECULARTILE
360
93C
  0
DICTIONARY
  5
949
330
948
100
AcDbDictionary
280
     1
281
     1
  3
BUMPTILE
360
94B
  3
DIFFUSETILE
360
94A
  3
OPACITYTILE
360
94E
  3
REFLECTIONTILE
360
94D
  3
REFRACTIONTILE
360
94F
  3
SPECULARTILE
360
94C
  0
DICTIONARY
  5
1151
330
97C
100
AcDbDictionary
280
     1
281
     1
  3
ACAD_XREC_ROUNDTRIP
360
1152
  0
DICTIONARY
  5
114F
330
914
100
AcDbDictionary
280
     1
281
     1
  3
ACAD_ROUNDTRIP_2008_TABLESTYLE_CELLSTYLEMAP
360
1150
  0
XRECORD
  5
995
102
{ACAD_REACTORS
330
994
102
}
330
994
100
AcDbXrecord
280
     1
310
280000000001000085000000010008000000000000850000000000000000000000010000000000000000000000000000C8C8C8000000000000000000000000000000000000000000000000000000000000000000330000006600000099000000CC000000FF00000000330000333300006633000099330000CC330000FF3300
310
0000660000336600006666000099660000CC660000FF66000000990000339900006699000099990000CC990000FF99000000CC000033CC000066CC000099CC0000CCCC0000FFCC000000FF000033FF000066FF000099FF0000CCFF0000FFFF000000003300330033006600330099003300CC003300FF003300003333003333
310
33006633330099333300CC333300FF33330000663300336633006666330099663300CC663300FF66330000993300339933006699330099993300CC993300FF99330000CC330033CC330066CC330099CC3300CCCC3300FFCC330000FF330033FF330066FF330099FF3300CCFF3300FFFF330000006600330066006600660099
310
006600CC006600FF00660000336600333366006633660099336600CC336600FF33660000666600336666006666660099666600CC666600FF66660000996600339966006699660099996600CC996600FF99660000CC660033CC660066CC660099CC6600CCCC6600FFCC660000FF660033FF660066FF660099FF6600CCFF6600
310
FFFF660000009900330099006600990099009900CC009900FF00990000339900333399006633990099339900CC339900FF33990000669900336699006666990099669900CC669900FF66990000999900339999006699990099999900CC999900FF99990000CC990033CC990066CC990099CC9900CCCC9900FFCC990000FF99
310
0033FF990066FF990099FF9900CCFF9900FFFF99000000CC003300CC006600CC009900CC00CC00CC00FF00CC000033CC003333CC006633CC009933CC00CC33CC00FF33CC000066CC003366CC006666CC009966CC00CC66CC00FF66CC000099CC003399CC006699CC009999CC00CC99CC00FF99CC0000CCCC0033CCCC0066CC
310
CC0099CCCC00CCCCCC00FFCCCC0000FFCC0033FFCC0066FFCC0099FFCC00CCFFCC00FFFFCC000000FF003300FF006600FF009900FF00CC00FF00FF00FF000033FF003333FF006633FF009933FF00CC33FF00FF33FF000066FF003366FF006666FF009966FF00CC66FF00FF66FF000099FF003399FF006699FF009999FF00CC
310
99FF00FF99FF0000CCFF0033CCFF0066CCFF0099CCFF00CCCCFF00FFCCFF0000FFFF0033FFFF0066FFFF0099FFFF00CCFFFF00FFFFFF00000000000D0D0D001A1A1A00282828003535350043434300505050005D5D5D006B6B6B00787878008686860093939300A1A1A100AEAEAE00BBBBBB00C9C9C900D6D6D600E4E4E400
310
F1F1F100FFFFFF000000000000000000000000000000000000000000000000000000000000000000000000000000000000000000000000000000000000000000000000000000000000000000000000000000000000000000000000000000000000000000000000000000000000000000000000000000000000000000000000
310
00000000000000000000000000000000000000000000000000000000000000000000000000000000000000000000000000000000000000000000000000000000000000000000000000000000000000000000000000000000000000000000000000000000000000000000000000000000000000000000000000000000000000
310
00000000000000000000000000000000000000000000000000000000000000000000000000000000000000000000000000000000000000000000000000000000000000000000000000000000000000000000000000000000000000000000000000000000000000000000000000000000000000000000000000000000000000
310
00000000000000000000000000000000000000000000000000000000000000000000000000000000000000000000000000000000000000000000000000000000000000000000000000000000000000000000000000000000000000000000000000000000000000000000000000000000000000000000000000000000000000
310
00000000000000000000000000000000000000000000000000000000000000000000000000000000000000000000000000000000000000000000000000000000000000000000000000000000000000000000000000000000000000000000000000000000000000000000000000000000000000000000000000000000000000
310
00000000000000000000000000000000000000000000000000000000000000000000000000000000000000000000000000000000000000000000000000000000000000000000000000000000000000000000000000000000000000000000000000000000000000000000000000000000000000000000000000000000000000
310
00000000000000000000000000000000000000000000000000000000000000000000000000000000000000000000000000000000000000000000000000000000000000000000000000000000000000000000000000000000000000000000000000000000000000000000000000000000000000000000000000000000000000
310
00000000000000000000000000000000000000000000000000000000000000000000000000000000000000000000000000000000000000000000000000000000000000000000000000000000000000000000000000000000000000000000000000000000000000000000000000000000000000000000000000000000000000
310
00000000000000000000000000000000000000000000000000000000000000000000000000000000000000000000000000000000000000000000000000000000000000000000000000000000000000000000000000000000000000000000000000000000000000000000000000000000000000000000000000000000000000
310
00000000000000000000000000000000000000000000000000000000000000000000000000000000000000000000000000000000000000000000000000000000000000000000000000000000000000000000000000000000000000000000000000000000000000000000000000000000000000000000000000000000000000
310
00000000000000000000000000000000000000000000000000000000000000000000000000000000000000000000000000000000000000000000000000000000000000000000000000000000000000000000000000000000000000000000000000000000000000000000000000000000000000000000000000000000000000
310
00000000000000000000000000000000000000000000000000000000000000000000000000000000000000000000000000000000000000000000000000000000000000000000000000000000000000000000000000000000000000000000000000000000000000000000000000000000000000000000000000000000000000
310
00000000000000000000000000000000000000000000000000000000000000000000000000000000000000000000000000000000000000000000000000000000000000000000000000000000000000000000000000000000000000000000000000000000000000000000000000000000000000000000000000000000000000
310
00000000000000000000000000000000000000000000000000000000000000000000000000000000000000000000000000000000000000000000000000000000000000000000000000000000000000000000000000000000000000000000000000000000000000000000000000000000000000000000000000000000000000
310
00000000000000000000000000000000000000000000000000000000000000000000000000000000000000000000000000000000000000000000000000000000000000000000000000000000000000000000000000000000000000000000000000000000000000000000000000000000000000000000000000000000000000
310
00000000000000000000000000000000000000000000000000000000000000000000000000000000000000000000000000000000000000000000000000000000000000000000000000000000000000000000000000000000000000000000000000000000000000000000000000000000000000000000000000000000000000
310
00000000000000000000000000000000000000000000000000000000000000000000000000000000000000000000000000000000000000000000000000000000000000000000000000000000000000000000000000000000000000000000000000000000000000000000000000000000000000000000000000000000000000
310
00000000000000000000000000000000000000000000000000000000000000000000000000000000000000000000000000000000000000000000000000000000000000000000000000000000000000000000000000000000000000000000000000000000000000000000000000000000000000000000000000000000000000
310
00000000000000000000000000000000000000000000000000000000000000000000000000000000000000000000000000000000000000000000000000000000000000000000000000000000000000000000000000000000000000000000000000000000000000000000000000000000000000000000000000000000000000
310
00000000000000000000000000000000000000000000000000000000000000000000000000000000000000000000000000000000000000000000000000000000000000000000000000000000000000000000000000000000000000000000000000000000000000000000000000000000000000000000000000000000000000
310
00000000000000000000000000000000000000000000000000000000000000000000000000000000000000000000000000000000000000000000000000000000000000000000000000000000000000000000000000000000000000000000000000000000000000000000000000000000000000000000000000000000000000
310
00000000000000000000000000000000000000000000000000000000000000000000000000000000000000000000000000000000000000000000000000000000000000000000000000000000000000000000000000000000000000000000000000000000000000000000000000000000000000000000000000000000000000
310
00000000000000000000000000000000000000000000000000000000000000000000000000000000000000000000000000000000000000000000000000000000000000000000000000000000000000000000000000000000000000000000000000000000000000000000000000000000000000000000000000000000000000
310
00000000000000000000000000000000000000000000000000000000000000000000000000000000000000000000000000000000000000000000000000000000000000000000000000000000000000000000000000000000000000000000000000000000000000000000000000000000000000000000000000000000000000
310
00000000000000000000000000000000000000000000000000000000000000000000000000000000000000000000000000000000000000000000000000000000000000000000000000000000000000000000000000000000000000000000000000000000000000000000000000000000000000000000000000000000000000
310
00000000000000000000000000000000000000000000000000000000000000000000000000000000000000000000000000000000000000000000000000000000000000000000000000000000000000000000000000000000000000000000000000000000000000000000000000000000000000000000000000000000000000
310
00000000000000000000000000000000000000000000000000000000000000000000000000000000000000000000000000000000000000000000000000000000000000000000000000000000000000000000000000000000000000000000000000000000000000000000000000000000000000000000000000000000000000
310
00000000000000000000000000000000000000000000000000000000000000000000000000000000000000000000000000000000000000000000000000000000000000000000000000000000000000000000000000000000000000000000000000000000000000000000000000000000000000000000000000000000000000
310
00000000000000000000000000000000000000000000000000000000000000000000000000000000000000000000000000000000000000000000000000000000000000000000000000000000000000000000000000000000000000000000000000000000000000000000000000000000000000000000000000000000000000
310
00000000000000000000000000000000000000000000000000000000000000000000000000000000000000000000000000000000000000000000000000000000000000000000000000000000000000000000000000000000000000000000000000000000000000000000000000000000000000000000000000000000000000
310
00000000000000000000000000000000000000000000000000000000000000000000000000000000000000000000000000000000000000000000000000000000000000000000000000000000000000000000000000000000000000000000000000000000000000000000000000000000000000000000000000000000000000
310
00000000000000000000000000000000000000000000000000000000000000000000000000000000000000000000000000000000000000000000000000000000000000000000000000000000000000000000000000000000000000000000000000000000000000000000000000000000000000000000000000000000000000
310
00000000000000000000000000000000000000000000000000000000000000000000000000000000000000000000000000000000000000000000000000000000000000000000000000000000000000000000000000000000000000000000000000000000000000000000000000000000000000000000000000000000000000
310
00000000000000000000000000000000000000000000000000000000000000000000000000000000000000000000000000000000000000000000000000000000000000000000000000000000000000000000000000000000000000000000000000000000000000000000000000000000000000000000000000000000000000
310
00000000000000000000000000000000000000000000000000000000000000000000000000000000000000000000000000000000000000000000000000000000000000000000000000000000000000000000000000000000000000000000000000000000000000000000000000000000000000000000000000000000000000
310
00000000000000000000000000000000000000000000000000000000000000000000000000000000000000000000000000000000000000000000000000000000000000000000000000000000000000000000000000000000000000000000000000000000000000000000000000000000000000000000000000000000000000
310
00000000000000000000000000000000000000000000000000000000000000000000000000000000000000000000000000000000000000000000000000000000000000000000000000000000000000000000000000000000000000000000000000000000000000000000000000000000000000000000000000000000000000
310
00000000000000000000000000000000000000000000000000000000000000000000000000000000000000000000000000000000000000000000000000000000000000000000000000000000000000000000000000000000000000000000000000000000000000000000000000000000000000000000000000000000000000
310
00000000000000000000000000000000000000000000000000000000000000000000000000000000000000000000000000000000000000000000000000000000000000000000000000000000000000000000000000000000000000000000000000000000000000000000000000000000000000000000000000000000000000
310
00000000000000000000000000000000000000000000000000000000000000000000000000000000000000000000000000000000000000000000000000000000000000000000000000000000000000000000000000000000000000000000000000000000000000000000000000000000000000000000000000000000000000
310
00000000000000000000000000000000000000000000000000000000000000000000000000000000000000000000000000000000000000000000000000000000000000000000000000000000000000000000000000000000000000000000000000000000000000000000000000000000000000000000000000000000000000
310
00000000000000000000000000000000000000000000000000000000000000000000000000000000000000000000000000000000000000000000000000000000000000000000000000000000000000000000000000000000000000000000000000000000000000000000000000000000000000000000000000000000000000
310
00000000000000000000000000000000000000000000000000000000000000000000000000000000000000000000000000000000000000000000000000000000000000000000000000000000000000000000000000000000000000000000000000000000000000000000000000000000000000000000000000000000000000
310
00000000000000000000000000000000000000000000000000000000000000000000000000000000000000000000000000000000000000000000000000000000000000000000000000000000000000000000000000000000000000000000000000000000000000000000000000000000000000000000000000000000000000
310
00000000000000000000000000000000000000000000000000000000000000000000000000000000000000000000000000000000000000000000000000000000000000000000000000000000000000000000000000000000000000000000000000000000000000000000000000000000000000000000000000000000000000
310
00000000000000000000000000000000000000000000000000000000000000000000000000000000000000000000000000000000000000000000000000000000000000000000000000000000000000000000000000000000000000000000000000000000000000000000000000000000000000000000000000000000000000
310
00000000000000000000000000000000000000000000000000000000000000000000000000000000000000000000000000000000000000000000000000000000000000000000000000000000000000000000000000000000000000000000000000000000000000000000000000000000000000000000000000000000000000
310
00000000000000000000000000000000000000000000000000000000000000000000000000000000000000000000000000000000000000000000000000000000000000000000000000000000000000000000000000000000000000000000000000000000000000000000000000000000000000000000000000000000000000
310
00000000000000000000000000000000000000000000000000000000000000000000000000000000000000000000000000000000000000000000000000000000000000000000000000000000000000000000000000000000000000000000000000000000000000000000000000000000000000000000000000000000000000
310
00000000000000000000000000000000000000000000000000000000000000000000000000000000000000000000000000000000000000000000000000000000000000000000000000000000000000000000000000000000000000000000000000000000000000000000000000000000000000000000000000000000000000
310
00000000000000000000000000000000000000000000000000000000000000000000000000000000000000000000000000000000000000000000000000000000000000000000000000000000000000000000000000000000000000000000000000000000000000000000000000000000000000000000000000000000000000
310
00000000000000000000000000000000000000000000000000000000000000000000000000000000000000000000000000000000000000000000000000000000000000000000000000000000000000000000000000000000000000000000000000000000000000000000000000000000000000000000000000000000000000
310
00000000000000000000000000000000000000000000000000000000000000000000000000000000000000000000000000000000000000000000000000000000000000000000000000000000000000000000000000000000000000000000000000000000000000000000000000000000000000000000000000000000000000
310
00000000000000000000000000000000000000000000000000000000000000000000000000000000000000000000000000000000000000000000000000000000000000000000000000000000000000000000000000000000000000000000000000000000000000000000000000000000000000000000000000000000000000
310
00000000000000000000000000000000000000000000000000000000000000000000000000000000000000000000000000000000000000000000000000000000000000000000000000000000000000000000000000000000000000000000000000000000000000000000000000000000000000000000000000000000000000
310
00000000000000000000000000000000000000000000000000000000000000000000000000000000000000000000000000000000000000000000000000000000000000000000000000000000000000000000000000000000000000000000000000000000000000000000000000000000000000000000000000000000000000
310
00000000000000000000000000000000000000000000000000000000000000000000000000000000000000000000000000000000000000000000000000000000000000000000000000000000000000000000000000000000000000000000000000000000000000000000000000000000000000000000000000000000000000
310
00000000000000000000000000000000000000000000000000000000000000000000000000000000000000000000000000000000000000000000000000000000000000000000000000000000000000000000000000000000000000000000000000000000000000000000000000000000000000000000000000000000000000
310
00000000000000000000000000000000000000000000000000000000000000000000000000000000000000000000000000000000000000000000000000000000000000000000000000000000000000000000000000000000000000000000000000000000000000000000000000000000000000000000000000000000000000
310
00000000000000000000000000000000000000000000000000000000000000000000000000000000000000000000000000000000000000000000000000000000000000000000000000000000000000000000000000000000000000000000000000000000000000000000000000000000000000000000000000000000000000
310
00000000000000000000000000000000000000000000000000000000000000000000000000000000000000000000000000000000000000000000000000000000000000000000000000000000000000000000000000000000000000000000000000000000000000000000000000000000000000000000000000000000000000
310
00000000000000000000000000000000000000000000000000000000000000000000000000000000000000000000000000000000000000000000000000000000000000000000000000000000000000000000000000000000000000000000000000000000000000000000000000000000000000000000000000000000000000
310
00000000000000000000000000000000000000000000000000000000000000000000000000000000000000000000000000000000000000000000000000000000000000000000000000000000000000000000000000000000000000000000000000000000000000000000000000000000000000000000000000000000000000
310
00000000000000000000000000000000000000000000000000000000000000000000000000000000000000000000000000000000000000000000000000000000000000000000000000000000000000000000000000000000000000000000000000000000000000000000000000000000000000000000000000000000000000
310
00000000000000000000000000000000000000000000000000000000000000000000000000000000000000000000000000000000000000000000000000000000000000000000000000000000000000000000000000000000000000000000000000000000000000000000000000000000000000000000000000000000000000
310
00000000000000000000000000000000000000000000000000000000000000000000000000000000000000000000000000000000000000000000000000000000000000000000000000000000000000000000000000000000000000000000000000000000000000000000000000000000000000000000000000000000000000
310
00000000000000000000000000000000000000000000000000000000000000000000000000000000000000000000000000000000000000000000000000000000000000000000000000000000000000000000000000000000000000000000000000000000000000000000000000000000000000000000000000000000000000
310
00000000000000000000000000000000000000000000000000000000000000000000000000000000000000000000000000000000000000000000000000000000000000000000000000000000000000000000000000000000000000000000000000000000000000000000000000000000000000000000000000000000000000
310
00000000000000000000000000000000000000000000000000000000000000000000000000000000000000000000000000000000000000000000000000000000000000000000000000000000000000000000000000000000000000000000000000000000000000000000000000000000000000000000000000000000000000
310
00000000000000000000000000000000000000000000000000000000000000000000000000000000000000000000000000000000000000000000000000000000000000000000000000000000000000000000000000000000000000000000000000000000000000000000000000000000000000000000000000000000000000
310
00000000000000000000000000000000000000000000000000000000000000000000000000000000000000000000000000000000000000000000000000000000000000000000000000000000000000000000000000000000000000000000000000000000000000000000000000000000000000000000000000000000000000
310
00000000000000000000000000000000000000000000000000000000000000000000000000000000000000000000000000000000000000000000000000000000000000000000000000000000000000000000000000000000000000000000000000000000000000000000000000000000000000000000000000000000000000
310
00000000000000000000000000000000000000000000000000000000000000000000000000000000000000000000000000000000000000000000000000000000000000000000000000000000000000000000000000000000000000000000000000000000000000000000000000000000000000000000000000000000000000
310
00000000000000000000000000000000000000000000000000000000000000000000000000000000000000000000000000000000000000000000000000000000000000000000000000000000000000000000000000000000000000000000000000000000000000000000000000000000000000000000000000000000000000
310
00000000000000000000000000000000000000000000000000000000000000000000000000000000000000000000000000000000000000000000000000000000000000000000000000000000000000000000000000000000000000000000000000000000000000000000000000000000000000000000000000000000000000
310
00000000000000000000000000000000000000000000000000000000000000000000000000000000000000000000000000000000000000000000000000000000000000000000000000000000000000000000000000000000000000000000000000000000000000000000000000000000000000000000000000000000000000
310
00000000000000000000000000000000000000000000000000000000000000000000000000000000000000000000000000000000000000000000000000000000000000000000000000000000000000000000000000000000000000000000000000000000000000000000000000000000000000000000000000000000000000
310
00000000000000000000000000000000000000000000000000000000000000000000000000000000000000000000000000000000000000000000000000000000000000000000000000000000000000000000000000000000000000000000000000000000000000000000000000000000000000000000000000000000000000
310
00000000000000000000000000000000000000000000000000000000000000000000000000000000000000000000000000000000000000000000000000000000000000000000000000000000000000000000000000000000000000000000000000000000000000000000000000000000000000000000000000000000000000
310
00000000000000000000000000000000000000000000000000000000000000000000000000000000000000000000000000000000000000000000000000000000000000000000000000000000000000000000000000000000000000000000000000000000000000000000000000000000000000000000000000000000000000
310
00000000000000000000000000000000000000000000000000000000000000000000000000000000000000000000000000000000000000000000000000000000000000000000000000000000000000000000000000000000000000000000000000000000000000000000000000000000000000000000000000000000000000
310
00000000000000000000000000000000000000000000000000000000000000000000000000000000000000000000000000000000000000000000000000000000000000000000000000000000000000000000000000000000000000000000000000000000000000000000000000000000000000000000000000000000000000
310
00000000000000000000000000000000000000000000000000000000000000000000000000000000000000000000000000000000000000000000000000000000000000000000000000000000000000000000000000000000000000000000000000000000000000000000000000000000000000000000000000000000000000
310
00000000000000000000000000000000000000000000000000000000000000000000000000000000000000000000000000000000000000000000000000000000000000000000000000000000000000000000000000000000000000000000000000000000000000000000000000000000000000000000000000000000000000
310
00000000000000000000000000000000000000000000000000000000000000000000000000000000000000000000000000000000000000000000000000000000000000000000000000000000000000000000000000000000000000000000000000000000000000000000000000000000000000000000000000000000000000
310
00000000000000000000000000000000000000000000000000000000000000000000000000000000000000000000000000000000000000000000000000000000000000000000000000000000000000000000000000000000000000000000000000000000000000000000000000000000000000000000000000000000000000
310
00000000000000000000000000000000000000000000000000000000000000000000000000000000000000000000000000000000000000000000000000000000000000000000000000000000000000000000000000000000000000000000000000000000000000000000000000000000000000000000000000000000000000
310
00000000000000000000000000000000000000000000000000000000000000000000000000000000000000000000000000000000000000000000000000000000000000000000000000000000000000000000000000000000000000000000000000000000000000000000000000000000000000000000000000000000000000
310
00000000000000000000000000000000000000000000000000000000000000000000000000000000000000000000000000000000000000000000000000000000000000000000000000000000000000000000000000000000000000000000000000000000000000000000000000000000000000000000000000000000000000
310
00000000000000000000000000000000000000000000000000000000000000000000000000000000000000000000000000000000000000000000000000000000000000000000000000000000000000000000000000000000000000000000000000000000000000000000000000000000000000000000000000000000000000
310
00000000000000000000000000000000000000000000000000000000000000000000000000000000000000000000000000000000000000000000000000000000000000000000000000000000000000000000000000000000000000000000000000000000000000000000000000000000000000000000000000000000000000
310
00000000000000000000000000000000000000000000000000000000000000000000000000000000000000000000000000000000000000000000000000000000000000000000000000000000000000000000000000000000000000000000000000000000000000000000000000000000000000000000000000000000000000
310
00000000000000000000000000000000000000000000000000000000000000000000000000000000000000000000000000000000000000000000000000000000000000000000000000000000000000000000000000000000000000000000000000000000000000000000000000000000000000000000000000000000000000
310
00000000000000000000000000000000000000000000000000000000000000000000000000000000000000000000000000000000000000000000000000000000000000000000000000000000000000000000000000000000000000000000000000000000000000000000000000000000000000000000000000000000000000
310
00000000000000000000000000000000000000000000000000000000000000000000000000000000000000000000000000000000000000000000000000000000000000000000000000000000000000000000000000000000000000000000000000000000000000000000000000000000000000000000000000000000000000
310
00000000000000000000000000000000000000000000000000000000000000000000000000000000000000000000000000000000000000000000000000000000000000000000000000000000000000000000000000000000000000000000000000000000000000002828282828282828282828282828282828282828282828
310
28282828282828282828282828282828282828282828282828282828282828280000000000000000000000000000000000000000000000000000000000000000000000000000000000000000000000000000000000000000000000000000000000000000000000000000000000000000000000000000000000000000000000
310
00000000000000000000000000000000000000000000000000000000000000000000000000000000000000000000000000000000000000000000000000000000000000000000000000000000000000000000000000000000000000000000000000000000000000000000280028282828282828282828282828282828282828
310
28282828282828282828282828282828282828282828282828282828282828280028000000000000000000000000000000000000000000000000000000000000000000000000000000000000000000000000000000000000000000000000000000000000000000000000000000000000000000000000000000000000000000
310
00000000000000000000000000000000000000000000000000000000000000000000000000000000000000000000000000000000000000000000000000000000000000000000000000000000000000000000000000000000000000000000000000000000000000000000000028002800000000000000000000000000ECECEC
310
ECECECECECEC0000000000000000000000000000280000F5F500280000F5F5F50028002800000000000000000000000000000000000000000000000000000000000000000000000000000000000000000000000000000000000000000000000000000000000000000000000000000000000000000000000000000000000000
310
0000000000000000000000000000000000000000000000000000000000000000000000000000000000000000000000000000000000000000000000000000000000000000000000000000000000000000000000000000000000000000000000000000000000000000000000000000280028000000000000000000000000ECEC
310
ECECECECECECECEC0000000000000000000000000000282828000000282828280000002800280000000000000000000000000000000000000000000000000000000000000000000000000000000000000000000000000000000000000000000000000000000000000000000000000000000000000000000000000000000000
310
0000000000000000000000000000000000000000000000000000000000000000000000000000000000000000000000000000000000000000000000000000000000000000000000000000000000000000000000000000000000000000000000000000000000000000000000000000000028002800C3C3C3C3C3C3C3C3C3C3C3
310
C3C3C3C3C3C3C3C3C3C3C3C3C3C3C3C3C3C3C3C3C3C300002828F5F5F528282828F5F5F5F5280028000000000000000000000000000000000000000000000000000000000000000000000000000000000000000000000000000000000000000000000000000000000000000000000000000000000000000000000000000000
310
00000000000000000000000000000000000000000000000000000000000000000000000000000000000000000000000000000000000000000000000000000000000000000000000000000000000000000000000000000000000000000000000000000000000000000000000000000000000028002800C3C3C3DCDCDCC3DCDC
310
C3DCDCDCC3C3DCDCC3DCDCC3C3DCDCC3DCDCC3C3DCDCC3C300002828F5F5F500282828F5F5F5F528002800000000000000000000000000000000000000000000000000000000000000000000000000000000000000000000000000000000000000000000000000000000000000000000000000000000000000000000000000
310
000000000000000000000000000000000000000000000000000000000000000000000000000000000000000000000000000000000000000000000000000000000000000000000000000000000000000000000000000000000000000000000000000000000000000000000000000000000000000028002800C3C3C3C3C3C3C3
310
C3C3C3C3C3C3C3C3C3C3C3C3C3C3C3C3C3C3C3C3C3C3C3C3C3C30000282828282828282828F5F5F5F52800280000000000000000000000000000000000000000000000000000000000000000000000000000000000000000000000000000000000000000000000000000000000000000000000000000000000000000000000
310
0000000000000000000000000000000000000000000000000000000000000000000000000000000000000000000000000000000000000000000000000000000000000000000000000000000000000000000000000000000000000000000000000000000000000000000000000000000000000000000028002800C3C3C3C3C3
310
C3C3C3C3C3C3C3C3C3C3C3C3C3C3C3C3C3C3C3C3C3C3C3C3C3C3C3C300002800000000F5F5F5F500000000280028000000000000000000000000000000000000000000000000000000000000000000000000000000000000000000000000000000000000000000000000000000000000000000000000000000000000000000
310
000000000000000000000000000000000000000000000000000000000000000000000000000000000000000000000000000000000000000000000000000000000000000000000000000000000000000000000000000000000000000000000000000000000000000000000000000000000000000000000000280028ECECECEC
310
ECEC0000000000000000000000000000000000000000000000000000000000002828280000000000000000000028002800000000000000000000000000000000000000000000000000000000000000000000000000000000000000000000000000000000000000000000000000000000000000000000000000000000000000
310
00000000000000000000000000000000000000000000000000000000000000000000000000000000000000000000000000000000000000000000000000000000000000000000000000000000000000000000000000000000000000000000000000000000000000000000000000000000000000000000000000002800280000
310
00000000000000000000000000000000000000000000000000000000000000000000F5F5F5F5F5F5F5F5F5282828282800280000000000000000000000000000000000000000000000000000000000000000000000000000000000000000000000000000000000000000000000000000000000000000000000000000000000
310
00000000000000000000000000000000000000000000000000000000000000000000000000000000000000000000000000000000000000000000000000000000000000000000000000000000000000000000000000000000000000000000000000000000000000000000000000000000000000000000000000000000280028
310
00C3C3C3C3C3C3C3C3C3C3C3C3C3C3C3C3C3C3C3C3C3C3C3C3C30000000000000000000028282828282828282828282828280028000000000000000000000000000000000000000000000000000000000000000000000000000000000000000000000000000000000000000000000000000000000000000000000000000000
310
00000000000000000000000000000000000000000000000000000000000000000000000000000000000000000000000000000000000000000000000000000000000000000000000000000000000000000000000000000000000000000000000000000000000000000000000000000000000000000000000000000000000028
310
002800C3C3C3DCDCC3C3DCDCC3DCDCC3C3DCDCC3DCDCC3C3DCDCC3C3000000000000000000002800000000000000000000000028002800000000000000000000000000000000000000000000000000000000000000000000000000000000000000000000000000000000000000000000000000000000000000000000000000
310
00000000000000000000000000000000000000000000000000000000000000000000000000000000000000000000000000000000000000000000000000000000000000000000000000000000000000000000000000000000000000000000000000000000000000000000000000000000000000000000000000000000000000
310
0028002800C3C3C3C3C3C3C3C3C3C3C3C3C3C3C3C3C3C3C3C3C3C3C3C3C300000000000000000000280000000000000000000000002800280000000000000000000000000000000000000000000000000000000000000000000000000000000000000000000000000000000000000000000000000000000000000000000000
310
00000000000000000000000000000000000000000000000000000000000000000000000000000000000000000000000000000000000000000000000000000000000000000000000000000000000000000000000000000000000000000000000000000000000000000000000000000000000000000000000000000000000000
310
00000028002800C3C3C3C3C3C3C3C3C3C3C3C3C3C3C3C3C3C3C3C3C3C3C3C3C30000000000000000000028000000000000000000000000280028000000000000000000000000000000000000000000000000000000000000000000000000000000000000000000000000000000000000000000000000000000000000000000
310
00000000000000000000000000000000000000000000000000000000000000000000000000000000000000000000000000000000000000000000000000000000000000000000000000000000000000000000000000000000000000000000000000000000000000000000000000000000000000000000000000000000000000
310
0000000000280028ECECECECECEC0000000000000000000000000000000000000000000000000000000000002800000000000000000000000028002800000000000000000000000000000000000000000000000000000000000000000000000000000000000000000000000000000000000000000000000000000000000000
310
00000000000000000000000000000000000000000000000000000000000000000000000000000000000000000000000000000000000000000000000000000000000000000000000000000000000000000000000000000000000000000000000000000000000000000000000000000000000000000000000000000000000000
310
00000000000000280028000000000000000000000000000000000000000000000000000000000000000000000000280000000000000000000000002800280000000000000000000000000000000000000000000000000000000000000000000000000000000000000000000000000000000000000000000000000000000000
310
00000000000000000000000000000000000000000000000000000000000000000000000000000000000000000000000000000000000000000000000000000000000000000000000000000000000000000000000000000000000000000000000000000000000000000000000000000000000000000000000000000000000000
310
00000000000000000028002800C3C3C3C3C3C3C3C3C3C3C3C3C3C3C3C3C300000000ECECECEC0000000000000000000028000000000000000000000000280028000000000000000000000000000000000000000000000000000000000000000000000000000000000000000000000000000000000000000000000000000000
310
00000000000000000000000000000000000000000000000000000000000000000000000000000000000000000000000000000000000000000000000000000000000000000000000000000000000000000000000000000000000000000000000000000000000000000000000000000000000000000000000000000000000000
310
000000000000000000000028002800C3C3C3DCDCC3DCDCC3DCDCC3C3DCDCC3C30000000000EC0000000000000000000000002800000000000000000000000028002800000000000000000000000000000000000000000000000000000000000000000000000000000000000000000000000000000000000000000000000000
310
00000000000000000000000000000000000000000000000000000000000000000000000000000000000000000000000000000000000000000000000000000000000000000000000000000000000000000000000000000000000000000000000000000000000000000000000000000000000000000000000000000000000000
310
0000000000000000000000000028002800C3C3C3C3C3C3C3C3C3C3C3C3C3C3C3C3C30000000000ECEC00000000000000000000002800ECECECEC000000000000002800280000000000000000000000000000000000000000000000000000000000000000000000000000000000000000000000000000000000000000000000
310
00000000000000000000000000000000000000000000000000000000000000000000000000000000000000000000000000000000000000000000000000000000000000000000000000000000000000000000000000000000000000000000000000000000000000000000000000000000000000000000000000000000000000
310
00000000000000000000000000000028002800C3C3C3C3C3C3C3C3C3C3C3C3C3C3C3C3C3000000000000EC000000000000000000000028ECECECECEC00000000000000280028000000000000000000000000000000000000000000000000000000000000000000000000000000000000000000000000000000000000000000
310
00000000000000000000000000000000000000000000000000000000000000000000000000000000000000000000000000000000000000000000000000000000000000000000000000000000000000000000000000000000000000000000000000000000000000000000000000000000000000000000000000000000000000
310
0000000000000000000000000000000000280028ECECECECECEC00000000000000000000000000000000000000000000000000000000000028ECECECECEC0000000000000028002800000000000000000000000000000000000000000000000000000000000000000000000000000000000000000000000000000000000000
310
00000000000000000000000000000000000000000000000000000000000000000000000000000000000000000000000000000000000000000000000000000000000000000000000000000000000000000000000000000000000000000000000000000000000000000000000000000000000000000000000000000000000000
310
00000000000000000000000000000000000000280028000000000000000000000000000000000000000000000000000000000000000000000000280000000000000000000000002800280000000000000000000000000000000000000000000000000000000000000000000000000000000000000000000000000000000000
310
00000000000000000000000000000000000000000000000000000000000000000000000000000000000000000000000000000000000000000000000000000000000000000000000000000000000000000000000000000000000000000000000000000000000000000000000000000000000000000000000000000000000000
310
00000000000000000000000000000000000000000028002800000000000000000000000000000000000000000000000000000000000000000000000028000000000000000000000000280028000000000000000000000000000000000000000000000000000000000000000000000000000000000000000000000000000000
310
00000000000000000000000000000000000000000000000000000000000000000000000000000000000000000000000000000000000000000000000000000000000000000000000000000000000000000000000000000000000000000000000000000000000000000000000000000000000000000000000000000000000000
310
000000000000000000000000000000000000000000000028002800000000ECECECEC0000000000000000ECECECECECEC00000000000000000000000000002800000000000000000000000028002800000000000000000000000000000000000000000000000000000000000000000000000000000000000000000000000000
310
00000000000000000000000000000000000000000000000000000000000000000000000000000000000000000000000000000000000000000000000000000000000000000000000000000000000000000000000000000000000000000000000000000000000000000000000000000000000000000000000000000000000000
310
0000000000000000000000000000000000000000000000000028002800000000ECECECEC00000000000000ECECECECECECEC00000000000000000000000000002800ECECECECECECECECEC00002800280000000000000000000000000000000000000000000000000000000000000000000000000000000000000000000000
310
00000000000000000000000000000000000000000000000000000000000000000000000000000000000000000000000000000000000000000000000000000000000000000000000000000000000000000000000000000000000000000000000000000000000000000000000000000000000000000000000000000000000000
310
0000000000000000000000000000000000000000000000000000002800280000000000000000000000000000000000000000000000000000000000000000000000002800ECECECECECEC0000000000280028000000000000000000000000000000000000000000000000000000000000000000000000000000000000000000
310
00000000000000000000000000000000000000000000000000000000000000000000000000000000000000000000000000000000000000000000000000000000000000000000000000000000000000000000000000000000000000000000000000000000000000000000000000000000000000000000000000000000000000
310
00000000000000000000000000000000000000000000000000000000002800280000000000000000000000000000C300C300000000C3C30000000000000000000000000028ECECEC00000000000000000028002800000000000000000000000000000000000000000000000000000000000000000000000000000000000000
310
00000000000000000000000000000000000000000000000000000000000000000000000000000000000000000000000000000000000000000000000000000000000000000000000000000000000000000000000000000000000000000000000000000000000000000000000000000000000000000000000000000000000000
310
00000000000000000000000000000000000000000000000000000000000000280028000000000000C30000C300000000C3C3C300000000C3C300000000000000000000000000282828282828282828282828282800280000000000000000000000000000000000000000000000000000000000000000000000000000000000
310
00000000000000000000000000000000000000000000000000000000000000000000000000000000000000000000000000000000000000000000000000000000000000000000000000000000000000000000000000000000000000000000000000000000000000000000000000000000000000000000000000000000000000
310
000000000000000000000000000000000000000000000000000000000000000000280028000000280000C300C3C3C3000000C328C3C3000000C3C3C30000000000000000000000002800000000ECECECEC00000000280028000000000000000000000000000000000000000000000000000000000000000000000000000000
310
00000000000000000000000000000000000000000000000000000000000000000000000000000000000000000000000000000000000000000000000000000000000000000000000000000000000000000000000000000000000000000000000000000000000000000000000000000000000000000000000000000000000000
310
00000000000000000000000000000000000000000000000000000000000000000000002800280000C3282800C32828C300000000280028C3C300002828C30000000000000000000000002828000000000000000000000028002800000000000000000000000000000000000000000000000000000000000000000000000000
310
00000000000000000000000000000000000000000000000000000000000000000000000000000000000000000000000000000000000000000000000000000000000000000000000000000000000000000000000000000000000000000000000000000000000000000000000000000000000000000000000000000000000000
310
000000000000000000000000000000000000000000000000000000000000000000000000002800280000C3002828282828C3C300000028282800C3C3002828C30000000000000000000000002828ECECECECECECECECECEC282800280000000000000000000000000000000000000000000000000000000000000000000000
310
00000000000000000000000000000000000000000000000000000000000000000000000000000000000000000000000000000000000000000000000000000000000000000000000000000000000000000000000000000000000000000000000000000000000000000000000000000000000000000000000000000000000000
310
000000000000000000000000000000000000000000000000000000000000000000000000000000280028000000C328282828C30000000000280028000000C32828C30000000000000000000000002828ECECECECECECECECECEC00280028000000000000000000000000000000000000000000000000000000000000000000
310
00000000000000000000000000000000000000000000000000000000000000000000000000000000000000000000000000000000000000000000000000000000000000000000000000000000000000000000000000000000000000000000000000000000000000000000000000000000000000000000000000000000000000
310
0000000000000000000000000000000000000000000000000000000000000000000000000000000000280028000000C3C3C3C3C3C30000000000282828282828282828C30000000000000000000000002828282828282828282828282828002800000000000000000000000000000000000000000000000000000000000000
310
00000000000000000000000000000000000000000000000000000000000000000000000000000000000000000000000000000000000000000000000000000000000000000000000000000000000000000000000000000000000000000000000000000000000000000000000000000000000000000000000000000000000000
310
000000000000000000000000000000000000000000000000000000000000000000000000000000000000002800280000000000C3C300000000000000282828C328282828C3C3000000000000000000000000280028282828282828282828282800280000000000000000000000000000000000000000000000000000000000
310
00000000000000000000000000000000000000000000000000000000000000000000000000000000000000000000000000000000000000000000000000000000000000000000000000000000000000000000000000000000000000000000000000000000000000000000000000000000000000000000000000000000000000
310
0000000000000000000000000000000000000000000000000000000000000000000000000000000000000000002800280000000000000000000000000000000000C3C3C3C3C3C3C300000000000000000000000028282828282828282828282828280028000000000000000000000000000000000000000000000000000000
310
00000000000000000000000000000000000000000000000000000000000000000000000000000000000000000000000000000000000000000000000000000000000000000000000000000000000000000000000000000000000000000000000000000000000000000000000000000000000000000000000000000000000000
310
000000000000000000000000000000000000000000000000000000000000000000000000000000000000000000000028002800000000000000000000000000000000000000C3C30000000000000000000000000000002800282828282828282828000028002800000000000000000000000000000000000000000000000000
310
00000000000000000000000000000000000000000000000000000000000000000000000000000000000000000000000000000000000000000000000000000000000000000000000000000000000000000000000000000000000000000000000000000000000000000000000000000000000000000000000000000000000000
310
00000000000000000000000000000000000000000000000000000000000000000000000000000000000000000000000000280028282828282828282828282828282828282828282828282828282828282828282828282828282828282828282828282828282800280000000000000000000000000000000000000000000000
310
00000000000000000000000000000000000000000000000000000000000000000000000000000000000000000000000000000000000000000000000000000000000000000000000000000000000000000000000000000000000000000000000000000000000000000000000000000000000000000000000000000000000000
310
00000000000000000000000000000000000000000000000000000000000000000000000000000000000000000000000000000028282828282828282828282828282828282828282828282828282828282828282828282828282828282828282828282828282828282828000000000000000000000000000000000000000000
310
00000000000000000000000000000000000000000000000000000000000000000000000000000000000000000000000000000000000000000000000000000000000000000000000000000000000000000000000000000000000000000000000000000000000000000000000000000000000000000000000000000000000000
310
00000000000000000000000000000000000000000000000000000000000000000000000000000000000000000000000000000000002800000000000000000000000000000000000000000000000000000000000000000000000000000000000000000000000000000000002800000000000000000000000000000000000000
310
00000000000000000000000000000000000000000000000000000000000000000000000000000000000000000000000000000000000000000000000000000000000000000000000000000000000000000000000000000000000000000000000000000000000000000000000000000000000000000000000000000000000000
310
00000000000000000000000000000000000000000000000000000000000000000000000000000000000000000000000000000000000000280028282828282828282828282828ECECECECECECECECECEC2828282828282828282828282828282828282828282828F5F5F5282800280000000000000000000000000000000000
310
00000000000000000000000000000000000000000000000000000000000000000000000000000000000000000000000000000000000000000000000000000000000000000000000000000000000000000000000000000000000000000000000000000000000000000000000000000000000000000000000000000000000000
310
00000000000000000000000000000000000000000000000000000000000000000000000000000000000000000000000000000000000000000028002800C3C3C3C3C3C3C3C3C3C3C3C3C3C3C3C3C3C3C3C3C3C3C3C3C3C3000000000000000000280000F5F500280000F5F5F500280028000000000000000000000000000000
310
00000000000000000000000000000000000000000000000000000000000000000000000000000000000000000000000000000000000000000000000000000000000000000000000000000000000000000000000000000000000000000000000000000000000000000000000000000000000000000000000000000000000000
310
000000000000000000000000000000000000000000000000000000000000000000000000000000000000000000000000000000000000000000000028002800C3C3C3C3C3C3C3C3C3C3C3C3C3C3C3C3C3C3C3C3C3C3C3C3C3C30000000000000000002828282828282828282828282828002800000000000000000000000000
310
00000000000000000000000000000000000000000000000000000000000000000000000000000000000000000000000000000000000000000000000000000000000000000000000000000000000000000000000000000000000000000000000000000000000000000000000000000000000000000000000000000000000000
310
00000000000000000000000000000000000000000000000000000000000000000000000000000000000000000000000000000000000000000000000000280028ECC3DCC3F5DCC3DCDCC3DCDCC3DCC3F5DCC3DCDCC3DCC3DCDCC3C30000000000000000002800F5F5F500282828F5F5F5F5280028000000000000000000ECEC
310
EC000000000000000000000000000000000000000000000000000000000000000000000000000000000000000000000000000000000000000000000000000000000000000000000000000000000000000000000000000000000000000000000000000000000000000000000000000000000000000000000000000000000000
310
000000000000000000000000000000000000000000000000000000000000000000000000000000000000000000000000000000000000000000000000000000280028DCDCC3DCDCC3DCF5C3DCC3DCDCC3DCDCC3DCC3F5DCC3DCDCC3DCDC000000000000000000282800000000282828F5F5F5F5280028000000000000000000
310
ECECEC00000000000000000000000000000000000000000000000000000000000000000000000000000000000000000000000000000000000000000000000000000000000000000000000000000000000000000000000000000000000000000000000000000000000000000000000000000000000000000000000000000000
310
0000000000000000000000000000000000000000000000000000000000000000000000000000000000000000000000000000000000000000000000000000000000280028DCC3C3C3C3C3C3C3C3C3C3C3C3C3C3C3C3C3C3C3C3C3C3C3C3C3C30000000000000000002828282828F5F5F5F5F5F5F5F528002800000000000000
310
0000ECECEC0000000000000000000000000000000000000000000000000000000000000000000000000000000000000000000000000000000000000000000000000000000000000000000000000000000000000000000000000000000000000000000000000000000000000000000000000000000000000000000000000000
310
0000000000000000000000000000000000000000000000000000000000000000000000000000000000000000000000000000000000000000000000000000000000000028002800C3C3C3C3C3C3C3C3C3C3C3C3C3C3C3C3C3C3C3C3C3C3C3C3C3C30000000000000000002800000000F5F5F5F5000000002800280000000000
310
000000ECEC2828EC0000000000000000000000000000000000000000000000000000000000000000000000000000000000000000000000000000000000000000000000000000000000000000000000000000000000000000000000000000000000000000000000000000000000000000000000000000000000000000000000
310
000000000000000000000000000000000000000000000000000000000000000000000000000000000000000000000000000000000000000000000000000000000000000000280028ECC3C3C3C3C3C3C3C3C3C3C3C3C3C3C3C3C3C3C3C3C3C3C3C3C3C300000000000000000028282828282828282828282828280028000000
310
0000000000ECEC282800000000000000000000000000000000000000000000000000000000000000000000000000000000000000000000000000000000000000000000000000000000000000000000000000000000000000000000000000000000000000000000000000000000000000000000000000000000000000000000
310
0000000000000000000000000000000000000000000000000000000000000000000000000000000000000000000000000000000000000000000000000000000000000000000000280028ECC3C3C3C3C3C3C3C3C3C3C3C3C3C3C3C3C3C3C3C3000000000000000000000000000000F5F5F5F5F5F5F5F5F50000000028002800
310
00000000000000000000000000000000000000000000000000000000000000000000000000000000000000000000000000000000000000000000000000000000000000000000000000000000000000000000000000000000000000000000000000000000000000000000000000000000000000000000000000000000000000
310
0000000000000000000000000000000000000000000000000000000000000000000000000000000000000000000000000000000000000000000000000000000000000000000000000028002800C3C3C3C3C3C3C3C3C3C3C3C3C3C3C3C3C3C3C3C3000000000000000000000000000000282828282828282828282828282800
310
28000000000000000000ECECEC000000000000000000000000000000000000000000000000000000000000000000000000000000000000000000000000000000000000000000000000000000000000000000000000000000000000000000000000000000000000000000000000000000000000000000000000000000000000
310
000000000000000000000000000000000000000000000000000000000000000000000000000000000000000000000000000000000000000000000000000000000000000000000000000000280028DCC3C3C3DCDCC3C3DCC3DCC3C3DCC3DCC3C3DCC3C300000000000000000000000000000028000000000000000000000000
310
28002800000000000000000000ECEC00000000000000000000000000000000000000000000000000000000000000000000000000000000000000000000000000000000000000000000000000000000000000000000000000000000000000000000000000000000000000000000000000000000000000000000000000000000
310
0000000000000000000000000000000000000000000000000000000000000000000000000000000000000000000000000000000000000000000000000000000000000000000000000000000000280028ECDCC3F5F5C3F5C3F5F5C3F5C3F5F5C3F5F5C3F5DC0000000000000000000000000000002800000000000000000000
310
000028002800000000000000000000ECEC0000000000000000000000000000000000000000000000000000000000000000000000000000000000000000000000000000000000000000000000000000000000000000000000000000000000000000000000000000000000000000000000000000000000000000000000000000
310
00000000000000000000000000000000000000000000000000000000000000000000000000000000000000000000000000000000000000000000000000000000000000000000000000000000000000280028DCC3C3C3C3C3C3C3C3C3C3C3C3C3C3C3C3C3C3C3C3000000000000000000000000000000280000000000000000
310
000000002800280000000000000000000000EC000000000000000000000000000000000000000000000000000000000000000000000000000000000000000000000000000000000000000000000000000000000000000000000000000000000000000000000000000000000000000000000000000000000000000000000000
310
00000000000000000000000000000000000000000000000000000000000000000000000000000000000000000000000000000000000000000000000000000000000000000000000000000000000000000028002800C3C3C3C3C3C3C3C3C3C3C3C3C3C3C3C3C3C3C3C300000000000000000000000000000028000000000000
310
00000000000028002800000000000000000000000000000000000000000000000000000000000000000000000000000000000000000000000000000000000000000000000000000000000000000000000000000000000000000000000000000000000000000000000000000000000000000000000000000000000000000000
310
000000000000000000000000000000000000000000000000000000000000000000000000000000000000000000000000000000000000000000000000000000000000000000000000000000000000000000000028002800C3C3C3C3C3C3C3C3C3C3C3C3C3C3C3C3C3C3C3C30000000000000000000000000000002800000000
310
00000000000000002800280000000000000000000000000000000000000000000000000000000000000000000000000000000000000000000000000000000000000000000000000000000000000000000000000000000000000000000000000000000000000000000000000000000000000000000000000000000000000000
310
00000000000000000000000000000000000000000000000000000000000000000000000000000000000000000000000000000000000000000000000000000000000000000000000000000000000000000000000000280028ECECECECEC00000000000000000000000000000000000000000000000000000000000000280000
310
00000000000000000000280028000000000000000000000000000000000000000000000000000000000000000000000000000000000000000000000000000000000000000000000000000000000000000000000000000000000000000000000000000000000000000000000000000000000000000000000000000000000000
310
00000000000000000000000000000000000000000000000000000000000000000000000000000000000000000000000000000000000000000000000000000000000000000000000000000000000000000000000000000028002800C3C3C3C3C3C3C3C3C3C3C3C3C3C3ECECECECECEC00000000ECECECEC0000000000000028
310
00ECECECEC0000000000000028002800000000000000000000000000000000000000000000000000000000000000000000000000000000000000000000000000000000000000000000000000000000000000000000000000000000000000000000000000000000000000000000000000000000000000000000000000000000
310
0000000000000000000000000000000000000000000000000000000000000000000000000000000000000000000000000000000000000000000000000000000000000000000000000000000000000000000000000000000000280028DCC3C3C3C3C3C3C3C3C3C3C3C3C3C3ECECECECECEC000000ECECECEC00000000000000
310
0028ECECECECEC000000000000002800280000000000000000000000000000000000000000000000000000000000000000000000000000000000000000000000000000000000000000000000000000000000000000000000000000000000000000000000000000000000000000000000000000000000000000000000000000
310
00000000000000000000000000000000000000000000000000000000000000000000000000000000000000000000000000000000000000000000000000000000000000000000000000000000000000000000000000000000000000280028ECDCDCC3DCC3DCF5C3DCC3DCC3F5DC000000000000000000ECECECECEC00000000
310
00000028000000000000000000000000280028000000000000000000000000000000000000000000000000000000000000000000000000000000000000000000000000000000000000000000000000000000000000000000000000000000000000000000000000000000000000000000000000000000000000000000000000
310
000000000000000000000000000000000000000000000000000000000000000000000000000000000000000000000000000000000000000000000000000000000000000000000000000000000000000000000000000000000000000000280028DCC3C3DCDCC3DCC3DCC3DCF5C3DCC30000000000000000ECECEC28ECECEC00
310
00000000002800000000000000000000000028002800000000000000000000000000000000000000000000000000000000000000000000000000000000000000000000000000000000000000000000000000000000000000000000000000000000000000000000000000000000000000000000000000000000000000000000
310
000000000000000000000000000000000000000000000000000000000000000000000000000000000000000000000000000000000000000000000000000000000000000000000000000000000000000000000000000000000000000000000028002800C3C3C3C3C3C3C3C3C3C3C3C3C3C3000000000000000000ECEC2800EC
310
ECEC0000000000280000000000000000000000002800280000000000000000000000000000000000000000000000000000000000000000000000000000000000000000000000000000000000000000000000000000000000000000000000000000000000000000000000000000000000000000000000000000000000000000
310
0000000000000000000000000000000000000000000000000000000000000000000000000000000000000000000000000000000000000000000000000000000000000000000000000000000000000000000000000000000000000000000000000028002800C3C3C3C3C3C3C3C3C3C3C3C3C3C3000000000000000000000000
310
0000EC00000000000028000000000000000000000000280028000000000000000000000000000000000000000000000000000000000000000000000000000000000000000000000000000000000000000000000000000000000000000000000000000000000000000000000000000000000000000000000000000000000000
310
000000000000000000000000000000000000000000000000000000000000000000000000000000000000000000000000000000000000000000000000000000000000000000000000000000000000000000000000000000000000000000000000000000280028ECECECECEC0000C3C300000000000000000000000000000000
310
00000000000000000000002800ECECECECECECECECEC000028002800000000000000000000000000000000000000000000000000000000000000000000000000000000000000000000000000000000000000000000000000000000000000000000000000000000000000000000000000000000000000000000000000000000
310
00000000000000000000000000000000000000000000000000000000000000000000000000000000000000000000000000000000000000000000000000000000000000000000000000000000000000000000000000000000000000000000000000000000002800280000000000ECECECECECECEC0000000000000000000000
310
00ECECECECECECECEC00000000280000ECECECECECECECEC00002800280000000000000000000000000000000000000000000000000000000000000000000000000000000000000000000000000000000000000000000000000000000000000000000000000000000000000000000000000000000000000000000000000000
310
000000000000000000000000000000000000000000000000000000000000000000000000000000000000000000000000000000000000000000000000000000000000000000000000000000000000000000000000000000000000000000000000000000000000002800280000000000ECECECC3ECECEC0000C3000000C3C3C3
310
000000ECECECECECECECEC00C3000028ECECECECEC00000000000000280028000000000000000000000000000000000000000000000000000000000000000000000000000000000000000000000000000000000000000000000000000000000000000000000000000000000000000000000000000000000000000000000000
310
0000000000000000000000000000000000000000000000000000000000000000000000000000000000000000000000000000000000000000000000000000000000000000000000000000000000000000000000000000000000000000000000000000000000000000002800280000000000000000C30000000000C3C30000C3
310
C3C3000028000000C300000000C3C3C30028ECECEC00000000000000000028002800000000000000000000000000000000000000000000000000000000000000000000000000000000000000000000000000000000000000000000000000000000000000000000000000000000000000000000000000000000000000000000
310
00000000000000000000000000000000000000000000000000000000000000000000000000000000000000000000000000000000000000000000000000000000000000000000000000000000000000000000000000000000000000000000000000000000000000000000002800280000000028000000C300000000C3C3C300
310
00280028002828280000C3000000282828C3C3282828282828282828282828282800280000000000000000000000000000000000000000000000000000000000000000000000000000000000000000000000000000000000000000000000000000000000000000000000000000000000000000000000000000000000000000
310
00000000000000000000000000000000000000000000000000000000000000000000000000000000000000000000000000000000000000000000000000000000000000000000000000000000000000000000000000000000000000000000000000000000000000000000000000280028000000C328280000C30000BE2828C3
310
000000280028C32800282800C30000282828C3C3002800000000ECECECEC00000000280028000000000000000000000000000000000000000000000000000000000000000000000000000000000000000000000000000000000000000000000000000000000000000000000000000000000000000000000000000000000000
310
00000000000000000000000000000000000000000000000000000000000000000000000000000000000000000000000000000000000000000000000000000000000000000000000000000000000000000000000000000000000000000000000000000000000000000000000000000028002800C3C3280028BE00C300BEBE28
310
0028C300002800C3002828282800C3002800280028C3002828282828282828282828282828002800000000000000000000000000000000000000000000000000000000000000000000000000000000000000000000000000000000000000000000000000000000000000000000000000000000000000000000000000000000
310
00000000000000000000000000000000000000000000000000000000000000000000000000000000000000000000000000000000000000000000000000000000000000000000000000000000000000000000000000000000000000000000000000000000000000000000000000000000002800280000C300282828BE2828BE
310
282828C3000000280028C30028282828C32828282828C300002800ECECECECECECECECECEC002800280000000000000000000000000000000000000000000000000000000000000000000000000000000000000000000000000000000000000000000000000000000000000000000000000000000000000000000000000000
310
00000000000000000000000000000000000000000000000000000000000000000000000000000000000000000000000000000000000000000000000000000000000000000000000000000000000000000000000000000000000000000000000000000000000000000000000000000000000000280028000000C30000282828
310
28282800C30000000028002800C3002828002800002800C300000028280000000000000000000000280028000000000000000000000000000000000000000000000000000000000000000000000000000000000000000000000000000000000000000000000000000000000000000000000000000000000000000000000000
310
00000000000000000000000000000000000000000000000000000000000000000000000000000000000000000000000000000000000000000000000000000000000000000000000000000000000000000000000000000000000000000000000000000000000000000000000000000000000000000028002800000000C30000
310
282828F500C3C3000000002800280000C3C30028C3002800C3C30000002828282828282828282828282828002800000000000000000000000000000000000000000000000000000000000000000000000000000000000000000000000000000000000000000000000000000000000000000000000000000000000000000000
310
000000000000000000000000000000000000000000000000000000000000000000000000000000000000000000000000000000000000000000000000000000000000000000000000000000000000000000000000000000000000000000000000000000000000000000000000000000000000000000000028002800000000C3
310
C30000282800C3C3C300000000282828000000C30000282800C3C300000000280028282828282828282828282800280000000000000000000000000000000000000000000000000000000000000000000000000000000000000000000000000000000000000000000000000000000000000000000000000000000000000000
310
00000000000000000000000000000000000000000000000000000000000000000000000000000000000000000000000000000000000000000000000000000000000000000000000000000000000000000000000000000000000000000000000000000000000000000000000000000000000000000000000000280028000000
310
000000C300C300C30000000000000000000000000000C300C300C300000000000028282828282828282828282828280028000000000000000000000000000000000000000000000000000000000000000000000000000000000000000000000000000000000000000000000000000000000000000000000000000000000000
310
00000000000000000000000000000000000000000000000000000000000000000000000000000000000000000000000000000000000000000000000000000000000000000000000000000000000000000000000000000000000000000000000000000000000000000000000000000000000000000000000000000028002828
310
282828282828C3C3C3C3282828282828282828282828282828C3C3C3282828282828282828282828282828282828282828002800000000000000000000000000000000000000000000000000000000000000000000000000000000000000000000000000000000000000000000000000000000000000000000000000000000
310
00000000000000000000000000000000000000000000000000000000000000000000000000000000000000000000000000000000000000000000000000000000000000000000000000000000000000000000000000000000000000000000000000000000000000000000000000000000000000000000000000000000002800
310
00000000000000000000000000000000000000000000000000000000000000000000000000000000000000000000000000000000280000000000000000000000000000000000000000000000000000000000000000000000000000000000000000000000000000000000000000000000000000000000000000000000000000
310
00000000000000000000000000000000000000000000000000000000000000000000000000000000000000000000000000000000000000000000000000000000000000000000000000000000000000000000000000000000000000000000000000000000000000000000000000000000000000000000000000000000000000
310
28282828282828282828282828282828282828282828282828282828282828282828282828282828282828282828282828282828282828000000000000000000000000000000000000000000000000000000000000000000000000000000000000000000000000000000000000000000000000000000000000000000000000
310
00000000000000000000000000000000000000000000000000000000000000000000000000000000000000000000000000000000000000000000000000000000000000000000000000000000000000000000000000000000000000000000000000000000000000000000000000000000000000000000000000000000000000
310
00002800282828282828282828282828282828282828282828282828282828282828282828282828282828282828282828282828282828002800000000000000000000000000000000000000000000000000000000000000000000000000000000000000000000000000000000000000000000000000000000000000000000
310
00000000000000000000000000000000000000000000000000000000000000000000000000000000000000000000000000000000000000000000000000000000000000000000000000000000000000000000000000000000000000000000000000000000000000000000000000000000000000000000000000000000000000
310
00000000280028000000000000000000000000000000000000000000000000000000000000000000000000280000F5F500280000F5F5F5002800280000000000000000000000000000000000000000000000000000000000000000000000000000000000000000000000000000000000000000000000000000000000000000
310
00000000000000000000000000000000000000000000000000000000000000000000000000000000000000000000000000000000000000000000000000000000000000000000000000000000000000000000000000000000000000000000000000000000000000000000000000000000000000000000000000000000000000
310
00000000000028002800000000000000000000000000000000000000000000000000000000000000000000000028282800000028282828000000280028000000000000000000000000000000000000000000000000000000000000000000000000000000000000000000000000000000000000000000000000000000000000
310
00000000000000000000000000000000000000000000000000000000000000000000000000000000000000000000000000000000000000000000000000000000000000000000000000000000000000000000000000000000000000000000000000000000000000000000000000000000000000000000000000000000000000
310
0000000000000000280028000000000000000000000000000000000000000000000000000000000000000000000000282828282828282828F5F5F5F528002800000000000000000000000000000000000000000000000000000000000000000000000000000000000000000000000000000000000000000000000000000000
310
00000000000000000000000000000000000000000000000000000000000000000000000000000000000000000000000000000000000000000000000000000000000000000000000000000000000000000000000000000000000000000000000000000000000000000000000000000000000000000000000000000000000000
310
000000000000000000002800280000000000000000000000000000000000000000000000000000000000000000000000002800F5F5F500282828F5F5F5F52800280000000000000000000000000000000000000000000000000000000000000000000000000000000000000000000000000000000000000000000000000000
310
00000000000000000000000000000000000000000000000000000000000000000000000000000000000000000000000000000000000000000000000000000000000000000000000000000000000000000000000000000000000000000000000000000000000000000000000000000000000000000000000000000000000000
310
00000000000000000000000028002800000000000000000000ECECECECECECECECECEC00000000000000000000000000000000282800000000282828F5F5F5F5280028000000000000000000000000000000000000000000000000000000000000000000000000000000000000000000000000000000000000000000000000
310
00000000000000000000000000000000000000000000000000000000000000000000000000000000000000000000000000000000000000000000000000000000000000000000000000000000000000000000000000000000000000000000000000000000000000000000000000000000000000000000000000000000000000
310
00000000000000000000000000002800280000000000000000000000000000000000000000000000000000000000000000000000002828282828F5F5F5F52828282828002800000000000000000000000000000000000000000000000000000000000000000000000000000000000000000000000000000000000000000000
310
00000000000000000000000000000000000000000000000000000000000000000000000000000000000000000000000000000000000000000000000000000000000000000000000000000000000000000000000000000000000000000000000000000000000000000000000000000000000000000000000000000000000000
310
0000000000000000000000000000000028002800C3C3C3C3C3C3C3C3C3C3C3C3C3C3C3C3C3C3C3C3C3C3C3C3C3C3C300000000000000002828280000F5F5F5F5000000002800280000000000000000000000000000000000000000000000000000000000000000000000000000000000000000000000000000000000000000
310
00000000000000000000000000000000000000000000000000000000000000000000000000000000000000000000000000000000000000000000000000000000000000000000000000000000000000000000000000000000000000000000000000000000000000000000000000000000000000000000000000000000000000
310
000000000000000000000000000000000000280028DCDCDCDCDCDCDCDCDCDCDCDCDCDCDCDCDCDCDCDCDCDCDCDCDCDCDCDC0000000000000000F5F5F5F5F5F5F5F5F528282828280028000000000000000000000000000000000000000000000000000000000000000000000000000000000000000000000000000000000000
310
00000000000000000000000000000000000000000000000000000000000000000000000000000000000000000000000000000000000000000000000000000000000000000000000000000000000000000000000000000000000000000000000000000000000000000000000000000000000000000000000000000000000000
310
0000000000000000000000000000000000000000280028DCC3C3DCDCDCDCDCC3DCDCDCDCC3DCDCDCDCDCDCDCDCDCDCDCDCDCDC0000000000000000F5F5F5F5F5F5F5F5F50000000028002800000000000000000000000000000000000000000000000000000000000000000000000000000000000000000000000000000000
310
000000000000000000000000000000000000000000000000000000000000000000000000000000000000000000000000000000000000000000000000
  0
XRECORD
  5
943
102
{ACAD_REACTORS
330
941
102
}
330
941
100
AcDbXrecord
280
     1
270
     1
271
     1
  0
XRECORD
  5
942
102
{ACAD_REACTORS
330
941
102
}
330
941
100
AcDbXrecord
280
     1
270
     1
271
     1
  0
XRECORD
  5
946
102
{ACAD_REACTORS
330
941
102
}
330
941
100
AcDbXrecord
280
     1
270
     1
271
     1
  0
XRECORD
  5
945
102
{ACAD_REACTORS
330
941
102
}
330
941
100
AcDbXrecord
280
     1
270
     1
271
     1
  0
XRECORD
  5
947
102
{ACAD_REACTORS
330
941
102
}
330
941
100
AcDbXrecord
280
     1
270
     1
271
     1
  0
XRECORD
  5
944
102
{ACAD_REACTORS
330
941
102
}
330
941
100
AcDbXrecord
280
     1
270
     1
271
     1
  0
XRECORD
  5
93B
102
{ACAD_REACTORS
330
939
102
}
330
939
100
AcDbXrecord
280
     1
270
     1
271
     1
  0
XRECORD
  5
93A
102
{ACAD_REACTORS
330
939
102
}
330
939
100
AcDbXrecord
280
     1
270
     1
271
     1
  0
XRECORD
  5
93E
102
{ACAD_REACTORS
330
939
102
}
330
939
100
AcDbXrecord
280
     1
270
     1
271
     1
  0
XRECORD
  5
93D
102
{ACAD_REACTORS
330
939
102
}
330
939
100
AcDbXrecord
280
     1
270
     1
271
     1
  0
XRECORD
  5
93F
102
{ACAD_REACTORS
330
939
102
}
330
939
100
AcDbXrecord
280
     1
270
     1
271
     1
  0
XRECORD
  5
93C
102
{ACAD_REACTORS
330
939
102
}
330
939
100
AcDbXrecord
280
     1
270
     1
271
     1
  0
XRECORD
  5
94B
102
{ACAD_REACTORS
330
949
102
}
330
949
100
AcDbXrecord
280
     1
270
     1
271
     1
  0
XRECORD
  5
94A
102
{ACAD_REACTORS
330
949
102
}
330
949
100
AcDbXrecord
280
     1
270
     1
271
     1
  0
XRECORD
  5
94E
102
{ACAD_REACTORS
330
949
102
}
330
949
100
AcDbXrecord
280
     1
270
     1
271
     1
  0
XRECORD
  5
94D
102
{ACAD_REACTORS
330
949
102
}
330
949
100
AcDbXrecord
280
     1
270
     1
271
     1
  0
XRECORD
  5
94F
102
{ACAD_REACTORS
330
949
102
}
330
949
100
AcDbXrecord
280
     1
270
     1
271
     1
  0
XRECORD
  5
94C
102
{ACAD_REACTORS
330
949
102
}
330
949
100
AcDbXrecord
280
     1
270
     1
271
     1
  0
XRECORD
  5
1152
102
{ACAD_REACTORS
330
1151
102
}
330
1151
100
AcDbXrecord
280
     1
102
ACAD_ROUNDTRIP_2012_MLEADER_STYLE
298
     1
  0
CELLSTYLEMAP
  5
1150
102
{ACAD_REACTORS
330
114F
102
}
330
114F
100
AcDbCellStyleMap
 90
        3
300
CELLSTYLE
  1
TABLEFORMAT_BEGIN
 90
        5
170
     1
 91
        0
 92
    32768
 62
   257
 93
        1
300
CONTENTFORMAT
  1
CONTENTFORMAT_BEGIN
 90
        0
 91
        0
 92
        4
 93
        0
300

 40
0.0
140
1.0
 94
        5
 62
     0
340
7
144
0.25
309
CONTENTFORMAT_END
171
     0
 94
        6
 95
        1
302
GRIDFORMAT
  1
GRIDFORMAT_BEGIN
 90
        0
 91
        1
 62
     0
 92
       -2
340
0
 93
        0
 40
0.045
309
GRIDFORMAT_END
 95
        2
302
GRIDFORMAT
  1
GRIDFORMAT_BEGIN
 90
        0
 91
        1
 62
     0
 92
       -2
340
0
 93
        0
 40
0.045
309
GRIDFORMAT_END
 95
        4
302
GRIDFORMAT
  1
GRIDFORMAT_BEGIN
 90
        0
 91
        1
 62
     0
 92
       -2
340
0
 93
        0
 40
0.045
309
GRIDFORMAT_END
 95
        8
302
GRIDFORMAT
  1
GRIDFORMAT_BEGIN
 90
        0
 91
        1
 62
     0
 92
       -2
340
0
 93
        0
 40
0.045
309
GRIDFORMAT_END
 95
       16
302
GRIDFORMAT
  1
GRIDFORMAT_BEGIN
 90
        0
 91
        1
 62
     0
 92
       -2
340
0
 93
        0
 40
0.045
309
GRIDFORMAT_END
 95
       32
302
GRIDFORMAT
  1
GRIDFORMAT_BEGIN
 90
        0
 91
        1
 62
     0
 92
       -2
340
0
 93
        0
 40
0.045
309
GRIDFORMAT_END
309
TABLEFORMAT_END
  1
CELLSTYLE_BEGIN
 90
        1
 91
        1
300
_TITLE
309
CELLSTYLE_END
300
CELLSTYLE
  1
TABLEFORMAT_BEGIN
 90
        5
170
     1
 91
        0
 92
        0
 62
   257
 93
        1
300
CONTENTFORMAT
  1
CONTENTFORMAT_BEGIN
 90
        0
 91
        0
 92
        4
 93
        0
300

 40
0.0
140
1.0
 94
        5
 62
     0
340
7
144
0.18
309
CONTENTFORMAT_END
171
     0
 94
        6
 95
        1
302
GRIDFORMAT
  1
GRIDFORMAT_BEGIN
 90
        0
 91
        1
 62
     0
 92
       -2
340
0
 93
        0
 40
0.045
309
GRIDFORMAT_END
 95
        2
302
GRIDFORMAT
  1
GRIDFORMAT_BEGIN
 90
        0
 91
        1
 62
     0
 92
       -2
340
0
 93
        0
 40
0.045
309
GRIDFORMAT_END
 95
        4
302
GRIDFORMAT
  1
GRIDFORMAT_BEGIN
 90
        0
 91
        1
 62
     0
 92
       -2
340
0
 93
        0
 40
0.045
309
GRIDFORMAT_END
 95
        8
302
GRIDFORMAT
  1
GRIDFORMAT_BEGIN
 90
        0
 91
        1
 62
     0
 92
       -2
340
0
 93
        0
 40
0.045
309
GRIDFORMAT_END
 95
       16
302
GRIDFORMAT
  1
GRIDFORMAT_BEGIN
 90
        0
 91
        1
 62
     0
 92
       -2
340
0
 93
        0
 40
0.045
309
GRIDFORMAT_END
 95
       32
302
GRIDFORMAT
  1
GRIDFORMAT_BEGIN
 90
        0
 91
        1
 62
     0
 92
       -2
340
0
 93
        0
 40
0.045
309
GRIDFORMAT_END
309
TABLEFORMAT_END
  1
CELLSTYLE_BEGIN
 90
        2
 91
        1
300
_HEADER
309
CELLSTYLE_END
300
CELLSTYLE
  1
TABLEFORMAT_BEGIN
 90
        5
170
     1
 91
        0
 92
        0
 62
   257
 93
        1
300
CONTENTFORMAT
  1
CONTENTFORMAT_BEGIN
 90
        0
 91
        0
 92
        4
 93
        0
300

 40
0.0
140
1.0
 94
        2
 62
     0
340
7
144
0.18
309
CONTENTFORMAT_END
171
     0
 94
        6
 95
        1
302
GRIDFORMAT
  1
GRIDFORMAT_BEGIN
 90
        0
 91
        1
 62
     0
 92
       -2
340
0
 93
        0
 40
0.045
309
GRIDFORMAT_END
 95
        2
302
GRIDFORMAT
  1
GRIDFORMAT_BEGIN
 90
        0
 91
        1
 62
     0
 92
       -2
340
0
 93
        0
 40
0.045
309
GRIDFORMAT_END
 95
        4
302
GRIDFORMAT
  1
GRIDFORMAT_BEGIN
 90
        0
 91
        1
 62
     0
 92
       -2
340
0
 93
        0
 40
0.045
309
GRIDFORMAT_END
 95
        8
302
GRIDFORMAT
  1
GRIDFORMAT_BEGIN
 90
        0
 91
        1
 62
     0
 92
       -2
340
0
 93
        0
 40
0.045
309
GRIDFORMAT_END
 95
       16
302
GRIDFORMAT
  1
GRIDFORMAT_BEGIN
 90
        0
 91
        1
 62
     0
 92
       -2
340
0
 93
        0
 40
0.045
309
GRIDFORMAT_END
 95
       32
302
GRIDFORMAT
  1
GRIDFORMAT_BEGIN
 90
        0
 91
        1
 62
     0
 92
       -2
340
0
 93
        0
 40
0.045
309
GRIDFORMAT_END
309
TABLEFORMAT_END
  1
CELLSTYLE_BEGIN
 90
        3
 91
        2
300
_DATA
309
CELLSTYLE_END
  0
ENDSEC
  0
EOF
