  0
SECTION
  2
HEADER
  9
$ACADVER
  1
AC1024
  9
$ACADMAINTVER
 70
    63
  9
$DWGCODEPAGE
  3
ANSI_932
  9
$LASTSAVEDBY
  1
kg-paltec
  9
$INSBASE
 10
0.0
 20
0.0
 30
0.0
  9
$EXTMIN
 10
-0.0192209888435855
 20
-0.0226492051633613
 30
-0.0000000000000058
  9
$EXTMAX
 10
420.0192288123715
 20
297.0120954723984
 30
0.0000000000000104
  9
$LIMMIN
 10
0.0
 20
0.0
  9
$LIMMAX
 10
420.0
 20
297.0
  9
$ORTHOMODE
 70
     0
  9
$REGENMODE
 70
     1
  9
$FILLMODE
 70
     1
  9
$QTEXTMODE
 70
     0
  9
$MIRRTEXT
 70
     1
  9
$LTSCALE
 40
8.4
  9
$ATTMODE
 70
     1
  9
$TEXTSIZE
 40
0.2
  9
$TRACEWID
 40
0.05
  9
$TEXTSTYLE
  7
STANDARD
  9
$CLAYER
  8
LEVEL001
  9
$CELTYPE
  6
CONTINUOUS
  9
$CECOLOR
 62
   256
  9
$CELTSCALE
 40
1.0
  9
$DISPSILH
 70
     0
  9
$DIMSCALE
 40
1.0
  9
$DIMASZ
 40
0.18
  9
$DIMEXO
 40
0.0625
  9
$DIMDLI
 40
0.38
  9
$DIMRND
 40
0.0
  9
$DIMDLE
 40
0.0
  9
$DIMEXE
 40
0.18
  9
$DIMTP
 40
0.0
  9
$DIMTM
 40
0.0
  9
$DIMTXT
 40
0.18
  9
$DIMCEN
 40
0.09
  9
$DIMTSZ
 40
0.0
  9
$DIMTOL
 70
     0
  9
$DIMLIM
 70
     0
  9
$DIMTIH
 70
     1
  9
$DIMTOH
 70
     1
  9
$DIMSE1
 70
     0
  9
$DIMSE2
 70
     0
  9
$DIMTAD
 70
     0
  9
$DIMZIN
 70
     0
  9
$DIMBLK
  1

  9
$DIMASO
 70
     1
  9
$DIMSHO
 70
     1
  9
$DIMPOST
  1

  9
$DIMAPOST
  1

  9
$DIMALT
 70
     0
  9
$DIMALTD
 70
     2
  9
$DIMALTF
 40
25.4
  9
$DIMLFAC
 40
1.0
  9
$DIMTOFL
 70
     0
  9
$DIMTVP
 40
0.0
  9
$DIMTIX
 70
     0
  9
$DIMSOXD
 70
     0
  9
$DIMSAH
 70
     0
  9
$DIMBLK1
  1

  9
$DIMBLK2
  1

  9
$DIMSTYLE
  2
STANDARD
  9
$DIMCLRD
 70
     0
  9
$DIMCLRE
 70
     0
  9
$DIMCLRT
 70
     0
  9
$DIMTFAC
 40
1.0
  9
$DIMGAP
 40
0.09
  9
$DIMJUST
 70
     0
  9
$DIMSD1
 70
     0
  9
$DIMSD2
 70
     0
  9
$DIMTOLJ
 70
     1
  9
$DIMTZIN
 70
     0
  9
$DIMALTZ
 70
     0
  9
$DIMALTTZ
 70
     0
  9
$DIMUPT
 70
     0
  9
$DIMDEC
 70
     4
  9
$DIMTDEC
 70
     4
  9
$DIMALTU
 70
     2
  9
$DIMALTTD
 70
     2
  9
$DIMTXSTY
  7
STANDARD
  9
$DIMAUNIT
 70
     0
  9
$DIMADEC
 70
     0
  9
$DIMALTRND
 40
0.0
  9
$DIMAZIN
 70
     0
  9
$DIMDSEP
 70
    46
  9
$DIMATFIT
 70
     3
  9
$DIMFRAC
 70
     0
  9
$DIMLDRBLK
  1

  9
$DIMLUNIT
 70
     2
  9
$DIMLWD
 70
    -2
  9
$DIMLWE
 70
    -2
  9
$DIMTMOVE
 70
     0
  9
$DIMFXL
 40
1.0
  9
$DIMFXLON
 70
     0
  9
$DIMJOGANG
 40
0.7853981633974483
  9
$DIMTFILL
 70
     0
  9
$DIMTFILLCLR
 70
     0
  9
$DIMARCSYM
 70
     0
  9
$DIMLTYPE
  6

  9
$DIMLTEX1
  6

  9
$DIMLTEX2
  6

  9
$DIMTXTDIRECTION
 70
     0
  9
$LUNITS
 70
     2
  9
$LUPREC
 70
     4
  9
$SKETCHINC
 40
0.1
  9
$FILLETRAD
 40
0.0
  9
$AUNITS
 70
     0
  9
$AUPREC
 70
     0
  9
$MENU
  1
.
  9
$ELEVATION
 40
0.0
  9
$PELEVATION
 40
0.0
  9
$THICKNESS
 40
0.0
  9
$LIMCHECK
 70
     0
  9
$CHAMFERA
 40
0.0
  9
$CHAMFERB
 40
0.0
  9
$CHAMFERC
 40
0.0
  9
$CHAMFERD
 40
0.0
  9
$SKPOLY
 70
     0
  9
$TDCREATE
 40
2451212.682759178
  9
$TDUCREATE
 40
2451212.307759178
  9
$TDUPDATE
 40
2460782.819367674
  9
$TDUUPDATE
 40
2460782.444367674
  9
$TDINDWG
 40
0.0161530903
  9
$TDUSRTIMER
 40
0.0161530903
  9
$USRTIMER
 70
     1
  9
$ANGBASE
 50
0.0
  9
$ANGDIR
 70
     0
  9
$PDMODE
 70
     0
  9
$PDSIZE
 40
0.0
  9
$PLINEWID
 40
0.0
  9
$SPLFRAME
 70
     0
  9
$SPLINETYPE
 70
     6
  9
$SPLINESEGS
 70
     8
  9
$HANDSEED
  5
195C
  9
$SURFTAB1
 70
     6
  9
$SURFTAB2
 70
     6
  9
$SURFTYPE
 70
     6
  9
$SURFU
 70
     6
  9
$SURFV
 70
     6
  9
$UCSBASE
  2

  9
$UCSNAME
  2

  9
$UCSORG
 10
0.0
 20
0.0
 30
0.0
  9
$UCSXDIR
 10
1.0
 20
0.0
 30
0.0
  9
$UCSYDIR
 10
0.0
 20
1.0
 30
0.0
  9
$UCSORTHOREF
  2

  9
$UCSORTHOVIEW
 70
     0
  9
$UCSORGTOP
 10
0.0
 20
0.0
 30
0.0
  9
$UCSORGBOTTOM
 10
0.0
 20
0.0
 30
0.0
  9
$UCSORGLEFT
 10
0.0
 20
0.0
 30
0.0
  9
$UCSORGRIGHT
 10
0.0
 20
0.0
 30
0.0
  9
$UCSORGFRONT
 10
0.0
 20
0.0
 30
0.0
  9
$UCSORGBACK
 10
0.0
 20
0.0
 30
0.0
  9
$PUCSBASE
  2

  9
$PUCSNAME
  2

  9
$PUCSORG
 10
0.0
 20
0.0
 30
0.0
  9
$PUCSXDIR
 10
1.0
 20
0.0
 30
0.0
  9
$PUCSYDIR
 10
0.0
 20
1.0
 30
0.0
  9
$PUCSORTHOREF
  2

  9
$PUCSORTHOVIEW
 70
     0
  9
$PUCSORGTOP
 10
0.0
 20
0.0
 30
0.0
  9
$PUCSORGBOTTOM
 10
0.0
 20
0.0
 30
0.0
  9
$PUCSORGLEFT
 10
0.0
 20
0.0
 30
0.0
  9
$PUCSORGRIGHT
 10
0.0
 20
0.0
 30
0.0
  9
$PUCSORGFRONT
 10
0.0
 20
0.0
 30
0.0
  9
$PUCSORGBACK
 10
0.0
 20
0.0
 30
0.0
  9
$USERI1
 70
     0
  9
$USERI2
 70
     0
  9
$USERI3
 70
     0
  9
$USERI4
 70
     0
  9
$USERI5
 70
     0
  9
$USERR1
 40
0.0
  9
$USERR2
 40
0.0
  9
$USERR3
 40
0.0
  9
$USERR4
 40
0.0
  9
$USERR5
 40
0.0
  9
$WORLDVIEW
 70
     1
  9
$SHADEDGE
 70
     3
  9
$SHADEDIF
 70
    70
  9
$TILEMODE
 70
     1
  9
$MAXACTVP
 70
    16
  9
$PINSBASE
 10
0.0
 20
0.0
 30
0.0
  9
$PLIMCHECK
 70
     0
  9
$PEXTMIN
 10
1.000000000000000E+20
 20
1.000000000000000E+20
 30
1.000000000000000E+20
  9
$PEXTMAX
 10
-1.000000000000000E+20
 20
-1.000000000000000E+20
 30
-1.000000000000000E+20
  9
$PLIMMIN
 10
0.0
 20
0.0
  9
$PLIMMAX
 10
12.0
 20
9.0
  9
$UNITMODE
 70
     0
  9
$VISRETAIN
 70
     1
  9
$PLINEGEN
 70
     0
  9
$PSLTSCALE
 70
     1
  9
$TREEDEPTH
 70
  3020
  9
$CMLSTYLE
  2
STANDARD
  9
$CMLJUST
 70
     0
  9
$CMLSCALE
 40
1.0
  9
$PROXYGRAPHICS
 70
     1
  9
$MEASUREMENT
 70
     0
  9
$CELWEIGHT
370
    -1
  9
$ENDCAPS
280
     0
  9
$JOINSTYLE
280
     0
  9
$LWDISPLAY
290
     0
  9
$INSUNITS
 70
     0
  9
$HYPERLINKBASE
  1

  9
$STYLESHEET
  1

  9
$XEDIT
290
     1
  9
$CEPSNTYPE
380
     0
  9
$PSTYLEMODE
290
     0
  9
$FINGERPRINTGUID
  2
{BE23516F-949D-4B3E-9790-BFC755D99CAB}
  9
$VERSIONGUID
  2
{C724F5F1-0312-4EC6-B1DA-F0BD06C7A2B5}
  9
$EXTNAMES
290
     1
  9
$PSVPSCALE
 40
0.0
  9
$OLESTARTUP
290
     0
  9
$SORTENTS
280
   127
  9
$INDEXCTL
280
     0
  9
$HIDETEXT
280
     0
  9
$XCLIPFRAME
280
     2
  9
$HALOGAP
280
     0
  9
$OBSCOLOR
 70
   257
  9
$OBSLTYPE
280
     0
  9
$INTERSECTIONDISPLAY
280
     0
  9
$INTERSECTIONCOLOR
 70
   257
  9
$DIMASSOC
280
     1
  9
$PROJECTNAME
  1

  9
$CAMERADISPLAY
290
     0
  9
$LENSLENGTH
 40
50.0
  9
$CAMERAHEIGHT
 40
0.0
  9
$STEPSPERSEC
 40
2.0
  9
$STEPSIZE
 40
6.0
  9
$3DDWFPREC
 40
2.0
  9
$PSOLWIDTH
 40
0.25
  9
$PSOLHEIGHT
 40
4.0
  9
$LOFTANG1
 40
1.570796326794896
  9
$LOFTANG2
 40
1.570796326794896
  9
$LOFTMAG1
 40
0.0
  9
$LOFTMAG2
 40
0.0
  9
$LOFTPARAM
 70
     7
  9
$LOFTNORMALS
280
     1
  9
$LATITUDE
 40
37.795
  9
$LONGITUDE
 40
-122.394
  9
$NORTHDIRECTION
 40
0.0
  9
$TIMEZONE
 70
 -8000
  9
$LIGHTGLYPHDISPLAY
280
     1
  9
$TILEMODELIGHTSYNCH
280
     1
  9
$CMATERIAL
347
9E1
  9
$SOLIDHIST
280
     0
  9
$SHOWHIST
280
     1
  9
$DWFFRAME
280
     2
  9
$DGNFRAME
280
     0
  9
$REALWORLDSCALE
290
     1
  9
$INTERFERECOLOR
 62
     1
  9
$INTERFEREOBJVS
345
A03
  9
$INTERFEREVPVS
346
A00
  9
$CSHADOW
280
     0
  9
$SHADOWPLANELOCATION
 40
0.0
  0
ENDSEC
  0
SECTION
  2
CLASSES
  0
CLASS
  1
ACDBDICTIONARYWDFLT
  2
AcDbDictionaryWithDefault
  3
ObjectDBX Classes
 90
        0
 91
        1
280
     0
281
     0
  0
CLASS
  1
TABLESTYLE
  2
AcDbTableStyle
  3
ObjectDBX Classes
 90
     4095
 91
        1
280
     0
281
     0
  0
CLASS
  1
DICTIONARYVAR
  2
AcDbDictionaryVar
  3
ObjectDBX Classes
 90
        0
 91
        9
280
     0
281
     0
  0
CLASS
  1
MATERIAL
  2
AcDbMaterial
  3
ObjectDBX Classes
 90
     1153
 91
        3
280
     0
281
     0
  0
CLASS
  1
VISUALSTYLE
  2
AcDbVisualStyle
  3
ObjectDBX Classes
 90
     4095
 91
       24
280
     0
281
     0
  0
CLASS
  1
SCALE
  2
AcDbScale
  3
ObjectDBX Classes
 90
     1153
 91
       17
280
     0
281
     0
  0
CLASS
  1
MLEADERSTYLE
  2
AcDbMLeaderStyle
  3
ACDB_MLEADERSTYLE_CLASS
 90
     4095
 91
        1
280
     0
281
     0
  0
CLASS
  1
SORTENTSTABLE
  2
AcDbSortentsTable
  3
ObjectDBX Classes
 90
        0
 91
        3
280
     0
281
     0
  0
CLASS
  1
CELLSTYLEMAP
  2
AcDbCellStyleMap
  3
ObjectDBX Classes
 90
     1152
 91
        2
280
     0
281
     0
  0
ENDSEC
  0
SECTION
  2
TABLES
  0
TABLE
  2
VPORT
  5
1
330
0
100
AcDbSymbolTable
 70
     1
  0
VPORT
  5
9D8
330
1
100
AcDbSymbolTableRecord
100
AcDbViewportTableRecord
  2
*Active
 70
     0
 10
0.0
 20
0.0
 11
1.0
 21
1.0
 12
210.000003911764
 22
148.4947231336175
 13
0.0
 23
0.0
 14
1.0
 24
1.0
 15
0.0
 25
0.0
 16
0.0
 26
0.0
 36
1.0
 17
0.0
 27
0.0
 37
0.0
 40
299.430186166897
 41
1.612382234185733
 42
50.0
 43
0.0
 44
0.0
 50
0.0
 51
0.0
 71
     0
 72
   100
 73
     1
 74
     1
 75
     0
 76
     0
 77
     0
 78
     0
281
     0
 65
     1
110
0.0
120
0.0
130
0.0
111
1.0
121
0.0
131
0.0
112
0.0
122
1.0
132
0.0
 79
     0
146
0.0
348
9FF
 60
     3
 61
     5
292
     1
282
     1
141
0.0
142
0.0
 63
   250
421
  3355443
1001
ACAD_NAV_VCDISPLAY
1070
     3
  0
ENDTAB
  0
TABLE
  2
LTYPE
  5
68
330
0
100
AcDbSymbolTable
 70
    25
  0
LTYPE
  5
1D
330
68
100
AcDbSymbolTableRecord
100
AcDbLinetypeTableRecord
  2
BYBLOCK
 70
     0
  3

 72
    65
 73
     0
 40
0.0
  0
LTYPE
  5
1E
330
68
100
AcDbSymbolTableRecord
100
AcDbLinetypeTableRecord
  2
BYLAYER
 70
     0
  3

 72
    65
 73
     0
 40
0.0
  0
LTYPE
  5
1F
330
68
100
AcDbSymbolTableRecord
100
AcDbLinetypeTableRecord
  2
CONTINUOUS
 70
     0
  3
Solid line
 72
    65
 73
     0
 40
0.0
  0
LTYPE
  5
20
330
68
100
AcDbSymbolTableRecord
100
AcDbLinetypeTableRecord
  2
BORDER
 70
     0
  3
__ __ . __ __ . __ __ . __ __ . __ __ . __ __ .
 72
    65
 73
     6
 40
1.75
 49
0.5
 74
     0
 49
-0.25
 74
     0
 49
0.5
 74
     0
 49
-0.25
 74
     0
 49
0.0
 74
     0
 49
-0.25
 74
     0
  0
LTYPE
  5
21
330
68
100
AcDbSymbolTableRecord
100
AcDbLinetypeTableRecord
  2
BORDER2
 70
     0
  3
__.__.__.__.__.__.__.__.__.__.__.__.__.__.__.__
 72
    65
 73
     6
 40
0.875
 49
0.25
 74
     0
 49
-0.125
 74
     0
 49
0.25
 74
     0
 49
-0.125
 74
     0
 49
0.0
 74
     0
 49
-0.125
 74
     0
  0
LTYPE
  5
22
330
68
100
AcDbSymbolTableRecord
100
AcDbLinetypeTableRecord
  2
BORDERX2
 70
     0
  3
____  ____  .  ____  ____  .  ____  ____  .  __
 72
    65
 73
     6
 40
3.5
 49
1.0
 74
     0
 49
-0.5
 74
     0
 49
1.0
 74
     0
 49
-0.5
 74
     0
 49
0.0
 74
     0
 49
-0.5
 74
     0
  0
LTYPE
  5
23
330
68
100
AcDbSymbolTableRecord
100
AcDbLinetypeTableRecord
  2
CENTER
 70
     0
  3
____ _ ____ _ ____ _ ____ _ ____ _ ____ _ ____ 
 72
    65
 73
     4
 40
2.0
 49
1.25
 74
     0
 49
-0.25
 74
     0
 49
0.25
 74
     0
 49
-0.25
 74
     0
  0
LTYPE
  5
24
330
68
100
AcDbSymbolTableRecord
100
AcDbLinetypeTableRecord
  2
CENTER2
 70
     0
  3
___ _ ___ _ ___ _ ___ _ ___ _ ___ _ ___ _ ___ _
 72
    65
 73
     4
 40
1.125
 49
0.75
 74
     0
 49
-0.125
 74
     0
 49
0.125
 74
     0
 49
-0.125
 74
     0
  0
LTYPE
  5
25
330
68
100
AcDbSymbolTableRecord
100
AcDbLinetypeTableRecord
  2
CENTERX2
 70
     0
  3
________  __  ________  __  ________  __  _____
 72
    65
 73
     4
 40
4.0
 49
2.5
 74
     0
 49
-0.5
 74
     0
 49
0.5
 74
     0
 49
-0.5
 74
     0
  0
LTYPE
  5
26
330
68
100
AcDbSymbolTableRecord
100
AcDbLinetypeTableRecord
  2
DASHDOT
 70
     0
  3
__ . __ . __ . __ . __ . __ . __ . __ . __ . __
 72
    65
 73
     4
 40
1.0
 49
0.5
 74
     0
 49
-0.25
 74
     0
 49
0.0
 74
     0
 49
-0.25
 74
     0
  0
LTYPE
  5
27
330
68
100
AcDbSymbolTableRecord
100
AcDbLinetypeTableRecord
  2
DASHDOT2
 70
     0
  3
_._._._._._._._._._._._._._._._._._._._._._._._
 72
    65
 73
     4
 40
0.5
 49
0.25
 74
     0
 49
-0.125
 74
     0
 49
0.0
 74
     0
 49
-0.125
 74
     0
  0
LTYPE
  5
28
330
68
100
AcDbSymbolTableRecord
100
AcDbLinetypeTableRecord
  2
DASHDOTX2
 70
     0
  3
____  .  ____  .  ____  .  ____  .  ____  .  __
 72
    65
 73
     4
 40
2.0
 49
1.0
 74
     0
 49
-0.5
 74
     0
 49
0.0
 74
     0
 49
-0.5
 74
     0
  0
LTYPE
  5
29
330
68
100
AcDbSymbolTableRecord
100
AcDbLinetypeTableRecord
  2
DASHED
 70
     0
  3
__ __ __ __ __ __ __ __ __ __ __ __ __ __ __ __
 72
    65
 73
     2
 40
0.75
 49
0.5
 74
     0
 49
-0.25
 74
     0
  0
LTYPE
  5
2A
330
68
100
AcDbSymbolTableRecord
100
AcDbLinetypeTableRecord
  2
DASHED2
 70
     0
  3
_ _ _ _ _ _ _ _ _ _ _ _ _ _ _ _ _ _ _ _ _ _ _ _
 72
    65
 73
     2
 40
0.375
 49
0.25
 74
     0
 49
-0.125
 74
     0
  0
LTYPE
  5
2B
330
68
100
AcDbSymbolTableRecord
100
AcDbLinetypeTableRecord
  2
DASHEDX2
 70
     0
  3
____  ____  ____  ____  ____  ____  ____  ____ 
 72
    65
 73
     2
 40
1.5
 49
1.0
 74
     0
 49
-0.5
 74
     0
  0
LTYPE
  5
2C
330
68
100
AcDbSymbolTableRecord
100
AcDbLinetypeTableRecord
  2
DIVIDE
 70
     0
  3
____ . . ____ . . ____ . . ____ . . ____ . . __
 72
    65
 73
     6
 40
1.25
 49
0.5
 74
     0
 49
-0.25
 74
     0
 49
0.0
 74
     0
 49
-0.25
 74
     0
 49
0.0
 74
     0
 49
-0.25
 74
     0
  0
LTYPE
  5
2D
330
68
100
AcDbSymbolTableRecord
100
AcDbLinetypeTableRecord
  2
DIVIDE2
 70
     0
  3
__..__..__..__..__..__..__..__..__..__..__..__.
 72
    65
 73
     6
 40
0.625
 49
0.25
 74
     0
 49
-0.125
 74
     0
 49
0.0
 74
     0
 49
-0.125
 74
     0
 49
0.0
 74
     0
 49
-0.125
 74
     0
  0
LTYPE
  5
2E
330
68
100
AcDbSymbolTableRecord
100
AcDbLinetypeTableRecord
  2
DIVIDEX2
 70
     0
  3
________  .  .  ________  .  .  ________  .  . 
 72
    65
 73
     6
 40
2.5
 49
1.0
 74
     0
 49
-0.5
 74
     0
 49
0.0
 74
     0
 49
-0.5
 74
     0
 49
0.0
 74
     0
 49
-0.5
 74
     0
  0
LTYPE
  5
2F
330
68
100
AcDbSymbolTableRecord
100
AcDbLinetypeTableRecord
  2
DOT
 70
     0
  3
. . . . . . . . . . . . . . . . . . . . . . . .
 72
    65
 73
     2
 40
0.25
 49
0.0
 74
     0
 49
-0.25
 74
     0
  0
LTYPE
  5
30
330
68
100
AcDbSymbolTableRecord
100
AcDbLinetypeTableRecord
  2
DOT2
 70
     0
  3
...............................................
 72
    65
 73
     2
 40
0.125
 49
0.0
 74
     0
 49
-0.125
 74
     0
  0
LTYPE
  5
31
330
68
100
AcDbSymbolTableRecord
100
AcDbLinetypeTableRecord
  2
DOTX2
 70
     0
  3
.  .  .  .  .  .  .  .  .  .  .  .  .  .  .  . 
 72
    65
 73
     2
 40
0.5
 49
0.0
 74
     0
 49
-0.5
 74
     0
  0
LTYPE
  5
32
330
68
100
AcDbSymbolTableRecord
100
AcDbLinetypeTableRecord
  2
HIDDEN
 70
     0
  3
__ __ __ __ __ __ __ __ __ __ __ __ __ __ __ __
 72
    65
 73
     2
 40
0.375
 49
0.25
 74
     0
 49
-0.125
 74
     0
  0
LTYPE
  5
33
330
68
100
AcDbSymbolTableRecord
100
AcDbLinetypeTableRecord
  2
HIDDEN2
 70
     0
  3
_ _ _ _ _ _ _ _ _ _ _ _ _ _ _ _ _ _ _ _ _ _ _ _
 72
    65
 73
     2
 40
0.1875
 49
0.125
 74
     0
 49
-0.0625
 74
     0
  0
LTYPE
  5
34
330
68
100
AcDbSymbolTableRecord
100
AcDbLinetypeTableRecord
  2
HIDDENX2
 70
     0
  3
____ ____ ____ ____ ____ ____ ____ ____ ____ __
 72
    65
 73
     2
 40
0.75
 49
0.5
 74
     0
 49
-0.25
 74
     0
  0
LTYPE
  5
35
330
68
100
AcDbSymbolTableRecord
100
AcDbLinetypeTableRecord
  2
PHANTOM
 70
     0
  3
______  __  __  ______  __  __  ______  __  __ 
 72
    65
 73
     6
 40
2.5
 49
1.25
 74
     0
 49
-0.25
 74
     0
 49
0.25
 74
     0
 49
-0.25
 74
     0
 49
0.25
 74
     0
 49
-0.25
 74
     0
  0
LTYPE
  5
36
330
68
100
AcDbSymbolTableRecord
100
AcDbLinetypeTableRecord
  2
PHANTOM2
 70
     0
  3
___ _ _ ___ _ _ ___ _ _ ___ _ _ ___ _ _ ___ _ _
 72
    65
 73
     6
 40
1.25
 49
0.625
 74
     0
 49
-0.125
 74
     0
 49
0.125
 74
     0
 49
-0.125
 74
     0
 49
0.125
 74
     0
 49
-0.125
 74
     0
  0
LTYPE
  5
37
330
68
100
AcDbSymbolTableRecord
100
AcDbLinetypeTableRecord
  2
PHANTOMX2
 70
     0
  3
____________    ____    ____    ____________   
 72
    65
 73
     6
 40
5.0
 49
2.5
 74
     0
 49
-0.5
 74
     0
 49
0.5
 74
     0
 49
-0.5
 74
     0
 49
0.5
 74
     0
 49
-0.5
 74
     0
  0
ENDTAB
  0
TABLE
  2
LAYER
  5
67
102
{ACAD_XDICTIONARY
360
B18
102
}
330
0
100
AcDbSymbolTable
 70
     4
  0
LAYER
  5
38
102
{ACAD_XDICTIONARY
360
B0F
102
}
330
67
100
AcDbSymbolTableRecord
100
AcDbLayerTableRecord
  2
0
 70
     0
 62
     7
  6
CONTINUOUS
370
    -3
390
9BA
347
9F1
  0
LAYER
  5
39
102
{ACAD_XDICTIONARY
360
B11
102
}
330
67
100
AcDbSymbolTableRecord
100
AcDbLayerTableRecord
  2
LEVEL001
 70
     0
 62
     7
  6
CONTINUOUS
370
    -3
390
9BA
347
9F1
  0
LAYER
  5
3A
102
{ACAD_XDICTIONARY
360
B13
102
}
330
67
100
AcDbSymbolTableRecord
100
AcDbLayerTableRecord
  2
LEVEL002
 70
     0
 62
     7
  6
CONTINUOUS
370
    -3
390
9BA
347
9F1
  0
LAYER
  5
B83
330
67
100
AcDbSymbolTableRecord
100
AcDbLayerTableRecord
  2
Defpoints
 70
     0
 62
     7
  6
CONTINUOUS
290
     0
370
    -3
390
9BA
347
9F1
  0
ENDTAB
  0
TABLE
  2
STYLE
  5
6
330
0
100
AcDbSymbolTable
 70
     3
  0
STYLE
  5
7
330
6
100
AcDbSymbolTableRecord
100
AcDbTextStyleTableRecord
  2
STANDARD
 70
     0
 40
0.0
 41
0.8
 50
0.0
 71
     0
 42
0.2
  3
TXT.shx
  4
BIGFONT.shx
  0
STYLE
  5
8
330
6
100
AcDbSymbolTableRecord
100
AcDbTextStyleTableRecord
  2
STANDARD1
 70
     4
 40
0.0
 41
1.0
 50
0.0
 71
     0
 42
0.2
  3
TXT
  4
BIGFONT
  0
STYLE
  5
B84
330
6
100
AcDbSymbolTableRecord
100
AcDbTextStyleTableRecord
  2
GMM001
 70
     0
 40
0.0
 41
1.0
 50
0.0
 71
     0
 42
1.0
  3
txt.shx
  4
bigfont.shx
  0
ENDTAB
  0
TABLE
  2
VIEW
  5
2
330
0
100
AcDbSymbolTable
 70
     0
  0
ENDTAB
  0
TABLE
  2
UCS
  5
3
330
0
100
AcDbSymbolTable
 70
     0
  0
ENDTAB
  0
TABLE
  2
APPID
  5
4
330
0
100
AcDbSymbolTable
 70
     6
  0
APPID
  5
5
330
4
100
AcDbSymbolTableRecord
100
AcDbRegAppTableRecord
  2
ACAD
 70
     0
  0
APPID
  5
A2A
330
4
100
AcDbSymbolTableRecord
100
AcDbRegAppTableRecord
  2
ACAD_NAV_VCDISPLAY
 70
     0
  0
APPID
  5
A74
330
4
100
AcDbSymbolTableRecord
100
AcDbRegAppTableRecord
  2
GradientColor1ACI
 70
     0
  0
APPID
  5
A75
330
4
100
AcDbSymbolTableRecord
100
AcDbRegAppTableRecord
  2
GradientColor2ACI
 70
     0
  0
APPID
  5
B43
330
4
100
AcDbSymbolTableRecord
100
AcDbRegAppTableRecord
  2
ACAD_EXEMPT_FROM_CAD_STANDARDS
 70
     0
  0
APPID
  5
B86
330
4
100
AcDbSymbolTableRecord
100
AcDbRegAppTableRecord
  2
ACAD_PSEXT
 70
     0
  0
ENDTAB
  0
TABLE
  2
DIMSTYLE
  5
66
330
0
100
AcDbSymbolTable
 70
     2
100
AcDbDimStyleTable
 71
     0
  0
DIMSTYLE
105
3B
330
66
100
AcDbSymbolTableRecord
100
AcDbDimStyleTableRecord
  2
STANDARD
 70
     0
340
7
  0
DIMSTYLE
105
B85
102
{ACAD_REACTORS
330
11E2
330
11E8
330
11EE
330
18ED
102
}
330
66
100
AcDbSymbolTableRecord
100
AcDbDimStyleTableRecord
  2
GMM002
 70
     0
  3
%%c<>
 41
2.0
 42
1.0
 43
8.0
 44
1.0
 73
     0
 74
     0
 77
     3
 78
     8
140
3.0
141
1.0
143
0.0394
146
0.83333333333333
147
1.0
172
     1
173
     1
176
     8
177
     8
178
     8
271
     6
272
     0
275
     1
288
     1
340
B84
  0
ENDTAB
  0
TABLE
  2
BLOCK_RECORD
  5
9
330
0
100
AcDbSymbolTable
 70
    30
  0
BLOCK_RECORD
  5
A
102
{ACAD_XDICTIONARY
360
A2C
102
}
330
9
100
AcDbSymbolTableRecord
100
AcDbBlockTableRecord
  2
*MODEL_SPACE
340
9C1
 70
     0
280
     1
281
     0
  0
BLOCK_RECORD
  5
B
330
9
100
AcDbSymbolTableRecord
100
AcDbBlockTableRecord
  2
*PAPER_SPACE
340
9C2
 70
     0
280
     1
281
     0
  0
BLOCK_RECORD
  5
C
330
9
100
AcDbSymbolTableRecord
100
AcDbBlockTableRecord
  2
_ARCHTICK
340
0
 70
     0
280
     1
281
     0
  0
BLOCK_RECORD
  5
D
330
9
100
AcDbSymbolTableRecord
100
AcDbBlockTableRecord
  2
_OBLIQUE
340
0
 70
     0
280
     1
281
     0
  0
BLOCK_RECORD
  5
E
330
9
100
AcDbSymbolTableRecord
100
AcDbBlockTableRecord
  2
_BOXBLANK
340
0
 70
     0
280
     1
281
     0
  0
BLOCK_RECORD
  5
F
330
9
100
AcDbSymbolTableRecord
100
AcDbBlockTableRecord
  2
_BOXFILLED
340
0
 70
     0
280
     1
281
     0
  0
BLOCK_RECORD
  5
10
330
9
100
AcDbSymbolTableRecord
100
AcDbBlockTableRecord
  2
_CLOSED
340
0
 70
     0
280
     1
281
     0
  0
BLOCK_RECORD
  5
11
330
9
100
AcDbSymbolTableRecord
100
AcDbBlockTableRecord
  2
_OPEN
340
0
 70
     0
280
     1
281
     0
  0
BLOCK_RECORD
  5
12
330
9
100
AcDbSymbolTableRecord
100
AcDbBlockTableRecord
  2
_OPEN30
340
0
 70
     0
280
     1
281
     0
  0
BLOCK_RECORD
  5
13
330
9
100
AcDbSymbolTableRecord
100
AcDbBlockTableRecord
  2
_OPEN90
340
0
 70
     0
280
     1
281
     0
  0
BLOCK_RECORD
  5
14
330
9
100
AcDbSymbolTableRecord
100
AcDbBlockTableRecord
  2
_CLOSEDBLANK
340
0
 70
     0
280
     1
281
     0
  0
BLOCK_RECORD
  5
15
330
9
100
AcDbSymbolTableRecord
100
AcDbBlockTableRecord
  2
_DOT
340
0
102
{BLKREFS
331
18AE
331
18AF
331
18C5
331
18C6
331
18DC
331
18DD
331
1917
331
1918
331
1927
331
1928
331
1953
331
1954
102
}
 70
     0
280
     1
281
     0
  0
BLOCK_RECORD
  5
16
330
9
100
AcDbSymbolTableRecord
100
AcDbBlockTableRecord
  2
_DOTSMALL
340
0
 70
     0
280
     1
281
     0
  0
BLOCK_RECORD
  5
17
330
9
100
AcDbSymbolTableRecord
100
AcDbBlockTableRecord
  2
_DATUMBLANK
340
0
 70
     0
280
     1
281
     0
  0
BLOCK_RECORD
  5
18
330
9
100
AcDbSymbolTableRecord
100
AcDbBlockTableRecord
  2
_DATUMFILLED
340
0
 70
     0
280
     1
281
     0
  0
BLOCK_RECORD
  5
19
330
9
100
AcDbSymbolTableRecord
100
AcDbBlockTableRecord
  2
_ORIGIN
340
0
 70
     0
280
     1
281
     0
  0
BLOCK_RECORD
  5
1A
330
9
100
AcDbSymbolTableRecord
100
AcDbBlockTableRecord
  2
_NONE
340
0
 70
     0
280
     1
281
     0
  0
BLOCK_RECORD
  5
1B
330
9
100
AcDbSymbolTableRecord
100
AcDbBlockTableRecord
  2
_DOTBLANK
340
0
 70
     0
280
     1
281
     0
  0
BLOCK_RECORD
  5
1C
330
9
100
AcDbSymbolTableRecord
100
AcDbBlockTableRecord
  2
_INTEGRAL
340
0
 70
     0
280
     1
281
     0
  0
BLOCK_RECORD
  5
B2D
102
{ACAD_XDICTIONARY
360
B33
102
}
330
9
100
AcDbSymbolTableRecord
100
AcDbBlockTableRecord
  2
A$C130B57D2
340
0
 70
     0
280
     1
281
     0
  0
BLOCK_RECORD
  5
B62
330
9
100
AcDbSymbolTableRecord
100
AcDbBlockTableRecord
  2
*D18
340
0
 70
     0
280
     1
281
     0
  0
BLOCK_RECORD
  5
B6D
330
9
100
AcDbSymbolTableRecord
100
AcDbBlockTableRecord
  2
*D19
340
0
 70
     0
280
     1
281
     0
  0
BLOCK_RECORD
  5
B78
330
9
100
AcDbSymbolTableRecord
100
AcDbBlockTableRecord
  2
*D20
340
0
 70
     0
280
     1
281
     0
  0
BLOCK_RECORD
  5
1861
330
9
100
AcDbSymbolTableRecord
100
AcDbBlockTableRecord
  2
*D22
340
0
 70
     0
280
     1
281
     0
  0
BLOCK_RECORD
  5
186C
330
9
100
AcDbSymbolTableRecord
100
AcDbBlockTableRecord
  2
*D23
340
0
 70
     0
280
     1
281
     0
  0
BLOCK_RECORD
  5
1877
330
9
100
AcDbSymbolTableRecord
100
AcDbBlockTableRecord
  2
*D24
340
0
 70
     0
280
     1
281
     0
  0
BLOCK_RECORD
  5
18B6
330
9
100
AcDbSymbolTableRecord
100
AcDbBlockTableRecord
  2
*D25
340
0
 70
     0
280
     1
281
     0
  0
BLOCK_RECORD
  5
18CD
330
9
100
AcDbSymbolTableRecord
100
AcDbBlockTableRecord
  2
*D26
340
0
 70
     0
280
     1
281
     0
  0
BLOCK_RECORD
  5
18F2
330
9
100
AcDbSymbolTableRecord
100
AcDbBlockTableRecord
  2
*D27
340
0
 70
     0
280
     1
281
     0
  0
BLOCK_RECORD
  5
18FD
330
9
100
AcDbSymbolTableRecord
100
AcDbBlockTableRecord
  2
*D28
340
0
 70
     0
280
     1
281
     0
  0
BLOCK_RECORD
  5
1908
330
9
100
AcDbSymbolTableRecord
100
AcDbBlockTableRecord
  2
*D29
340
0
 70
     0
280
     1
281
     0
  0
ENDTAB
  0
ENDSEC
  0
SECTION
  2
BLOCKS
  0
BLOCK
  5
40
330
A
100
AcDbEntity
  8
0
100
AcDbBlockBegin
  2
*MODEL_SPACE
 70
     0
 10
0.0
 20
0.0
 30
0.0
  3
*MODEL_SPACE
  1

  0
ENDBLK
  5
53
330
A
100
AcDbEntity
  8
0
100
AcDbBlockEnd
  0
BLOCK
  5
41
330
B
100
AcDbEntity
 67
     1
  8
0
100
AcDbBlockBegin
  2
*PAPER_SPACE
 70
     0
 10
0.0
 20
0.0
 30
0.0
  3
*PAPER_SPACE
  1

  0
ENDBLK
  5
54
330
B
100
AcDbEntity
 67
     1
  8
0
100
AcDbBlockEnd
  0
BLOCK
  5
42
330
C
100
AcDbEntity
  8
0
100
AcDbBlockBegin
  2
_ARCHTICK
 70
     0
 10
0.0
 20
0.0
 30
0.0
  3
_ARCHTICK
  1

  0
LWPOLYLINE
  5
75
330
C
100
AcDbEntity
  8
0
  6
ByBlock
 62
     0
380
     1
100
AcDbPolyline
 90
        2
 70
     1
 43
0.15
 10
-0.5
 20
-0.5
 10
0.5
 20
0.5
  0
ENDBLK
  5
55
330
C
100
AcDbEntity
  8
0
100
AcDbBlockEnd
  0
BLOCK
  5
43
330
D
100
AcDbEntity
  8
0
100
AcDbBlockBegin
  2
_OBLIQUE
 70
     0
 10
0.0
 20
0.0
 30
0.0
  3
_OBLIQUE
  1

  0
LINE
  5
79
330
D
100
AcDbEntity
  8
0
  6
ByBlock
 62
     0
380
     1
100
AcDbLine
 10
-0.5
 20
-0.5
 30
0.0
 11
0.5
 21
0.5
 31
0.0
  0
ENDBLK
  5
61
330
D
100
AcDbEntity
  8
0
100
AcDbBlockEnd
  0
BLOCK
  5
44
330
E
100
AcDbEntity
  8
0
100
AcDbBlockBegin
  2
_BOXBLANK
 70
     0
 10
0.0
 20
0.0
 30
0.0
  3
_BOXBLANK
  1

  0
LINE
  5
7A
330
E
100
AcDbEntity
  8
0
  6
ByBlock
 62
     0
380
     1
100
AcDbLine
 10
-0.5
 20
-0.5
 30
0.0
 11
0.5
 21
-0.5
 31
0.0
  0
LINE
  5
7B
330
E
100
AcDbEntity
  8
0
  6
ByBlock
 62
     0
380
     1
100
AcDbLine
 10
0.5
 20
-0.5
 30
0.0
 11
0.5
 21
0.5
 31
0.0
  0
LINE
  5
7C
330
E
100
AcDbEntity
  8
0
  6
ByBlock
 62
     0
380
     1
100
AcDbLine
 10
0.5
 20
0.5
 30
0.0
 11
-0.5
 21
0.5
 31
0.0
  0
LINE
  5
7D
330
E
100
AcDbEntity
  8
0
  6
ByBlock
 62
     0
380
     1
100
AcDbLine
 10
-0.5
 20
0.5
 30
0.0
 11
-0.5
 21
-0.5
 31
0.0
  0
LINE
  5
7E
330
E
100
AcDbEntity
  8
0
  6
ByBlock
 62
     0
380
     1
100
AcDbLine
 10
-0.5
 20
0.0
 30
0.0
 11
-1.0
 21
0.0
 31
0.0
  0
ENDBLK
  5
56
330
E
100
AcDbEntity
  8
0
100
AcDbBlockEnd
  0
BLOCK
  5
45
330
F
100
AcDbEntity
  8
0
100
AcDbBlockBegin
  2
_BOXFILLED
 70
     0
 10
0.0
 20
0.0
 30
0.0
  3
_BOXFILLED
  1

  0
SOLID
  5
7F
330
F
100
AcDbEntity
  8
0
  6
ByBlock
 62
     0
380
     1
100
AcDbTrace
 10
-0.5
 20
0.5
 30
0.0
 11
0.5
 21
0.5
 31
0.0
 12
-0.5
 22
-0.5
 32
0.0
 13
0.5
 23
-0.5
 33
0.0
  0
LINE
  5
80
330
F
100
AcDbEntity
  8
0
  6
ByBlock
 62
     0
380
     1
100
AcDbLine
 10
-0.5
 20
0.0
 30
0.0
 11
-1.0
 21
0.0
 31
0.0
  0
ENDBLK
  5
57
330
F
100
AcDbEntity
  8
0
100
AcDbBlockEnd
  0
BLOCK
  5
46
330
10
100
AcDbEntity
  8
0
100
AcDbBlockBegin
  2
_CLOSED
 70
     0
 10
0.0
 20
0.0
 30
0.0
  3
_CLOSED
  1

  0
LINE
  5
81
330
10
100
AcDbEntity
  8
0
  6
ByBlock
 62
     0
380
     1
100
AcDbLine
 10
-1.0
 20
0.16666666666667
 30
0.0
 11
0.0
 21
0.0
 31
0.0
  0
LINE
  5
82
330
10
100
AcDbEntity
  8
0
  6
ByBlock
 62
     0
380
     1
100
AcDbLine
 10
0.0
 20
0.0
 30
0.0
 11
-1.0
 21
-0.16666666666667
 31
0.0
  0
LINE
  5
83
330
10
100
AcDbEntity
  8
0
  6
ByBlock
 62
     0
380
     1
100
AcDbLine
 10
-1.0
 20
0.16666666666667
 30
0.0
 11
-1.0
 21
-0.16666666666667
 31
0.0
  0
LINE
  5
84
330
10
100
AcDbEntity
  8
0
  6
ByBlock
 62
     0
380
     1
100
AcDbLine
 10
0.0
 20
0.0
 30
0.0
 11
-1.0
 21
0.0
 31
0.0
  0
ENDBLK
  5
58
330
10
100
AcDbEntity
  8
0
100
AcDbBlockEnd
  0
BLOCK
  5
47
330
11
100
AcDbEntity
  8
0
100
AcDbBlockBegin
  2
_OPEN
 70
     0
 10
0.0
 20
0.0
 30
0.0
  3
_OPEN
  1

  0
LINE
  5
85
330
11
100
AcDbEntity
  8
0
  6
ByBlock
 62
     0
380
     1
100
AcDbLine
 10
-1.0
 20
0.16666666666667
 30
0.0
 11
0.0
 21
0.0
 31
0.0
  0
LINE
  5
86
330
11
100
AcDbEntity
  8
0
  6
ByBlock
 62
     0
380
     1
100
AcDbLine
 10
0.0
 20
0.0
 30
0.0
 11
-1.0
 21
-0.16666666666667
 31
0.0
  0
LINE
  5
87
330
11
100
AcDbEntity
  8
0
  6
ByBlock
 62
     0
380
     1
100
AcDbLine
 10
0.0
 20
0.0
 30
0.0
 11
-1.0
 21
0.0
 31
0.0
  0
ENDBLK
  5
62
330
11
100
AcDbEntity
  8
0
100
AcDbBlockEnd
  0
BLOCK
  5
48
330
12
100
AcDbEntity
  8
0
100
AcDbBlockBegin
  2
_OPEN30
 70
     0
 10
0.0
 20
0.0
 30
0.0
  3
_OPEN30
  1

  0
LINE
  5
88
330
12
100
AcDbEntity
  8
0
  6
ByBlock
 62
     0
380
     1
100
AcDbLine
 10
-1.0
 20
0.2679491924311
 30
0.0
 11
0.0
 21
0.0
 31
0.0
  0
LINE
  5
89
330
12
100
AcDbEntity
  8
0
  6
ByBlock
 62
     0
380
     1
100
AcDbLine
 10
0.0
 20
0.0
 30
0.0
 11
-1.0
 21
-0.2679491924311
 31
0.0
  0
LINE
  5
8A
330
12
100
AcDbEntity
  8
0
  6
ByBlock
 62
     0
380
     1
100
AcDbLine
 10
0.0
 20
0.0
 30
0.0
 11
-1.0
 21
0.0
 31
0.0
  0
ENDBLK
  5
63
330
12
100
AcDbEntity
  8
0
100
AcDbBlockEnd
  0
BLOCK
  5
49
330
13
100
AcDbEntity
  8
0
100
AcDbBlockBegin
  2
_OPEN90
 70
     0
 10
0.0
 20
0.0
 30
0.0
  3
_OPEN90
  1

  0
LINE
  5
8B
330
13
100
AcDbEntity
  8
0
  6
ByBlock
 62
     0
380
     1
100
AcDbLine
 10
-0.5
 20
0.5
 30
0.0
 11
0.0
 21
0.0
 31
0.0
  0
LINE
  5
8C
330
13
100
AcDbEntity
  8
0
  6
ByBlock
 62
     0
380
     1
100
AcDbLine
 10
0.0
 20
0.0
 30
0.0
 11
-0.5
 21
-0.5
 31
0.0
  0
LINE
  5
8D
330
13
100
AcDbEntity
  8
0
  6
ByBlock
 62
     0
380
     1
100
AcDbLine
 10
0.0
 20
0.0
 30
0.0
 11
-1.0
 21
0.0
 31
0.0
  0
ENDBLK
  5
64
330
13
100
AcDbEntity
  8
0
100
AcDbBlockEnd
  0
BLOCK
  5
4A
330
14
100
AcDbEntity
  8
0
100
AcDbBlockBegin
  2
_CLOSEDBLANK
 70
     0
 10
0.0
 20
0.0
 30
0.0
  3
_CLOSEDBLANK
  1

  0
LINE
  5
8E
330
14
100
AcDbEntity
  8
0
  6
ByBlock
 62
     0
380
     1
100
AcDbLine
 10
-1.0
 20
0.16666666666667
 30
0.0
 11
0.0
 21
0.0
 31
0.0
  0
LINE
  5
8F
330
14
100
AcDbEntity
  8
0
  6
ByBlock
 62
     0
380
     1
100
AcDbLine
 10
0.0
 20
0.0
 30
0.0
 11
-1.0
 21
-0.16666666666667
 31
0.0
  0
LINE
  5
90
330
14
100
AcDbEntity
  8
0
  6
ByBlock
 62
     0
380
     1
100
AcDbLine
 10
-1.0
 20
0.16666666666667
 30
0.0
 11
-1.0
 21
-0.16666666666667
 31
0.0
  0
ENDBLK
  5
59
330
14
100
AcDbEntity
  8
0
100
AcDbBlockEnd
  0
BLOCK
  5
4B
330
15
100
AcDbEntity
  8
0
100
AcDbBlockBegin
  2
_DOT
 70
     0
 10
0.0
 20
0.0
 30
0.0
  3
_DOT
  1

  0
LWPOLYLINE
  5
91
330
15
100
AcDbEntity
  8
0
  6
ByBlock
 62
     0
380
     1
100
AcDbPolyline
 90
        2
 70
     1
 43
0.5
 10
-0.25
 20
0.0
 42
1.0
 10
0.25
 20
0.0
 42
1.0
  0
LINE
  5
95
330
15
100
AcDbEntity
  8
0
  6
ByBlock
 62
     0
380
     1
100
AcDbLine
 10
-0.5
 20
0.0
 30
0.0
 11
-1.0
 21
0.0
 31
0.0
  0
ENDBLK
  5
5C
330
15
100
AcDbEntity
  8
0
100
AcDbBlockEnd
  0
BLOCK
  5
4C
330
16
100
AcDbEntity
  8
0
100
AcDbBlockBegin
  2
_DOTSMALL
 70
     0
 10
0.0
 20
0.0
 30
0.0
  3
_DOTSMALL
  1

  0
LWPOLYLINE
  5
96
330
16
100
AcDbEntity
  8
0
  6
ByBlock
 62
     0
380
     1
100
AcDbPolyline
 90
        2
 70
     1
 43
0.5
 10
-0.0625
 20
0.0
 42
1.0
 10
0.0625
 20
0.0
 42
1.0
  0
ENDBLK
  5
5E
330
16
100
AcDbEntity
  8
0
100
AcDbBlockEnd
  0
BLOCK
  5
4D
330
17
100
AcDbEntity
  8
0
100
AcDbBlockBegin
  2
_DATUMBLANK
 70
     0
 10
0.0
 20
0.0
 30
0.0
  3
_DATUMBLANK
  1

  0
LINE
  5
9A
330
17
100
AcDbEntity
  8
0
  6
ByBlock
 62
     0
380
     1
100
AcDbLine
 10
0.0
 20
0.5773502700000001
 30
0.0
 11
-1.0
 21
0.0
 31
0.0
  0
LINE
  5
9B
330
17
100
AcDbEntity
  8
0
  6
ByBlock
 62
     0
380
     1
100
AcDbLine
 10
-1.0
 20
0.0
 30
0.0
 11
0.0
 21
-0.5773502700000001
 31
0.0
  0
LINE
  5
9C
330
17
100
AcDbEntity
  8
0
  6
ByBlock
 62
     0
380
     1
100
AcDbLine
 10
0.0
 20
-0.5773502700000001
 30
0.0
 11
0.0
 21
0.5773502700000001
 31
0.0
  0
ENDBLK
  5
5A
330
17
100
AcDbEntity
  8
0
100
AcDbBlockEnd
  0
BLOCK
  5
4E
330
18
100
AcDbEntity
  8
0
100
AcDbBlockBegin
  2
_DATUMFILLED
 70
     0
 10
0.0
 20
0.0
 30
0.0
  3
_DATUMFILLED
  1

  0
SOLID
  5
9D
330
18
100
AcDbEntity
  8
0
  6
ByBlock
 62
     0
380
     1
100
AcDbTrace
 10
0.0
 20
0.5773502700000001
 30
0.0
 11
-1.0
 21
0.0
 31
0.0
 12
0.0
 22
-0.5773502700000001
 32
0.0
 13
0.0
 23
-0.5773502700000001
 33
0.0
  0
ENDBLK
  5
5B
330
18
100
AcDbEntity
  8
0
100
AcDbBlockEnd
  0
BLOCK
  5
4F
330
19
100
AcDbEntity
  8
0
100
AcDbBlockBegin
  2
_ORIGIN
 70
     0
 10
0.0
 20
0.0
 30
0.0
  3
_ORIGIN
  1

  0
CIRCLE
  5
9E
330
19
100
AcDbEntity
  8
0
  6
ByBlock
 62
     0
380
     1
100
AcDbCircle
 10
0.0
 20
0.0
 30
0.0
 40
0.5
  0
LINE
  5
9F
330
19
100
AcDbEntity
  8
0
  6
ByBlock
 62
     0
380
     1
100
AcDbLine
 10
0.0
 20
0.0
 30
0.0
 11
-1.0
 21
0.0
 31
0.0
  0
ENDBLK
  5
65
330
19
100
AcDbEntity
  8
0
100
AcDbBlockEnd
  0
BLOCK
  5
50
330
1A
100
AcDbEntity
  8
0
100
AcDbBlockBegin
  2
_NONE
 70
     0
 10
0.0
 20
0.0
 30
0.0
  3
_NONE
  1

  0
CIRCLE
  5
A0
330
1A
100
AcDbEntity
  8
0
  6
ByBlock
 62
     0
380
     1
100
AcDbCircle
 10
0.0
 20
0.0
 30
0.0
 40
0.25
  0
ENDBLK
  5
60
330
1A
100
AcDbEntity
  8
0
100
AcDbBlockEnd
  0
BLOCK
  5
51
330
1B
100
AcDbEntity
  8
0
100
AcDbBlockBegin
  2
_DOTBLANK
 70
     0
 10
0.0
 20
0.0
 30
0.0
  3
_DOTBLANK
  1

  0
CIRCLE
  5
A1
330
1B
100
AcDbEntity
  8
0
  6
ByBlock
 62
     0
380
     1
100
AcDbCircle
 10
0.0
 20
0.0
 30
0.0
 40
0.5
  0
LINE
  5
A2
330
1B
100
AcDbEntity
  8
0
  6
ByBlock
 62
     0
380
     1
100
AcDbLine
 10
-0.5
 20
0.0
 30
0.0
 11
-1.0
 21
0.0
 31
0.0
  0
ENDBLK
  5
5D
330
1B
100
AcDbEntity
  8
0
100
AcDbBlockEnd
  0
BLOCK
  5
52
330
1C
100
AcDbEntity
  8
0
100
AcDbBlockBegin
  2
_INTEGRAL
 70
     0
 10
0.0
 20
0.0
 30
0.0
  3
_INTEGRAL
  1

  0
ARC
  5
A3
330
1C
100
AcDbEntity
  8
0
  6
ByBlock
 62
     0
380
     1
100
AcDbCircle
 10
0.444888
 20
-0.091335
 30
0.0
 40
0.454167
100
AcDbArc
 50
102.0
 51
168.0
  0
ARC
  5
A4
330
1C
100
AcDbEntity
  8
0
  6
ByBlock
 62
     0
380
     1
100
AcDbCircle
 10
-0.444888
 20
0.091335
 30
0.0
 40
0.454167
100
AcDbArc
 50
282.0
 51
348.0
  0
ENDBLK
  5
5F
330
1C
100
AcDbEntity
  8
0
100
AcDbBlockEnd
  0
BLOCK
  5
B35
330
B2D
100
AcDbEntity
  8
0
100
AcDbBlockBegin
  2
A$C130B57D2
 70
     0
 10
0.0
 20
0.0
 30
0.0
  3
A$C130B57D2
  1

  0
TEXT
  5
B2E
330
B2D
100
AcDbEntity
  8
LEVEL001
 62
     7
100
AcDbText
 10
-32.64491543920001
 20
1.833333333340021
 30
0.0
 40
3.0
  1
令和　　年　　月　　日
 41
0.8
 72
     1
 11
-17.2849154392
 21
3.333333333340021
 31
0.0
100
AcDbText
 73
     2
  0
TEXT
  5
B2F
330
B2D
100
AcDbEntity
  8
LEVEL001
 62
     7
100
AcDbText
 10
-97.80352811570004
 20
45.2067590062245
 30
0.0
 40
3.0
  1
※カラーバリエーションはカタログ参照願います
 41
0.8
100
AcDbText
  0
TEXT
  5
B30
330
B2D
100
AcDbEntity
  8
LEVEL001
 62
     7
100
AcDbText
 10
-97.80352811570004
 20
41.2067590062245
 30
0.0
 40
3.0
  1
※本製品は予告無しに変更する事があります。
 41
0.8
100
AcDbText
  0
LINE
  5
B31
330
B2D
100
AcDbEntity
  8
LEVEL001
  6
Continuous
 62
     3
100
AcDbLine
 10
-100.0
 20
51.34590242265199
 30
0.0
 11
0.0
 21
51.34590242265199
 31
0.0
  0
TEXT
  5
B32
330
B2D
100
AcDbEntity
  8
LEVEL001
 62
     7
100
AcDbText
 10
-32.64491543920006
 20
8.50000000000648
 30
0.0
 40
3.0
  1
令和　２年　４月　１日
 41
0.8
 72
     1
 11
-17.28491543920006
 21
10.00000000000648
 31
0.0
100
AcDbText
 73
     2
  0
ENDBLK
  5
B36
330
B2D
100
AcDbEntity
  8
0
100
AcDbBlockEnd
  0
BLOCK
  5
B63
330
B62
100
AcDbEntity
  8
0
100
AcDbBlockBegin
  2
*D18
 70
     1
 10
0.0
 20
0.0
 30
0.0
  3
*D18
  1

  0
LINE
  5
B64
330
B62
100
AcDbEntity
  8
0
  6
Continuous
 62
     7
440
 16777216
370
    -2
100
AcDbLine
 10
55.0714817259525
 20
47.21687938485097
 30
0.0
 11
48.11222487659012
 21
41.50997618744145
 31
0.0
  0
LINE
  5
B65
330
B62
100
AcDbEntity
  8
0
  6
Continuous
 62
     7
440
 16777216
370
    -2
100
AcDbLine
 10
41.92621878826908
 20
36.43717334530055
 30
0.0
 11
40.37971726618855
 21
35.1689726347651
 31
0.0
  0
MTEXT
  5
B66
330
B62
100
AcDbEntity
  8
0
  6
Continuous
 62
     7
440
 16777216
370
    15
100
AcDbMText
 10
50.77985317414227
 20
46.9306550440146
 30
0.0
 40
3.0
 41
0.0
 46
0.0
 71
     5
 72
     1
  1
\A1;%%c4
  7
GMM001
 11
0.7732507610402638
 21
0.6341003552677233
 31
0.0
 73
     1
 44
1.0
  0
LINE
  5
B67
330
B62
100
AcDbEntity
  8
0
  6
Continuous
 62
     7
440
 16777216
370
    -2
100
AcDbLine
 10
43.4727203103496
 20
37.705374055836
 30
0.0
 11
46.56572335450959
 21
40.24177547690601
 31
0.0
  0
SOLID
  5
B68
330
B62
100
AcDbEntity
  8
0
  6
Continuous
 62
     7
440
 16777216
100
AcDbTrace
 10
41.71485200317984
 20
36.69492359898064
 30
0.0
 11
42.13758557335832
 21
36.17942309162046
 31
0.0
 12
43.4727203103496
 22
37.705374055836
 32
0.0
 13
43.4727203103496
 23
37.705374055836
 33
0.0
  0
SOLID
  5
B69
330
B62
100
AcDbEntity
  8
0
  6
Continuous
 62
     7
440
 16777216
100
AcDbTrace
 10
47.90085809150087
 20
41.76772644112154
 30
0.0
 11
48.32359166167936
 21
41.25222593376137
 31
0.0
 12
46.56572335450959
 22
40.24177547690601
 32
0.0
 13
46.56572335450959
 23
40.24177547690601
 33
0.0
  0
POINT
  5
B6A
330
B62
100
AcDbEntity
  8
Defpoints
  6
Continuous
 62
     0
440
 16777216
100
AcDbPoint
 10
46.56572335450959
 20
40.24177547690601
 30
0.0
  0
POINT
  5
B6B
330
B62
100
AcDbEntity
  8
Defpoints
  6
Continuous
 62
     0
440
 16777216
100
AcDbPoint
 10
43.4727203103496
 20
37.705374055836
 30
0.0
  0
ENDBLK
  5
B6C
330
B62
100
AcDbEntity
  8
0
100
AcDbBlockEnd
  0
BLOCK
  5
B6E
330
B6D
100
AcDbEntity
  8
0
100
AcDbBlockBegin
  2
*D19
 70
     1
 10
0.0
 20
0.0
 30
0.0
  3
*D19
  1

  0
LINE
  5
B6F
330
B6D
100
AcDbEntity
  8
0
  6
Continuous
 62
     7
440
 16777216
370
    -2
100
AcDbLine
 10
55.0714817259525
 20
332.216879384849
 30
0.0
 11
48.11222487659015
 21
326.5099761874395
 31
0.0
  0
LINE
  5
B70
330
B6D
100
AcDbEntity
  8
0
  6
Continuous
 62
     7
440
 16777216
370
    -2
100
AcDbLine
 10
41.92621878826907
 20
321.4371733452986
 30
0.0
 11
40.37971726618855
 21
320.1689726347631
 31
0.0
  0
MTEXT
  5
B71
330
B6D
100
AcDbEntity
  8
0
  6
Continuous
 62
     7
440
 16777216
370
    15
100
AcDbMText
 10
50.77985317414226
 20
331.9306550440127
 30
0.0
 40
3.0
 41
0.0
 46
0.0
 71
     5
 72
     1
  1
\A1;%%c4
  7
GMM001
 11
0.7732507610402616
 21
0.6341003552677261
 31
0.0
 73
     1
 44
1.0
  0
LINE
  5
B72
330
B6D
100
AcDbEntity
  8
0
  6
Continuous
 62
     7
440
 16777216
370
    -2
100
AcDbLine
 10
43.47272031034958
 20
322.705374055834
 30
0.0
 11
46.56572335450962
 21
325.2417754769041
 31
0.0
  0
SOLID
  5
B73
330
B6D
100
AcDbEntity
  8
0
  6
Continuous
 62
     7
440
 16777216
100
AcDbTrace
 10
41.7148520031798
 20
321.6949235989787
 30
0.0
 11
42.13758557335831
 21
321.1794230916185
 31
0.0
 12
43.47272031034958
 22
322.705374055834
 32
0.0
 13
43.47272031034958
 23
322.705374055834
 33
0.0
  0
SOLID
  5
B74
330
B6D
100
AcDbEntity
  8
0
  6
Continuous
 62
     7
440
 16777216
100
AcDbTrace
 10
47.90085809150087
 20
326.7677264411196
 30
0.0
 11
48.32359166167939
 21
326.2522259337594
 31
0.0
 12
46.56572335450962
 22
325.2417754769041
 32
0.0
 13
46.56572335450962
 23
325.2417754769041
 33
0.0
  0
POINT
  5
B75
330
B6D
100
AcDbEntity
  8
Defpoints
  6
Continuous
 62
     0
440
 16777216
100
AcDbPoint
 10
46.56572335450962
 20
325.2417754769041
 30
0.0
  0
POINT
  5
B76
330
B6D
100
AcDbEntity
  8
Defpoints
  6
Continuous
 62
     0
440
 16777216
100
AcDbPoint
 10
43.47272031034958
 20
322.705374055834
 30
0.0
  0
ENDBLK
  5
B77
330
B6D
100
AcDbEntity
  8
0
100
AcDbBlockEnd
  0
BLOCK
  5
B79
330
B78
100
AcDbEntity
  8
0
100
AcDbBlockBegin
  2
*D20
 70
     1
 10
0.0
 20
0.0
 30
0.0
  3
*D20
  1

  0
LINE
  5
B7A
330
B78
100
AcDbEntity
  8
0
  6
Continuous
 62
     7
440
 16777216
370
    -2
100
AcDbLine
 10
55.07148172595265
 20
629.2168793848487
 30
0.0
 11
48.11222487659023
 21
623.5099761874394
 31
0.0
  0
LINE
  5
B7B
330
B78
100
AcDbEntity
  8
0
  6
Continuous
 62
     7
440
 16777216
370
    -2
100
AcDbLine
 10
41.92621878826907
 20
618.4371733452985
 30
0.0
 11
40.37971726618855
 21
617.1689726347631
 31
0.0
  0
MTEXT
  5
B7C
330
B78
100
AcDbEntity
  8
0
  6
Continuous
 62
     7
440
 16777216
370
    15
100
AcDbMText
 10
50.77985317414243
 20
628.9306550440125
 30
0.0
 40
3.0
 41
0.0
 46
0.0
 71
     5
 72
     1
  1
\A1;%%c4
  7
GMM001
 11
0.7732507610402728
 21
0.6341003552677123
 31
0.0
 73
     1
 44
1.0
  0
LINE
  5
B7D
330
B78
100
AcDbEntity
  8
0
  6
Continuous
 62
     7
440
 16777216
370
    -2
100
AcDbLine
 10
43.47272031034964
 20
619.705374055834
 30
0.0
 11
46.56572335450966
 21
622.241775476904
 31
0.0
  0
SOLID
  5
B7E
330
B78
100
AcDbEntity
  8
0
  6
Continuous
 62
     7
440
 16777216
100
AcDbTrace
 10
41.71485200317983
 20
618.6949235989787
 30
0.0
 11
42.13758557335831
 21
618.1794230916184
 31
0.0
 12
43.47272031034964
 22
619.705374055834
 32
0.0
 13
43.47272031034964
 23
619.705374055834
 33
0.0
  0
SOLID
  5
B7F
330
B78
100
AcDbEntity
  8
0
  6
Continuous
 62
     7
440
 16777216
100
AcDbTrace
 10
47.90085809150099
 20
623.7677264411195
 30
0.0
 11
48.32359166167947
 21
623.2522259337592
 31
0.0
 12
46.56572335450966
 22
622.241775476904
 32
0.0
 13
46.56572335450966
 23
622.241775476904
 33
0.0
  0
POINT
  5
B80
330
B78
100
AcDbEntity
  8
Defpoints
  6
Continuous
 62
     0
440
 16777216
100
AcDbPoint
 10
46.56572335450966
 20
622.241775476904
 30
0.0
  0
POINT
  5
B81
330
B78
100
AcDbEntity
  8
Defpoints
  6
Continuous
 62
     0
440
 16777216
100
AcDbPoint
 10
43.47272031034964
 20
619.705374055834
 30
0.0
  0
ENDBLK
  5
B82
330
B78
100
AcDbEntity
  8
0
100
AcDbBlockEnd
  0
BLOCK
  5
1862
330
1861
100
AcDbEntity
  8
0
100
AcDbBlockBegin
  2
*D22
 70
     1
 10
0.0
 20
0.0
 30
0.0
  3
*D22
  1

  0
LINE
  5
1882
330
1861
100
AcDbEntity
  8
0
  6
Continuous
 62
     7
440
 16777216
370
    -2
100
AcDbLine
 10
570.3027642126734
 20
47.21687938485092
 30
0.0
 11
563.3435073633109
 21
41.50997618744145
 31
0.0
  0
LINE
  5
1883
330
1861
100
AcDbEntity
  8
0
  6
Continuous
 62
     7
440
 16777216
370
    -2
100
AcDbLine
 10
557.1575012749899
 20
36.43717334530055
 30
0.0
 11
555.6109997529094
 21
35.16897263476511
 31
0.0
  0
MTEXT
  5
1884
330
1861
100
AcDbEntity
  8
0
  6
Continuous
 62
     7
440
 16777216
370
    15
100
AcDbMText
 10
566.0111356608631
 20
46.93065504401451
 30
0.0
 40
3.0
 41
0.0
 46
0.0
 71
     5
 72
     1
  1
\A1;%%c4
  7
GMM001
 11
0.773250761040266
 21
0.6341003552677205
 31
0.0
 73
     1
 44
1.0
  0
LINE
  5
1885
330
1861
100
AcDbEntity
  8
0
  6
Continuous
 62
     7
440
 16777216
370
    -2
100
AcDbLine
 10
558.7040027970703
 20
37.70537405583599
 30
0.0
 11
561.7970058412304
 21
40.24177547690601
 31
0.0
  0
SOLID
  5
1886
330
1861
100
AcDbEntity
  8
0
  6
Continuous
 62
     7
440
 16777216
100
AcDbTrace
 10
556.9461344899007
 20
36.69492359898064
 30
0.0
 11
557.3688680600792
 21
36.17942309162046
 31
0.0
 12
558.7040027970703
 22
37.70537405583599
 32
0.0
 13
558.7040027970703
 23
37.70537405583599
 33
0.0
  0
SOLID
  5
1887
330
1861
100
AcDbEntity
  8
0
  6
Continuous
 62
     7
440
 16777216
100
AcDbTrace
 10
563.1321405782217
 20
41.76772644112154
 30
0.0
 11
563.5548741484001
 21
41.25222593376136
 31
0.0
 12
561.7970058412304
 22
40.24177547690601
 32
0.0
 13
561.7970058412304
 23
40.24177547690601
 33
0.0
  0
POINT
  5
1888
330
1861
100
AcDbEntity
  8
Defpoints
  6
Continuous
 62
     0
440
 16777216
100
AcDbPoint
 10
561.7970058412304
 20
40.24177547690601
 30
0.0
  0
POINT
  5
1889
330
1861
100
AcDbEntity
  8
Defpoints
  6
Continuous
 62
     0
440
 16777216
100
AcDbPoint
 10
558.7040027970703
 20
37.70537405583599
 30
0.0
  0
ENDBLK
  5
1863
330
1861
100
AcDbEntity
  8
0
100
AcDbBlockEnd
  0
BLOCK
  5
186D
330
186C
100
AcDbEntity
  8
0
100
AcDbBlockBegin
  2
*D23
 70
     1
 10
0.0
 20
0.0
 30
0.0
  3
*D23
  1

  0
LINE
  5
188A
330
186C
100
AcDbEntity
  8
0
  6
Continuous
 62
     7
440
 16777216
370
    -2
100
AcDbLine
 10
570.3027642126733
 20
332.2168793848492
 30
0.0
 11
563.3435073633109
 21
326.5099761874396
 31
0.0
  0
LINE
  5
188B
330
186C
100
AcDbEntity
  8
0
  6
Continuous
 62
     7
440
 16777216
370
    -2
100
AcDbLine
 10
557.1575012749899
 20
321.4371733452986
 30
0.0
 11
555.6109997529094
 21
320.1689726347631
 31
0.0
  0
MTEXT
  5
188C
330
186C
100
AcDbEntity
  8
0
  6
Continuous
 62
     7
440
 16777216
370
    15
100
AcDbMText
 10
566.0111356608631
 20
331.9306550440128
 30
0.0
 40
3.0
 41
0.0
 46
0.0
 71
     5
 72
     1
  1
\A1;%%c4
  7
GMM001
 11
0.7732507610402588
 21
0.6341003552677295
 31
0.0
 73
     1
 44
1.0
  0
LINE
  5
188D
330
186C
100
AcDbEntity
  8
0
  6
Continuous
 62
     7
440
 16777216
370
    -2
100
AcDbLine
 10
558.7040027970703
 20
322.705374055834
 30
0.0
 11
561.7970058412304
 21
325.2417754769041
 31
0.0
  0
SOLID
  5
188E
330
186C
100
AcDbEntity
  8
0
  6
Continuous
 62
     7
440
 16777216
100
AcDbTrace
 10
556.9461344899007
 20
321.6949235989787
 30
0.0
 11
557.3688680600792
 21
321.1794230916185
 31
0.0
 12
558.7040027970703
 22
322.705374055834
 32
0.0
 13
558.7040027970703
 23
322.705374055834
 33
0.0
  0
SOLID
  5
188F
330
186C
100
AcDbEntity
  8
0
  6
Continuous
 62
     7
440
 16777216
100
AcDbTrace
 10
563.1321405782217
 20
326.7677264411196
 30
0.0
 11
563.5548741484002
 21
326.2522259337595
 31
0.0
 12
561.7970058412304
 22
325.2417754769041
 32
0.0
 13
561.7970058412304
 23
325.2417754769041
 33
0.0
  0
POINT
  5
1890
330
186C
100
AcDbEntity
  8
Defpoints
  6
Continuous
 62
     0
440
 16777216
100
AcDbPoint
 10
561.7970058412304
 20
325.2417754769041
 30
0.0
  0
POINT
  5
1891
330
186C
100
AcDbEntity
  8
Defpoints
  6
Continuous
 62
     0
440
 16777216
100
AcDbPoint
 10
558.7040027970703
 20
322.705374055834
 30
0.0
  0
ENDBLK
  5
186E
330
186C
100
AcDbEntity
  8
0
100
AcDbBlockEnd
  0
BLOCK
  5
1878
330
1877
100
AcDbEntity
  8
0
100
AcDbBlockBegin
  2
*D24
 70
     1
 10
0.0
 20
0.0
 30
0.0
  3
*D24
  1

  0
LINE
  5
18AA
330
1877
100
AcDbEntity
  8
0
  6
Continuous
 62
     7
440
 16777216
370
    -2
100
AcDbLine
 10
568.7562626905928
 20
627.9486786743127
 30
0.0
 11
562.5702566022705
 21
622.8758758321713
 31
0.0
  0
LINE
  5
18AB
330
1877
100
AcDbEntity
  8
0
  6
Continuous
 62
     7
440
 16777216
370
    -2
100
AcDbLine
 10
557.9307520360298
 20
619.071273700566
 30
0.0
 11
557.1575012749895
 21
618.4371733452984
 31
0.0
  0
MTEXT
  5
18AC
330
1877
100
AcDbEntity
  8
0
  6
Continuous
 62
     7
440
 16777216
370
    15
100
AcDbMText
 10
564.4646341387825
 20
627.6624543334766
 30
0.0
 40
3.0
 41
0.0
 46
0.0
 71
     5
 72
     1
  1
\A1;%%c4
  7
GMM001
 11
0.7732507610402976
 21
0.6341003552676821
 31
0.0
 73
     1
 44
1.0
  0
LINE
  5
18AD
330
1877
100
AcDbEntity
  8
0
  6
Continuous
 62
     7
440
 16777216
370
    -2
100
AcDbLine
 10
558.7040027970699
 20
619.7053740558337
 30
0.0
 11
561.7970058412302
 21
622.2417754769036
 31
0.0
  0
INSERT
  5
18AE
330
1877
100
AcDbEntity
  8
0
  6
Continuous
 62
     7
440
 16777216
370
    -2
100
AcDbBlockReference
  2
_DOT
 10
558.7040027970699
 20
619.7053740558337
 30
0.0
 50
39.35329139206362
  0
INSERT
  5
18AF
330
1877
100
AcDbEntity
  8
0
  6
Continuous
 62
     7
440
 16777216
370
    -2
100
AcDbBlockReference
  2
_DOT
 10
561.7970058412302
 20
622.2417754769036
 30
0.0
 50
219.3532913920636
  0
POINT
  5
18B0
330
1877
100
AcDbEntity
  8
Defpoints
  6
Continuous
 62
     0
440
 16777216
100
AcDbPoint
 10
561.7970058412302
 20
622.2417754769036
 30
0.0
  0
POINT
  5
18B1
330
1877
100
AcDbEntity
  8
Defpoints
  6
Continuous
 62
     0
440
 16777216
100
AcDbPoint
 10
558.7040027970699
 20
619.7053740558337
 30
0.0
  0
ENDBLK
  5
1879
330
1877
100
AcDbEntity
  8
0
100
AcDbBlockEnd
  0
BLOCK
  5
18B7
330
18B6
100
AcDbEntity
  8
0
100
AcDbBlockBegin
  2
*D25
 70
     1
 10
0.0
 20
0.0
 30
0.0
  3
*D25
  1

  0
LINE
  5
18C1
330
18B6
100
AcDbEntity
  8
0
  6
Continuous
 62
     7
440
 16777216
370
    -2
100
AcDbLine
 10
568.7562626905927
 20
330.9486786743128
 30
0.0
 11
562.5702566022704
 21
325.8758758321714
 31
0.0
  0
LINE
  5
18C2
330
18B6
100
AcDbEntity
  8
0
  6
Continuous
 62
     7
440
 16777216
370
    -2
100
AcDbLine
 10
557.9307520360297
 20
322.0712737005662
 30
0.0
 11
557.1575012749895
 21
321.4371733452984
 31
0.0
  0
MTEXT
  5
18C3
330
18B6
100
AcDbEntity
  8
0
  6
Continuous
 62
     7
440
 16777216
370
    15
100
AcDbMText
 10
564.4646341387825
 20
330.6624543334766
 30
0.0
 40
3.0
 41
0.0
 46
0.0
 71
     5
 72
     1
  1
\A1;%%c4
  7
GMM001
 11
0.7732507610402976
 21
0.6341003552676821
 31
0.0
 73
     1
 44
1.0
  0
LINE
  5
18C4
330
18B6
100
AcDbEntity
  8
0
  6
Continuous
 62
     7
440
 16777216
370
    -2
100
AcDbLine
 10
558.70400279707
 20
322.7053740558339
 30
0.0
 11
561.7970058412301
 21
325.2417754769036
 31
0.0
  0
INSERT
  5
18C5
330
18B6
100
AcDbEntity
  8
0
  6
Continuous
 62
     7
440
 16777216
370
    -2
100
AcDbBlockReference
  2
_DOT
 10
558.70400279707
 20
322.7053740558339
 30
0.0
 50
39.35329139206362
  0
INSERT
  5
18C6
330
18B6
100
AcDbEntity
  8
0
  6
Continuous
 62
     7
440
 16777216
370
    -2
100
AcDbBlockReference
  2
_DOT
 10
561.7970058412301
 20
325.2417754769036
 30
0.0
 50
219.3532913920636
  0
POINT
  5
18C7
330
18B6
100
AcDbEntity
  8
Defpoints
  6
Continuous
 62
     0
440
 16777216
100
AcDbPoint
 10
561.7970058412301
 20
325.2417754769036
 30
0.0
  0
POINT
  5
18C8
330
18B6
100
AcDbEntity
  8
Defpoints
  6
Continuous
 62
     0
440
 16777216
100
AcDbPoint
 10
558.70400279707
 20
322.7053740558339
 30
0.0
  0
ENDBLK
  5
18B8
330
18B6
100
AcDbEntity
  8
0
100
AcDbBlockEnd
  0
BLOCK
  5
18CE
330
18CD
100
AcDbEntity
  8
0
100
AcDbBlockBegin
  2
*D26
 70
     1
 10
0.0
 20
0.0
 30
0.0
  3
*D26
  1

  0
LINE
  5
18D8
330
18CD
100
AcDbEntity
  8
0
  6
Continuous
 62
     7
440
 16777216
370
    -2
100
AcDbLine
 10
568.7562626905928
 20
45.94867867431477
 30
0.0
 11
562.5702566022704
 21
40.8758758321733
 31
0.0
  0
LINE
  5
18D9
330
18CD
100
AcDbEntity
  8
0
  6
Continuous
 62
     7
440
 16777216
370
    -2
100
AcDbLine
 10
557.9307520360297
 20
37.07127370056813
 30
0.0
 11
557.1575012749893
 21
36.43717334530041
 31
0.0
  0
MTEXT
  5
18DA
330
18CD
100
AcDbEntity
  8
0
  6
Continuous
 62
     7
440
 16777216
370
    15
100
AcDbMText
 10
564.4646341387825
 20
45.66245433347861
 30
0.0
 40
3.0
 41
0.0
 46
0.0
 71
     5
 72
     1
  1
\A1;%%c4
  7
GMM001
 11
0.7732507610402976
 21
0.6341003552676821
 31
0.0
 73
     1
 44
1.0
  0
LINE
  5
18DB
330
18CD
100
AcDbEntity
  8
0
  6
Continuous
 62
     7
440
 16777216
370
    -2
100
AcDbLine
 10
558.7040027970699
 20
37.70537405583579
 30
0.0
 11
561.7970058412301
 21
40.24177547690564
 31
0.0
  0
INSERT
  5
18DC
330
18CD
100
AcDbEntity
  8
0
  6
Continuous
 62
     7
440
 16777216
370
    -2
100
AcDbBlockReference
  2
_DOT
 10
558.7040027970699
 20
37.70537405583579
 30
0.0
 50
39.35329139206362
  0
INSERT
  5
18DD
330
18CD
100
AcDbEntity
  8
0
  6
Continuous
 62
     7
440
 16777216
370
    -2
100
AcDbBlockReference
  2
_DOT
 10
561.7970058412301
 20
40.24177547690564
 30
0.0
 50
219.3532913920636
  0
POINT
  5
18DE
330
18CD
100
AcDbEntity
  8
Defpoints
  6
Continuous
 62
     0
440
 16777216
100
AcDbPoint
 10
561.7970058412301
 20
40.24177547690564
 30
0.0
  0
POINT
  5
18DF
330
18CD
100
AcDbEntity
  8
Defpoints
  6
Continuous
 62
     0
440
 16777216
100
AcDbPoint
 10
558.7040027970699
 20
37.70537405583579
 30
0.0
  0
ENDBLK
  5
18CF
330
18CD
100
AcDbEntity
  8
0
100
AcDbBlockEnd
  0
BLOCK
  5
18F3
330
18F2
100
AcDbEntity
  8
0
100
AcDbBlockBegin
  2
*D27
 70
     1
 10
0.0
 20
0.0
 30
0.0
  3
*D27
  1

  0
LINE
  5
1913
330
18F2
100
AcDbEntity
  8
0
  6
Continuous
 62
     7
440
 16777216
370
    -2
100
AcDbLine
 10
53.52498020387208
 20
627.9486786743127
 30
0.0
 11
47.33897411554972
 21
622.8758758321712
 31
0.0
  0
LINE
  5
1914
330
18F2
100
AcDbEntity
  8
0
  6
Continuous
 62
     7
440
 16777216
370
    -2
100
AcDbLine
 10
42.69946954930901
 20
619.071273700566
 30
0.0
 11
41.92621878826867
 21
618.4371733452983
 31
0.0
  0
MTEXT
  5
1915
330
18F2
100
AcDbEntity
  8
0
  6
Continuous
 62
     7
440
 16777216
370
    15
100
AcDbMText
 10
49.2333516520618
 20
627.6624543334766
 30
0.0
 40
3.0
 41
0.0
 46
0.0
 71
     5
 72
     1
  1
\A1;%%c4
  7
GMM001
 11
0.7732507610402976
 21
0.6341003552676821
 31
0.0
 73
     1
 44
1.0
  0
LINE
  5
1916
330
18F2
100
AcDbEntity
  8
0
  6
Continuous
 62
     7
440
 16777216
370
    -2
100
AcDbLine
 10
43.4727203103493
 20
619.7053740558337
 30
0.0
 11
46.56572335450943
 21
622.2417754769034
 31
0.0
  0
INSERT
  5
1917
330
18F2
100
AcDbEntity
  8
0
  6
Continuous
 62
     7
440
 16777216
370
    -2
100
AcDbBlockReference
  2
_DOT
 10
43.4727203103493
 20
619.7053740558337
 30
0.0
 50
39.35329139206362
  0
INSERT
  5
1918
330
18F2
100
AcDbEntity
  8
0
  6
Continuous
 62
     7
440
 16777216
370
    -2
100
AcDbBlockReference
  2
_DOT
 10
46.56572335450943
 20
622.2417754769034
 30
0.0
 50
219.3532913920636
  0
POINT
  5
1919
330
18F2
100
AcDbEntity
  8
Defpoints
  6
Continuous
 62
     0
440
 16777216
100
AcDbPoint
 10
46.56572335450943
 20
622.2417754769034
 30
0.0
  0
POINT
  5
191A
330
18F2
100
AcDbEntity
  8
Defpoints
  6
Continuous
 62
     0
440
 16777216
100
AcDbPoint
 10
43.4727203103493
 20
619.7053740558337
 30
0.0
  0
ENDBLK
  5
18F4
330
18F2
100
AcDbEntity
  8
0
100
AcDbBlockEnd
  0
BLOCK
  5
18FE
330
18FD
100
AcDbEntity
  8
0
100
AcDbBlockBegin
  2
*D28
 70
     1
 10
0.0
 20
0.0
 30
0.0
  3
*D28
  1

  0
LINE
  5
194F
330
18FD
100
AcDbEntity
  8
0
  6
Continuous
 62
     7
440
 16777216
370
    -2
100
AcDbLine
 10
53.52498020387196
 20
33.94867867431273
 30
0.0
 11
47.33897411554955
 21
28.87587583217131
 31
0.0
  0
LINE
  5
1950
330
18FD
100
AcDbEntity
  8
0
  6
Continuous
 62
     7
440
 16777216
370
    -2
100
AcDbLine
 10
42.69946954930894
 20
25.07127370056621
 30
0.0
 11
41.92621878826864
 21
24.43717334529853
 31
0.0
  0
MTEXT
  5
1951
330
18FD
100
AcDbEntity
  8
0
  6
Continuous
 62
     7
440
 16777216
370
    15
100
AcDbMText
 10
49.23335165206171
 20
33.66245433347661
 30
0.0
 40
3.0
 41
0.0
 46
0.0
 71
     5
 72
     1
  1
\A1;%%c4
  7
GMM001
 11
0.7732507610403005
 21
0.6341003552676786
 31
0.0
 73
     1
 44
1.0
  0
LINE
  5
1952
330
18FD
100
AcDbEntity
  8
0
  6
Continuous
 62
     7
440
 16777216
370
    -2
100
AcDbLine
 10
43.47272031034924
 20
25.70537405583389
 30
0.0
 11
46.56572335450926
 21
28.24177547690363
 31
0.0
  0
INSERT
  5
1953
330
18FD
100
AcDbEntity
  8
0
  6
Continuous
 62
     7
440
 16777216
370
    -2
100
AcDbBlockReference
  2
_DOT
 10
43.47272031034924
 20
25.70537405583389
 30
0.0
 50
39.35329139206338
  0
INSERT
  5
1954
330
18FD
100
AcDbEntity
  8
0
  6
Continuous
 62
     7
440
 16777216
370
    -2
100
AcDbBlockReference
  2
_DOT
 10
46.56572335450926
 20
28.24177547690363
 30
0.0
 50
219.3532913920634
  0
POINT
  5
1955
330
18FD
100
AcDbEntity
  8
Defpoints
  6
Continuous
 62
     0
440
 16777216
100
AcDbPoint
 10
46.56572335450926
 20
28.24177547690363
 30
0.0
  0
POINT
  5
1956
330
18FD
100
AcDbEntity
  8
Defpoints
  6
Continuous
 62
     0
440
 16777216
100
AcDbPoint
 10
43.47272031034924
 20
25.70537405583389
 30
0.0
  0
ENDBLK
  5
18FF
330
18FD
100
AcDbEntity
  8
0
100
AcDbBlockEnd
  0
BLOCK
  5
1909
330
1908
100
AcDbEntity
  8
0
100
AcDbBlockBegin
  2
*D29
 70
     1
 10
0.0
 20
0.0
 30
0.0
  3
*D29
  1

  0
LINE
  5
1923
330
1908
100
AcDbEntity
  8
0
  6
Continuous
 62
     7
440
 16777216
370
    -2
100
AcDbLine
 10
53.52498020387193
 20
45.94867867431477
 30
0.0
 11
47.33897411554955
 21
40.87587583217333
 31
0.0
  0
LINE
  5
1924
330
1908
100
AcDbEntity
  8
0
  6
Continuous
 62
     7
440
 16777216
370
    -2
100
AcDbLine
 10
42.69946954930882
 20
37.0712737005681
 30
0.0
 11
41.92621878826853
 21
36.43717334530042
 31
0.0
  0
MTEXT
  5
1925
330
1908
100
AcDbEntity
  8
0
  6
Continuous
 62
     7
440
 16777216
370
    15
100
AcDbMText
 10
49.23335165206168
 20
45.66245433347862
 30
0.0
 40
3.0
 41
0.0
 46
0.0
 71
     5
 72
     1
  1
\A1;%%c4
  7
GMM001
 11
0.7732507610402976
 21
0.6341003552676821
 31
0.0
 73
     1
 44
1.0
  0
LINE
  5
1926
330
1908
100
AcDbEntity
  8
0
  6
Continuous
 62
     7
440
 16777216
370
    -2
100
AcDbLine
 10
43.47272031034912
 20
37.70537405583578
 30
0.0
 11
46.56572335450926
 21
40.24177547690564
 31
0.0
  0
INSERT
  5
1927
330
1908
100
AcDbEntity
  8
0
  6
Continuous
 62
     7
440
 16777216
370
    -2
100
AcDbBlockReference
  2
_DOT
 10
43.47272031034912
 20
37.70537405583578
 30
0.0
 50
39.35329139206362
  0
INSERT
  5
1928
330
1908
100
AcDbEntity
  8
0
  6
Continuous
 62
     7
440
 16777216
370
    -2
100
AcDbBlockReference
  2
_DOT
 10
46.56572335450926
 20
40.24177547690564
 30
0.0
 50
219.3532913920636
  0
POINT
  5
1929
330
1908
100
AcDbEntity
  8
Defpoints
  6
Continuous
 62
     0
440
 16777216
100
AcDbPoint
 10
46.56572335450926
 20
40.24177547690564
 30
0.0
  0
POINT
  5
192A
330
1908
100
AcDbEntity
  8
Defpoints
  6
Continuous
 62
     0
440
 16777216
100
AcDbPoint
 10
43.47272031034912
 20
37.70537405583578
 30
0.0
  0
ENDBLK
  5
190A
330
1908
100
AcDbEntity
  8
0
100
AcDbBlockEnd
  0
ENDSEC
  0
SECTION
  2
ENTITIES
  0
TEXT
  5
1E1
330
A
100
AcDbEntity
  8
LEVEL001
 62
     7
100
AcDbText
 10
326.40000000003
 20
16.375
 30
0.0
 40
3.75
  1
Ａ３
 41
0.8
 72
     1
 11
329.50000000003
 21
18.25
 31
0.0
100
AcDbText
 73
     2
  0
LWPOLYLINE
  5
1E4
330
A
100
AcDbEntity
  8
LEVEL001
  6
Continuous
 62
     3
370
    40
100
AcDbPolyline
 90
        5
 70
     0
 43
0.0
 10
15.500000000027
 20
12.0
 10
404.50000000003
 20
12.0
 10
404.50000000003
 20
285.0
 10
15.500000000027
 20
285.0
 10
15.500000000027
 20
12.0
  0
LINE
  5
1EB
330
A
100
AcDbEntity
  8
LEVEL001
  6
Continuous
 62
     3
370
    40
100
AcDbLine
 10
304.50000000003
 20
285.0
 30
0.0
 11
304.50000000003
 21
12.0
 31
0.0
  0
LINE
  5
288
330
A
100
AcDbEntity
  8
LEVEL001
  6
Continuous
 62
     3
100
AcDbLine
 10
304.50000000003
 20
256.75
 30
0.0
 11
404.50000000003
 21
256.75
 31
0.0
  0
LINE
  5
289
330
A
100
AcDbEntity
  8
LEVEL001
  6
Continuous
 62
     3
100
AcDbLine
 10
304.50000000003
 20
236.75
 30
0.0
 11
404.50000000003
 21
236.75
 31
0.0
  0
LINE
  5
28A
330
A
100
AcDbEntity
  8
LEVEL001
  6
Continuous
 62
     3
100
AcDbLine
 10
304.50000000003
 20
216.75
 30
0.0
 11
404.50000000003
 21
216.75
 31
0.0
  0
TEXT
  5
28B
330
A
100
AcDbEntity
  8
LEVEL001
 62
     3
100
AcDbText
 10
305.84000000003
 20
251.5
 30
0.0
 40
3.0
  1
商品名：
 41
0.8
 72
     1
 11
310.80000000003
 21
253.0
 31
0.0
100
AcDbText
 73
     2
  0
TEXT
  5
28C
330
A
100
AcDbEntity
  8
LEVEL001
 62
     3
100
AcDbText
 10
305.78000000003
 20
231.5
 30
0.0
 40
3.0
  1
形式：
 41
0.8
 72
     1
 11
309.30000000003
 21
233.0
 31
0.0
100
AcDbText
 73
     2
  0
TEXT
  5
28D
330
A
100
AcDbEntity
  8
LEVEL001
 62
     3
100
AcDbText
 10
305.78000000003
 20
211.5
 30
0.0
 40
3.0
  1
仕様：
 41
0.8
 72
     1
 11
309.30000000003
 21
213.0
 31
0.0
100
AcDbText
 73
     2
  0
LINE
  5
28E
330
A
100
AcDbEntity
  8
LEVEL001
  6
Continuous
 62
     3
100
AcDbLine
 10
304.50000000003
 20
72.0
 30
0.0
 11
404.50000000003
 21
72.0
 31
0.0
  0
TEXT
  5
28F
330
A
100
AcDbEntity
  8
LEVEL001
 62
     3
100
AcDbText
 10
305.82000000003
 20
66.75
 30
0.0
 40
3.0
  1
図面名称：
 41
0.8
 72
     1
 11
312.30000000003
 21
68.25
 31
0.0
100
AcDbText
 73
     2
  0
LINE
  5
290
330
A
100
AcDbEntity
  8
LEVEL001
  6
Continuous
 62
     3
100
AcDbLine
 10
304.50000000003
 20
52.0
 30
0.0
 11
404.50000000003
 21
52.0
 31
0.0
  0
TEXT
  5
291
330
A
100
AcDbEntity
  8
LEVEL001
 62
     3
100
AcDbText
 10
305.78000000003
 20
46.74999999999999
 30
0.0
 40
3.0
  1
縮尺：
 41
0.8
 72
     1
 11
309.30000000003
 21
48.25
 31
0.0
100
AcDbText
 73
     2
  0
LINE
  5
292
330
A
100
AcDbEntity
  8
LEVEL001
  6
Continuous
 62
     3
100
AcDbLine
 10
304.50000000003
 20
32.0
 30
0.0
 11
404.50000000003
 21
32.0
 31
0.0
  0
TEXT
  5
293
330
A
100
AcDbEntity
  8
LEVEL001
 62
     3
100
AcDbText
 10
305.9600000000301
 20
27.22153522862999
 30
0.0
 40
3.0
  1
用紙サイズ：
 41
0.8
 72
     1
 11
313.80000000003
 21
28.72153522862999
 31
0.0
100
AcDbText
 73
     2
  0
TEXT
  5
294
330
A
100
AcDbEntity
  8
LEVEL001
 62
     3
100
AcDbText
 10
356.3266666666967
 20
47.26666666666998
 30
0.0
 40
2.799999999999999
  1
作成日付：
 41
0.8
 72
     1
 11
362.30000000003
 21
48.66666666666998
 31
0.0
100
AcDbText
 73
     2
  0
TEXT
  5
295
330
A
100
AcDbEntity
  8
LEVEL001
 62
     3
100
AcDbText
 10
356.3266666666967
 20
40.6
 30
0.0
 40
2.799999999999999
  1
変更日付：
 41
0.8
 72
     1
 11
362.30000000003
 21
42.0
 31
0.0
100
AcDbText
 73
     2
  0
LINE
  5
296
330
A
100
AcDbEntity
  8
LEVEL001
  6
Continuous
 62
     3
100
AcDbLine
 10
354.50000000003
 20
45.33333333334002
 30
0.0
 11
404.50000000003
 21
45.33333333334002
 31
0.0
  0
TEXT
  5
297
330
A
100
AcDbEntity
  8
LEVEL001
 62
     3
100
AcDbText
 10
355.88000000003
 20
26.75
 30
0.0
 40
3.0
  1
ファイル名：
 41
0.8
 72
     1
 11
363.80000000003
 21
28.25
 31
0.0
100
AcDbText
 73
     2
  0
LINE
  5
298
330
A
100
AcDbEntity
  8
LEVEL001
  6
Continuous
 62
     3
100
AcDbLine
 10
354.50000000003
 20
52.0
 30
0.0
 11
354.50000000003
 21
12.0
 31
0.0
  0
LINE
  5
299
330
A
100
AcDbEntity
  8
LEVEL001
  6
Continuous
 62
     3
100
AcDbLine
 10
354.50000000003
 20
38.66666666666998
 30
0.0
 11
404.50000000003
 21
38.66666666666998
 31
0.0
  0
TEXT
  5
29A
330
A
100
AcDbEntity
  8
LEVEL001
 62
     7
100
AcDbText
 10
321.30000000003
 20
36.375
 30
0.0
 40
3.75
  1
Ｓ＝１：１　
 41
0.8
 72
     1
 11
329.50000000003
 21
38.25
 31
0.0
100
AcDbText
 73
     2
  0
LWPOLYLINE
  5
29B
330
A
100
AcDbEntity
  8
0
  6
DOT
 62
     3
100
AcDbPolyline
 90
        5
 70
     0
 43
0.0
 10
0.0
 20
0.0
 10
420.0
 20
0.0
 10
420.0
 20
297.0
 10
0.0
 20
297.0
 10
0.0
 20
0.0
  0
TEXT
  5
2A3
330
A
100
AcDbEntity
  8
LEVEL001
 62
     7
100
AcDbText
 10
343.40000000003
 20
56.375
 30
0.0
 40
3.75
  1
平面図･断面図
 41
0.8
 72
     1
 11
354.50000000003
 21
58.25
 31
0.0
100
AcDbText
 73
     2
  0
TEXT
  5
2A4
330
A
100
AcDbEntity
  8
LEVEL001
 62
     8
100
AcDbText
 10
320.33487664471
 20
240.45460526316
 30
0.0
 40
4.5
  1
コーナープロテクター(硬質タイプ)
 41
0.8
 72
     1
 11
354.77487664471
 21
242.70460526316
 31
0.0
100
AcDbText
 73
     2
  0
TEXT
  5
2A5
330
A
100
AcDbEntity
  8
LEVEL001
 62
     7
100
AcDbText
 10
371.85508456083
 20
47.16666666666998
 30
0.0
 40
3.0
  1
平成２６年１０月３１日
 41
0.8
 72
     1
 11
387.21508456083
 21
48.66666666666998
 31
0.0
100
AcDbText
 73
     2
  0
TEXT
  5
2A6
330
A
100
AcDbEntity
  8
LEVEL001
 62
     7
100
AcDbText
 10
370.90000000003
 20
16.375
 30
0.0
 40
3.75
  1
ＣＰＶ－２
 41
0.8
 72
     1
 11
379.50000000003
 21
18.25
 31
0.0
100
AcDbText
 73
     2
  0
TEXT
  5
2AA
330
A
100
AcDbEntity
  8
LEVEL001
 62
     8
100
AcDbText
 10
314.50000000003
 20
192.75
 30
0.0
 40
3.0
  1
              
 41
0.5
100
AcDbText
  0
TEXT
  5
2B2
330
A
100
AcDbEntity
  8
LEVEL001
 62
     8
100
AcDbText
 10
314.50000000003
 20
160.75
 30
0.0
 40
3.0
  1

 41
0.5
100
AcDbText
  0
TEXT
  5
2B6
330
A
100
AcDbEntity
  8
LEVEL001
 62
     8
100
AcDbText
 10
314.50000000003
 20
204.75
 30
0.0
 40
3.0
  1
●ＣＰＶ５０－１３／ＣＰＶ５０－１３Ｍ(１３５%%D用)
 41
0.8
100
AcDbText
  0
TEXT
  5
2B7
330
A
100
AcDbEntity
  8
LEVEL001
 62
     8
100
AcDbText
 10
314.50000000003
 20
200.75
 30
0.0
 40
3.0
  1
　材質：本体－特殊樹脂
 41
0.8
100
AcDbText
  0
TEXT
  5
2B8
330
A
100
AcDbEntity
  8
LEVEL001
 62
     8
100
AcDbText
 10
314.50000000003
 20
196.75
 30
0.0
 40
3.0
  1
　　　　芯材－アルミ
 41
0.8
100
AcDbText
  0
TEXT
  5
2B9
330
A
100
AcDbEntity
  8
LEVEL001
 62
     8
100
AcDbText
 10
314.50000000003
 20
489.7499999999999
 30
0.0
 40
3.0
  1
              
 41
0.5
100
AcDbText
  0
TEXT
  5
2BA
330
A
100
AcDbEntity
  8
LEVEL001
 62
     8
100
AcDbText
 10
314.50000000003
 20
188.75
 30
0.0
 40
3.0
  1
　長さ：３０００m/m
 41
0.8
100
AcDbText
  0
TEXT
  5
2C0
330
A
100
AcDbEntity
  8
LEVEL001
 62
     8
100
AcDbText
 10
314.50000000003
 20
461.7499999999999
 30
0.0
 40
3.0
  1
　　　　　
100
AcDbText
  0
TEXT
  5
2C1
330
A
100
AcDbEntity
  8
LEVEL001
 62
     8
100
AcDbText
 10
314.50000000003
 20
457.7499999999999
 30
0.0
 40
3.0
  1

 41
0.5
100
AcDbText
  0
TEXT
  5
2C2
330
A
100
AcDbEntity
  8
LEVEL001
 62
     8
100
AcDbText
 10
314.50000000003
 20
156.75
 30
0.0
 40
3.0
  1
●ＣＰ５０１３／ＣＰ５０１３Ｍ(キャップ)
 41
0.8
100
AcDbText
  0
TEXT
  5
2C3
330
A
100
AcDbEntity
  8
LEVEL001
 62
     8
100
AcDbText
 10
314.50000000003
 20
152.75
 30
0.0
 40
3.0
  1
　材質：特殊樹脂
 41
0.8
100
AcDbText
  0
TEXT
  5
2C4
330
A
100
AcDbEntity
  8
LEVEL001
 62
     8
100
AcDbText
 10
314.50000000003
 20
148.75
 30
0.0
 40
3.0
  1
　適応：ＣＰＶ５０－１３用
 41
0.8
100
AcDbText
  0
LINE
  5
2C5
330
A
100
AcDbEntity
  8
LEVEL002
  6
Continuous
 62
     3
370
    30
100
AcDbLine
 10
191.72754772872
 20
227.31126416803
 30
0.0
 11
179.72754772872
 21
227.31126416803
 31
0.0
  0
ARC
  5
2C6
330
A
100
AcDbEntity
  8
LEVEL002
  6
Continuous
 62
     3
370
    30
100
AcDbCircle
 10
171.22754772872
 20
197.90930491677
 30
0.0
 40
1.5
100
AcDbArc
 50
180.0000000000098
 51
266.0000000001099
  0
LINE
  5
2C7
330
A
100
AcDbEntity
  8
LEVEL002
  6
Continuous
 62
     3
370
    30
100
AcDbLine
 10
179.72754772872
 20
195.81126416813
 30
0.0
 11
171.1229130181
 21
196.4129588413799
 31
0.0
  0
LINE
  5
2C8
330
A
100
AcDbEntity
  8
LEVEL002
  6
Continuous
 62
     3
370
    30
100
AcDbLine
 10
191.72754772872
 20
227.31126416803
 30
0.0
 11
191.72754772872
 21
211.31126416803
 31
0.0
  0
LINE
  5
2C9
330
A
100
AcDbEntity
  8
LEVEL002
  6
Continuous
 62
     3
370
    30
100
AcDbLine
 10
191.72754772872
 20
211.31126416803
 30
0.0
 11
179.72754772872
 21
211.31126416803
 31
0.0
  0
LINE
  5
2CA
330
A
100
AcDbEntity
  8
LEVEL002
  6
Continuous
 62
     3
370
    30
100
AcDbLine
 10
191.72754772872
 20
215.3112641681401
 30
0.0
 11
179.72754772872
 21
215.3112641681401
 31
0.0
  0
LINE
  5
2CB
330
A
100
AcDbEntity
  8
LEVEL002
  6
Continuous
 62
     3
370
    30
100
AcDbLine
 10
191.72754772872
 20
223.3112641681401
 30
0.0
 11
179.72754772872
 21
223.3112641681401
 31
0.0
  0
LINE
  5
2CC
330
A
100
AcDbEntity
  8
LEVEL002
  6
Continuous
 62
     3
370
    30
100
AcDbLine
 10
191.72754772872
 20
216.31126416802
 30
0.0
 11
179.72754772872
 21
216.31126416802
 31
0.0
  0
LINE
  5
2CD
330
A
100
AcDbEntity
  8
LEVEL002
  6
Continuous
 62
     3
370
    30
100
AcDbLine
 10
191.72754772872
 20
222.31126416802
 30
0.0
 11
179.72754772872
 21
222.31126416802
 31
0.0
  0
LINE
  5
2CE
330
A
100
AcDbEntity
  8
LEVEL002
  6
Continuous
 62
     3
370
    30
100
AcDbLine
 10
191.72754772872
 20
241.4901677499799
 30
0.0
 11
179.72754772872
 21
241.4901677499799
 31
0.0
  0
LINE
  5
2CF
330
A
100
AcDbEntity
  8
LEVEL002
  6
Continuous
 62
     3
370
    30
100
AcDbLine
 10
179.72754772872
 20
282.26490396409
 30
0.0
 11
179.72754772872
 21
195.81126416814
 31
0.0
  0
LINE
  5
2D0
330
A
100
AcDbEntity
  8
LEVEL002
  6
Continuous
 62
     3
370
    30
100
AcDbLine
 10
169.72754772872
 20
197.90930491677
 30
0.0
 11
169.72754772872
 21
280.16686321545
 31
0.0
  0
ARC
  5
2D1
330
A
100
AcDbEntity
  8
LEVEL002
  6
Continuous
 62
     3
370
    30
100
AcDbCircle
 10
171.22754772872
 20
280.16686321545
 30
0.0
 40
1.5
100
AcDbArc
 50
94.00000000001691
 51
180.0000000002312
  0
LINE
  5
2D2
330
A
100
AcDbEntity
  8
LEVEL002
  6
Continuous
 62
     3
370
    30
100
AcDbLine
 10
171.1229130181
 20
281.66320929084
 30
0.0
 11
179.72754772872
 21
282.26490396409
 31
0.0
  0
LINE
  5
2D3
330
A
100
AcDbEntity
  8
LEVEL002
  6
Continuous
 62
     3
370
    30
100
AcDbLine
 10
191.72754772872
 20
250.0005753901401
 30
0.0
 11
179.72754772872
 21
250.0005753901401
 31
0.0
  0
LINE
  5
2D4
330
A
100
AcDbEntity
  8
LEVEL002
  6
Continuous
 62
     3
370
    30
100
AcDbLine
 10
191.72754772872
 20
250.0005753901401
 30
0.0
 11
191.72754772872
 21
241.4901677499799
 31
0.0
  0
LINE
  5
2D5
330
A
100
AcDbEntity
  8
LEVEL002
  6
Continuous
 62
     3
370
    30
100
AcDbLine
 10
191.72754772872
 20
256.84459374747
 30
0.0
 11
179.72754772872
 21
256.84459374747
 31
0.0
  0
LINE
  5
2D6
330
A
100
AcDbEntity
  8
LEVEL002
  6
Continuous
 62
     3
370
    30
100
AcDbLine
 10
191.72754772872
 20
258.25880730984
 30
0.0
 11
179.72754772872
 21
258.25880730984
 31
0.0
  0
LINE
  5
2D7
330
A
100
AcDbEntity
  8
LEVEL002
  6
Continuous
 62
     3
370
    30
100
AcDbLine
 10
191.72754772872
 20
261.0872344345899
 30
0.0
 11
179.72754772872
 21
261.0872344345899
 31
0.0
  0
LINE
  5
2D8
330
A
100
AcDbEntity
  8
LEVEL002
  6
Continuous
 62
     3
370
    30
100
AcDbLine
 10
191.72754772872
 20
266.74408868407
 30
0.0
 11
179.72754772872
 21
266.74408868407
 31
0.0
  0
LINE
  5
2D9
330
A
100
AcDbEntity
  8
LEVEL002
  6
Continuous
 62
     3
370
    30
100
AcDbLine
 10
191.72754772872
 20
269.5725158088099
 30
0.0
 11
179.72754772872
 21
269.5725158088099
 31
0.0
  0
LINE
  5
2DA
330
A
100
AcDbEntity
  8
LEVEL002
  6
Continuous
 62
     3
370
    30
100
AcDbLine
 10
191.72754772872
 20
267.8047488558
 30
0.0
 11
179.72754772872
 21
267.8047488558
 31
0.0
  0
LINE
  5
2DB
330
A
100
AcDbEntity
  8
LEVEL002
  6
Continuous
 62
     3
370
    30
100
AcDbLine
 10
191.72754772872
 20
263.5621081686799
 30
0.0
 11
179.72754772872
 21
263.5621081686799
 31
0.0
  0
LINE
  5
2DC
330
A
100
AcDbEntity
  8
LEVEL002
  6
Continuous
 62
     3
370
    30
100
AcDbLine
 10
191.72754772872
 20
269.5725158088099
 30
0.0
 11
191.72754772872
 21
256.84459374747
 31
0.0
  0
LINE
  5
2DD
330
A
100
AcDbEntity
  8
LEVEL002
  6
Continuous
 62
     3
370
    30
100
AcDbLine
 10
224.21742107193
 20
199.31126416815
 30
0.0
 11
224.21742107199
 21
243.9901677499999
 31
0.0
  0
LINE
  5
2DE
330
A
100
AcDbEntity
  8
LEVEL002
  6
Continuous
 62
     3
370
    30
100
AcDbLine
 10
226.21742107193
 20
199.3112641681399
 30
0.0
 11
226.21742107199
 21
243.9901677499999
 31
0.0
  0
ARC
  5
2DF
330
A
100
AcDbEntity
  8
LEVEL002
  6
Continuous
 62
     3
370
    30
100
AcDbCircle
 10
227.71742107193
 20
199.3112641681399
 30
0.0
 40
3.5
100
AcDbArc
 50
179.9999999999088
 51
303.6833333299603
  0
ARC
  5
2E0
330
A
100
AcDbEntity
  8
LEVEL002
  6
Continuous
 62
     3
370
    30
100
AcDbCircle
 10
227.71742107194
 20
199.3112641681399
 30
0.0
 40
1.5
100
AcDbArc
 50
180.00000000014
 51
303.6833333296499
  0
LINE
  5
2E1
330
A
100
AcDbEntity
  8
LEVEL002
  6
Continuous
 62
     3
370
    30
100
AcDbLine
 10
228.54932466935
 20
198.06309094115
 30
0.0
 11
230.71742107193
 21
199.50812049142
 31
0.0
  0
LINE
  5
2E2
330
A
100
AcDbEntity
  8
LEVEL002
  6
Continuous
 62
     3
370
    30
100
AcDbLine
 10
229.65852946592
 20
196.39885997182
 30
0.0
 11
232.21742107193
 21
198.10435331714
 31
0.0
  0
LINE
  5
2E3
330
A
100
AcDbEntity
  8
LEVEL002
  6
Continuous
 62
     3
370
    30
100
AcDbLine
 10
232.21742107193
 20
198.10435331714
 30
0.0
 11
232.21742107199
 21
243.99016774993
 31
0.0
  0
LINE
  5
2E4
330
A
100
AcDbEntity
  8
LEVEL002
  6
Continuous
 62
     3
370
    30
100
AcDbLine
 10
230.71742107193
 20
199.50812049142
 30
0.0
 11
230.71742107199
 21
244.61148809372
 31
0.0
  0
LINE
  5
2E5
330
A
100
AcDbEntity
  8
LEVEL002
  6
Continuous
 62
     3
370
    30
100
AcDbLine
 10
228.71742107187
 20
215.31126416802
 30
0.0
 11
228.71742107187
 21
211.31126416802
 31
0.0
  0
LINE
  5
2E6
330
A
100
AcDbEntity
  8
LEVEL002
  6
Continuous
 62
     3
370
    30
100
AcDbLine
 10
228.71742107187
 20
211.31126416802
 30
0.0
 11
230.71742107187
 21
211.31126416802
 31
0.0
  0
LINE
  5
2E7
330
A
100
AcDbEntity
  8
LEVEL002
  6
Continuous
 62
     3
370
    30
100
AcDbLine
 10
226.21742107195
 20
216.31126416802
 30
0.0
 11
228.71742107187
 21
215.31126416802
 31
0.0
  0
LINE
  5
2E8
330
A
100
AcDbEntity
  8
LEVEL002
  6
Continuous
 62
     3
370
    30
100
AcDbLine
 10
228.21742107187
 20
217.66533009089
 30
0.0
 11
230.71742107195
 21
216.66533009082
 31
0.0
  0
LINE
  5
2E9
330
A
100
AcDbEntity
  8
LEVEL002
  6
Continuous
 62
     3
370
    30
100
AcDbLine
 10
228.21742107187
 20
220.95719824515
 30
0.0
 11
228.21742107187
 21
217.66533009089
 31
0.0
  0
LINE
  5
2EA
330
A
100
AcDbEntity
  8
LEVEL002
  6
Continuous
 62
     3
370
    30
100
AcDbLine
 10
228.71742107188
 20
227.31126416802
 30
0.0
 11
228.71742107188
 21
223.31126416802
 31
0.0
  0
LINE
  5
2EB
330
A
100
AcDbEntity
  8
LEVEL002
  6
Continuous
 62
     3
370
    30
100
AcDbLine
 10
228.71742107188
 20
227.31126416802
 30
0.0
 11
230.71742107188
 21
227.31126416802
 31
0.0
  0
LINE
  5
2EC
330
A
100
AcDbEntity
  8
LEVEL002
  6
Continuous
 62
     3
370
    30
100
AcDbLine
 10
226.21742107196
 20
222.31126416802
 30
0.0
 11
228.71742107188
 21
223.31126416802
 31
0.0
  0
LINE
  5
2ED
330
A
100
AcDbEntity
  8
LEVEL002
  6
Continuous
 62
     3
370
    30
100
AcDbLine
 10
228.21742107187
 20
220.95719824515
 30
0.0
 11
230.71742107196
 21
221.9571982452099
 31
0.0
  0
ARC
  5
2EE
330
A
100
AcDbEntity
  8
LEVEL002
  6
Continuous
 62
     3
370
    30
100
AcDbCircle
 10
232.21742107194
 20
243.99016775012
 30
0.0
 40
6.0
100
AcDbArc
 50
134.9999999999302
 51
179.9999999999186
  0
LINE
  5
2EF
330
A
100
AcDbEntity
  8
LEVEL002
  6
Continuous
 62
     3
370
    30
100
AcDbLine
 10
226.56056682246
 20
249.6470219996201
 30
0.0
 11
226.54950746829
 21
249.6580813537899
 31
0.0
  0
ARC
  5
2F0
330
A
100
AcDbEntity
  8
LEVEL002
  6
Continuous
 62
     3
370
    30
100
AcDbCircle
 10
232.21742107199
 20
243.99016775016
 30
0.0
 40
8.0
100
AcDbArc
 50
135.0000000003402
 51
180.0000000002312
  0
ARC
  5
2F1
330
A
100
AcDbEntity
  8
LEVEL002
  6
Continuous
 62
     3
370
    30
100
AcDbCircle
 10
232.21742107194
 20
243.99016775012
 30
0.0
 40
4.0
100
AcDbArc
 50
134.9999999999398
 51
180.0000000015991
  0
LINE
  5
2F2
330
A
100
AcDbEntity
  8
LEVEL002
  6
Continuous
 62
     3
370
    30
100
AcDbLine
 10
258.15332252126
 20
281.23977769825
 30
0.0
 11
226.56056682253
 21
249.64702199956
 31
0.0
  0
LINE
  5
2F3
330
A
100
AcDbEntity
  8
LEVEL002
  6
Continuous
 62
     3
370
    30
100
AcDbLine
 10
259.56753608363
 20
279.82556413588
 30
0.0
 11
227.9747803849
 21
248.23280843719
 31
0.0
  0
LINE
  5
2F4
330
A
100
AcDbEntity
  8
LEVEL002
  6
Continuous
 62
     3
370
    30
100
AcDbLine
 10
264.66359161777
 20
276.43633829578
 30
0.0
 11
232.21742107206
 21
243.99016775011
 31
0.0
  0
LINE
  5
2F5
330
A
100
AcDbEntity
  8
LEVEL002
  6
Continuous
 62
     3
370
    30
100
AcDbLine
 10
262.61031815786
 20
276.5043851794199
 30
0.0
 11
230.7174210719
 21
244.61148809351
 31
0.0
  0
LINE
  5
2F6
330
A
100
AcDbEntity
  8
LEVEL002
  6
Continuous
 62
     3
370
    30
100
AcDbLine
 10
228.2174210719
 20
243.9901677500099
 30
0.0
 11
228.21742107189
 21
241.4901677499799
 31
0.0
  0
LINE
  5
2F7
330
A
100
AcDbEntity
  8
LEVEL002
  6
Continuous
 62
     3
370
    30
100
AcDbLine
 10
229.3889939472
 20
246.81859487487
 30
0.0
 11
231.15676090017
 21
248.5863618278301
 31
0.0
  0
LINE
  5
2F8
330
A
100
AcDbEntity
  8
LEVEL002
  6
Continuous
 62
     3
370
    30
100
AcDbLine
 10
228.21742107189
 20
241.4901677499799
 30
0.0
 11
226.21742107198
 21
241.4901677499799
 31
0.0
  0
LINE
  5
2F9
330
A
100
AcDbEntity
  8
LEVEL002
  6
Continuous
 62
     3
370
    30
100
AcDbLine
 10
231.15676090017
 20
248.5863618278301
 30
0.0
 11
229.74254733786
 21
250.0005753901401
 31
0.0
  0
LINE
  5
2FA
330
A
100
AcDbEntity
  8
LEVEL002
  6
Continuous
 62
     3
370
    30
100
AcDbLine
 10
241.53631316339
 20
258.25880730984
 30
0.0
 11
244.36474028814
 21
261.0872344345899
 31
0.0
  0
LINE
  5
2FB
330
A
100
AcDbEntity
  8
LEVEL002
  6
Continuous
 62
     3
370
    30
100
AcDbLine
 10
241.53631316339
 20
258.25880730984
 30
0.0
 11
242.95052672576
 21
256.84459374747
 31
0.0
  0
ARC
  5
2FC
330
A
100
AcDbEntity
  8
LEVEL002
  6
Continuous
 62
     3
370
    30
100
AcDbCircle
 10
260.62819625541
 20
278.76490396409
 30
0.0
 40
3.5
100
AcDbArc
 50
11.31666666995859
 51
134.9999999999709
  0
ARC
  5
2FD
330
A
100
AcDbEntity
  8
LEVEL002
  6
Continuous
 62
     3
370
    30
100
AcDbCircle
 10
260.62819625541
 20
278.76490396408
 30
0.0
 40
1.5
100
AcDbArc
 50
11.31666667005164
 51
134.9999999997911
  0
LINE
  5
2FE
330
A
100
AcDbEntity
  8
LEVEL002
  6
Continuous
 62
     3
370
    30
100
AcDbLine
 10
262.09903268334
 20
279.05925104196
 30
0.0
 11
262.61031815786
 21
276.5043851794199
 31
0.0
  0
LINE
  5
2FF
330
A
100
AcDbEntity
  8
LEVEL002
  6
Continuous
 62
     3
370
    30
100
AcDbLine
 10
264.0601479206
 20
279.45171381246
 30
0.0
 11
264.66359161777
 21
276.43633829578
 31
0.0
  0
LINE
  5
300
330
A
100
AcDbEntity
  8
LEVEL002
  6
Continuous
 62
     3
370
    30
100
AcDbLine
 10
250.02159453763
 20
266.74408868407
 30
0.0
 11
252.85002166238
 21
269.5725158088099
 31
0.0
  0
LINE
  5
301
330
A
100
AcDbEntity
  8
LEVEL002
  6
Continuous
 62
     3
370
    30
100
AcDbLine
 10
252.85002166238
 20
269.5725158088099
 30
0.0
 11
254.26423522476
 21
268.15830224644
 31
0.0
  0
LINE
  5
302
330
A
100
AcDbEntity
  8
LEVEL002
  6
Continuous
 62
     3
370
    30
100
AcDbLine
 10
243.30408011642
 20
263.5621081686799
 30
0.0
 11
244.36474028814
 21
261.0872344345899
 31
0.0
  0
LINE
  5
303
330
A
100
AcDbEntity
  8
LEVEL002
  6
Continuous
 62
     3
370
    30
100
AcDbLine
 10
247.54672080354
 20
267.8047488558
 30
0.0
 11
250.02159453763
 21
266.74408868407
 31
0.0
  0
LINE
  5
304
330
A
100
AcDbEntity
  8
LEVEL002
  6
Continuous
 62
     3
370
    30
100
AcDbLine
 10
245.67576287497
 20
263.1053638026
 30
0.0
 11
246.73642304675
 21
260.63049006834
 31
0.0
  0
LINE
  5
305
330
A
100
AcDbEntity
  8
LEVEL002
  6
Continuous
 62
     3
370
    30
100
AcDbLine
 10
248.00346516962
 20
265.4330660972501
 30
0.0
 11
250.47833890387
 21
264.3724059254501
 31
0.0
  0
LINE
  5
306
330
A
100
AcDbEntity
  8
LEVEL002
  6
Continuous
 62
     3
370
    30
100
AcDbLine
 10
245.67576287497
 20
263.1053638026
 30
0.0
 11
248.00346516962
 21
265.4330660972501
 31
0.0
  0
LINE
  5
307
330
A
100
AcDbEntity
  8
LEVEL002
  6
DASHDOT
 62
     6
370
    15
100
AcDbLine
 10
222.77623980271
 20
247.9008330765999
 30
0.0
 11
255.97941211742
 21
234.14762879
 31
0.0
  0
ARC
  5
308
330
A
100
AcDbEntity
  8
LEVEL001
  6
Continuous
 62
     1
100
AcDbCircle
 10
78.75108975508699
 20
258.94393365756
 30
0.0
 40
1.5
100
AcDbArc
 50
182.8769335252602
 51
247.5000000002598
  0
ARC
  5
309
330
A
100
AcDbEntity
  8
LEVEL001
  6
Continuous
 62
     1
100
AcDbCircle
 10
104.64532876779
 20
248.21818867117
 30
0.0
 40
1.5
100
AcDbArc
 50
247.4999999994304
 51
313.5375110252009
  0
LINE
  5
30A
330
A
100
AcDbEntity
  8
LEVEL001
  6
Continuous
 62
     1
100
AcDbLine
 10
104.07130361923
 20
246.83236937241
 30
0.0
 11
78.177064606546
 21
257.55811435879
 31
0.0
  0
LINE
  5
30B
330
A
100
AcDbEntity
  8
LEVEL001
  6
Continuous
 62
     1
100
AcDbLine
 10
109.11576994705
 20
251.23723620625
 30
0.0
 11
115.14425977227
 21
248.74015396001
 31
0.0
  0
ARC
  5
30C
330
A
100
AcDbEntity
  8
LEVEL001
  6
Continuous
 62
     1
100
AcDbCircle
 10
108.5417447985
 20
249.85141690748
 30
0.0
 40
1.5
100
AcDbArc
 50
67.50000000006038
 51
133.5375110255898
  0
LINE
  5
30D
330
A
100
AcDbEntity
  8
LEVEL001
  6
Continuous
 62
     1
100
AcDbLine
 10
108.5417447985
 20
249.85141690748
 30
0.0
 11
105.67857275398
 21
247.13080333701
 31
0.0
  0
LINE
  5
30E
330
A
100
AcDbEntity
  8
LEVEL001
  6
Continuous
 62
     1
100
AcDbLine
 10
108.5417447985
 20
249.85141690748
 30
0.0
 11
113.18441532496
 21
247.92835980979
 31
0.0
  0
ARC
  5
30F
330
A
100
AcDbEntity
  8
LEVEL001
  6
Continuous
 62
     1
100
AcDbCircle
 10
114.57023462372
 20
247.35433466124
 30
0.0
 40
1.5
100
AcDbArc
 50
157.4999999999905
 51
67.49999999972546
  0
ARC
  5
310
330
A
100
AcDbEntity
  8
LEVEL001
  6
Continuous
 62
     1
100
AcDbCircle
 10
45.865673232589
 20
248.21818867118
 30
0.0
 40
1.5
100
AcDbArc
 50
226.4624889745998
 51
292.5000000000594
  0
LINE
  5
311
330
A
100
AcDbEntity
  8
LEVEL001
  6
Continuous
 62
     1
100
AcDbLine
 10
41.395232053317
 20
251.23723620625
 30
0.0
 11
35.366742228091
 21
248.74015396001
 31
0.0
  0
ARC
  5
312
330
A
100
AcDbEntity
  8
LEVEL001
  6
Continuous
 62
     1
100
AcDbCircle
 10
41.96925720186899
 20
249.85141690747
 30
0.0
 40
1.5
100
AcDbArc
 50
46.46248897480341
 51
112.5000000000803
  0
LINE
  5
313
330
A
100
AcDbEntity
  8
LEVEL001
  6
Continuous
 62
     1
100
AcDbLine
 10
41.969257201865
 20
249.85141690748
 30
0.0
 11
44.832429246384
 21
247.13080333701
 31
0.0
  0
LINE
  5
314
330
A
100
AcDbEntity
  8
LEVEL001
  6
Continuous
 62
     1
100
AcDbLine
 10
41.969257201865
 20
249.85141690748
 30
0.0
 11
37.326586675405
 21
247.92835980979
 31
0.0
  0
ARC
  5
315
330
A
100
AcDbEntity
  8
LEVEL001
  6
Continuous
 62
     1
100
AcDbCircle
 10
35.94076737663601
 20
247.35433466124
 30
0.0
 40
1.5
100
AcDbArc
 50
112.49999999992
 51
22.49999999999507
  0
ARC
  5
316
330
A
100
AcDbEntity
  8
LEVEL001
  6
Continuous
 62
     1
100
AcDbCircle
 10
75.255501000196
 20
258.76826562784
 30
0.0
 40
3.5
100
AcDbArc
 50
2.87693352582441
 51
177.1230664739408
  0
LINE
  5
317
330
A
100
AcDbEntity
  8
LEVEL001
  6
Continuous
 62
     1
100
AcDbLine
 10
46.43969838113799
 20
246.83236937241
 30
0.0
 11
72.33393739385199
 21
257.55811435881
 31
0.0
  0
ARC
  5
318
330
A
100
AcDbEntity
  8
LEVEL001
  6
Continuous
 62
     1
100
AcDbCircle
 10
71.759912245305
 20
258.94393365759
 30
0.0
 40
1.5
100
AcDbArc
 50
292.4999999997904
 51
357.1230664741201
  0
ARC
  5
319
330
A
100
AcDbEntity
  8
LEVEL001
  6
Continuous
 62
     1
100
AcDbCircle
 10
75.25550100020099
 20
258.76826562794
 30
0.0
 40
2.0
100
AcDbArc
 50
2.876933523434097
 51
177.1230664763409
  0
LWPOLYLINE
  5
31A
330
A
100
AcDbEntity
  8
LEVEL001
  6
Continuous
 62
     1
100
AcDbPolyline
 90
        3
 70
     0
 43
0.0
 10
100.30309496497
 20
250.01680080329
 10
99.911126075507
 20
249.85444197325
 10
99.748767245463
 20
250.24641086271
  0
LWPOLYLINE
  5
31F
330
A
100
AcDbEntity
  8
LEVEL001
  6
Continuous
 62
     1
100
AcDbPolyline
 90
        3
 70
     0
 43
0.0
 10
107.50850081229
 20
250.93880224165
 10
104.64532876777
 20
248.21818867118
 10
100.30309496497
 20
250.01680080329
  0
LINE
  5
324
330
A
100
AcDbEntity
  8
LEVEL001
  6
Continuous
 62
     1
100
AcDbLine
 10
99.748767245463
 20
250.24641086271
 30
0.0
 11
78.751089755093
 21
258.94393365756
 31
0.0
  0
LWPOLYLINE
  5
325
330
A
100
AcDbEntity
  8
LEVEL001
  6
Continuous
 62
     1
100
AcDbPolyline
 90
        3
 70
     0
 43
0.0
 10
50.207907035394
 20
250.01680080329
 10
50.599875924856
 20
249.85444197325
 10
50.76223475489999
 20
250.24641086271
  0
LINE
  5
32A
330
A
100
AcDbEntity
  8
LEVEL001
  6
Continuous
 62
     1
100
AcDbLine
 10
50.76223475489999
 20
250.24641086271
 30
0.0
 11
71.75991224527
 21
258.94393365756
 31
0.0
  0
LWPOLYLINE
  5
32B
330
A
100
AcDbEntity
  8
LEVEL001
  6
Continuous
 62
     1
100
AcDbPolyline
 90
        3
 70
     0
 43
0.0
 10
43.002501188071
 20
250.93880224165
 10
45.86567323259099
 20
248.21818867118
 10
50.207907035394
 20
250.01680080329
  0
LINE
  5
330
330
A
100
AcDbEntity
  8
LEVEL001
  6
Continuous
 62
     3
370
    30
100
AcDbLine
 10
114.90085300251
 20
243.36802164197
 30
0.0
 11
116.51199662553
 21
244.44236619844
 31
0.0
  0
LINE
  5
331
330
A
100
AcDbEntity
  8
LEVEL001
  6
Continuous
 62
     3
370
    30
100
AcDbLine
 10
113.79127471577
 20
245.03200362071
 30
0.0
 11
115.40241833878
 21
246.10634817718
 31
0.0
  0
ARC
  5
332
330
A
100
AcDbEntity
  8
LEVEL001
  6
Continuous
 62
     3
370
    30
100
AcDbCircle
 10
114.34606385914
 20
244.20001263134
 30
0.0
 40
1.0
100
AcDbArc
 50
123.6961927299603
 51
303.6961927299603
  0
ARC
  5
333
330
A
100
AcDbEntity
  8
LEVEL001
  6
Continuous
 62
     3
370
    30
100
AcDbCircle
 10
114.57023462373
 20
247.35433466124
 30
0.0
 40
3.5
100
AcDbArc
 50
303.6899999976895
 51
67.49999999999322
  0
ARC
  5
334
330
A
100
AcDbEntity
  8
LEVEL001
  6
Continuous
 62
     3
370
    30
100
AcDbCircle
 10
114.57023462373
 20
247.35433466124
 30
0.0
 40
1.5
100
AcDbArc
 50
303.6961927297499
 51
67.50000000037623
  0
LINE
  5
335
330
A
100
AcDbEntity
  8
LEVEL001
  6
Continuous
 62
     3
370
    30
100
AcDbLine
 10
35.610148997849
 20
243.36802164197
 30
0.0
 11
33.999005374834
 21
244.44236619844
 31
0.0
  0
LINE
  5
336
330
A
100
AcDbEntity
  8
LEVEL001
  6
Continuous
 62
     3
370
    30
100
AcDbLine
 10
36.719727284595
 20
245.03200362071
 30
0.0
 11
35.108583661579
 21
246.10634817718
 31
0.0
  0
ARC
  5
337
330
A
100
AcDbEntity
  8
LEVEL001
  6
Continuous
 62
     3
370
    30
100
AcDbCircle
 10
36.164938141222
 20
244.20001263134
 30
0.0
 40
1.0
100
AcDbArc
 50
236.3038072700502
 51
56.30380727004959
  0
ARC
  5
338
330
A
100
AcDbEntity
  8
LEVEL001
  6
Continuous
 62
     3
370
    30
100
AcDbCircle
 10
35.940767376631
 20
247.35433466124
 30
0.0
 40
3.5
100
AcDbArc
 50
112.4999999998796
 51
236.3100000023806
  0
ARC
  5
339
330
A
100
AcDbEntity
  8
LEVEL001
  6
Continuous
 62
     3
370
    30
100
AcDbCircle
 10
35.940767376634
 20
247.35433466124
 30
0.0
 40
1.5
100
AcDbArc
 50
112.4999999998295
 51
236.3038072701291
  0
LINE
  5
33A
330
A
100
AcDbEntity
  8
LEVEL001
  6
Continuous
 62
     3
370
    30
100
AcDbLine
 10
115.909626637
 20
250.58791302503
 30
0.0
 11
78.316968459102
 21
266.1593018879699
 31
0.0
  0
ARC
  5
33B
330
A
100
AcDbEntity
  8
LEVEL001
  6
Continuous
 62
     3
370
    30
100
AcDbCircle
 10
75.25550100018399
 20
258.7682656278801
 30
0.0
 40
8.0
100
AcDbArc
 50
67.50000000001193
 51
112.5000000000106
  0
LINE
  5
33C
330
A
100
AcDbEntity
  8
LEVEL001
  6
Continuous
 62
     3
370
    30
100
AcDbLine
 10
34.60137536336
 20
250.58791302503
 30
0.0
 11
72.194033541261
 21
266.1593018879699
 31
0.0
  0
LINE
  5
33D
330
A
100
AcDbEntity
  8
LEVEL001
  6
Continuous
 62
     3
370
    30
100
AcDbLine
 10
77.551601594372
 20
264.3115428229499
 30
0.0
 11
115.14425977227
 21
248.74015396001
 31
0.0
  0
ARC
  5
33E
330
A
100
AcDbEntity
  8
LEVEL001
  6
Continuous
 62
     3
370
    30
100
AcDbCircle
 10
75.25550100018699
 20
258.76826562789
 30
0.0
 40
6.0
100
AcDbArc
 50
67.50000000003959
 51
112.5000000000497
  0
LINE
  5
33F
330
A
100
AcDbEntity
  8
LEVEL001
  6
Continuous
 62
     3
370
    30
100
AcDbLine
 10
72.959400405991
 20
264.3115428229499
 30
0.0
 11
35.36674222809
 21
248.74015396001
 31
0.0
  0
LINE
  5
340
330
A
100
AcDbEntity
  8
LEVEL001
  6
DASHDOT
 62
     6
370
    15
100
AcDbLine
 10
75.25550100018199
 20
250.31596899665
 30
0.0
 11
75.25550100018199
 21
278.72213375388
 31
0.0
  0
TEXT
  5
40A
330
A
100
AcDbEntity
  8
LEVEL001
 62
     8
100
AcDbText
 10
314.50000000003
 20
786.75
 30
0.0
 40
3.0
  1
              
 41
0.5
100
AcDbText
  0
TEXT
  5
411
330
A
100
AcDbEntity
  8
LEVEL001
 62
     8
100
AcDbText
 10
314.50000000003
 20
758.75
 30
0.0
 40
3.0
  1
　　　　　
100
AcDbText
  0
TEXT
  5
412
330
A
100
AcDbEntity
  8
LEVEL001
 62
     8
100
AcDbText
 10
314.50000000003
 20
754.75
 30
0.0
 40
3.0
  1

 41
0.5
100
AcDbText
  0
TEXT
  5
417
330
A
100
AcDbEntity
  8
LEVEL001
 62
     8
100
AcDbText
 10
326.6866666666967
 20
223.5833333333399
 30
0.0
 40
3.5
  1
ＣＰＶ５０－１３(１３５%%d用)タイプ
 41
0.8
 72
     1
 11
354.50000000003
 21
225.33333333334
 31
0.0
100
AcDbText
 73
     2
  0
LINE
  5
4F4
330
A
100
AcDbEntity
  8
LEVEL001
  6
Continuous
 62
     7
100
AcDbLine
 10
81.307187405776
 20
141.68218953546
 30
0.0
 11
281.30718740578
 21
141.68218953546
 31
0.0
  0
LINE
  5
4F5
330
A
100
AcDbEntity
  8
LEVEL001
  6
Continuous
 62
     7
100
AcDbLine
 10
81.307187405776
 20
143.2687546734
 30
0.0
 11
281.30718740578
 21
143.2687546734
 31
0.0
  0
LINE
  5
4F6
330
A
100
AcDbEntity
  8
LEVEL001
  6
Continuous
 62
     7
100
AcDbLine
 10
81.307187405776
 20
126.73407095421
 30
0.0
 11
281.30718740578
 21
126.73407095421
 31
0.0
  0
LINE
  5
4F7
330
A
100
AcDbEntity
  8
LEVEL001
  6
Continuous
 62
     7
100
AcDbLine
 10
81.307187405776
 20
123.18085620211
 30
0.0
 11
281.30718740578
 21
123.18085620211
 31
0.0
  0
LINE
  5
4F8
330
A
100
AcDbEntity
  8
LEVEL001
  6
Continuous
 62
     7
100
AcDbLine
 10
81.307187405776
 20
112.71935184105
 30
0.0
 11
281.30718740578
 21
112.71935184105
 31
0.0
  0
LINE
  5
4F9
330
A
100
AcDbEntity
  8
LEVEL001
  6
Continuous
 62
     7
100
AcDbLine
 10
81.307187405776
 20
110.46611002332
 30
0.0
 11
281.30718740578
 21
110.46611002332
 31
0.0
  0
LINE
  5
4FA
330
A
100
AcDbEntity
  8
LEVEL001
  6
Continuous
 62
     7
100
AcDbLine
 10
81.307187405776
 20
107.20530663314
 30
0.0
 11
281.30718740578
 21
107.20530663314
 31
0.0
  0
CIRCLE
  5
4FB
330
A
100
AcDbEntity
  8
LEVEL001
  6
Continuous
 62
     1
100
AcDbCircle
 10
91.307187405776
 20
139.01552286879
 30
0.0
 40
1.066666666666699
  0
CIRCLE
  5
4FD
330
A
100
AcDbEntity
  8
LEVEL001
  6
Continuous
 62
     1
100
AcDbCircle
 10
117.97385407244
 20
139.01552286879
 30
0.0
 40
1.066666666666699
  0
CIRCLE
  5
4FF
330
A
100
AcDbEntity
  8
LEVEL001
  6
Continuous
 62
     1
100
AcDbCircle
 10
144.64052073911
 20
139.01552286879
 30
0.0
 40
1.066666666666699
  0
CIRCLE
  5
501
330
A
100
AcDbEntity
  8
LEVEL001
  6
Continuous
 62
     1
100
AcDbCircle
 10
171.30718740578
 20
139.01552286879
 30
0.0
 40
1.066666666666699
  0
CIRCLE
  5
503
330
A
100
AcDbEntity
  8
LEVEL001
  6
Continuous
 62
     1
100
AcDbCircle
 10
197.97385407244
 20
139.01552286879
 30
0.0
 40
1.066666666666699
  0
CIRCLE
  5
505
330
A
100
AcDbEntity
  8
LEVEL001
  6
Continuous
 62
     1
100
AcDbCircle
 10
224.64052073911
 20
139.01552286879
 30
0.0
 40
1.066666666666699
  0
CIRCLE
  5
507
330
A
100
AcDbEntity
  8
LEVEL001
  6
Continuous
 62
     1
100
AcDbCircle
 10
251.30718740578
 20
139.01552286879
 30
0.0
 40
1.066666666666699
  0
CIRCLE
  5
509
330
A
100
AcDbEntity
  8
LEVEL001
  6
Continuous
 62
     1
100
AcDbCircle
 10
277.97385407244
 20
139.01552286879
 30
0.0
 40
1.066666666666699
  0
ELLIPSE
  5
50B
330
A
100
AcDbEntity
  8
LEVEL001
  6
Continuous
 62
     1
100
AcDbEllipse
 10
84.64052073910899
 20
114.6049699242
 30
0.0
 11
-1.066666666666699
 21
0.0
 31
0.0
210
0.0
220
0.0
230
1.0
 40
0.7071067811105
 41
0.0
 42
6.283185307179586
  0
ELLIPSE
  5
50C
330
A
100
AcDbEntity
  8
LEVEL001
  6
Continuous
 62
     1
100
AcDbEllipse
 10
111.30718740578
 20
114.6049699242
 30
0.0
 11
-1.066666666666699
 21
0.0
 31
0.0
210
0.0
220
0.0
230
1.0
 40
0.7071067811105
 41
0.0
 42
6.283185307179586
  0
ELLIPSE
  5
50D
330
A
100
AcDbEntity
  8
LEVEL001
  6
Continuous
 62
     1
100
AcDbEllipse
 10
137.97385407244
 20
114.6049699242
 30
0.0
 11
-1.066666666666699
 21
0.0
 31
0.0
210
0.0
220
0.0
230
1.0
 40
0.7071067811105
 41
0.0
 42
6.283185307179586
  0
ELLIPSE
  5
50E
330
A
100
AcDbEntity
  8
LEVEL001
  6
Continuous
 62
     1
100
AcDbEllipse
 10
164.64052073911
 20
114.6049699242
 30
0.0
 11
-1.066666666666699
 21
0.0
 31
0.0
210
0.0
220
0.0
230
1.0
 40
0.7071067811105
 41
0.0
 42
6.283185307179586
  0
ELLIPSE
  5
50F
330
A
100
AcDbEntity
  8
LEVEL001
  6
Continuous
 62
     1
100
AcDbEllipse
 10
191.30718740578
 20
114.6049699242
 30
0.0
 11
-1.066666666666699
 21
0.0
 31
0.0
210
0.0
220
0.0
230
1.0
 40
0.7071067811105
 41
0.0
 42
6.283185307179586
  0
ELLIPSE
  5
510
330
A
100
AcDbEntity
  8
LEVEL001
  6
Continuous
 62
     1
100
AcDbEllipse
 10
217.97385407244
 20
114.6049699242
 30
0.0
 11
-1.066666666666699
 21
0.0
 31
0.0
210
0.0
220
0.0
230
1.0
 40
0.7071067811105
 41
0.0
 42
6.283185307179586
  0
ELLIPSE
  5
511
330
A
100
AcDbEntity
  8
LEVEL001
  6
Continuous
 62
     1
100
AcDbEllipse
 10
244.64052073911
 20
114.6049699242
 30
0.0
 11
-1.066666666666699
 21
0.0
 31
0.0
210
0.0
220
0.0
230
1.0
 40
0.7071067811105
 41
0.0
 42
6.283185307179586
  0
ELLIPSE
  5
512
330
A
100
AcDbEntity
  8
LEVEL001
  6
Continuous
 62
     1
100
AcDbEllipse
 10
271.30718740578
 20
114.6049699242
 30
0.0
 11
-1.066666666666699
 21
0.0
 31
0.0
210
0.0
220
0.0
230
1.0
 40
0.7071067811105
 41
0.0
 42
6.283185307179586
  0
LINE
  5
513
330
A
100
AcDbEntity
  8
LEVEL001
  6
Continuous
 62
     7
100
AcDbLine
 10
81.307187405776
 20
138.85552286879
 30
0.0
 11
90.25258900933399
 21
138.85552286879
 31
0.0
  0
LINE
  5
514
330
A
100
AcDbEntity
  8
LEVEL001
  6
Continuous
 62
     7
100
AcDbLine
 10
81.307187405776
 20
139.17552286879
 30
0.0
 11
90.25258900933399
 21
139.17552286879
 31
0.0
  0
LINE
  5
515
330
A
100
AcDbEntity
  8
LEVEL001
  6
Continuous
 62
     7
100
AcDbLine
 10
81.307187405776
 20
139.01552286879
 30
0.0
 11
90.24052073910899
 21
139.01552286879
 31
0.0
  0
LINE
  5
516
330
A
100
AcDbEntity
  8
LEVEL001
  6
Continuous
 62
     7
100
AcDbLine
 10
92.361785802218
 20
139.17552286879
 30
0.0
 11
116.919255676
 21
139.17552286879
 31
0.0
  0
LINE
  5
517
330
A
100
AcDbEntity
  8
LEVEL001
  6
Continuous
 62
     7
100
AcDbLine
 10
92.373854072442
 20
139.01552286879
 30
0.0
 11
116.90718740578
 21
139.01552286879
 31
0.0
  0
LINE
  5
518
330
A
100
AcDbEntity
  8
LEVEL001
  6
Continuous
 62
     7
100
AcDbLine
 10
92.361785802217
 20
138.85552286879
 30
0.0
 11
116.919255676
 21
138.85552286879
 31
0.0
  0
LINE
  5
519
330
A
100
AcDbEntity
  8
LEVEL001
  6
Continuous
 62
     7
100
AcDbLine
 10
119.04052073911
 20
139.01552286879
 30
0.0
 11
143.57385407244
 21
139.01552286879
 31
0.0
  0
LINE
  5
51A
330
A
100
AcDbEntity
  8
LEVEL001
  6
Continuous
 62
     7
100
AcDbLine
 10
119.02845246888
 20
138.85552286879
 30
0.0
 11
143.58592234267
 21
138.85552286879
 31
0.0
  0
LINE
  5
51B
330
A
100
AcDbEntity
  8
LEVEL001
  6
Continuous
 62
     7
100
AcDbLine
 10
119.02845246888
 20
139.17552286879
 30
0.0
 11
143.58592234267
 21
139.17552286879
 31
0.0
  0
LINE
  5
51C
330
A
100
AcDbEntity
  8
LEVEL001
  6
Continuous
 62
     7
100
AcDbLine
 10
145.70718740578
 20
139.01552286879
 30
0.0
 11
170.24052073911
 21
139.01552286879
 31
0.0
  0
LINE
  5
51D
330
A
100
AcDbEntity
  8
LEVEL001
  6
Continuous
 62
     7
100
AcDbLine
 10
145.69511913555
 20
138.85552286879
 30
0.0
 11
170.25258900933
 21
138.85552286879
 31
0.0
  0
LINE
  5
51E
330
A
100
AcDbEntity
  8
LEVEL001
  6
Continuous
 62
     7
100
AcDbLine
 10
145.69511913555
 20
139.17552286879
 30
0.0
 11
170.25258900933
 21
139.17552286879
 31
0.0
  0
LINE
  5
51F
330
A
100
AcDbEntity
  8
LEVEL001
  6
Continuous
 62
     7
100
AcDbLine
 10
172.36178580222
 20
139.17552286879
 30
0.0
 11
196.919255676
 21
139.17552286879
 31
0.0
  0
LINE
  5
520
330
A
100
AcDbEntity
  8
LEVEL001
  6
Continuous
 62
     7
100
AcDbLine
 10
172.37385407244
 20
139.01552286879
 30
0.0
 11
196.90718740578
 21
139.01552286879
 31
0.0
  0
LINE
  5
521
330
A
100
AcDbEntity
  8
LEVEL001
  6
Continuous
 62
     7
100
AcDbLine
 10
172.36178580222
 20
138.85552286879
 30
0.0
 11
196.919255676
 21
138.85552286879
 31
0.0
  0
LINE
  5
522
330
A
100
AcDbEntity
  8
LEVEL001
  6
Continuous
 62
     7
100
AcDbLine
 10
199.02845246888
 20
139.17552286879
 30
0.0
 11
223.58592234267
 21
139.17552286879
 31
0.0
  0
LINE
  5
523
330
A
100
AcDbEntity
  8
LEVEL001
  6
Continuous
 62
     7
100
AcDbLine
 10
199.04052073911
 20
139.01552286879
 30
0.0
 11
223.57385407244
 21
139.01552286879
 31
0.0
  0
LINE
  5
524
330
A
100
AcDbEntity
  8
LEVEL001
  6
Continuous
 62
     7
100
AcDbLine
 10
199.02845246888
 20
138.85552286879
 30
0.0
 11
223.58592234267
 21
138.85552286879
 31
0.0
  0
LINE
  5
525
330
A
100
AcDbEntity
  8
LEVEL001
  6
Continuous
 62
     7
100
AcDbLine
 10
225.69511913555
 20
139.17552286879
 30
0.0
 11
250.25258900933
 21
139.17552286879
 31
0.0
  0
LINE
  5
526
330
A
100
AcDbEntity
  8
LEVEL001
  6
Continuous
 62
     7
100
AcDbLine
 10
225.70718740578
 20
139.01552286879
 30
0.0
 11
250.24052073911
 21
139.01552286879
 31
0.0
  0
LINE
  5
527
330
A
100
AcDbEntity
  8
LEVEL001
  6
Continuous
 62
     7
100
AcDbLine
 10
225.69511913555
 20
138.85552286879
 30
0.0
 11
250.25258900933
 21
138.85552286879
 31
0.0
  0
LINE
  5
528
330
A
100
AcDbEntity
  8
LEVEL001
  6
Continuous
 62
     7
100
AcDbLine
 10
279.02845246888
 20
138.85552286879
 30
0.0
 11
281.30718740578
 21
138.85552286879
 31
0.0
  0
LINE
  5
529
330
A
100
AcDbEntity
  8
LEVEL001
  6
Continuous
 62
     7
100
AcDbLine
 10
279.04052073911
 20
139.01552286879
 30
0.0
 11
281.30718740578
 21
139.01552286879
 31
0.0
  0
LINE
  5
52A
330
A
100
AcDbEntity
  8
LEVEL001
  6
Continuous
 62
     7
100
AcDbLine
 10
279.02845246888
 20
139.17552286879
 30
0.0
 11
281.30718740578
 21
139.17552286879
 31
0.0
  0
LINE
  5
52B
330
A
100
AcDbEntity
  8
LEVEL001
  6
Continuous
 62
     7
100
AcDbLine
 10
252.36178580222
 20
139.17552286879
 30
0.0
 11
276.919255676
 21
139.17552286879
 31
0.0
  0
LINE
  5
52C
330
A
100
AcDbEntity
  8
LEVEL001
  6
Continuous
 62
     7
100
AcDbLine
 10
252.37385407244
 20
139.01552286879
 30
0.0
 11
276.90718740578
 21
139.01552286879
 31
0.0
  0
LINE
  5
52D
330
A
100
AcDbEntity
  8
LEVEL001
  6
Continuous
 62
     7
100
AcDbLine
 10
252.36178580222
 20
138.85552286879
 30
0.0
 11
276.919255676
 21
138.85552286879
 31
0.0
  0
LINE
  5
52E
330
A
100
AcDbEntity
  8
LEVEL001
  6
Continuous
 62
     7
100
AcDbLine
 10
272.36178580221
 20
114.7181070092
 30
0.0
 11
281.30718740578
 21
114.7181070092
 31
0.0
  0
LINE
  5
52F
330
A
100
AcDbEntity
  8
LEVEL001
  6
Continuous
 62
     7
100
AcDbLine
 10
272.36178580222
 20
114.49183283922
 30
0.0
 11
281.30718740578
 21
114.49183283922
 31
0.0
  0
LINE
  5
530
330
A
100
AcDbEntity
  8
LEVEL001
  6
Continuous
 62
     7
100
AcDbLine
 10
245.69511913555
 20
114.49183283922
 30
0.0
 11
270.25258900933
 21
114.49183283922
 31
0.0
  0
LINE
  5
531
330
A
100
AcDbEntity
  8
LEVEL001
  6
Continuous
 62
     7
100
AcDbLine
 10
245.69511913555
 20
114.7181070092
 30
0.0
 11
270.25258900934
 21
114.7181070092
 31
0.0
  0
LINE
  5
532
330
A
100
AcDbEntity
  8
LEVEL001
  6
Continuous
 62
     7
100
AcDbLine
 10
219.02845246888
 20
114.7181070092
 30
0.0
 11
243.58592234267
 21
114.7181070092
 31
0.0
  0
LINE
  5
533
330
A
100
AcDbEntity
  8
LEVEL001
  6
Continuous
 62
     7
100
AcDbLine
 10
219.02845246888
 20
114.49183283922
 30
0.0
 11
243.58592234267
 21
114.49183283922
 31
0.0
  0
LINE
  5
534
330
A
100
AcDbEntity
  8
LEVEL001
  6
Continuous
 62
     7
100
AcDbLine
 10
192.36178580222
 20
114.49183283922
 30
0.0
 11
216.919255676
 21
114.49183283922
 31
0.0
  0
LINE
  5
535
330
A
100
AcDbEntity
  8
LEVEL001
  6
Continuous
 62
     7
100
AcDbLine
 10
192.36178580221
 20
114.7181070092
 30
0.0
 11
216.919255676
 21
114.7181070092
 31
0.0
  0
LINE
  5
536
330
A
100
AcDbEntity
  8
LEVEL001
  6
Continuous
 62
     7
100
AcDbLine
 10
165.69511913555
 20
114.49183283922
 30
0.0
 11
190.25258900933
 21
114.49183283922
 31
0.0
  0
LINE
  5
537
330
A
100
AcDbEntity
  8
LEVEL001
  6
Continuous
 62
     7
100
AcDbLine
 10
165.69511913555
 20
114.7181070092
 30
0.0
 11
190.25258900934
 21
114.7181070092
 31
0.0
  0
LINE
  5
538
330
A
100
AcDbEntity
  8
LEVEL001
  6
Continuous
 62
     7
100
AcDbLine
 10
139.02845246888
 20
114.7181070092
 30
0.0
 11
163.58592234267
 21
114.7181070092
 31
0.0
  0
LINE
  5
539
330
A
100
AcDbEntity
  8
LEVEL001
  6
Continuous
 62
     7
100
AcDbLine
 10
139.02845246888
 20
114.49183283922
 30
0.0
 11
163.58592234267
 21
114.49183283922
 31
0.0
  0
LINE
  5
53A
330
A
100
AcDbEntity
  8
LEVEL001
  6
Continuous
 62
     7
100
AcDbLine
 10
112.36178580221
 20
114.7181070092
 30
0.0
 11
136.919255676
 21
114.7181070092
 31
0.0
  0
LINE
  5
53B
330
A
100
AcDbEntity
  8
LEVEL001
  6
Continuous
 62
     7
100
AcDbLine
 10
112.36178580222
 20
114.49183283922
 30
0.0
 11
136.919255676
 21
114.49183283922
 31
0.0
  0
LINE
  5
53C
330
A
100
AcDbEntity
  8
LEVEL001
  6
Continuous
 62
     7
100
AcDbLine
 10
81.307187405776
 20
114.7181070092
 30
0.0
 11
83.58592234267099
 21
114.7181070092
 31
0.0
  0
LINE
  5
53D
330
A
100
AcDbEntity
  8
LEVEL001
  6
Continuous
 62
     7
100
AcDbLine
 10
81.307187405776
 20
114.49183283922
 30
0.0
 11
83.58592234266799
 21
114.49183283922
 31
0.0
  0
LINE
  5
53E
330
A
100
AcDbEntity
  8
LEVEL001
  6
Continuous
 62
     7
100
AcDbLine
 10
85.69511913555
 20
114.49183283922
 30
0.0
 11
110.25258900933
 21
114.49183283922
 31
0.0
  0
LINE
  5
53F
330
A
100
AcDbEntity
  8
LEVEL001
  6
Continuous
 62
     7
100
AcDbLine
 10
85.695119135547
 20
114.7181070092
 30
0.0
 11
110.25258900934
 21
114.7181070092
 31
0.0
  0
LWPOLYLINE
  5
548
330
A
100
AcDbEntity
  8
LEVEL001
  6
Continuous
 62
     7
370
    25
100
AcDbPolyline
 90
        5
 70
     0
 43
0.0
 10
81.307187405776
 20
147.54885620213
 10
81.307187405776
 20
107.20530663314
 10
281.30718740578
 20
107.20530663314
 10
281.30718740578
 20
147.54885620213
 10
81.307187405776
 20
147.54885620213
  0
ARC
  5
54F
330
A
100
AcDbEntity
  8
LEVEL001
  6
Continuous
 62
     1
370
    25
100
AcDbCircle
 10
36.170555719573
 20
123.28926785584
 30
0.0
 40
0.8
100
AcDbArc
 50
70.37693352582639
 51
135.0000000015605
  0
ARC
  5
550
330
A
100
AcDbEntity
  8
LEVEL001
  6
Continuous
 62
     1
370
    25
100
AcDbCircle
 10
25.600639704794
 20
112.71935184106
 30
0.0
 40
0.8
100
AcDbArc
 50
135.0000000013806
 51
201.0375110259912
  0
LINE
  5
551
330
A
100
AcDbEntity
  8
LEVEL001
  6
Continuous
 62
     1
370
    25
100
AcDbLine
 10
25.034954279831
 20
113.285037266
 30
0.0
 11
35.604870294609
 21
123.85495328078
 31
0.0
  0
LINE
  5
552
330
A
100
AcDbEntity
  8
LEVEL001
  6
Continuous
 62
     1
370
    25
100
AcDbLine
 10
26.175825011798
 20
109.90042459837
 30
0.0
 11
23.715021621616
 21
107.4396212081899
 31
0.0
  0
ARC
  5
553
330
A
100
AcDbEntity
  8
LEVEL001
  6
Continuous
 62
     1
370
    25
100
AcDbCircle
 10
25.610139586851
 20
110.46611002331
 30
0.0
 40
0.8
100
AcDbArc
 50
315.0000000002011
 51
21.03751102594255
  0
LINE
  5
554
330
A
100
AcDbEntity
  8
LEVEL001
  6
Continuous
 62
     1
370
    25
100
AcDbLine
 10
25.610139586849
 20
110.46611002332
 30
0.0
 11
24.853963219818
 21
112.4321685776
 31
0.0
  0
LINE
  5
555
330
A
100
AcDbEntity
  8
LEVEL001
  6
Continuous
 62
     1
370
    25
100
AcDbLine
 10
25.610139586849
 20
110.46611002332
 30
0.0
 11
23.715021621616
 21
108.5709920580899
 31
0.0
  0
ARC
  5
556
330
A
100
AcDbEntity
  8
LEVEL001
  6
Continuous
 62
     1
370
    25
100
AcDbCircle
 10
37.597439882615
 20
141.68218953546
 30
0.0
 40
0.8
100
AcDbArc
 50
113.9624889747804
 51
180.0000000004885
  0
LINE
  5
557
330
A
100
AcDbEntity
  8
LEVEL001
  6
Continuous
 62
     1
370
    25
100
AcDbLine
 10
39.997439882615
 20
143.2687546734
 30
0.0
 11
39.997439882615
 21
146.74885620212
 31
0.0
  0
ARC
  5
558
330
A
100
AcDbEntity
  8
LEVEL001
  6
Continuous
 62
     1
370
    25
100
AcDbCircle
 10
39.197439882625
 20
143.2687546734
 30
0.0
 40
0.8
100
AcDbArc
 50
293.9624889738007
 51
0.0
  0
LINE
  5
559
330
A
100
AcDbEntity
  8
LEVEL001
  6
Continuous
 62
     1
370
    25
100
AcDbLine
 10
39.197439882615
 20
143.2687546734
 30
0.0
 11
37.272529109772
 21
142.41323877435
 31
0.0
  0
LINE
  5
55A
330
A
100
AcDbEntity
  8
LEVEL001
  6
Continuous
 62
     1
370
    25
100
AcDbLine
 10
39.197439882615
 20
143.2687546734
 30
0.0
 11
39.197439882615
 21
145.94885620213
 31
0.0
  0
ARC
  5
55B
330
A
100
AcDbEntity
  8
LEVEL001
  6
Continuous
 62
     1
370
    25
100
AcDbCircle
 10
39.197439882615
 20
146.7488562021
 30
0.0
 40
0.8
100
AcDbArc
 50
0.0
 51
270.00000000002
  0
ARC
  5
55C
330
A
100
AcDbEntity
  8
LEVEL001
  6
Continuous
 62
     1
370
    25
100
AcDbCircle
 10
36.797439882665
 20
125.04752286875
 30
0.0
 40
1.8666666666667
100
AcDbArc
 50
250.37693352325
 51
64.62306647652249
  0
LINE
  5
55D
330
A
100
AcDbEntity
  8
LEVEL001
  6
Continuous
 62
     1
370
    25
100
AcDbLine
 10
36.797439882615
 20
141.68218953546
 30
0.0
 11
36.797439882616
 21
126.7340709541999
 31
0.0
  0
ARC
  5
55E
330
A
100
AcDbEntity
  8
LEVEL001
  6
Continuous
 62
     1
370
    25
100
AcDbCircle
 10
37.597439882629
 20
126.73407095419
 30
0.0
 40
0.8
100
AcDbArc
 50
179.9999999995212
 51
244.6230664735096
  0
ARC
  5
55F
330
A
100
AcDbEntity
  8
LEVEL001
  6
Continuous
 62
     1
370
    25
100
AcDbCircle
 10
36.797439882549
 20
125.0475228688
 30
0.0
 40
1.066666666666699
100
AcDbArc
 50
250.3769335287099
 51
64.62306647104755
  0
LWPOLYLINE
  5
560
330
A
100
AcDbEntity
  8
LEVEL001
  6
Continuous
 62
     1
370
    25
100
AcDbPolyline
 90
        3
 70
     0
 43
0.0
 10
27.373120702954
 20
114.49183283922
 10
27.373120702954
 20
114.7181070092
 10
27.599394872934
 20
114.7181070092
  0
LWPOLYLINE
  5
565
330
A
100
AcDbEntity
  8
LEVEL001
  6
Continuous
 62
     1
370
    25
100
AcDbPolyline
 90
        3
 70
     0
 43
0.0
 10
26.356816071811
 20
110.7532932867699
 10
25.60063970478
 20
112.71935184105
 10
27.373120702954
 20
114.49183283922
  0
LINE
  5
56A
330
A
100
AcDbEntity
  8
LEVEL001
  6
Continuous
 62
     1
370
    25
100
AcDbLine
 10
27.599394872934
 20
114.7181070092
 30
0.0
 11
36.17055571955801
 21
123.28926785583
 31
0.0
  0
LWPOLYLINE
  5
56B
330
A
100
AcDbEntity
  8
LEVEL001
  6
Continuous
 62
     1
370
    25
100
AcDbPolyline
 90
        3
 70
     0
 43
0.0
 10
37.597439882616
 20
139.17552286879
 10
37.437439882615
 20
139.01552286879
 10
37.597439882615
 20
138.85552286879
  0
LINE
  5
570
330
A
100
AcDbEntity
  8
LEVEL001
  6
Continuous
 62
     1
370
    25
100
AcDbLine
 10
37.597439882615
 20
138.85552286879
 30
0.0
 11
37.597439882615
 21
126.73407095421
 31
0.0
  0
LWPOLYLINE
  5
571
330
A
100
AcDbEntity
  8
LEVEL001
  6
Continuous
 62
     1
370
    25
100
AcDbPolyline
 90
        3
 70
     0
 43
0.0
 10
39.522350655458
 20
142.5377054345
 10
37.597439882615
 20
141.68218953546
 10
37.597439882615
 20
139.17552286879
  0
LINE
  5
576
330
A
100
AcDbEntity
  8
LEVEL001
  6
DASHDOT
 62
     6
370
    15
100
AcDbLine
 10
32.632691157116
 20
126.77261827476
 30
0.0
 11
46.629424072501
 21
120.97498167229
 31
0.0
  0
LINE
  5
577
330
A
100
AcDbEntity
  8
LEVEL001
  6
DASHDOT
 62
     6
 48
0.25
370
    15
100
AcDbLine
 10
39.258068980209
 20
139.01552286878
 30
0.0
 11
35.140448709627
 21
139.01552286878
 31
0.0
  0
LINE
  5
578
330
A
100
AcDbEntity
  8
LEVEL001
  6
DASHDOT
 62
     6
 48
0.25
370
    15
100
AcDbLine
 10
28.660499883899
 20
113.43072782828
 30
0.0
 11
25.748902668219
 21
116.34232504396
 31
0.0
  0
ARC
  5
579
330
A
100
AcDbEntity
  8
LEVEL001
  6
Continuous
 62
     1
370
    25
100
AcDbCircle
 10
23.149336196663
 20
108.0053066331299
 30
0.0
 40
0.8
100
AcDbArc
 50
45.00000000001365
 51
315.0000000003306
  0
LINE
  5
57A
330
A
100
AcDbEntity
  8
LEVEL001
  6
Continuous
 62
     7
100
AcDbLine
 10
281.30718740578
 20
47.56740084849996
 30
0.0
 11
81.307187405776
 21
47.56740084849996
 31
0.0
  0
LINE
  5
57B
330
A
100
AcDbEntity
  8
LEVEL001
  6
Continuous
 62
     7
100
AcDbLine
 10
281.30718740578
 20
45.98083571055997
 30
0.0
 11
81.307187405776
 21
45.98083571055997
 31
0.0
  0
LINE
  5
57C
330
A
100
AcDbEntity
  8
LEVEL001
  6
Continuous
 62
     7
100
AcDbLine
 10
281.30718740578
 20
62.51551942973998
 30
0.0
 11
81.307187405776
 21
62.51551942973998
 31
0.0
  0
LINE
  5
57D
330
A
100
AcDbEntity
  8
LEVEL001
  6
Continuous
 62
     7
100
AcDbLine
 10
281.30718740578
 20
66.06873418184
 30
0.0
 11
81.307187405776
 21
66.06873418184
 31
0.0
  0
LINE
  5
57E
330
A
100
AcDbEntity
  8
LEVEL001
  6
Continuous
 62
     7
100
AcDbLine
 10
281.30718740578
 20
76.53023854291001
 30
0.0
 11
81.307187405776
 21
76.53023854291001
 31
0.0
  0
LINE
  5
57F
330
A
100
AcDbEntity
  8
LEVEL001
  6
Continuous
 62
     7
100
AcDbLine
 10
281.30718740578
 20
78.78348036062999
 30
0.0
 11
81.307187405776
 21
78.78348036062999
 31
0.0
  0
LINE
  5
580
330
A
100
AcDbEntity
  8
LEVEL001
  6
Continuous
 62
     7
100
AcDbLine
 10
281.30718740578
 20
82.04428375082001
 30
0.0
 11
81.307187405776
 21
82.04428375082001
 31
0.0
  0
CIRCLE
  5
581
330
A
100
AcDbEntity
  8
LEVEL001
  6
Continuous
 62
     1
100
AcDbCircle
 10
271.30718740578
 20
50.23406751516001
 30
0.0
 40
1.066666666666699
  0
CIRCLE
  5
583
330
A
100
AcDbEntity
  8
LEVEL001
  6
Continuous
 62
     1
100
AcDbCircle
 10
244.64052073911
 20
50.23406751516001
 30
0.0
 40
1.066666666666699
  0
CIRCLE
  5
585
330
A
100
AcDbEntity
  8
LEVEL001
  6
Continuous
 62
     1
100
AcDbCircle
 10
217.97385407244
 20
50.23406751516001
 30
0.0
 40
1.066666666666699
  0
CIRCLE
  5
587
330
A
100
AcDbEntity
  8
LEVEL001
  6
Continuous
 62
     1
100
AcDbCircle
 10
191.30718740578
 20
50.23406751516001
 30
0.0
 40
1.066666666666699
  0
CIRCLE
  5
589
330
A
100
AcDbEntity
  8
LEVEL001
  6
Continuous
 62
     1
100
AcDbCircle
 10
164.64052073911
 20
50.23406751516001
 30
0.0
 40
1.066666666666699
  0
CIRCLE
  5
58B
330
A
100
AcDbEntity
  8
LEVEL001
  6
Continuous
 62
     1
100
AcDbCircle
 10
137.97385407244
 20
50.23406751516001
 30
0.0
 40
1.066666666666699
  0
CIRCLE
  5
58D
330
A
100
AcDbEntity
  8
LEVEL001
  6
Continuous
 62
     1
100
AcDbCircle
 10
111.30718740578
 20
50.23406751516001
 30
0.0
 40
1.066666666666699
  0
CIRCLE
  5
58F
330
A
100
AcDbEntity
  8
LEVEL001
  6
Continuous
 62
     1
100
AcDbCircle
 10
84.64052073910899
 20
50.23406751516001
 30
0.0
 40
1.066666666666699
  0
ELLIPSE
  5
591
330
A
100
AcDbEntity
  8
LEVEL001
  6
Continuous
 62
     1
100
AcDbEllipse
 10
277.97385407244
 20
74.64462045975
 30
0.0
 11
1.066666666666699
 21
0.0
 31
0.0
210
0.0
220
0.0
230
1.0
 40
0.7071067811105
 41
0.0
 42
6.283185307179586
  0
ELLIPSE
  5
592
330
A
100
AcDbEntity
  8
LEVEL001
  6
Continuous
 62
     1
100
AcDbEllipse
 10
251.30718740578
 20
74.64462045975
 30
0.0
 11
1.066666666666699
 21
0.0
 31
0.0
210
0.0
220
0.0
230
1.0
 40
0.7071067811105
 41
0.0
 42
6.283185307179586
  0
ELLIPSE
  5
593
330
A
100
AcDbEntity
  8
LEVEL001
  6
Continuous
 62
     1
100
AcDbEllipse
 10
224.64052073911
 20
74.64462045975
 30
0.0
 11
1.066666666666699
 21
0.0
 31
0.0
210
0.0
220
0.0
230
1.0
 40
0.7071067811105
 41
0.0
 42
6.283185307179586
  0
ELLIPSE
  5
594
330
A
100
AcDbEntity
  8
LEVEL001
  6
Continuous
 62
     1
100
AcDbEllipse
 10
197.97385407244
 20
74.64462045975
 30
0.0
 11
1.066666666666699
 21
0.0
 31
0.0
210
0.0
220
0.0
230
1.0
 40
0.7071067811105
 41
0.0
 42
6.283185307179586
  0
ELLIPSE
  5
595
330
A
100
AcDbEntity
  8
LEVEL001
  6
Continuous
 62
     1
100
AcDbEllipse
 10
171.30718740578
 20
74.64462045975
 30
0.0
 11
1.066666666666699
 21
0.0
 31
0.0
210
0.0
220
0.0
230
1.0
 40
0.7071067811105
 41
0.0
 42
6.283185307179586
  0
ELLIPSE
  5
596
330
A
100
AcDbEntity
  8
LEVEL001
  6
Continuous
 62
     1
100
AcDbEllipse
 10
144.64052073911
 20
74.64462045975
 30
0.0
 11
1.066666666666699
 21
0.0
 31
0.0
210
0.0
220
0.0
230
1.0
 40
0.7071067811105
 41
0.0
 42
6.283185307179586
  0
ELLIPSE
  5
597
330
A
100
AcDbEntity
  8
LEVEL001
  6
Continuous
 62
     1
100
AcDbEllipse
 10
117.97385407244
 20
74.64462045975
 30
0.0
 11
1.066666666666699
 21
0.0
 31
0.0
210
0.0
220
0.0
230
1.0
 40
0.7071067811105
 41
0.0
 42
6.283185307179586
  0
ELLIPSE
  5
598
330
A
100
AcDbEntity
  8
LEVEL001
  6
Continuous
 62
     1
100
AcDbEllipse
 10
91.307187405776
 20
74.64462045975
 30
0.0
 11
1.066666666666699
 21
0.0
 31
0.0
210
0.0
220
0.0
230
1.0
 40
0.7071067811105
 41
0.0
 42
6.283185307179586
  0
LINE
  5
599
330
A
100
AcDbEntity
  8
LEVEL001
  6
Continuous
 62
     7
100
AcDbLine
 10
281.30718740578
 20
50.39406751515997
 30
0.0
 11
272.36178580222
 21
50.39406751515997
 31
0.0
  0
LINE
  5
59A
330
A
100
AcDbEntity
  8
LEVEL001
  6
Continuous
 62
     7
100
AcDbLine
 10
281.30718740578
 20
50.07406751515998
 30
0.0
 11
272.36178580222
 21
50.07406751515998
 31
0.0
  0
LINE
  5
59B
330
A
100
AcDbEntity
  8
LEVEL001
  6
Continuous
 62
     7
100
AcDbLine
 10
281.30718740578
 20
50.23406751516001
 30
0.0
 11
272.37385407244
 21
50.23406751516001
 31
0.0
  0
LINE
  5
59C
330
A
100
AcDbEntity
  8
LEVEL001
  6
Continuous
 62
     7
100
AcDbLine
 10
270.25258900933
 20
50.07406751515998
 30
0.0
 11
245.69511913555
 21
50.07406751515998
 31
0.0
  0
LINE
  5
59D
330
A
100
AcDbEntity
  8
LEVEL001
  6
Continuous
 62
     7
100
AcDbLine
 10
270.24052073911
 20
50.23406751516001
 30
0.0
 11
245.70718740578
 21
50.23406751516001
 31
0.0
  0
LINE
  5
59E
330
A
100
AcDbEntity
  8
LEVEL001
  6
Continuous
 62
     7
100
AcDbLine
 10
270.25258900933
 20
50.39406751515997
 30
0.0
 11
245.69511913555
 21
50.39406751515997
 31
0.0
  0
LINE
  5
59F
330
A
100
AcDbEntity
  8
LEVEL001
  6
Continuous
 62
     7
100
AcDbLine
 10
243.57385407244
 20
50.23406751516001
 30
0.0
 11
219.04052073911
 21
50.23406751516001
 31
0.0
  0
LINE
  5
5A0
330
A
100
AcDbEntity
  8
LEVEL001
  6
Continuous
 62
     7
100
AcDbLine
 10
243.58592234267
 20
50.39406751515997
 30
0.0
 11
219.02845246888
 21
50.39406751515997
 31
0.0
  0
LINE
  5
5A1
330
A
100
AcDbEntity
  8
LEVEL001
  6
Continuous
 62
     7
100
AcDbLine
 10
243.58592234267
 20
50.07406751515998
 30
0.0
 11
219.02845246888
 21
50.07406751515998
 31
0.0
  0
LINE
  5
5A2
330
A
100
AcDbEntity
  8
LEVEL001
  6
Continuous
 62
     7
100
AcDbLine
 10
216.90718740578
 20
50.23406751516001
 30
0.0
 11
192.37385407244
 21
50.23406751516001
 31
0.0
  0
LINE
  5
5A3
330
A
100
AcDbEntity
  8
LEVEL001
  6
Continuous
 62
     7
100
AcDbLine
 10
216.919255676
 20
50.39406751515997
 30
0.0
 11
192.36178580222
 21
50.39406751515997
 31
0.0
  0
LINE
  5
5A4
330
A
100
AcDbEntity
  8
LEVEL001
  6
Continuous
 62
     7
100
AcDbLine
 10
216.919255676
 20
50.07406751515998
 30
0.0
 11
192.36178580222
 21
50.07406751515998
 31
0.0
  0
LINE
  5
5A5
330
A
100
AcDbEntity
  8
LEVEL001
  6
Continuous
 62
     7
100
AcDbLine
 10
190.25258900933
 20
50.07406751515998
 30
0.0
 11
165.69511913555
 21
50.07406751515998
 31
0.0
  0
LINE
  5
5A6
330
A
100
AcDbEntity
  8
LEVEL001
  6
Continuous
 62
     7
100
AcDbLine
 10
190.24052073911
 20
50.23406751516001
 30
0.0
 11
165.70718740578
 21
50.23406751516001
 31
0.0
  0
LINE
  5
5A7
330
A
100
AcDbEntity
  8
LEVEL001
  6
Continuous
 62
     7
100
AcDbLine
 10
190.25258900933
 20
50.39406751515997
 30
0.0
 11
165.69511913555
 21
50.39406751515997
 31
0.0
  0
LINE
  5
5A8
330
A
100
AcDbEntity
  8
LEVEL001
  6
Continuous
 62
     7
100
AcDbLine
 10
163.58592234267
 20
50.07406751515998
 30
0.0
 11
139.02845246888
 21
50.07406751515998
 31
0.0
  0
LINE
  5
5A9
330
A
100
AcDbEntity
  8
LEVEL001
  6
Continuous
 62
     7
100
AcDbLine
 10
163.57385407244
 20
50.23406751516001
 30
0.0
 11
139.04052073911
 21
50.23406751516001
 31
0.0
  0
LINE
  5
5AA
330
A
100
AcDbEntity
  8
LEVEL001
  6
Continuous
 62
     7
100
AcDbLine
 10
163.58592234267
 20
50.39406751515997
 30
0.0
 11
139.02845246888
 21
50.39406751515997
 31
0.0
  0
LINE
  5
5AB
330
A
100
AcDbEntity
  8
LEVEL001
  6
Continuous
 62
     7
100
AcDbLine
 10
136.919255676
 20
50.07406751515998
 30
0.0
 11
112.36178580222
 21
50.07406751515998
 31
0.0
  0
LINE
  5
5AC
330
A
100
AcDbEntity
  8
LEVEL001
  6
Continuous
 62
     7
100
AcDbLine
 10
136.90718740578
 20
50.23406751516001
 30
0.0
 11
112.37385407244
 21
50.23406751516001
 31
0.0
  0
LINE
  5
5AD
330
A
100
AcDbEntity
  8
LEVEL001
  6
Continuous
 62
     7
100
AcDbLine
 10
136.919255676
 20
50.39406751515997
 30
0.0
 11
112.36178580222
 21
50.39406751515997
 31
0.0
  0
LINE
  5
5AE
330
A
100
AcDbEntity
  8
LEVEL001
  6
Continuous
 62
     7
100
AcDbLine
 10
83.585922342667
 20
50.39406751515997
 30
0.0
 11
81.307187405776
 21
50.39406751515997
 31
0.0
  0
LINE
  5
5AF
330
A
100
AcDbEntity
  8
LEVEL001
  6
Continuous
 62
     7
100
AcDbLine
 10
83.57385407244199
 20
50.23406751516001
 30
0.0
 11
81.307187405776
 21
50.23406751516001
 31
0.0
  0
LINE
  5
5B0
330
A
100
AcDbEntity
  8
LEVEL001
  6
Continuous
 62
     7
100
AcDbLine
 10
83.585922342667
 20
50.07406751515998
 30
0.0
 11
81.307187405776
 21
50.07406751515998
 31
0.0
  0
LINE
  5
5B1
330
A
100
AcDbEntity
  8
LEVEL001
  6
Continuous
 62
     7
100
AcDbLine
 10
110.25258900933
 20
50.07406751515998
 30
0.0
 11
85.695119135551
 21
50.07406751515998
 31
0.0
  0
LINE
  5
5B2
330
A
100
AcDbEntity
  8
LEVEL001
  6
Continuous
 62
     7
100
AcDbLine
 10
110.24052073911
 20
50.23406751516001
 30
0.0
 11
85.707187405776
 21
50.23406751516001
 31
0.0
  0
LINE
  5
5B3
330
A
100
AcDbEntity
  8
LEVEL001
  6
Continuous
 62
     7
100
AcDbLine
 10
110.25258900933
 20
50.39406751515997
 30
0.0
 11
85.695119135551
 21
50.39406751515997
 31
0.0
  0
LINE
  5
5B4
330
A
100
AcDbEntity
  8
LEVEL001
  6
Continuous
 62
     7
100
AcDbLine
 10
90.25258900933799
 20
74.53148337474999
 30
0.0
 11
81.307187405776
 21
74.53148337474999
 31
0.0
  0
LINE
  5
5B5
330
A
100
AcDbEntity
  8
LEVEL001
  6
Continuous
 62
     7
100
AcDbLine
 10
90.25258900933499
 20
74.75775754473
 30
0.0
 11
81.307187405776
 21
74.75775754473
 31
0.0
  0
LINE
  5
5B6
330
A
100
AcDbEntity
  8
LEVEL001
  6
Continuous
 62
     7
100
AcDbLine
 10
116.919255676
 20
74.75775754473
 30
0.0
 11
92.361785802217
 21
74.75775754473
 31
0.0
  0
LINE
  5
5B7
330
A
100
AcDbEntity
  8
LEVEL001
  6
Continuous
 62
     7
100
AcDbLine
 10
116.919255676
 20
74.53148337474999
 30
0.0
 11
92.36178580221301
 21
74.53148337474999
 31
0.0
  0
LINE
  5
5B8
330
A
100
AcDbEntity
  8
LEVEL001
  6
Continuous
 62
     7
100
AcDbLine
 10
143.58592234267
 20
74.53148337474999
 30
0.0
 11
119.02845246888
 21
74.53148337474999
 31
0.0
  0
LINE
  5
5B9
330
A
100
AcDbEntity
  8
LEVEL001
  6
Continuous
 62
     7
100
AcDbLine
 10
143.58592234267
 20
74.75775754473
 30
0.0
 11
119.02845246888
 21
74.75775754473
 31
0.0
  0
LINE
  5
5BA
330
A
100
AcDbEntity
  8
LEVEL001
  6
Continuous
 62
     7
100
AcDbLine
 10
170.25258900933
 20
74.75775754473
 30
0.0
 11
145.69511913555
 21
74.75775754473
 31
0.0
  0
LINE
  5
5BB
330
A
100
AcDbEntity
  8
LEVEL001
  6
Continuous
 62
     7
100
AcDbLine
 10
170.25258900934
 20
74.53148337474999
 30
0.0
 11
145.69511913555
 21
74.53148337474999
 31
0.0
  0
LINE
  5
5BC
330
A
100
AcDbEntity
  8
LEVEL001
  6
Continuous
 62
     7
100
AcDbLine
 10
196.919255676
 20
74.75775754473
 30
0.0
 11
172.36178580222
 21
74.75775754473
 31
0.0
  0
LINE
  5
5BD
330
A
100
AcDbEntity
  8
LEVEL001
  6
Continuous
 62
     7
100
AcDbLine
 10
196.919255676
 20
74.53148337474999
 30
0.0
 11
172.36178580221
 21
74.53148337474999
 31
0.0
  0
LINE
  5
5BE
330
A
100
AcDbEntity
  8
LEVEL001
  6
Continuous
 62
     7
100
AcDbLine
 10
223.58592234267
 20
74.53148337474999
 30
0.0
 11
199.02845246888
 21
74.53148337474999
 31
0.0
  0
LINE
  5
5BF
330
A
100
AcDbEntity
  8
LEVEL001
  6
Continuous
 62
     7
100
AcDbLine
 10
223.58592234267
 20
74.75775754473
 30
0.0
 11
199.02845246888
 21
74.75775754473
 31
0.0
  0
LINE
  5
5C0
330
A
100
AcDbEntity
  8
LEVEL001
  6
Continuous
 62
     7
100
AcDbLine
 10
250.25258900934
 20
74.53148337474999
 30
0.0
 11
225.69511913555
 21
74.53148337474999
 31
0.0
  0
LINE
  5
5C1
330
A
100
AcDbEntity
  8
LEVEL001
  6
Continuous
 62
     7
100
AcDbLine
 10
250.25258900933
 20
74.75775754473
 30
0.0
 11
225.69511913555
 21
74.75775754473
 31
0.0
  0
LINE
  5
5C2
330
A
100
AcDbEntity
  8
LEVEL001
  6
Continuous
 62
     7
100
AcDbLine
 10
281.30718740578
 20
74.53148337474999
 30
0.0
 11
279.02845246888
 21
74.53148337474999
 31
0.0
  0
LINE
  5
5C3
330
A
100
AcDbEntity
  8
LEVEL001
  6
Continuous
 62
     7
100
AcDbLine
 10
281.30718740578
 20
74.75775754473
 30
0.0
 11
279.02845246888
 21
74.75775754473
 31
0.0
  0
LINE
  5
5C4
330
A
100
AcDbEntity
  8
LEVEL001
  6
Continuous
 62
     7
100
AcDbLine
 10
276.919255676
 20
74.75775754473
 30
0.0
 11
252.36178580222
 21
74.75775754473
 31
0.0
  0
LINE
  5
5C5
330
A
100
AcDbEntity
  8
LEVEL001
  6
Continuous
 62
     7
100
AcDbLine
 10
276.919255676
 20
74.53148337474999
 30
0.0
 11
252.36178580221
 21
74.53148337474999
 31
0.0
  0
LWPOLYLINE
  5
5CE
330
A
100
AcDbEntity
  8
LEVEL001
  6
Continuous
 62
     7
370
    25
100
AcDbPolyline
 90
        5
 70
     0
 43
0.0
 10
281.30718740578
 20
41.70073418183
 10
281.30718740578
 20
82.04428375082001
 10
81.307187405776
 20
82.04428375082001
 10
81.307187405776
 20
41.70073418183
 10
281.30718740578
 20
41.70073418183
  0
ARC
  5
5D5
330
A
100
AcDbEntity
  8
LEVEL001
  6
Continuous
 62
     1
370
    25
100
AcDbCircle
 10
36.170555719555
 20
65.96032252813
 30
0.0
 40
0.8
100
AcDbArc
 50
225.0000000002592
 51
289.6230664749595
  0
ARC
  5
5D6
330
A
100
AcDbEntity
  8
LEVEL001
  6
Continuous
 62
     1
370
    25
100
AcDbCircle
 10
25.600639704779
 20
76.53023854291001
 30
0.0
 40
0.8
100
AcDbArc
 50
158.962488974609
 51
225.0000000001393
  0
LINE
  5
5D7
330
A
100
AcDbEntity
  8
LEVEL001
  6
Continuous
 62
     1
370
    25
100
AcDbLine
 10
25.034954279831
 20
75.96455311796001
 30
0.0
 11
35.604870294609
 21
65.39463710318
 31
0.0
  0
LINE
  5
5D8
330
A
100
AcDbEntity
  8
LEVEL001
  6
Continuous
 62
     1
370
    25
100
AcDbLine
 10
26.175825011798
 20
79.34916578558
 30
0.0
 11
23.715021621616
 21
81.80996917575999
 31
0.0
  0
ARC
  5
5D9
330
A
100
AcDbEntity
  8
LEVEL001
  6
Continuous
 62
     1
370
    25
100
AcDbCircle
 10
25.610139586848
 20
78.78348036062999
 30
0.0
 40
0.8
100
AcDbArc
 50
338.9624889748111
 51
45.00000000009328
  0
LINE
  5
5DA
330
A
100
AcDbEntity
  8
LEVEL001
  6
Continuous
 62
     1
370
    25
100
AcDbLine
 10
25.610139586849
 20
78.78348036062999
 30
0.0
 11
24.853963219818
 21
76.81742180635001
 31
0.0
  0
LINE
  5
5DB
330
A
100
AcDbEntity
  8
LEVEL001
  6
Continuous
 62
     1
370
    25
100
AcDbLine
 10
25.610139586849
 20
78.78348036062999
 30
0.0
 11
23.715021621616
 21
80.67859832586998
 31
0.0
  0
ARC
  5
5DC
330
A
100
AcDbEntity
  8
LEVEL001
  6
Continuous
 62
     1
370
    25
100
AcDbCircle
 10
37.597439882615
 20
47.56740084849002
 30
0.0
 40
0.8
100
AcDbArc
 50
179.9999999992802
 51
246.0375110251299
  0
LINE
  5
5DD
330
A
100
AcDbEntity
  8
LEVEL001
  6
Continuous
 62
     1
370
    25
100
AcDbLine
 10
39.997439882615
 20
45.98083571055997
 30
0.0
 11
39.997439882615
 21
42.50073418183001
 31
0.0
  0
ARC
  5
5DE
330
A
100
AcDbEntity
  8
LEVEL001
  6
Continuous
 62
     1
370
    25
100
AcDbCircle
 10
39.197439882604
 20
45.98083571055997
 30
0.0
 40
0.8
100
AcDbArc
 50
0.0
 51
66.037511024552
  0
LINE
  5
5DF
330
A
100
AcDbEntity
  8
LEVEL001
  6
Continuous
 62
     1
370
    25
100
AcDbLine
 10
39.197439882615
 20
45.98083571055997
 30
0.0
 11
37.272529109772
 21
46.8363516096
 31
0.0
  0
LINE
  5
5E0
330
A
100
AcDbEntity
  8
LEVEL001
  6
Continuous
 62
     1
370
    25
100
AcDbLine
 10
39.197439882615
 20
45.98083571055997
 30
0.0
 11
39.197439882615
 21
43.30073418183002
 31
0.0
  0
ARC
  5
5E1
330
A
100
AcDbEntity
  8
LEVEL001
  6
Continuous
 62
     1
370
    25
100
AcDbCircle
 10
39.197439882615
 20
42.50073418182
 30
0.0
 40
0.8
100
AcDbArc
 50
89.999999999983
 51
0.0
  0
ARC
  5
5E2
330
A
100
AcDbEntity
  8
LEVEL001
  6
Continuous
 62
     1
370
    25
100
AcDbCircle
 10
36.797439882614
 20
64.20206751517998
 30
0.0
 40
1.8666666666667
100
AcDbArc
 50
295.3769335252206
 51
109.6230664750204
  0
LINE
  5
5E3
330
A
100
AcDbEntity
  8
LEVEL001
  6
Continuous
 62
     1
370
    25
100
AcDbLine
 10
36.797439882615
 20
47.56740084849996
 30
0.0
 11
36.797439882616
 21
62.51551942975999
 31
0.0
  0
ARC
  5
5E4
330
A
100
AcDbEntity
  8
LEVEL001
  6
Continuous
 62
     1
370
    25
100
AcDbCircle
 10
37.597439882617
 20
62.51551942975999
 30
0.0
 40
0.8
100
AcDbArc
 50
115.3769335255103
 51
180.0000000000586
  0
ARC
  5
5E5
330
A
100
AcDbEntity
  8
LEVEL001
  6
Continuous
 62
     1
370
    25
100
AcDbCircle
 10
36.797439882588
 20
64.20206751516997
 30
0.0
 40
1.066666666666699
100
AcDbArc
 50
295.3769335266203
 51
109.6230664736197
  0
LWPOLYLINE
  5
5E6
330
A
100
AcDbEntity
  8
LEVEL001
  6
Continuous
 62
     1
370
    25
100
AcDbPolyline
 90
        3
 70
     0
 43
0.0
 10
27.373120702954
 20
74.75775754473
 10
27.373120702954
 20
74.53148337474999
 10
27.599394872934
 20
74.53148337474999
  0
LWPOLYLINE
  5
5EB
330
A
100
AcDbEntity
  8
LEVEL001
  6
Continuous
 62
     1
370
    25
100
AcDbPolyline
 90
        3
 70
     0
 43
0.0
 10
26.356816071811
 20
78.49629709719
 10
25.60063970478
 20
76.53023854291001
 10
27.373120702954
 20
74.75775754473
  0
LINE
  5
5F0
330
A
100
AcDbEntity
  8
LEVEL001
  6
Continuous
 62
     1
370
    25
100
AcDbLine
 10
27.599394872934
 20
74.53148337474999
 30
0.0
 11
36.17055571955801
 21
65.96032252813
 31
0.0
  0
LWPOLYLINE
  5
5F1
330
A
100
AcDbEntity
  8
LEVEL001
  6
Continuous
 62
     1
370
    25
100
AcDbPolyline
 90
        3
 70
     0
 43
0.0
 10
37.597439882616
 20
50.07406751515998
 10
37.437439882615
 20
50.23406751516001
 10
37.597439882615
 20
50.39406751515997
  0
LINE
  5
5F6
330
A
100
AcDbEntity
  8
LEVEL001
  6
Continuous
 62
     1
370
    25
100
AcDbLine
 10
37.597439882615
 20
50.39406751515997
 30
0.0
 11
37.597439882615
 21
62.51551942973998
 31
0.0
  0
LWPOLYLINE
  5
5F7
330
A
100
AcDbEntity
  8
LEVEL001
  6
Continuous
 62
     1
370
    25
100
AcDbPolyline
 90
        3
 70
     0
 43
0.0
 10
39.522350655458
 20
46.71188494944999
 10
37.597439882615
 20
47.56740084849996
 10
37.597439882615
 20
50.07406751515998
  0
LINE
  5
5FC
330
A
100
AcDbEntity
  8
LEVEL001
  6
DASHDOT
 62
     6
370
    15
100
AcDbLine
 10
32.632691157116
 20
62.47697210919
 30
0.0
 11
46.629424072501
 21
68.27460871166
 31
0.0
  0
LINE
  5
5FD
330
A
100
AcDbEntity
  8
LEVEL001
  6
DASHDOT
 62
     6
 48
0.25
370
    15
100
AcDbLine
 10
39.258068980209
 20
50.23406751518002
 30
0.0
 11
35.140448709627
 21
50.23406751518002
 31
0.0
  0
LINE
  5
5FE
330
A
100
AcDbEntity
  8
LEVEL001
  6
DASHDOT
 62
     6
 48
0.25
370
    15
100
AcDbLine
 10
28.660499883899
 20
75.81886255568003
 30
0.0
 11
25.748902668219
 21
72.90726533999998
 31
0.0
  0
ARC
  5
5FF
330
A
100
AcDbEntity
  8
LEVEL001
  6
Continuous
 62
     1
370
    25
100
AcDbCircle
 10
23.149336196668
 20
81.24428375080999
 30
0.0
 40
0.8
100
AcDbArc
 50
45.00000000013882
 51
314.9999999999998
  0
TEXT
  5
6BD
330
A
100
AcDbEntity
  8
LEVEL001
 62
     8
100
AcDbText
 10
119.6461950657666
 20
18.28879998384002
 30
0.0
 40
4.0
  1
ＣＰＶ５０－１３(１３５%%d)用芯材ピッチ図(Ｓ＝１：１５)
 41
0.8
 72
     1
 11
170.7395283991
 21
20.28879998384002
 31
0.0
100
AcDbText
 73
     2
  0
TEXT
  5
6C2
330
A
100
AcDbEntity
  8
LEVEL001
 62
     8
100
AcDbText
 10
51.161961538441
 20
228.54048210786
 30
0.0
 40
4.0
  1
ＣＰＶ５０(１３５%%d用)断面図
 41
0.8
100
AcDbText
  0
TEXT
  5
6C3
330
A
100
AcDbEntity
  8
LEVEL001
 62
     8
100
AcDbText
 10
51.161961538441
 20
223.20714877452
 30
0.0
 40
4.0
  1
　　　　(Ｓ＝１：１)
 41
0.8
100
AcDbText
  0
TEXT
  5
6C4
330
A
100
AcDbEntity
  8
LEVEL001
 62
     8
100
AcDbText
 10
193.94883918288
 20
171.5701238609
 30
0.0
 40
4.0
  1
ＣＰ５０１３(キャップ)断面図
 41
0.8
100
AcDbText
  0
TEXT
  5
6C5
330
A
100
AcDbEntity
  8
LEVEL001
 62
     8
100
AcDbText
 10
193.94883918288
 20
166.23679052757
 30
0.0
 40
4.0
  1
　　　　(Ｓ＝１：１)
 41
0.8
100
AcDbText
  0
LINE
  5
7A5
330
A
100
AcDbEntity
  8
LEVEL001
  6
Continuous
 62
     6
370
    15
100
AcDbLine
 10
169.72754772872
 20
185.8112641681399
 30
0.0
 11
179.72754772856
 21
185.8112641681399
 31
0.0
  0
LINE
  5
7A6
330
A
100
AcDbEntity
  8
LEVEL001
  6
Continuous
 62
     6
370
    15
100
AcDbLine
 10
169.72754772872
 20
196.90930491677
 30
0.0
 11
169.72754772872
 21
184.81126416814
 31
0.0
  0
CIRCLE
  5
7A7
330
A
100
AcDbEntity
  8
LEVEL001
  6
Continuous
 62
     6
370
    15
100
AcDbCircle
 10
169.72754772872
 20
185.8112641681399
 30
0.0
 40
0.4
  0
TEXT
  5
7A8
330
A
100
AcDbEntity
  8
LEVEL001
 62
     6
370
    15
100
AcDbText
 10
171.97754772864
 20
186.8112641681399
 30
0.0
 40
3.0
  1
１０
 41
0.8
100
AcDbText
  0
LINE
  5
7A9
330
A
100
AcDbEntity
  8
LEVEL001
  6
Continuous
 62
     6
370
    15
100
AcDbLine
 10
179.72754772856
 20
185.8112641681399
 30
0.0
 11
191.72754772872
 21
185.8112641681399
 31
0.0
  0
LINE
  5
7AA
330
A
100
AcDbEntity
  8
LEVEL001
  6
Continuous
 62
     6
370
    15
100
AcDbLine
 10
179.72754772856
 20
194.8112641681399
 30
0.0
 11
179.72754772856
 21
184.81126416814
 31
0.0
  0
LINE
  5
7AB
330
A
100
AcDbEntity
  8
LEVEL001
  6
Continuous
 62
     6
370
    15
100
AcDbLine
 10
191.72754772872
 20
210.31126416803
 30
0.0
 11
191.72754772872
 21
184.81126416814
 31
0.0
  0
CIRCLE
  5
7AC
330
A
100
AcDbEntity
  8
LEVEL001
  6
Continuous
 62
     6
370
    15
100
AcDbCircle
 10
179.72754772856
 20
185.8112641681399
 30
0.0
 40
0.4
  0
CIRCLE
  5
7AD
330
A
100
AcDbEntity
  8
LEVEL001
  6
Continuous
 62
     6
370
    15
100
AcDbCircle
 10
191.72754772872
 20
185.8112641681399
 30
0.0
 40
0.4
  0
TEXT
  5
7AE
330
A
100
AcDbEntity
  8
LEVEL001
 62
     6
370
    15
100
AcDbText
 10
182.97754772864
 20
186.8112641681399
 30
0.0
 40
3.0
  1
１２
 41
0.8
100
AcDbText
  0
LINE
  5
7AF
330
A
100
AcDbEntity
  8
LEVEL001
  6
Continuous
 62
     6
370
    15
100
AcDbLine
 10
169.72754772872
 20
178.81126416814
 30
0.0
 11
191.72754772872
 21
178.81126416814
 31
0.0
  0
LINE
  5
7B0
330
A
100
AcDbEntity
  8
LEVEL001
  6
Continuous
 62
     6
370
    15
100
AcDbLine
 10
169.72754772872
 20
184.81126416814
 30
0.0
 11
169.72754772872
 21
177.81126416814
 31
0.0
  0
LINE
  5
7B1
330
A
100
AcDbEntity
  8
LEVEL001
  6
Continuous
 62
     6
370
    15
100
AcDbLine
 10
191.72754772872
 20
184.81126416814
 30
0.0
 11
191.72754772872
 21
177.81126416814
 31
0.0
  0
CIRCLE
  5
7B2
330
A
100
AcDbEntity
  8
LEVEL001
  6
Continuous
 62
     6
370
    15
100
AcDbCircle
 10
169.72754772872
 20
178.81126416814
 30
0.0
 40
0.4
  0
CIRCLE
  5
7B3
330
A
100
AcDbEntity
  8
LEVEL001
  6
Continuous
 62
     6
370
    15
100
AcDbCircle
 10
191.72754772872
 20
178.81126416814
 30
0.0
 40
0.4
  0
TEXT
  5
7B4
330
A
100
AcDbEntity
  8
LEVEL001
 62
     6
370
    15
100
AcDbText
 10
177.97754772872
 20
179.81126416814
 30
0.0
 40
3.0
  1
２２
 41
0.8
100
AcDbText
  0
ARC
  5
7B5
330
A
100
AcDbEntity
  8
LEVEL001
  6
Continuous
 62
     6
370
    15
100
AcDbCircle
 10
232.21742107199
 20
243.99016775004
 30
0.0
 40
31.826296685474
100
AcDbArc
 50
269.99999999993
 51
44.99999999996431
  0
CIRCLE
  5
7B6
330
A
100
AcDbEntity
  8
LEVEL001
  6
Continuous
 62
     6
370
    15
100
AcDbCircle
 10
232.21742107195
 20
212.16387106456
 30
0.0
 40
0.4
  0
CIRCLE
  5
7B7
330
A
100
AcDbEntity
  8
LEVEL001
  6
Continuous
 62
     6
370
    15
100
AcDbCircle
 10
254.72201127836
 20
266.49475795638
 30
0.0
 40
0.4
  0
TEXT
  5
7B8
330
A
100
AcDbEntity
  8
LEVEL001
 62
     6
370
    15
100
AcDbText
 10
258.97513019716
 20
228.03599683101
 30
0.0
 40
3.0
  1
１３５ﾟ
 50
67.499999999945
 41
0.8
100
AcDbText
  0
LINE
  5
7B9
330
A
100
AcDbEntity
  8
LEVEL001
  6
Continuous
 62
     6
370
    15
100
AcDbLine
 10
224.21742107193
 20
182.08345827758
 30
0.0
 11
232.21742107193
 21
182.08345827758
 31
0.0
  0
LINE
  5
7BA
330
A
100
AcDbEntity
  8
LEVEL001
  6
Continuous
 62
     6
370
    15
100
AcDbLine
 10
224.21742107193
 20
197.58688172767
 30
0.0
 11
224.21742107193
 21
181.08345827758
 31
0.0
  0
LINE
  5
7BB
330
A
100
AcDbEntity
  8
LEVEL001
  6
Continuous
 62
     6
370
    15
100
AcDbLine
 10
232.21742107193
 20
197.10435331714
 30
0.0
 11
232.21742107193
 21
181.08345827758
 31
0.0
  0
CIRCLE
  5
7BC
330
A
100
AcDbEntity
  8
LEVEL001
  6
Continuous
 62
     6
370
    15
100
AcDbCircle
 10
224.21742107193
 20
182.08345827758
 30
0.0
 40
0.4
  0
CIRCLE
  5
7BD
330
A
100
AcDbEntity
  8
LEVEL001
  6
Continuous
 62
     6
370
    15
100
AcDbCircle
 10
232.21742107193
 20
182.08345827758
 30
0.0
 40
0.4
  0
TEXT
  5
7BE
330
A
100
AcDbEntity
  8
LEVEL001
 62
     6
370
    15
100
AcDbText
 10
226.71742107193
 20
183.08345827758
 30
0.0
 40
3.0
  1
８
 41
0.8
100
AcDbText
  0
LINE
  5
7BF
330
A
100
AcDbEntity
  8
LEVEL001
  6
Continuous
 62
     6
370
    15
100
AcDbLine
 10
254.94041919268
 20
184.246756437
 30
0.0
 11
290.52997840275
 21
270.16755296052
 31
0.0
  0
LINE
  5
7C0
330
A
100
AcDbEntity
  8
LEVEL001
  6
Continuous
 62
     6
370
    15
100
AcDbLine
 10
227.30190859116
 20
195.69500237198
 30
0.0
 11
255.86429872519
 21
183.8640730046299
 31
0.0
  0
LINE
  5
7C1
330
A
100
AcDbEntity
  8
LEVEL001
  6
Continuous
 62
     6
370
    15
100
AcDbLine
 10
262.8914678012
 20
281.61579889551
 30
0.0
 11
291.45385793526
 21
269.78486952815
 31
0.0
  0
CIRCLE
  5
7C2
330
A
100
AcDbEntity
  8
LEVEL001
  6
Continuous
 62
     6
370
    15
100
AcDbCircle
 10
254.94041919268
 20
184.246756437
 30
0.0
 40
0.4
  0
CIRCLE
  5
7C3
330
A
100
AcDbEntity
  8
LEVEL001
  6
Continuous
 62
     6
370
    15
100
AcDbCircle
 10
290.52997840275
 20
270.16755296052
 30
0.0
 40
0.4
  0
TEXT
  5
7C4
330
A
100
AcDbEntity
  8
LEVEL001
 62
     6
370
    15
100
AcDbText
 10
270.75893982619
 20
225.04916941672
 30
0.0
 40
3.0
  1
９３
 50
67.499999999927
 41
0.8
100
AcDbText
  0
ARC
  5
7C5
330
A
100
AcDbEntity
  8
LEVEL001
  6
Continuous
 62
     6
370
    15
100
AcDbCircle
 10
75.25550100018199
 20
258.7682656278801
 30
0.0
 40
11.756057233488
100
AcDbArc
 50
202.499999999999
 51
337.500000000001
  0
CIRCLE
  5
7C6
330
A
100
AcDbEntity
  8
LEVEL001
  6
Continuous
 62
     6
370
    15
100
AcDbCircle
 10
64.39432033913099
 20
254.26941729469
 30
0.0
 40
0.4
  0
CIRCLE
  5
7C7
330
A
100
AcDbEntity
  8
LEVEL001
  6
Continuous
 62
     6
370
    15
100
AcDbCircle
 10
86.11668166123299
 20
254.26941729469
 30
0.0
 40
0.4
  0
TEXT
  5
7C8
330
A
100
AcDbEntity
  8
LEVEL001
 62
     6
370
    15
100
AcDbText
 10
72.50550100018199
 20
248.0122083944
 30
0.0
 40
2.0
  1
１３５ﾟ
 41
0.8
100
AcDbText
  0
LINE
  5
7C9
330
A
100
AcDbEntity
  8
LEVEL001
  6
Continuous
 62
     6
370
    15
100
AcDbLine
 10
121.4779843415
 20
254.88517696115
 30
0.0
 11
77.590280340844
 21
273.0640591796
 31
0.0
  0
LINE
  5
7CA
330
A
100
AcDbEntity
  8
LEVEL001
  6
Continuous
 62
     6
370
    15
100
AcDbLine
 10
119.52588843319
 20
250.17240054427
 30
0.0
 11
121.86066777386
 21
255.80905649366
 31
0.0
  0
LINE
  5
7CB
330
A
100
AcDbEntity
  8
LEVEL001
  6
Continuous
 62
     6
370
    15
100
AcDbLine
 10
75.638184432547
 20
268.35128276273
 30
0.0
 11
77.972963773209
 21
273.98793871211
 31
0.0
  0
CIRCLE
  5
7CC
330
A
100
AcDbEntity
  8
LEVEL001
  6
Continuous
 62
     6
370
    15
100
AcDbCircle
 10
121.4779843415
 20
254.88517696115
 30
0.0
 40
0.4
  0
CIRCLE
  5
7CD
330
A
100
AcDbEntity
  8
LEVEL001
  6
Continuous
 62
     6
370
    15
100
AcDbCircle
 10
77.590280340844
 20
273.0640591796
 30
0.0
 40
0.4
  0
TEXT
  5
7CE
330
A
100
AcDbEntity
  8
LEVEL001
 62
     6
370
    15
100
AcDbText
 10
97.260662117563
 20
265.9987124709299
 30
0.0
 40
2.0
  1
４７.５
 50
337.50000000004
 41
0.8
100
AcDbText
  0
LINE
  5
7CF
330
A
100
AcDbEntity
  8
LEVEL001
  6
Continuous
 62
     6
370
    15
100
AcDbLine
 10
29.033017658868
 20
254.88517696115
 30
0.0
 11
72.92072165951999
 21
273.0640591796
 31
0.0
  0
LINE
  5
7D0
330
A
100
AcDbEntity
  8
LEVEL001
  6
Continuous
 62
     6
370
    15
100
AcDbLine
 10
30.985113567172
 20
250.17240054427
 30
0.0
 11
28.650334226503
 21
255.80905649366
 31
0.0
  0
LINE
  5
7D1
330
A
100
AcDbEntity
  8
LEVEL001
  6
Continuous
 62
     6
370
    15
100
AcDbLine
 10
74.87281756781699
 20
268.35128276273
 30
0.0
 11
72.538038227155
 21
273.98793871211
 31
0.0
  0
CIRCLE
  5
7D2
330
A
100
AcDbEntity
  8
LEVEL001
  6
Continuous
 62
     6
370
    15
100
AcDbCircle
 10
29.033017658868
 20
254.88517696115
 30
0.0
 40
0.4
  0
CIRCLE
  5
7D3
330
A
100
AcDbEntity
  8
LEVEL001
  6
Continuous
 62
     6
370
    15
100
AcDbCircle
 10
72.92072165951999
 20
273.0640591796
 30
0.0
 40
0.4
  0
TEXT
  5
7D4
330
A
100
AcDbEntity
  8
LEVEL001
 62
     6
370
    15
100
AcDbText
 10
47.938032570859
 20
263.79828273484
 30
0.0
 40
2.0
  1
４７.５
 50
22.499999999963
 41
0.8
100
AcDbText
  0
LINE
  5
7D5
330
A
100
AcDbEntity
  8
LEVEL001
  6
Continuous
 62
     6
370
    15
100
AcDbLine
 10
24.93061115348
 20
246.58215133081
 30
0.0
 11
27.800736896222
 21
239.65305483697
 31
0.0
  0
LINE
  5
7D6
330
A
100
AcDbEntity
  8
LEVEL001
  6
Continuous
 62
     6
370
    15
100
AcDbLine
 10
30.443917467024
 20
248.86583757939
 30
0.0
 11
24.006731620968
 21
246.19946789844
 31
0.0
  0
LINE
  5
7D7
330
A
100
AcDbEntity
  8
LEVEL001
  6
Continuous
 62
     6
370
    15
100
AcDbLine
 10
33.314043209763
 20
241.93674108555
 30
0.0
 11
26.876857363711
 21
239.2703714046001
 31
0.0
  0
CIRCLE
  5
7D8
330
A
100
AcDbEntity
  8
LEVEL001
  6
Continuous
 62
     6
370
    15
100
AcDbCircle
 10
24.93061115348
 20
246.58215133081
 30
0.0
 40
0.4
  0
CIRCLE
  5
7D9
330
A
100
AcDbEntity
  8
LEVEL001
  6
Continuous
 62
     6
370
    15
100
AcDbCircle
 10
27.800736896222
 20
239.65305483697
 30
0.0
 40
0.4
  0
TEXT
  5
7DA
330
A
100
AcDbEntity
  8
LEVEL001
 62
     6
370
    15
100
AcDbText
 10
26.24401956369
 20
245.31494688189
 30
0.0
 40
2.0
  1
７.５
 50
292.50000000001
 41
0.8
100
AcDbText
  0
LINE
  5
7DB
330
A
100
AcDbEntity
  8
LEVEL001
  6
Continuous
 62
     6
370
    15
100
AcDbLine
 10
125.58039084688
 20
246.58215133081
 30
0.0
 11
122.71026510414
 21
239.65305483697
 31
0.0
  0
LINE
  5
7DC
330
A
100
AcDbEntity
  8
LEVEL001
  6
Continuous
 62
     6
370
    15
100
AcDbLine
 10
120.06708453334
 20
248.86583757939
 30
0.0
 11
126.5042703794
 21
246.19946789844
 31
0.0
  0
LINE
  5
7DD
330
A
100
AcDbEntity
  8
LEVEL001
  6
Continuous
 62
     6
370
    15
100
AcDbLine
 10
117.1969587906
 20
241.93674108555
 30
0.0
 11
123.63414463665
 21
239.2703714046001
 31
0.0
  0
CIRCLE
  5
7DE
330
A
100
AcDbEntity
  8
LEVEL001
  6
Continuous
 62
     6
370
    15
100
AcDbCircle
 10
125.58039084688
 20
246.58215133081
 30
0.0
 40
0.4
  0
CIRCLE
  5
7DF
330
A
100
AcDbEntity
  8
LEVEL001
  6
Continuous
 62
     6
370
    15
100
AcDbCircle
 10
122.71026510414
 20
239.65305483697
 30
0.0
 40
0.4
  0
TEXT
  5
7E0
330
A
100
AcDbEntity
  8
LEVEL001
 62
     6
370
    15
100
AcDbText
 10
122.64554676689
 20
241.29244133709
 30
0.0
 40
2.0
  1
７.５
 50
67.49999999998699
 41
0.8
100
AcDbText
  0
LINE
  5
89B
330
A
100
AcDbEntity
  8
LEVEL001
  6
Continuous
 62
     6
370
    15
100
AcDbLine
 10
291.30718740578
 20
139.01552286879
 30
0.0
 11
291.30718740578
 21
147.5488562021399
 31
0.0
  0
LINE
  5
89C
330
A
100
AcDbEntity
  8
LEVEL001
  6
Continuous
 62
     6
370
    15
100
AcDbLine
 10
281.50718740578
 20
139.01552286879
 30
0.0
 11
292.30718740578
 21
139.01552286879
 31
0.0
  0
LINE
  5
89D
330
A
100
AcDbEntity
  8
LEVEL001
  6
Continuous
 62
     6
370
    15
100
AcDbLine
 10
282.30718740578
 20
147.5488562021399
 30
0.0
 11
292.30718740578
 21
147.5488562021399
 31
0.0
  0
CIRCLE
  5
89E
330
A
100
AcDbEntity
  8
LEVEL001
  6
Continuous
 62
     6
370
    15
100
AcDbCircle
 10
291.30718740578
 20
139.01552286879
 30
0.0
 40
0.4
  0
CIRCLE
  5
89F
330
A
100
AcDbEntity
  8
LEVEL001
  6
Continuous
 62
     6
370
    15
100
AcDbCircle
 10
291.30718740578
 20
147.5488562021399
 30
0.0
 40
0.4
  0
TEXT
  5
8A0
330
A
100
AcDbEntity
  8
LEVEL001
 62
     6
370
    15
100
AcDbText
 10
290.30718740578
 20
140.53218953547
 30
0.0
 40
3.0
  1
１６
 50
90.0
 41
0.8
100
AcDbText
  0
ARC
  5
8A1
330
A
100
AcDbEntity
  8
LEVEL001
  6
Continuous
 62
     6
370
    15
100
AcDbCircle
 10
36.797439882616
 20
125.04752286878
 30
0.0
 40
6.2698971911939
100
AcDbArc
 50
90.000000000002
 51
225.0000000000002
  0
CIRCLE
  5
8A2
330
A
100
AcDbEntity
  8
LEVEL001
  6
Continuous
 62
     6
370
    15
100
AcDbCircle
 10
36.797439882615
 20
131.31742005998
 30
0.0
 40
0.4
  0
CIRCLE
  5
8A3
330
A
100
AcDbEntity
  8
LEVEL001
  6
Continuous
 62
     6
370
    15
100
AcDbCircle
 10
32.36395306138
 20
120.6140360475499
 30
0.0
 40
0.4
  0
TEXT
  5
8A4
330
A
100
AcDbEntity
  8
LEVEL001
 62
     6
370
    15
100
AcDbText
 10
29.028551225206
 20
125.28892336444
 30
0.0
 40
2.0
  1
１３５ﾟ
 50
67.5
 41
0.8
100
AcDbText
  0
LINE
  5
8A5
330
A
100
AcDbEntity
  8
LEVEL001
  6
Continuous
 62
     6
370
    15
100
AcDbLine
 10
50.182282608217
 20
139.01552286878
 30
0.0
 11
50.182282608217
 21
147.54885620213
 31
0.0
  0
LINE
  5
8A6
330
A
100
AcDbEntity
  8
LEVEL001
  6
Continuous
 62
     6
370
    15
100
AcDbLine
 10
40.258068980209
 20
139.01552286878
 30
0.0
 11
51.182282608217
 21
139.01552286878
 31
0.0
  0
LINE
  5
8A7
330
A
100
AcDbEntity
  8
LEVEL001
  6
Continuous
 62
     6
370
    15
100
AcDbLine
 10
40.197439882615
 20
147.54885620213
 30
0.0
 11
51.182282608217
 21
147.54885620213
 31
0.0
  0
CIRCLE
  5
8A8
330
A
100
AcDbEntity
  8
LEVEL001
  6
Continuous
 62
     6
370
    15
100
AcDbCircle
 10
50.182282608217
 20
139.01552286878
 30
0.0
 40
0.4
  0
CIRCLE
  5
8A9
330
A
100
AcDbEntity
  8
LEVEL001
  6
Continuous
 62
     6
370
    15
100
AcDbCircle
 10
50.182282608217
 20
147.54885620213
 30
0.0
 40
0.4
  0
TEXT
  5
8AA
330
A
100
AcDbEntity
  8
LEVEL001
 62
     6
370
    15
100
AcDbText
 10
49.182282608217
 20
140.53218953545
 30
0.0
 40
3.0
  1
１６
 50
90.0
 41
0.8
100
AcDbText
  0
LINE
  5
8AB
330
A
100
AcDbEntity
  8
LEVEL001
  6
Continuous
 62
     6
370
    15
100
AcDbLine
 10
57.997439882615
 20
123.18085620211
 30
0.0
 11
57.997439882615
 21
147.54885620213
 31
0.0
  0
LINE
  5
8AC
330
A
100
AcDbEntity
  8
LEVEL001
  6
Continuous
 62
     6
370
    15
100
AcDbLine
 10
37.797439882616
 20
123.18085620211
 30
0.0
 11
58.997439882615
 21
123.18085620211
 31
0.0
  0
LINE
  5
8AD
330
A
100
AcDbEntity
  8
LEVEL001
  6
Continuous
 62
     6
370
    15
100
AcDbLine
 10
48.997439882615
 20
147.54885620213
 30
0.0
 11
58.997439882615
 21
147.54885620213
 31
0.0
  0
CIRCLE
  5
8AE
330
A
100
AcDbEntity
  8
LEVEL001
  6
Continuous
 62
     6
370
    15
100
AcDbCircle
 10
57.997439882615
 20
123.18085620211
 30
0.0
 40
0.4
  0
CIRCLE
  5
8AF
330
A
100
AcDbEntity
  8
LEVEL001
  6
Continuous
 62
     6
370
    15
100
AcDbCircle
 10
57.997439882615
 20
147.54885620213
 30
0.0
 40
0.4
  0
TEXT
  5
8B0
330
A
100
AcDbEntity
  8
LEVEL001
 62
     6
370
    15
100
AcDbText
 10
56.99743988261499
 20
129.48985620212
 30
0.0
 40
3.0
  1
４９.４９
 50
90.0
 41
0.8
100
AcDbText
  0
LINE
  5
8B8
330
A
100
AcDbEntity
  8
LEVEL001
  6
Continuous
 62
     6
370
    15
100
AcDbLine
 10
81.307187405776
 20
160.74036525098
 30
0.0
 11
91.307187405776
 21
160.74036525098
 31
0.0
  0
LINE
  5
8B9
330
A
100
AcDbEntity
  8
LEVEL001
  6
Continuous
 62
     6
370
    15
100
AcDbLine
 10
81.307187405776
 20
148.54885620213
 30
0.0
 11
81.307187405776
 21
161.74036525098
 31
0.0
  0
CIRCLE
  5
8BA
330
A
100
AcDbEntity
  8
LEVEL001
  6
Continuous
 62
     6
370
    15
100
AcDbCircle
 10
81.307187405776
 20
160.74036525098
 30
0.0
 40
0.4
  0
TEXT
  5
8BB
330
A
100
AcDbEntity
  8
LEVEL001
 62
     6
370
    15
100
AcDbText
 10
82.307187405776
 20
161.74036525098
 30
0.0
 40
3.0
  1
１５０
 41
0.8
100
AcDbText
  0
LINE
  5
8BC
330
A
100
AcDbEntity
  8
LEVEL001
  6
Continuous
 62
     6
370
    15
100
AcDbLine
 10
91.307187405776
 20
160.74036525098
 30
0.0
 11
117.97385407244
 21
160.74036525098
 31
0.0
  0
LINE
  5
8BD
330
A
100
AcDbEntity
  8
LEVEL001
  6
Continuous
 62
     6
370
    15
100
AcDbLine
 10
91.307187405776
 20
148.54885620213
 30
0.0
 11
91.307187405776
 21
161.74036525098
 31
0.0
  0
CIRCLE
  5
8BE
330
A
100
AcDbEntity
  8
LEVEL001
  6
Continuous
 62
     6
370
    15
100
AcDbCircle
 10
91.307187405776
 20
160.74036525098
 30
0.0
 40
0.4
  0
TEXT
  5
8BF
330
A
100
AcDbEntity
  8
LEVEL001
 62
     6
370
    15
100
AcDbText
 10
100.64052073911
 20
161.74036525098
 30
0.0
 40
3.0
  1
４００
 41
0.8
100
AcDbText
  0
LINE
  5
8C0
330
A
100
AcDbEntity
  8
LEVEL001
  6
Continuous
 62
     6
370
    15
100
AcDbLine
 10
117.97385407244
 20
160.74036525098
 30
0.0
 11
144.64052073911
 21
160.74036525098
 31
0.0
  0
LINE
  5
8C1
330
A
100
AcDbEntity
  8
LEVEL001
  6
Continuous
 62
     6
370
    15
100
AcDbLine
 10
117.97385407244
 20
148.54885620213
 30
0.0
 11
117.97385407244
 21
161.74036525098
 31
0.0
  0
CIRCLE
  5
8C2
330
A
100
AcDbEntity
  8
LEVEL001
  6
Continuous
 62
     6
370
    15
100
AcDbCircle
 10
117.97385407244
 20
160.74036525098
 30
0.0
 40
0.4
  0
TEXT
  5
8C3
330
A
100
AcDbEntity
  8
LEVEL001
 62
     6
370
    15
100
AcDbText
 10
127.30718740578
 20
161.74036525098
 30
0.0
 40
3.0
  1
４００
 41
0.8
100
AcDbText
  0
LINE
  5
8C4
330
A
100
AcDbEntity
  8
LEVEL001
  6
Continuous
 62
     6
370
    15
100
AcDbLine
 10
144.64052073911
 20
160.74036525098
 30
0.0
 11
171.30718740578
 21
160.74036525098
 31
0.0
  0
LINE
  5
8C5
330
A
100
AcDbEntity
  8
LEVEL001
  6
Continuous
 62
     6
370
    15
100
AcDbLine
 10
144.64052073911
 20
148.54885620213
 30
0.0
 11
144.64052073911
 21
161.74036525098
 31
0.0
  0
CIRCLE
  5
8C6
330
A
100
AcDbEntity
  8
LEVEL001
  6
Continuous
 62
     6
370
    15
100
AcDbCircle
 10
144.64052073911
 20
160.74036525098
 30
0.0
 40
0.4
  0
TEXT
  5
8C7
330
A
100
AcDbEntity
  8
LEVEL001
 62
     6
370
    15
100
AcDbText
 10
153.97385407244
 20
161.74036525098
 30
0.0
 40
3.0
  1
４００
 41
0.8
100
AcDbText
  0
LINE
  5
8C8
330
A
100
AcDbEntity
  8
LEVEL001
  6
Continuous
 62
     6
370
    15
100
AcDbLine
 10
171.30718740578
 20
160.74036525098
 30
0.0
 11
197.97385407244
 21
160.74036525098
 31
0.0
  0
LINE
  5
8C9
330
A
100
AcDbEntity
  8
LEVEL001
  6
Continuous
 62
     6
370
    15
100
AcDbLine
 10
171.30718740578
 20
148.54885620213
 30
0.0
 11
171.30718740578
 21
161.74036525098
 31
0.0
  0
CIRCLE
  5
8CA
330
A
100
AcDbEntity
  8
LEVEL001
  6
Continuous
 62
     6
370
    15
100
AcDbCircle
 10
171.30718740578
 20
160.74036525098
 30
0.0
 40
0.4
  0
TEXT
  5
8CB
330
A
100
AcDbEntity
  8
LEVEL001
 62
     6
370
    15
100
AcDbText
 10
180.64052073911
 20
161.74036525098
 30
0.0
 40
3.0
  1
４００
 41
0.8
100
AcDbText
  0
LINE
  5
8CC
330
A
100
AcDbEntity
  8
LEVEL001
  6
Continuous
 62
     6
370
    15
100
AcDbLine
 10
197.97385407244
 20
160.74036525098
 30
0.0
 11
224.64052073911
 21
160.74036525098
 31
0.0
  0
LINE
  5
8CD
330
A
100
AcDbEntity
  8
LEVEL001
  6
Continuous
 62
     6
370
    15
100
AcDbLine
 10
197.97385407244
 20
148.54885620213
 30
0.0
 11
197.97385407244
 21
161.74036525098
 31
0.0
  0
CIRCLE
  5
8CE
330
A
100
AcDbEntity
  8
LEVEL001
  6
Continuous
 62
     6
370
    15
100
AcDbCircle
 10
197.97385407244
 20
160.74036525098
 30
0.0
 40
0.4
  0
TEXT
  5
8CF
330
A
100
AcDbEntity
  8
LEVEL001
 62
     6
370
    15
100
AcDbText
 10
207.30718740578
 20
161.74036525098
 30
0.0
 40
3.0
  1
４００
 41
0.8
100
AcDbText
  0
LINE
  5
8D0
330
A
100
AcDbEntity
  8
LEVEL001
  6
Continuous
 62
     6
370
    15
100
AcDbLine
 10
224.64052073911
 20
160.74036525098
 30
0.0
 11
251.30718740578
 21
160.74036525098
 31
0.0
  0
LINE
  5
8D1
330
A
100
AcDbEntity
  8
LEVEL001
  6
Continuous
 62
     6
370
    15
100
AcDbLine
 10
224.64052073911
 20
148.54885620213
 30
0.0
 11
224.64052073911
 21
161.74036525098
 31
0.0
  0
CIRCLE
  5
8D2
330
A
100
AcDbEntity
  8
LEVEL001
  6
Continuous
 62
     6
370
    15
100
AcDbCircle
 10
224.64052073911
 20
160.74036525098
 30
0.0
 40
0.4
  0
TEXT
  5
8D3
330
A
100
AcDbEntity
  8
LEVEL001
 62
     6
370
    15
100
AcDbText
 10
233.97385407244
 20
161.74036525098
 30
0.0
 40
3.0
  1
４００
 41
0.8
100
AcDbText
  0
LINE
  5
8D4
330
A
100
AcDbEntity
  8
LEVEL001
  6
Continuous
 62
     6
370
    15
100
AcDbLine
 10
251.30718740578
 20
160.74036525098
 30
0.0
 11
277.97385407244
 21
160.74036525098
 31
0.0
  0
LINE
  5
8D5
330
A
100
AcDbEntity
  8
LEVEL001
  6
Continuous
 62
     6
370
    15
100
AcDbLine
 10
251.30718740578
 20
148.54885620213
 30
0.0
 11
251.30718740578
 21
161.74036525098
 31
0.0
  0
CIRCLE
  5
8D6
330
A
100
AcDbEntity
  8
LEVEL001
  6
Continuous
 62
     6
370
    15
100
AcDbCircle
 10
251.30718740578
 20
160.74036525098
 30
0.0
 40
0.4
  0
TEXT
  5
8D7
330
A
100
AcDbEntity
  8
LEVEL001
 62
     6
370
    15
100
AcDbText
 10
260.64052073911
 20
161.74036525098
 30
0.0
 40
3.0
  1
４００
 41
0.8
100
AcDbText
  0
LINE
  5
8D8
330
A
100
AcDbEntity
  8
LEVEL001
  6
Continuous
 62
     6
370
    15
100
AcDbLine
 10
277.97385407244
 20
160.74036525098
 30
0.0
 11
289.02430498344
 21
160.74036525098
 31
0.0
  0
LINE
  5
8D9
330
A
100
AcDbEntity
  8
LEVEL001
  6
Continuous
 62
     6
370
    15
100
AcDbLine
 10
277.97385407244
 20
148.54885620213
 30
0.0
 11
277.97385407244
 21
161.74036525098
 31
0.0
  0
LINE
  5
8DA
330
A
100
AcDbEntity
  8
LEVEL001
  6
Continuous
 62
     6
370
    15
100
AcDbLine
 10
281.30718740578
 20
148.54885620213
 30
0.0
 11
281.30718740578
 21
161.74036525098
 31
0.0
  0
CIRCLE
  5
8DB
330
A
100
AcDbEntity
  8
LEVEL001
  6
Continuous
 62
     6
370
    15
100
AcDbCircle
 10
277.97385407244
 20
160.74036525098
 30
0.0
 40
0.4
  0
CIRCLE
  5
8DC
330
A
100
AcDbEntity
  8
LEVEL001
  6
Continuous
 62
     6
370
    15
100
AcDbCircle
 10
281.30718740578
 20
160.74036525098
 30
0.0
 40
0.4
  0
TEXT
  5
8DD
330
A
100
AcDbEntity
  8
LEVEL001
 62
     6
370
    15
100
AcDbText
 10
283.52430498344
 20
162.12792224849
 30
0.0
 40
3.0
  1
５０
 41
0.8
100
AcDbText
  0
LINE
  5
8DE
330
A
100
AcDbEntity
  8
LEVEL001
  6
Continuous
 62
     6
370
    15
100
AcDbLine
 10
81.307187405776
 20
96.83541283539
 30
0.0
 11
281.30718740578
 21
96.83541283539
 31
0.0
  0
LINE
  5
8DF
330
A
100
AcDbEntity
  8
LEVEL001
  6
Continuous
 62
     6
370
    15
100
AcDbLine
 10
81.307187405776
 20
106.20530663314
 30
0.0
 11
81.307187405776
 21
95.83541283539
 31
0.0
  0
LINE
  5
8E0
330
A
100
AcDbEntity
  8
LEVEL001
  6
Continuous
 62
     6
370
    15
100
AcDbLine
 10
281.30718740578
 20
106.20530663314
 30
0.0
 11
281.30718740578
 21
95.83541283539
 31
0.0
  0
CIRCLE
  5
8E1
330
A
100
AcDbEntity
  8
LEVEL001
  6
Continuous
 62
     6
370
    15
100
AcDbCircle
 10
81.307187405776
 20
96.83541283539
 30
0.0
 40
0.4
  0
CIRCLE
  5
8E2
330
A
100
AcDbEntity
  8
LEVEL001
  6
Continuous
 62
     6
370
    15
100
AcDbCircle
 10
281.30718740578
 20
96.83541283539
 30
0.0
 40
0.4
  0
TEXT
  5
8E3
330
A
100
AcDbEntity
  8
LEVEL001
 62
     6
370
    15
100
AcDbText
 10
176.05718740578
 20
97.83541283539001
 30
0.0
 40
3.0
  1
３０００
 41
0.8
100
AcDbText
  0
LINE
  5
8E4
330
A
100
AcDbEntity
  8
LEVEL001
  6
Continuous
 62
     6
370
    15
100
AcDbLine
 10
291.30718740578
 20
50.23406751516001
 30
0.0
 11
291.30718740578
 21
41.70073418180999
 31
0.0
  0
LINE
  5
8E5
330
A
100
AcDbEntity
  8
LEVEL001
  6
Continuous
 62
     6
370
    15
100
AcDbLine
 10
281.50718740578
 20
50.23406751516001
 30
0.0
 11
292.30718740578
 21
50.23406751516001
 31
0.0
  0
LINE
  5
8E6
330
A
100
AcDbEntity
  8
LEVEL001
  6
Continuous
 62
     6
370
    15
100
AcDbLine
 10
282.30718740578
 20
41.70073418180999
 30
0.0
 11
292.30718740578
 21
41.70073418180999
 31
0.0
  0
CIRCLE
  5
8E7
330
A
100
AcDbEntity
  8
LEVEL001
  6
Continuous
 62
     6
370
    15
100
AcDbCircle
 10
291.30718740578
 20
50.23406751516001
 30
0.0
 40
0.4
  0
CIRCLE
  5
8E8
330
A
100
AcDbEntity
  8
LEVEL001
  6
Continuous
 62
     6
370
    15
100
AcDbCircle
 10
291.30718740578
 20
41.70073418180999
 30
0.0
 40
0.4
  0
TEXT
  5
8E9
330
A
100
AcDbEntity
  8
LEVEL001
 62
     6
370
    15
100
AcDbText
 10
290.30718740578
 20
43.21740084848999
 30
0.0
 40
3.0
  1
１６
 50
90.0
 41
0.8
100
AcDbText
  0
ARC
  5
8EA
330
A
100
AcDbEntity
  8
LEVEL001
  6
Continuous
 62
     6
370
    15
100
AcDbCircle
 10
36.797439882616
 20
64.20206751516997
 30
0.0
 40
6.2698971911939
100
AcDbArc
 50
134.9999999999997
 51
270.0
  0
CIRCLE
  5
8EB
330
A
100
AcDbEntity
  8
LEVEL001
  6
Continuous
 62
     6
370
    15
100
AcDbCircle
 10
32.36395306138
 20
68.63555433641
 30
0.0
 40
0.4
  0
CIRCLE
  5
8EC
330
A
100
AcDbEntity
  8
LEVEL001
  6
Continuous
 62
     6
370
    15
100
AcDbCircle
 10
36.797439882615
 20
57.93217032398001
 30
0.0
 40
0.4
  0
TEXT
  5
8ED
330
A
100
AcDbEntity
  8
LEVEL001
 62
     6
370
    15
100
AcDbText
 10
30.876310290229
 20
64.72603388423999
 30
0.0
 40
2.0
  1
１３５ﾟ
 50
292.5
 41
0.8
100
AcDbText
  0
LINE
  5
8EE
330
A
100
AcDbEntity
  8
LEVEL001
  6
Continuous
 62
     6
370
    15
100
AcDbLine
 10
50.182282608217
 20
50.23406751518002
 30
0.0
 11
50.182282608217
 21
41.70073418183
 31
0.0
  0
LINE
  5
8EF
330
A
100
AcDbEntity
  8
LEVEL001
  6
Continuous
 62
     6
370
    15
100
AcDbLine
 10
40.258068980209
 20
50.23406751518002
 30
0.0
 11
51.182282608217
 21
50.23406751518002
 31
0.0
  0
LINE
  5
8F0
330
A
100
AcDbEntity
  8
LEVEL001
  6
Continuous
 62
     6
370
    15
100
AcDbLine
 10
40.197439882615
 20
41.70073418183
 30
0.0
 11
51.182282608217
 21
41.70073418183
 31
0.0
  0
CIRCLE
  5
8F1
330
A
100
AcDbEntity
  8
LEVEL001
  6
Continuous
 62
     6
370
    15
100
AcDbCircle
 10
50.182282608217
 20
50.23406751518002
 30
0.0
 40
0.4
  0
CIRCLE
  5
8F2
330
A
100
AcDbEntity
  8
LEVEL001
  6
Continuous
 62
     6
370
    15
100
AcDbCircle
 10
50.182282608217
 20
41.70073418183
 30
0.0
 40
0.4
  0
TEXT
  5
8F3
330
A
100
AcDbEntity
  8
LEVEL001
 62
     6
370
    15
100
AcDbText
 10
49.182282608217
 20
43.2174008485
 30
0.0
 40
3.0
  1
１６
 50
90.0
 41
0.8
100
AcDbText
  0
LINE
  5
8F4
330
A
100
AcDbEntity
  8
LEVEL001
  6
Continuous
 62
     6
370
    15
100
AcDbLine
 10
57.997439882615
 20
66.06873418184
 30
0.0
 11
57.997439882615
 21
41.70073418183
 31
0.0
  0
LINE
  5
8F5
330
A
100
AcDbEntity
  8
LEVEL001
  6
Continuous
 62
     6
370
    15
100
AcDbLine
 10
37.797439882616
 20
66.06873418184
 30
0.0
 11
58.997439882615
 21
66.06873418184
 31
0.0
  0
LINE
  5
8F6
330
A
100
AcDbEntity
  8
LEVEL001
  6
Continuous
 62
     6
370
    15
100
AcDbLine
 10
48.997439882615
 20
41.70073418183
 30
0.0
 11
58.997439882615
 21
41.70073418183
 31
0.0
  0
CIRCLE
  5
8F7
330
A
100
AcDbEntity
  8
LEVEL001
  6
Continuous
 62
     6
370
    15
100
AcDbCircle
 10
57.997439882615
 20
66.06873418184
 30
0.0
 40
0.4
  0
CIRCLE
  5
8F8
330
A
100
AcDbEntity
  8
LEVEL001
  6
Continuous
 62
     6
370
    15
100
AcDbCircle
 10
57.997439882615
 20
41.70073418183
 30
0.0
 40
0.4
  0
TEXT
  5
8F9
330
A
100
AcDbEntity
  8
LEVEL001
 62
     6
370
    15
100
AcDbText
 10
56.99743988261499
 20
48.00973418183997
 30
0.0
 40
3.0
  1
４９.４９
 50
90.0
 41
0.8
100
AcDbText
  0
LINE
  5
901
330
A
100
AcDbEntity
  8
LEVEL001
  6
Continuous
 62
     6
370
    15
100
AcDbLine
 10
281.30718740578
 20
28.52385674998999
 30
0.0
 11
271.30718740578
 21
28.52385674998999
 31
0.0
  0
LINE
  5
902
330
A
100
AcDbEntity
  8
LEVEL001
  6
Continuous
 62
     6
370
    15
100
AcDbLine
 10
281.30718740578
 20
40.70073418183
 30
0.0
 11
281.30718740578
 21
27.52385674998999
 31
0.0
  0
CIRCLE
  5
903
330
A
100
AcDbEntity
  8
LEVEL001
  6
Continuous
 62
     6
370
    15
100
AcDbCircle
 10
281.30718740578
 20
28.52385674998999
 30
0.0
 40
0.4
  0
TEXT
  5
904
330
A
100
AcDbEntity
  8
LEVEL001
 62
     6
370
    15
100
AcDbText
 10
272.30718740578
 20
29.52385674998999
 30
0.0
 40
3.0
  1
１５０
 41
0.8
100
AcDbText
  0
LINE
  5
905
330
A
100
AcDbEntity
  8
LEVEL001
  6
Continuous
 62
     6
370
    15
100
AcDbLine
 10
271.30718740578
 20
28.52385674998999
 30
0.0
 11
244.64052073911
 21
28.52385674998999
 31
0.0
  0
LINE
  5
906
330
A
100
AcDbEntity
  8
LEVEL001
  6
Continuous
 62
     6
370
    15
100
AcDbLine
 10
271.30718740578
 20
40.70073418183
 30
0.0
 11
271.30718740578
 21
27.52385674998999
 31
0.0
  0
CIRCLE
  5
907
330
A
100
AcDbEntity
  8
LEVEL001
  6
Continuous
 62
     6
370
    15
100
AcDbCircle
 10
271.30718740578
 20
28.52385674998999
 30
0.0
 40
0.4
  0
TEXT
  5
908
330
A
100
AcDbEntity
  8
LEVEL001
 62
     6
370
    15
100
AcDbText
 10
253.97385407244
 20
29.52385674998999
 30
0.0
 40
3.0
  1
４００
 41
0.8
100
AcDbText
  0
LINE
  5
909
330
A
100
AcDbEntity
  8
LEVEL001
  6
Continuous
 62
     6
370
    15
100
AcDbLine
 10
244.64052073911
 20
28.52385674998999
 30
0.0
 11
217.97385407244
 21
28.52385674998999
 31
0.0
  0
LINE
  5
90A
330
A
100
AcDbEntity
  8
LEVEL001
  6
Continuous
 62
     6
370
    15
100
AcDbLine
 10
244.64052073911
 20
40.70073418183
 30
0.0
 11
244.64052073911
 21
27.52385674998999
 31
0.0
  0
CIRCLE
  5
90B
330
A
100
AcDbEntity
  8
LEVEL001
  6
Continuous
 62
     6
370
    15
100
AcDbCircle
 10
244.64052073911
 20
28.52385674998999
 30
0.0
 40
0.4
  0
TEXT
  5
90C
330
A
100
AcDbEntity
  8
LEVEL001
 62
     6
370
    15
100
AcDbText
 10
227.30718740578
 20
29.52385674998999
 30
0.0
 40
3.0
  1
４００
 41
0.8
100
AcDbText
  0
LINE
  5
90D
330
A
100
AcDbEntity
  8
LEVEL001
  6
Continuous
 62
     6
370
    15
100
AcDbLine
 10
217.97385407244
 20
28.52385674998999
 30
0.0
 11
191.30718740578
 21
28.52385674998999
 31
0.0
  0
LINE
  5
90E
330
A
100
AcDbEntity
  8
LEVEL001
  6
Continuous
 62
     6
370
    15
100
AcDbLine
 10
217.97385407244
 20
40.70073418183
 30
0.0
 11
217.97385407244
 21
27.52385674998999
 31
0.0
  0
CIRCLE
  5
90F
330
A
100
AcDbEntity
  8
LEVEL001
  6
Continuous
 62
     6
370
    15
100
AcDbCircle
 10
217.97385407244
 20
28.52385674998999
 30
0.0
 40
0.4
  0
TEXT
  5
910
330
A
100
AcDbEntity
  8
LEVEL001
 62
     6
370
    15
100
AcDbText
 10
200.64052073911
 20
29.52385674998999
 30
0.0
 40
3.0
  1
４００
 41
0.8
100
AcDbText
  0
LINE
  5
911
330
A
100
AcDbEntity
  8
LEVEL001
  6
Continuous
 62
     6
370
    15
100
AcDbLine
 10
191.30718740578
 20
28.52385674998999
 30
0.0
 11
164.64052073911
 21
28.52385674998999
 31
0.0
  0
LINE
  5
912
330
A
100
AcDbEntity
  8
LEVEL001
  6
Continuous
 62
     6
370
    15
100
AcDbLine
 10
191.30718740578
 20
40.70073418183
 30
0.0
 11
191.30718740578
 21
27.52385674998999
 31
0.0
  0
CIRCLE
  5
913
330
A
100
AcDbEntity
  8
LEVEL001
  6
Continuous
 62
     6
370
    15
100
AcDbCircle
 10
191.30718740578
 20
28.52385674998999
 30
0.0
 40
0.4
  0
TEXT
  5
914
330
A
100
AcDbEntity
  8
LEVEL001
 62
     6
370
    15
100
AcDbText
 10
173.97385407244
 20
29.52385674998999
 30
0.0
 40
3.0
  1
４００
 41
0.8
100
AcDbText
  0
LINE
  5
915
330
A
100
AcDbEntity
  8
LEVEL001
  6
Continuous
 62
     6
370
    15
100
AcDbLine
 10
164.64052073911
 20
28.52385674998999
 30
0.0
 11
137.97385407244
 21
28.52385674998999
 31
0.0
  0
LINE
  5
916
330
A
100
AcDbEntity
  8
LEVEL001
  6
Continuous
 62
     6
370
    15
100
AcDbLine
 10
164.64052073911
 20
40.70073418183
 30
0.0
 11
164.64052073911
 21
27.52385674998999
 31
0.0
  0
CIRCLE
  5
917
330
A
100
AcDbEntity
  8
LEVEL001
  6
Continuous
 62
     6
370
    15
100
AcDbCircle
 10
164.64052073911
 20
28.52385674998999
 30
0.0
 40
0.4
  0
TEXT
  5
918
330
A
100
AcDbEntity
  8
LEVEL001
 62
     6
370
    15
100
AcDbText
 10
147.30718740578
 20
29.52385674998999
 30
0.0
 40
3.0
  1
４００
 41
0.8
100
AcDbText
  0
LINE
  5
919
330
A
100
AcDbEntity
  8
LEVEL001
  6
Continuous
 62
     6
370
    15
100
AcDbLine
 10
137.97385407244
 20
28.52385674998999
 30
0.0
 11
111.30718740578
 21
28.52385674998999
 31
0.0
  0
LINE
  5
91A
330
A
100
AcDbEntity
  8
LEVEL001
  6
Continuous
 62
     6
370
    15
100
AcDbLine
 10
137.97385407244
 20
40.70073418183
 30
0.0
 11
137.97385407244
 21
27.52385674998999
 31
0.0
  0
CIRCLE
  5
91B
330
A
100
AcDbEntity
  8
LEVEL001
  6
Continuous
 62
     6
370
    15
100
AcDbCircle
 10
137.97385407244
 20
28.52385674998999
 30
0.0
 40
0.4
  0
TEXT
  5
91C
330
A
100
AcDbEntity
  8
LEVEL001
 62
     6
370
    15
100
AcDbText
 10
120.64052073911
 20
29.52385674998999
 30
0.0
 40
3.0
  1
４００
 41
0.8
100
AcDbText
  0
LINE
  5
91D
330
A
100
AcDbEntity
  8
LEVEL001
  6
Continuous
 62
     6
370
    15
100
AcDbLine
 10
111.30718740578
 20
28.52385674998999
 30
0.0
 11
84.64052073910899
 21
28.52385674998999
 31
0.0
  0
LINE
  5
91E
330
A
100
AcDbEntity
  8
LEVEL001
  6
Continuous
 62
     6
370
    15
100
AcDbLine
 10
111.30718740578
 20
40.70073418183
 30
0.0
 11
111.30718740578
 21
27.52385674998999
 31
0.0
  0
CIRCLE
  5
91F
330
A
100
AcDbEntity
  8
LEVEL001
  6
Continuous
 62
     6
370
    15
100
AcDbCircle
 10
111.30718740578
 20
28.52385674998999
 30
0.0
 40
0.4
  0
TEXT
  5
920
330
A
100
AcDbEntity
  8
LEVEL001
 62
     6
370
    15
100
AcDbText
 10
93.97385407244199
 20
29.52385674998999
 30
0.0
 40
3.0
  1
４００
 41
0.8
100
AcDbText
  0
LINE
  5
921
330
A
100
AcDbEntity
  8
LEVEL001
  6
Continuous
 62
     6
370
    15
100
AcDbLine
 10
84.64052073910899
 20
28.52385674998999
 30
0.0
 11
73.590069828108
 21
28.52385674998999
 31
0.0
  0
LINE
  5
922
330
A
100
AcDbEntity
  8
LEVEL001
  6
Continuous
 62
     6
370
    15
100
AcDbLine
 10
84.64052073910899
 20
40.70073418183
 30
0.0
 11
84.64052073910899
 21
27.52385674998999
 31
0.0
  0
LINE
  5
923
330
A
100
AcDbEntity
  8
LEVEL001
  6
Continuous
 62
     6
370
    15
100
AcDbLine
 10
81.307187405776
 20
40.70073418183
 30
0.0
 11
81.307187405776
 21
27.52385674998999
 31
0.0
  0
CIRCLE
  5
924
330
A
100
AcDbEntity
  8
LEVEL001
  6
Continuous
 62
     6
370
    15
100
AcDbCircle
 10
84.64052073910899
 20
28.52385674998999
 30
0.0
 40
0.4
  0
CIRCLE
  5
925
330
A
100
AcDbEntity
  8
LEVEL001
  6
Continuous
 62
     6
370
    15
100
AcDbCircle
 10
81.307187405776
 20
28.52385674998999
 30
0.0
 40
0.4
  0
TEXT
  5
926
330
A
100
AcDbEntity
  8
LEVEL001
 62
     6
370
    15
100
AcDbText
 10
73.590069828108
 20
29.91141374749998
 30
0.0
 40
3.0
  1
５０
 41
0.8
100
AcDbText
  0
LINE
  5
927
330
A
100
AcDbEntity
  8
LEVEL001
  6
Continuous
 62
     6
370
    15
100
AcDbLine
 10
281.30718740578
 20
86.46624358127002
 30
0.0
 11
81.307187405776
 21
86.46624358127002
 31
0.0
  0
LINE
  5
928
330
A
100
AcDbEntity
  8
LEVEL001
  6
Continuous
 62
     6
370
    15
100
AcDbLine
 10
281.30718740578
 20
83.04428375082
 30
0.0
 11
281.30718740578
 21
87.46624358127002
 31
0.0
  0
LINE
  5
929
330
A
100
AcDbEntity
  8
LEVEL001
  6
Continuous
 62
     6
370
    15
100
AcDbLine
 10
81.307187405776
 20
83.04428375082
 30
0.0
 11
81.307187405776
 21
87.46624358127002
 31
0.0
  0
CIRCLE
  5
92A
330
A
100
AcDbEntity
  8
LEVEL001
  6
Continuous
 62
     6
370
    15
100
AcDbCircle
 10
281.30718740578
 20
86.46624358127002
 30
0.0
 40
0.4
  0
CIRCLE
  5
92B
330
A
100
AcDbEntity
  8
LEVEL001
  6
Continuous
 62
     6
370
    15
100
AcDbCircle
 10
81.307187405776
 20
86.46624358127002
 30
0.0
 40
0.4
  0
TEXT
  5
92C
330
A
100
AcDbEntity
  8
LEVEL001
 62
     6
370
    15
100
AcDbText
 10
176.05718740578
 20
87.46624358127002
 30
0.0
 40
3.0
  1
３０００
 41
0.8
100
AcDbText
  0
HATCH
  5
A77
330
A
100
AcDbEntity
  8
LEVEL001
  6
Continuous
100
AcDbHatch
 10
0.0
 20
0.0
 30
0.0
210
0.0
220
0.0
230
1.0
  2
SOLID
 70
     1
 71
     0
 91
        9
 92
        7
 72
     0
 73
     1
 93
        6
 10
324.45000000004
 20
280.475
 10
319.05000000004
 20
280.475
 10
312.65000000004
 20
270.875
 10
319.05000000004
 20
261.275
 10
324.45000000004
 20
261.275
 10
318.05000000004
 20
270.875
 97
        0
 92
        7
 72
     0
 73
     1
 93
        6
 10
332.55000000004
 20
280.475
 10
327.15000000004
 20
280.475
 10
320.75000000004
 20
270.875
 10
327.15000000004
 20
261.275
 10
332.55000000004
 20
261.275
 10
326.15000000004
 20
270.875
 97
        0
 92
        7
 72
     0
 73
     1
 93
        3
 10
333.35000000004
 20
270.875
 10
328.85000000004
 20
270.875
 10
333.35000000004
 20
263.675
 97
        0
 92
        7
 72
     1
 73
     1
 93
        6
 10
344.15000000004
 20
272.0750000000001
 42
0.0
 10
336.95000000004
 20
272.0750000000001
 42
0.0
 10
336.95000000004
 20
261.275
 42
0.0
 10
340.55000000004
 20
261.275
 42
0.0
 10
340.55000000004
 20
263.075
 42
0.0
 10
344.15000000004
 20
263.075
 42
1.0
 97
        0
 92
       22
 72
     1
 73
     1
 93
        4
 10
344.15000000004
 20
268.4749999999999
 42
-1.0
 10
344.15000000004
 20
266.6749999999999
 42
0.0
 10
340.55000000004
 20
266.6749999999999
 42
0.0
 10
340.55000000004
 20
268.475
 42
0.0
 97
        0
 92
        7
 72
     0
 73
     1
 93
        4
 10
358.55000000004
 20
272.0750000000001
 10
353.15000000004
 20
272.0750000000001
 10
345.95000000004
 20
261.275
 10
351.35000000004
 20
261.275
 97
        0
 92
       23
 72
     0
 73
     1
 93
        3
 10
357.35000000004
 20
268.11166923472
 10
352.79222051023
 20
261.275
 10
357.35000000004
 20
261.275
 97
        0
 92
        7
 72
     0
 73
     1
 93
       22
 10
371.15000000004
 20
268.475
 10
374.75000000004
 20
268.475
 10
374.75000000004
 20
261.275
 10
385.55000000004
 20
261.275
 10
385.55000000004
 20
264.875
 10
378.35000000004
 20
264.875
 10
378.35000000004
 20
265.775
 10
384.65000000004
 20
265.775
 10
384.65000000004
 20
267.575
 10
378.35000000004
 20
267.575
 10
378.35000000004
 20
268.475
 10
385.55000000004
 20
268.475
 10
385.55000000004
 20
272.0750000000001
 10
363.95000000004
 20
272.0750000000001
 10
363.95000000004
 20
268.475
 10
367.55000000004
 20
268.475
 10
367.55000000004
 20
264.875
 10
362.15000000004
 20
264.875
 10
362.15000000004
 20
272.0750000000001
 10
358.55000000004
 20
272.0750000000001
 10
358.55000000004
 20
261.275
 10
371.15000000004
 20
261.275
 97
        0
 92
        7
 72
     1
 73
     1
 93
        8
 10
396.35000000004
 20
264.875
 42
0.0
 10
390.95000000004
 20
264.875
 42
-1.0
 10
390.95000000004
 20
268.475
 42
0.0
 10
396.35000000004
 20
268.475
 42
0.0
 10
396.35000000004
 20
272.0750000000001
 42
0.0
 10
390.95000000004
 20
272.0750000000001
 42
1.0
 10
390.95000000004
 20
261.2750000000001
 42
0.0
 10
396.35000000004
 20
261.275
 42
0.0
 97
        0
 75
     1
 76
     1
 47
0.1768692574943107
 98
        9
 10
316.3028085384976
 20
271.1438256596732
 10
326.0377771801086
 20
271.1438256596732
 10
331.5247606487755
 20
269.3751313677205
 10
342.1447340622563
 20
269.3751313677205
 10
342.1447340622563
 20
269.3751313677205
 10
352.7647032832892
 20
264.599661457338
 10
355.7736943529599
 20
263.1847069148023
 10
364.6236666075974
 20
263.0078381538772
 10
394.359579588001
 20
263.0078381538772
450
        0
451
        0
460
0.0
461
0.0
452
        0
462
1.0
453
        2
463
0.0
 63
     5
421
      255
463
1.0
 63
     2
421
 16776960
470
LINEAR
1001
GradientColor1ACI
1070
     5
1001
GradientColor2ACI
1070
     2
1001
ACAD
1010
0.0
1020
0.0
1030
0.0
  0
LWPOLYLINE
  5
A78
330
A
100
AcDbEntity
  8
LEVEL001
  6
Continuous
 62
     3
100
AcDbPolyline
 90
        6
 70
     0
 43
0.0
 10
344.15000000004
 20
272.0750000000001
 10
336.95000000004
 20
272.0750000000001
 10
336.95000000004
 20
261.275
 10
340.55000000004
 20
261.275
 10
340.55000000004
 20
263.075
 10
344.15000000004
 20
263.075
  0
ARC
  5
A79
330
A
100
AcDbEntity
  8
LEVEL001
  6
Continuous
 62
     3
100
AcDbCircle
 10
344.15000000004
 20
267.575
 30
0.0
 40
4.5
100
AcDbArc
 50
270.0
 51
90.0
  0
LINE
  5
A7A
330
A
100
AcDbEntity
  8
LEVEL001
  6
Continuous
 62
     3
100
AcDbLine
 10
340.55000000004
 20
266.6749999999999
 30
0.0
 11
344.15000000004
 21
266.6749999999999
 31
0.0
  0
ARC
  5
A7B
330
A
100
AcDbEntity
  8
LEVEL001
  6
Continuous
 62
     3
100
AcDbCircle
 10
344.15000000004
 20
267.575
 30
0.0
 40
0.9
100
AcDbArc
 50
270.0
 51
90.0
  0
LINE
  5
A7C
330
A
100
AcDbEntity
  8
LEVEL001
  6
Continuous
 62
     3
100
AcDbLine
 10
344.15000000004
 20
268.475
 30
0.0
 11
340.55000000004
 21
268.475
 31
0.0
  0
LINE
  5
A7D
330
A
100
AcDbEntity
  8
LEVEL001
  6
Continuous
 62
     3
100
AcDbLine
 10
340.55000000004
 20
268.475
 30
0.0
 11
340.55000000004
 21
266.6749999999999
 31
0.0
  0
LWPOLYLINE
  5
A7E
330
A
100
AcDbEntity
  8
LEVEL001
  6
Continuous
 62
     3
100
AcDbPolyline
 90
       26
 70
     0
 43
0.0
 10
345.95000000004
 20
261.275
 10
353.15000000004
 20
272.0750000000001
 10
362.15000000004
 20
272.0750000000001
 10
362.15000000004
 20
264.875
 10
367.55000000004
 20
264.875
 10
367.55000000004
 20
268.475
 10
363.95000000004
 20
268.475
 10
363.95000000004
 20
272.0750000000001
 10
385.55000000004
 20
272.0750000000001
 10
385.55000000004
 20
268.475
 10
378.35000000004
 20
268.475
 10
378.35000000004
 20
267.575
 10
384.65000000004
 20
267.575
 10
384.65000000004
 20
265.775
 10
378.35000000004
 20
265.775
 10
378.35000000004
 20
264.875
 10
385.55000000004
 20
264.875
 10
385.55000000004
 20
261.275
 10
374.75000000004
 20
261.275
 10
374.75000000004
 20
268.475
 10
371.15000000004
 20
268.475
 10
371.15000000004
 20
261.275
 10
358.55000000004
 20
261.275
 10
358.55000000004
 20
272.0750000000001
 10
351.35000000004
 20
261.275
 10
345.95000000004
 20
261.275
  0
LWPOLYLINE
  5
A7F
330
A
100
AcDbEntity
  8
LEVEL001
  6
Continuous
 62
     3
100
AcDbPolyline
 90
        4
 70
     0
 43
0.0
 10
357.35000000004
 20
268.11166923472
 10
352.79222051023
 20
261.275
 10
357.35000000004
 20
261.275
 10
357.35000000004
 20
268.11166923472
  0
ARC
  5
A80
330
A
100
AcDbEntity
  8
LEVEL001
  6
Continuous
 62
     3
100
AcDbCircle
 10
390.95000000004
 20
266.6749999999999
 30
0.0
 40
5.4
100
AcDbArc
 50
90.0
 51
270.0
  0
ARC
  5
A81
330
A
100
AcDbEntity
  8
LEVEL001
  6
Continuous
 62
     3
100
AcDbCircle
 10
390.95000000004
 20
266.6749999999999
 30
0.0
 40
1.8
100
AcDbArc
 50
90.0
 51
270.0
  0
LWPOLYLINE
  5
A82
330
A
100
AcDbEntity
  8
LEVEL001
  6
Continuous
 62
     3
100
AcDbPolyline
 90
        4
 70
     0
 43
0.0
 10
390.95000000004
 20
272.0750000000001
 10
396.35000000004
 20
272.0750000000001
 10
396.35000000004
 20
268.475
 10
390.95000000004
 20
268.475
  0
LINE
  5
A83
330
A
100
AcDbEntity
  8
LEVEL001
  6
Continuous
 62
     3
100
AcDbLine
 10
336.95000000004
 20
272.0750000000001
 30
0.0
 11
336.95000000004
 21
261.275
 31
0.0
  0
LINE
  5
A84
330
A
100
AcDbEntity
  8
LEVEL001
  6
Continuous
 62
     3
100
AcDbLine
 10
336.95000000004
 20
261.275
 30
0.0
 11
340.55000000004
 21
261.275
 31
0.0
  0
LINE
  5
A85
330
A
100
AcDbEntity
  8
LEVEL001
  6
Continuous
 62
     3
100
AcDbLine
 10
340.55000000004
 20
261.275
 30
0.0
 11
340.55000000004
 21
263.075
 31
0.0
  0
LINE
  5
A86
330
A
100
AcDbEntity
  8
LEVEL001
  6
Continuous
 62
     3
100
AcDbLine
 10
340.55000000004
 20
263.075
 30
0.0
 11
344.15000000004
 21
263.075
 31
0.0
  0
ARC
  5
A87
330
A
100
AcDbEntity
  8
LEVEL001
  6
Continuous
 62
     3
100
AcDbCircle
 10
344.15000000004
 20
267.575
 30
0.0
 40
4.5
100
AcDbArc
 50
270.0
 51
90.0
  0
LINE
  5
A88
330
A
100
AcDbEntity
  8
LEVEL001
  6
Continuous
 62
     3
100
AcDbLine
 10
344.15000000004
 20
272.0750000000001
 30
0.0
 11
336.95000000004
 21
272.0750000000001
 31
0.0
  0
LINE
  5
A89
330
A
100
AcDbEntity
  8
LEVEL001
  6
Continuous
 62
     3
100
AcDbLine
 10
340.55000000004
 20
268.475
 30
0.0
 11
340.55000000004
 21
266.6749999999999
 31
0.0
  0
LINE
  5
A8A
330
A
100
AcDbEntity
  8
LEVEL001
  6
Continuous
 62
     3
100
AcDbLine
 10
340.55000000004
 20
266.6749999999999
 30
0.0
 11
344.15000000004
 21
266.6749999999999
 31
0.0
  0
ARC
  5
A8B
330
A
100
AcDbEntity
  8
LEVEL001
  6
Continuous
 62
     3
100
AcDbCircle
 10
344.15000000004
 20
267.575
 30
0.0
 40
0.9
100
AcDbArc
 50
270.0
 51
90.0
  0
LINE
  5
A8C
330
A
100
AcDbEntity
  8
LEVEL001
  6
Continuous
 62
     3
100
AcDbLine
 10
344.15000000004
 20
268.475
 30
0.0
 11
340.55000000004
 21
268.475
 31
0.0
  0
LINE
  5
A8D
330
A
100
AcDbEntity
  8
LEVEL001
  6
Continuous
 62
     3
100
AcDbLine
 10
353.15000000004
 20
272.0750000000001
 30
0.0
 11
345.95000000004
 21
261.275
 31
0.0
  0
LINE
  5
A8E
330
A
100
AcDbEntity
  8
LEVEL001
  6
Continuous
 62
     3
100
AcDbLine
 10
345.95000000004
 20
261.275
 30
0.0
 11
351.35000000004
 21
261.275
 31
0.0
  0
LINE
  5
A8F
330
A
100
AcDbEntity
  8
LEVEL001
  6
Continuous
 62
     3
100
AcDbLine
 10
351.35000000004
 20
261.275
 30
0.0
 11
358.55000000004
 21
272.0750000000001
 31
0.0
  0
LINE
  5
A90
330
A
100
AcDbEntity
  8
LEVEL001
  6
Continuous
 62
     3
100
AcDbLine
 10
358.55000000004
 20
272.0750000000001
 30
0.0
 11
353.15000000004
 21
272.0750000000001
 31
0.0
  0
LINE
  5
A91
330
A
100
AcDbEntity
  8
LEVEL001
  6
Continuous
 62
     3
100
AcDbLine
 10
357.35000000004
 20
261.275
 30
0.0
 11
357.35000000004
 21
268.11166923472
 31
0.0
  0
LINE
  5
A92
330
A
100
AcDbEntity
  8
LEVEL001
  6
Continuous
 62
     3
100
AcDbLine
 10
357.35000000004
 20
268.11166923472
 30
0.0
 11
352.79222051023
 21
261.275
 31
0.0
  0
LINE
  5
A93
330
A
100
AcDbEntity
  8
LEVEL001
  6
Continuous
 62
     3
100
AcDbLine
 10
352.79222051023
 20
261.275
 30
0.0
 11
357.35000000004
 21
261.275
 31
0.0
  0
LINE
  5
A94
330
A
100
AcDbEntity
  8
LEVEL001
  6
Continuous
 62
     3
100
AcDbLine
 10
358.55000000004
 20
261.275
 30
0.0
 11
371.15000000004
 21
261.275
 31
0.0
  0
LINE
  5
A95
330
A
100
AcDbEntity
  8
LEVEL001
  6
Continuous
 62
     3
100
AcDbLine
 10
371.15000000004
 20
261.275
 30
0.0
 11
371.15000000004
 21
268.475
 31
0.0
  0
LINE
  5
A96
330
A
100
AcDbEntity
  8
LEVEL001
  6
Continuous
 62
     3
100
AcDbLine
 10
371.15000000004
 20
268.475
 30
0.0
 11
374.75000000004
 21
268.475
 31
0.0
  0
LINE
  5
A97
330
A
100
AcDbEntity
  8
LEVEL001
  6
Continuous
 62
     3
100
AcDbLine
 10
374.75000000004
 20
268.475
 30
0.0
 11
374.75000000004
 21
261.275
 31
0.0
  0
LINE
  5
A98
330
A
100
AcDbEntity
  8
LEVEL001
  6
Continuous
 62
     3
100
AcDbLine
 10
374.75000000004
 20
261.275
 30
0.0
 11
385.55000000004
 21
261.275
 31
0.0
  0
LINE
  5
A99
330
A
100
AcDbEntity
  8
LEVEL001
  6
Continuous
 62
     3
100
AcDbLine
 10
385.55000000004
 20
261.275
 30
0.0
 11
385.55000000004
 21
264.875
 31
0.0
  0
LINE
  5
A9A
330
A
100
AcDbEntity
  8
LEVEL001
  6
Continuous
 62
     3
100
AcDbLine
 10
385.55000000004
 20
264.875
 30
0.0
 11
378.35000000004
 21
264.875
 31
0.0
  0
LINE
  5
A9B
330
A
100
AcDbEntity
  8
LEVEL001
  6
Continuous
 62
     3
100
AcDbLine
 10
378.35000000004
 20
264.875
 30
0.0
 11
378.35000000004
 21
265.775
 31
0.0
  0
LINE
  5
A9C
330
A
100
AcDbEntity
  8
LEVEL001
  6
Continuous
 62
     3
100
AcDbLine
 10
378.35000000004
 20
265.775
 30
0.0
 11
384.65000000004
 21
265.775
 31
0.0
  0
LINE
  5
A9D
330
A
100
AcDbEntity
  8
LEVEL001
  6
Continuous
 62
     3
100
AcDbLine
 10
384.65000000004
 20
265.775
 30
0.0
 11
384.65000000004
 21
267.575
 31
0.0
  0
LINE
  5
A9E
330
A
100
AcDbEntity
  8
LEVEL001
  6
Continuous
 62
     3
100
AcDbLine
 10
384.65000000004
 20
267.575
 30
0.0
 11
378.35000000004
 21
267.575
 31
0.0
  0
LINE
  5
A9F
330
A
100
AcDbEntity
  8
LEVEL001
  6
Continuous
 62
     3
100
AcDbLine
 10
378.35000000004
 20
267.575
 30
0.0
 11
378.35000000004
 21
268.475
 31
0.0
  0
LINE
  5
AA0
330
A
100
AcDbEntity
  8
LEVEL001
  6
Continuous
 62
     3
100
AcDbLine
 10
378.35000000004
 20
268.475
 30
0.0
 11
385.55000000004
 21
268.475
 31
0.0
  0
LINE
  5
AA1
330
A
100
AcDbEntity
  8
LEVEL001
  6
Continuous
 62
     3
100
AcDbLine
 10
385.55000000004
 20
268.475
 30
0.0
 11
385.55000000004
 21
272.0750000000001
 31
0.0
  0
LINE
  5
AA2
330
A
100
AcDbEntity
  8
LEVEL001
  6
Continuous
 62
     3
100
AcDbLine
 10
385.55000000004
 20
272.0750000000001
 30
0.0
 11
363.95000000004
 21
272.0750000000001
 31
0.0
  0
LINE
  5
AA3
330
A
100
AcDbEntity
  8
LEVEL001
  6
Continuous
 62
     3
100
AcDbLine
 10
363.95000000004
 20
272.0750000000001
 30
0.0
 11
363.95000000004
 21
268.475
 31
0.0
  0
LINE
  5
AA4
330
A
100
AcDbEntity
  8
LEVEL001
  6
Continuous
 62
     3
100
AcDbLine
 10
363.95000000004
 20
268.475
 30
0.0
 11
367.55000000004
 21
268.475
 31
0.0
  0
LINE
  5
AA5
330
A
100
AcDbEntity
  8
LEVEL001
  6
Continuous
 62
     3
100
AcDbLine
 10
367.55000000004
 20
268.475
 30
0.0
 11
367.55000000004
 21
264.875
 31
0.0
  0
LINE
  5
AA6
330
A
100
AcDbEntity
  8
LEVEL001
  6
Continuous
 62
     3
100
AcDbLine
 10
367.55000000004
 20
264.875
 30
0.0
 11
362.15000000004
 21
264.875
 31
0.0
  0
LINE
  5
AA7
330
A
100
AcDbEntity
  8
LEVEL001
  6
Continuous
 62
     3
100
AcDbLine
 10
362.15000000004
 20
264.875
 30
0.0
 11
362.15000000004
 21
272.0750000000001
 31
0.0
  0
LINE
  5
AA8
330
A
100
AcDbEntity
  8
LEVEL001
  6
Continuous
 62
     3
100
AcDbLine
 10
362.15000000004
 20
272.0750000000001
 30
0.0
 11
358.55000000004
 21
272.0750000000001
 31
0.0
  0
LINE
  5
AA9
330
A
100
AcDbEntity
  8
LEVEL001
  6
Continuous
 62
     3
100
AcDbLine
 10
358.55000000004
 20
272.0750000000001
 30
0.0
 11
358.55000000004
 21
261.275
 31
0.0
  0
LINE
  5
AAA
330
A
100
AcDbEntity
  8
LEVEL001
  6
Continuous
 62
     3
100
AcDbLine
 10
390.95000000004
 20
261.275
 30
0.0
 11
396.35000000004
 21
261.275
 31
0.0
  0
LINE
  5
AAB
330
A
100
AcDbEntity
  8
LEVEL001
  6
Continuous
 62
     3
100
AcDbLine
 10
396.35000000004
 20
261.275
 30
0.0
 11
396.35000000004
 21
264.875
 31
0.0
  0
LINE
  5
AAC
330
A
100
AcDbEntity
  8
LEVEL001
  6
Continuous
 62
     3
100
AcDbLine
 10
396.35000000004
 20
264.875
 30
0.0
 11
390.95000000004
 21
264.875
 31
0.0
  0
ARC
  5
AAD
330
A
100
AcDbEntity
  8
LEVEL001
  6
Continuous
 62
     3
100
AcDbCircle
 10
390.95000000004
 20
266.6749999999999
 30
0.0
 40
1.8
100
AcDbArc
 50
90.0
 51
270.0
  0
LINE
  5
AAE
330
A
100
AcDbEntity
  8
LEVEL001
  6
Continuous
 62
     3
100
AcDbLine
 10
390.95000000004
 20
268.475
 30
0.0
 11
396.35000000004
 21
268.475
 31
0.0
  0
LINE
  5
AAF
330
A
100
AcDbEntity
  8
LEVEL001
  6
Continuous
 62
     3
100
AcDbLine
 10
396.35000000004
 20
268.475
 30
0.0
 11
396.35000000004
 21
272.0750000000001
 31
0.0
  0
LINE
  5
AB0
330
A
100
AcDbEntity
  8
LEVEL001
  6
Continuous
 62
     3
100
AcDbLine
 10
396.35000000004
 20
272.0750000000001
 30
0.0
 11
390.95000000004
 21
272.0750000000001
 31
0.0
  0
ARC
  5
AB1
330
A
100
AcDbEntity
  8
LEVEL001
  6
Continuous
 62
     3
100
AcDbCircle
 10
390.95000000004
 20
266.6749999999999
 30
0.0
 40
5.4
100
AcDbArc
 50
90.0
 51
270.0
  0
TEXT
  5
AB2
330
A
100
AcDbEntity
  8
LEVEL001
 62
     3
100
AcDbText
 10
336.95000000004
 20
273.875
 30
0.0
 40
3.75
  1
ケージーパルテック株式会社
 41
0.8
100
AcDbText
  0
LWPOLYLINE
  5
AB3
330
A
100
AcDbEntity
  8
LEVEL001
  6
Continuous
 62
     3
100
AcDbPolyline
 90
        4
 70
     0
 43
0.0
 10
333.35000000004
 20
263.675
 10
328.85000000004
 20
270.875
 10
333.35000000004
 20
270.875
 10
333.35000000004
 20
263.675
  0
LINE
  5
AB4
330
A
100
AcDbEntity
  8
LEVEL001
  6
Continuous
 62
     3
100
AcDbLine
 10
328.85000000004
 20
270.875
 30
0.0
 11
333.35000000004
 21
263.675
 31
0.0
  0
LINE
  5
AB5
330
A
100
AcDbEntity
  8
LEVEL001
  6
Continuous
 62
     3
100
AcDbLine
 10
333.35000000004
 20
263.675
 30
0.0
 11
333.35000000004
 21
270.875
 31
0.0
  0
LINE
  5
AB6
330
A
100
AcDbEntity
  8
LEVEL001
  6
Continuous
 62
     3
100
AcDbLine
 10
333.35000000004
 20
270.875
 30
0.0
 11
328.85000000004
 21
270.875
 31
0.0
  0
LWPOLYLINE
  5
AB7
330
A
100
AcDbEntity
  8
LEVEL001
  6
Continuous
 62
     3
100
AcDbPolyline
 90
        3
 70
     0
 43
0.0
 10
319.05000000004
 20
280.475
 10
312.65000000004
 20
270.875
 10
319.05000000004
 20
261.275
  0
LWPOLYLINE
  5
AB8
330
A
100
AcDbEntity
  8
LEVEL001
  6
Continuous
 62
     3
100
AcDbPolyline
 90
        3
 70
     0
 43
0.0
 10
324.45000000004
 20
261.275
 10
318.05000000004
 20
270.875
 10
324.45000000004
 20
280.475
  0
LWPOLYLINE
  5
AB9
330
A
100
AcDbEntity
  8
LEVEL001
  6
Continuous
 62
     3
100
AcDbPolyline
 90
        3
 70
     0
 43
0.0
 10
327.15000000004
 20
280.475
 10
320.75000000004
 20
270.875
 10
327.15000000004
 20
261.275
  0
LWPOLYLINE
  5
ABA
330
A
100
AcDbEntity
  8
LEVEL001
  6
Continuous
 62
     3
100
AcDbPolyline
 90
        3
 70
     0
 43
0.0
 10
332.55000000004
 20
261.275
 10
326.15000000004
 20
270.875
 10
332.55000000004
 20
280.475
  0
LWPOLYLINE
  5
ABB
330
A
100
AcDbEntity
  8
LEVEL001
  6
Continuous
 62
     3
100
AcDbPolyline
 90
        3
 70
     0
 43
0.0
 10
319.05000000004
 20
261.275
 10
312.65000000004
 20
270.875
 10
319.05000000004
 20
280.475
  0
LINE
  5
ABC
330
A
100
AcDbEntity
  8
LEVEL001
  6
Continuous
 62
     3
100
AcDbLine
 10
319.05000000004
 20
280.475
 30
0.0
 11
324.45000000004
 21
280.475
 31
0.0
  0
LWPOLYLINE
  5
ABD
330
A
100
AcDbEntity
  8
LEVEL001
  6
Continuous
 62
     3
100
AcDbPolyline
 90
        3
 70
     0
 43
0.0
 10
324.45000000004
 20
280.475
 10
318.05000000004
 20
270.875
 10
324.45000000004
 20
261.275
  0
LINE
  5
ABE
330
A
100
AcDbEntity
  8
LEVEL001
  6
Continuous
 62
     3
100
AcDbLine
 10
324.45000000004
 20
261.275
 30
0.0
 11
319.05000000004
 21
261.275
 31
0.0
  0
LWPOLYLINE
  5
ABF
330
A
100
AcDbEntity
  8
LEVEL001
  6
Continuous
 62
     3
100
AcDbPolyline
 90
        3
 70
     0
 43
0.0
 10
327.15000000004
 20
261.275
 10
320.75000000004
 20
270.875
 10
327.15000000004
 20
280.475
  0
LINE
  5
AC0
330
A
100
AcDbEntity
  8
LEVEL001
  6
Continuous
 62
     3
100
AcDbLine
 10
327.15000000004
 20
280.475
 30
0.0
 11
332.55000000004
 21
280.475
 31
0.0
  0
LWPOLYLINE
  5
AC1
330
A
100
AcDbEntity
  8
LEVEL001
  6
Continuous
 62
     3
100
AcDbPolyline
 90
        3
 70
     0
 43
0.0
 10
332.55000000004
 20
280.475
 10
326.15000000004
 20
270.875
 10
332.55000000004
 20
261.275
  0
LINE
  5
AC2
330
A
100
AcDbEntity
  8
LEVEL001
  6
Continuous
 62
     3
100
AcDbLine
 10
332.55000000004
 20
261.275
 30
0.0
 11
327.15000000004
 21
261.275
 31
0.0
  0
TEXT
  5
B57
330
A
100
AcDbEntity
  8
LEVEL001
 62
     7
100
AcDbText
 10
306.69647188433
 20
77.2067590062245
 30
0.0
 40
3.0
  1
※カラーバリエーションはカタログ参照願います
 41
0.8
100
AcDbText
  0
TEXT
  5
B58
330
A
100
AcDbEntity
  8
LEVEL001
 62
     7
100
AcDbText
 10
306.69647188433
 20
73.2067590062245
 30
0.0
 40
3.0
  1
※本製品は予告無しに変更する事があります。
 41
0.8
100
AcDbText
  0
LINE
  5
B59
330
A
100
AcDbEntity
  8
LEVEL001
  6
Continuous
 62
     3
100
AcDbLine
 10
304.50000000003
 20
83.34590242265198
 30
0.0
 11
404.50000000003
 21
83.34590242265198
 31
0.0
  0
TEXT
  5
B5A
330
A
100
AcDbEntity
  8
LEVEL001
 62
     7
100
AcDbText
 10
371.8550845608299
 20
40.50000000000648
 30
0.0
 40
3.0
  1
令和　２年　４月　１日
 41
0.8
 72
     1
 11
387.21508456083
 21
42.00000000000648
 31
0.0
100
AcDbText
 73
     2
  0
MTEXT
  5
18E2
330
A
100
AcDbEntity
  8
0
 62
     8
370
    15
100
AcDbMText
 10
45.10617476264963
 20
16.28361192693398
 30
0.0
 40
3.0
 41
0.0
 46
0.0
 71
     5
 72
     1
  1
\T1.000000;穴－詳細図
  7
GMM001
 73
     1
 44
0.7999998400000301
  0
LINE
  5
18E3
330
A
100
AcDbEntity
  8
0
  6
Continuous
 62
     8
370
    15
100
AcDbLine
 10
34.05264678211563
 20
14.03543674445399
 30
0.0
 11
56.15970274318965
 21
14.03543674445399
 31
0.0
  0
LINE
  5
18EA
330
A
100
AcDbEntity
  8
0
  6
DASHDOT
 48
0.5
370
    15
100
AcDbLine
 10
45.01922183242959
 20
23.44072805104401
 30
0.0
 11
45.01922183242959
 21
30.50642148170397
 31
0.0
  0
LINE
  5
18EB
330
A
100
AcDbEntity
  8
0
  6
DASHDOT
 48
0.5
370
    15
100
AcDbLine
 10
40.99952264780165
 20
26.97357476637404
 30
0.0
 11
49.03892101705969
 21
26.97357476637404
 31
0.0
  0
CIRCLE
  5
18EC
330
A
100
AcDbEntity
  8
0
  6
Continuous
370
    40
100
AcDbCircle
 10
45.01922183242959
 20
26.97357476637404
 30
0.0
 40
2.0
  0
DIMENSION
  5
18ED
330
A
100
AcDbEntity
  8
0
  6
Continuous
370
    15
100
AcDbDimension
280
     0
  2
*D28
 10
43.47272031034924
 20
25.70537405583389
 30
0.0
 11
49.23335165206171
 21
33.66245433347661
 31
0.0
 70
    35
 71
     5
 42
3.999999999998465
 73
     0
 74
     0
 75
     0
  3
GMM002
100
AcDbDiametricDimension
 15
46.56572335450926
 25
28.24177547690363
 35
0.0
 40
0.0
1001
ACAD
1000
DSTYLE
1002
{
1070
    41
1040
1.0
1070
   343
1005
15
1070
   344
1005
15
1070
   176
1070
     7
1070
   178
1070
     7
1002
}
  0
TEXT
  5
192C
330
A
100
AcDbEntity
  8
LEVEL001
100
AcDbText
 10
371.8550845608301
 20
33.8333333333365
 30
0.0
 40
3.0
  1
令和　３年１２月２２日
 41
0.8
 72
     1
 11
387.2150845608301
 21
35.3333333333365
 31
0.0
100
AcDbText
 73
     2
  0
ENDSEC
  0
SECTION
  2
OBJECTS
  0
DICTIONARY
  5
3C
330
0
100
AcDbDictionary
281
     1
  3
ACAD_CIP_PREVIOUS_PRODUCT_INFO
350
A29
  3
ACAD_COLOR
350
9BC
  3
ACAD_GROUP
350
3D
  3
ACAD_LAYOUT
350
9BF
  3
ACAD_MATERIAL
350
9BB
  3
ACAD_MLEADERSTYLE
350
A24
  3
ACAD_MLINESTYLE
350
3E
  3
ACAD_PLOTSETTINGS
350
9C0
  3
ACAD_PLOTSTYLENAME
350
9B9
  3
ACAD_SCALELIST
350
A12
  3
ACAD_TABLESTYLE
350
9BD
  3
ACAD_VISUALSTYLE
350
9F9
  3
ACDB_RECOMPOSE_DATA
350
195B
  3
AcDbVariableDictionary
350
9C7
  0
DICTIONARY
  5
B18
330
67
100
AcDbDictionary
280
     1
281
     1
  3
ACAD_LAYERSTATES
360
B19
  0
DICTIONARY
  5
B0F
330
38
100
AcDbDictionary
280
     1
281
     1
  3
ADSK_XREC_LAYER_RECONCILED
360
B10
  0
DICTIONARY
  5
B11
330
39
100
AcDbDictionary
280
     1
281
     1
  3
ADSK_XREC_LAYER_RECONCILED
360
B12
  0
DICTIONARY
  5
B13
330
3A
100
AcDbDictionary
280
     1
281
     1
  3
ADSK_XREC_LAYER_RECONCILED
360
B14
  0
DICTIONARY
  5
A2C
330
A
100
AcDbDictionary
280
     1
281
     1
  3
ACAD_SORTENTS
360
A2D
  0
DICTIONARY
  5
B33
330
B2D
100
AcDbDictionary
280
     1
281
     1
  3
ACAD_SORTENTS
360
B34
  0
XRECORD
  5
A29
102
{ACAD_REACTORS
330
3C
102
}
330
3C
100
AcDbXrecord
280
     1
300
ACDLT
300
2012
300
ACDLT_F_S
  0
DICTIONARY
  5
9BC
102
{ACAD_REACTORS
330
3C
102
}
330
3C
100
AcDbDictionary
281
     1
  0
DICTIONARY
  5
3D
102
{ACAD_REACTORS
330
3C
102
}
330
0
100
AcDbDictionary
281
     1
  0
DICTIONARY
  5
9BF
102
{ACAD_REACTORS
330
3C
102
}
330
3C
100
AcDbDictionary
281
     1
  3
Model
350
9C1
  3
レイアウト1
350
9C2
  0
DICTIONARY
  5
9BB
102
{ACAD_REACTORS
330
3C
102
}
330
3C
100
AcDbDictionary
281
     1
  3
ByBlock
350
9E9
  3
ByLayer
350
9E1
  3
Global
350
9F1
  0
DICTIONARY
  5
A24
102
{ACAD_REACTORS
330
3C
102
}
330
3C
100
AcDbDictionary
281
     1
  3
Standard
350
A25
  0
DICTIONARY
  5
3E
102
{ACAD_REACTORS
330
3C
102
}
330
0
100
AcDbDictionary
281
     1
  3
STANDARD
350
3F
  0
DICTIONARY
  5
9C0
102
{ACAD_REACTORS
330
3C
102
}
330
3C
100
AcDbDictionary
281
     1
  0
ACDBDICTIONARYWDFLT
  5
9B9
102
{ACAD_REACTORS
330
3C
102
}
330
3C
100
AcDbDictionary
281
     1
  3
Normal
350
9BA
100
AcDbDictionaryWithDefault
340
9BA
  0
DICTIONARY
  5
A12
102
{ACAD_REACTORS
330
3C
102
}
330
3C
100
AcDbDictionary
281
     1
  3
A0
350
A13
  3
A1
350
A14
  3
A2
350
A15
  3
A3
350
A16
  3
A4
350
A17
  3
A5
350
A18
  3
A6
350
A19
  3
A7
350
A1A
  3
A8
350
A1B
  3
A9
350
A1C
  3
B0
350
A1D
  3
B1
350
A1E
  3
B2
350
A1F
  3
B3
350
A20
  3
B4
350
A21
  3
B5
350
A22
  3
B6
350
A23
  0
DICTIONARY
  5
9BD
102
{ACAD_REACTORS
330
3C
102
}
330
3C
100
AcDbDictionary
281
     1
  3
Standard
350
9BE
  0
DICTIONARY
  5
9F9
102
{ACAD_REACTORS
330
3C
102
}
330
3C
100
AcDbDictionary
281
     1
  3
2dWireframe
350
9FF
  3
Basic
350
9FE
  3
Brighten
350
A05
  3
ColorChange
350
A09
  3
Conceptual
350
A02
  3
Dim
350
A04
  3
EdgeColorOff
350
A11
  3
Facepattern
350
A08
  3
Flat
350
9FA
  3
FlatWithEdges
350
9FB
  3
Gouraud
350
9FC
  3
GouraudWithEdges
350
9FD
  3
Hidden
350
A01
  3
JitterOff
350
A0F
  3
Linepattern
350
A07
  3
OverhangOff
350
A10
  3
Realistic
350
A03
  3
Shaded
350
A0E
  3
Shaded with edges
350
A0D
  3
Shades of Gray
350
A0A
  3
Sketchy
350
A0B
  3
Thicken
350
A06
  3
Wireframe
350
A00
  3
X-Ray
350
A0C
  0
XRECORD
  5
195B
102
{ACAD_REACTORS
330
3C
102
}
330
3C
100
AcDbXrecord
280
     1
 90
        1
330
9BE
  0
DICTIONARY
  5
9C7
102
{ACAD_REACTORS
330
3C
102
}
330
3C
100
AcDbDictionary
281
     1
  3
CANNOSCALE
350
B24
  3
CMLEADERSTYLE
350
B22
  3
CTABLESTYLE
350
9C8
  3
DIMASSOC
350
9DE
  3
LAYEREVAL
350
B26
  3
LAYERNOTIFY
350
B27
  3
LIGHTINGUNITS
350
B25
  3
MSLTSCALE
350
B23
  3
PROJECTNAME
350
9DF
  0
DICTIONARY
  5
B19
102
{ACAD_REACTORS
330
B18
102
}
330
B18
100
AcDbDictionary
281
     1
  0
XRECORD
  5
B10
102
{ACAD_REACTORS
330
B0F
102
}
330
B0F
100
AcDbXrecord
280
     1
290
     1
  0
XRECORD
  5
B12
102
{ACAD_REACTORS
330
B11
102
}
330
B11
100
AcDbXrecord
280
     1
290
     1
  0
XRECORD
  5
B14
102
{ACAD_REACTORS
330
B13
102
}
330
B13
100
AcDbXrecord
280
     1
290
     1
  0
SORTENTSTABLE
  5
A2D
102
{ACAD_REACTORS
330
A2C
102
}
330
A2C
100
AcDbSortentsTable
330
A
331
4F9
  5
509
331
289
  5
292
331
2DE
  5
2E7
331
2FD
  5
306
331
314
  5
325
331
333
  5
33C
331
510
  5
519
331
511
  5
51A
331
40A
  5
413
331
2FE
  5
307
331
2C0
  5
2C9
331
28A
  5
293
331
2DF
  5
2E8
331
315
  5
32A
331
334
  5
33D
331
4FA
  5
50B
331
530
  5
539
331
531
  5
53A
331
512
  5
51B
331
2E0
  5
2E9
331
28B
  5
294
331
2C1
  5
2CA
331
2FF
  5
308
331
316
  5
32B
331
335
  5
33E
331
4FB
  5
50C
331
558
  5
565
331
559
  5
56A
331
2C2
  5
2CB
331
2A3
  5
2AC
331
28C
  5
295
331
2E1
  5
2EA
331
300
  5
309
331
317
  5
330
331
336
  5
33F
331
513
  5
51C
331
532
  5
53B
331
578
  5
581
331
579
  5
583
331
533
  5
53C
331
514
  5
51D
331
2E2
  5
2EB
331
2C3
  5
2CC
331
28D
  5
296
331
2A4
  5
2AD
331
301
  5
30A
331
318
  5
331
331
337
  5
340
331
4FD
  5
50D
331
55A
  5
56B
331
5B0
  5
5B9
331
55B
  5
570
331
2E3
  5
2EC
331
2A5
  5
2AE
331
28E
  5
297
331
2C4
  5
2CD
331
302
  5
30B
331
319
  5
332
331
338
  5
341
331
515
  5
51E
331
534
  5
53D
331
57A
  5
585
331
591
  5
59A
331
57B
  5
587
331
535
  5
53E
331
516
  5
51F
331
2E4
  5
2ED
331
2C5
  5
2CE
331
28F
  5
298
331
2A6
  5
2AF
331
303
  5
30C
331
31A
  5
333
331
339
  5
342
331
4FF
  5
50E
331
55C
  5
571
331
592
  5
59B
331
5B1
  5
5BA
331
5F0
  5
607
331
5B2
  5
5BB
331
55D
  5
576
331
517
  5
520
331
2E5
  5
2EE
331
2C6
  5
2CF
331
304
  5
30D
331
33A
  5
343
331
536
  5
53F
331
57C
  5
589
331
593
  5
59C
331
5F1
  5
608
331
5B3
  5
5BC
331
57D
  5
58B
331
537
  5
548
331
518
  5
521
331
305
  5
30E
331
2C7
  5
2D0
331
2E6
  5
2EF
331
33B
  5
344
331
411
  5
420
331
501
  5
50F
331
55E
  5
577
331
594
  5
59D
331
5B4
  5
5BD
331
55F
  5
578
331
519
  5
522
331
2E7
  5
2F0
331
2C8
  5
2D1
331
306
  5
30F
331
33C
  5
34B
331
412
  5
421
331
538
  5
54F
331
57E
  5
58D
331
595
  5
59E
331
5B5
  5
5BE
331
57F
  5
58F
331
539
  5
550
331
51A
  5
523
331
307
  5
310
331
2C9
  5
2D2
331
2AA
  5
2B3
331
2E8
  5
2F1
331
33D
  5
34C
331
503
  5
510
331
560
  5
579
331
596
  5
59F
331
5D5
  5
5DE
331
580
  5
591
331
51B
  5
524
331
33E
  5
354
331
2E9
  5
2F2
331
2CA
  5
2D3
331
31F
  5
334
331
53A
  5
551
331
597
  5
5A0
331
5B6
  5
5BF
331
5D6
  5
5DF
331
5B7
  5
5C0
331
581
  5
592
331
53B
  5
552
331
51C
  5
525
331
2CB
  5
2D4
331
2EA
  5
2F3
331
33F
  5
355
331
505
  5
511
331
598
  5
5A1
331
5D7
  5
5E0
331
53C
  5
553
331
2EB
  5
2F4
331
2CC
  5
2D5
331
340
  5
356
331
51D
  5
526
331
599
  5
5A2
331
5B8
  5
5C1
331
5F6
  5
609
331
5F7
  5
60A
331
5B9
  5
5C2
331
53D
  5
554
331
51E
  5
527
331
507
  5
512
331
417
  5
426
331
2CD
  5
2D6
331
2EC
  5
2F5
331
583
  5
593
331
59A
  5
5A3
331
5D8
  5
5E1
331
5D9
  5
5E2
331
565
  5
57A
331
53E
  5
555
331
2ED
  5
2F6
331
2CE
  5
2D7
331
51F
  5
528
331
59B
  5
5A4
331
5BA
  5
5C3
331
5BB
  5
5C4
331
585
  5
594
331
520
  5
529
331
2CF
  5
2D8
331
2EE
  5
2F7
331
324
  5
335
331
509
  5
513
331
53F
  5
556
331
59C
  5
5A5
331
5DA
  5
5E3
331
5DB
  5
5E4
331
548
  5
557
331
2EF
  5
2F8
331
325
  5
336
331
521
  5
52A
331
59D
  5
5A6
331
5BC
  5
5C5
331
5BD
  5
5CE
331
522
  5
52B
331
50B
  5
514
331
587
  5
595
331
59E
  5
5A7
331
5DC
  5
5E5
331
5DD
  5
5E6
331
523
  5
52C
331
50C
  5
515
331
59F
  5
5A8
331
5BE
  5
5D5
331
5FC
  5
60C
331
5FD
  5
60D
331
5BF
  5
5D6
331
524
  5
52D
331
50D
  5
516
331
56A
  5
57B
331
589
  5
596
331
5A0
  5
5A9
331
5DE
  5
5EB
331
5DF
  5
5F0
331
525
  5
52E
331
50E
  5
517
331
56B
  5
57C
331
5A1
  5
5AA
331
5C0
  5
5D7
331
5FE
  5
60E
331
7C0
  5
7C9
331
5FF
  5
610
331
5C1
  5
5D8
331
526
  5
52F
331
50F
  5
518
331
58B
  5
597
331
5A2
  5
5AB
331
5E0
  5
5F1
331
7C1
  5
7CA
331
7E0
  5
7E9
331
5E1
  5
5F6
331
527
  5
530
331
5A3
  5
5AC
331
5C2
  5
5D9
331
7C2
  5
7CB
331
5C3
  5
5DA
331
58D
  5
598
331
528
  5
531
331
54F
  5
558
331
5A4
  5
5AD
331
5E2
  5
5F7
331
7C3
  5
7CC
331
5E3
  5
5FC
331
5C4
  5
5DB
331
550
  5
559
331
529
  5
532
331
5A5
  5
5AE
331
7C4
  5
7CD
331
7A5
  5
7AE
331
5C5
  5
5DC
331
570
  5
57D
331
52A
  5
533
331
4F4
  5
4FF
331
551
  5
55A
331
58F
  5
599
331
5A6
  5
5AF
331
5E4
  5
5FD
331
7C5
  5
7CE
331
7A6
  5
7AF
331
5E5
  5
5FE
331
552
  5
55B
331
4F5
  5
501
331
52B
  5
534
331
571
  5
57E
331
5A7
  5
5B0
331
7C6
  5
7CF
331
7A7
  5
7B0
331
52C
  5
535
331
4F6
  5
503
331
553
  5
55C
331
5A8
  5
5B1
331
5E6
  5
5FF
331
7A8
  5
7B1
331
7C7
  5
7D0
331
554
  5
55D
331
4F7
  5
505
331
52D
  5
536
331
5A9
  5
5B2
331
7C8
  5
7D1
331
7A9
  5
7B2
331
8B8
  5
8C1
331
555
  5
55E
331
52E
  5
537
331
5AA
  5
5B3
331
8D8
  5
8E1
331
7AA
  5
7B3
331
7C9
  5
7D2
331
8B9
  5
8C2
331
556
  5
55F
331
52F
  5
538
331
5AB
  5
5B4
331
8F0
  5
8F9
331
8BA
  5
8C3
331
7CA
  5
7D3
331
7AB
  5
7B4
331
89B
  5
8A4
331
8D9
  5
8E2
331
557
  5
560
331
576
  5
57F
331
5AC
  5
5B5
331
910
  5
919
331
8DA
  5
8E3
331
89C
  5
8A5
331
7AC
  5
7B5
331
7CB
  5
7D4
331
8BB
  5
8C4
331
8F1
  5
901
331
5EB
  5
600
331
577
  5
580
331
5AD
  5
5B6
331
8F2
  5
902
331
8BC
  5
8C5
331
89D
  5
8A6
331
7CC
  5
7D5
331
7AD
  5
7B6
331
8DB
  5
8E4
331
911
  5
91A
331
5AE
  5
5B7
331
6BD
  5
6C6
331
912
  5
91B
331
8F3
  5
903
331
89E
  5
8A7
331
7AE
  5
7B7
331
7CD
  5
7D6
331
8BD
  5
8C6
331
8DC
  5
8E5
331
5CE
  5
5DD
331
5AF
  5
5B8
331
8F4
  5
904
331
8BE
  5
8C7
331
89F
  5
8A8
331
7CE
  5
7D7
331
7AF
  5
7B8
331
8DD
  5
8E6
331
913
  5
91C
331
914
  5
91D
331
8F5
  5
905
331
8BF
  5
8C8
331
7B0
  5
7B9
331
7CF
  5
7D8
331
8A0
  5
8A9
331
8DE
  5
8E7
331
8F6
  5
906
331
8C0
  5
8C9
331
7D0
  5
7D9
331
7B1
  5
7BA
331
8A1
  5
8AA
331
8DF
  5
8E8
331
915
  5
91E
331
916
  5
91F
331
8F7
  5
907
331
8C1
  5
8CA
331
7B2
  5
7BB
331
7D1
  5
7DA
331
8A2
  5
8AB
331
8E0
  5
8E9
331
6C2
  5
6DB
331
8F8
  5
908
331
8E1
  5
8EA
331
8A3
  5
8AC
331
7D2
  5
7DB
331
7B3
  5
7BC
331
6C3
  5
6E4
331
8C2
  5
8CB
331
917
  5
920
331
918
  5
921
331
8F9
  5
909
331
8C3
  5
8CC
331
7B4
  5
7BD
331
6C4
  5
6E5
331
7D3
  5
7DC
331
8A4
  5
8AD
331
8E2
  5
8EB
331
8E3
  5
8EC
331
8A5
  5
8AE
331
7D4
  5
7DD
331
7B5
  5
7BE
331
6C5
  5
6E6
331
8C4
  5
8CD
331
919
  5
922
331
91A
  5
923
331
8C5
  5
8CE
331
7D5
  5
7DE
331
7B6
  5
7BF
331
8A6
  5
8AF
331
8E4
  5
8ED
331
8E5
  5
8EE
331
8A7
  5
8B0
331
7D6
  5
7DF
331
7B7
  5
7C0
331
8C6
  5
8CF
331
91B
  5
924
331
91C
  5
925
331
8C7
  5
8D0
331
7D7
  5
7E0
331
7B8
  5
7C1
331
8A8
  5
8B8
331
8E6
  5
8EF
331
8E7
  5
8F0
331
8A9
  5
8B9
331
7B9
  5
7C2
331
7D8
  5
7E1
331
8C8
  5
8D1
331
91D
  5
926
331
91E
  5
927
331
8C9
  5
8D2
331
7D9
  5
7E2
331
7BA
  5
7C3
331
8AA
  5
8BA
331
8E8
  5
8F1
331
1E1
  5
1F7
331
290
  5
299
331
8E9
  5
8F2
331
8AB
  5
8BB
331
7BB
  5
7C4
331
7DA
  5
7E3
331
8CA
  5
8D3
331
91F
  5
928
331
291
  5
29A
331
901
  5
90A
331
8CB
  5
8D4
331
7DB
  5
7E4
331
7BC
  5
7C5
331
8AC
  5
8BC
331
8EA
  5
8F3
331
920
  5
929
331
292
  5
29B
331
2D0
  5
2D9
331
921
  5
92A
331
8EB
  5
8F4
331
8AD
  5
8BD
331
7BD
  5
7C6
331
7DC
  5
7E5
331
8CC
  5
8D5
331
902
  5
90B
331
2D1
  5
2DA
331
2B2
  5
2BB
331
1E4
  5
215
331
293
  5
2A2
331
2F0
  5
2F9
331
903
  5
90C
331
8CD
  5
8D6
331
7DD
  5
7E6
331
7BE
  5
7C7
331
8AE
  5
8BE
331
8EC
  5
8F5
331
922
  5
92B
331
2F1
  5
2FA
331
2D2
  5
2DB
331
294
  5
2A3
331
308
  5
311
331
923
  5
92C
331
904
  5
90D
331
8AF
  5
8BF
331
7BF
  5
7C8
331
7DE
  5
7E7
331
8CE
  5
8D7
331
8ED
  5
8F6
331
2D3
  5
2DC
331
295
  5
2A4
331
2F2
  5
2FB
331
309
  5
312
331
905
  5
90E
331
8CF
  5
8D8
331
7DF
  5
7E8
331
8B0
  5
8C0
331
8EE
  5
8F7
331
924
  5
92D
331
2F3
  5
2FC
331
2D4
  5
2DD
331
296
  5
2A5
331
30A
  5
313
331
925
  5
92E
331
8D0
  5
8D9
331
8EF
  5
8F8
331
906
  5
90F
331
2F4
  5
2FD
331
2B6
  5
2BF
331
297
  5
2A6
331
2D5
  5
2DE
331
30B
  5
314
331
32A
  5
337
331
907
  5
910
331
8D1
  5
8DA
331
926
  5
92F
331
2F5
  5
2FE
331
2D6
  5
2DF
331
298
  5
2A7
331
2B7
  5
2C0
331
30C
  5
315
331
32B
  5
338
331
927
  5
930
331
8D2
  5
8DB
331
908
  5
911
331
2F6
  5
2FF
331
2B8
  5
2C1
331
299
  5
2A8
331
2D7
  5
2E0
331
30D
  5
316
331
909
  5
912
331
8D3
  5
8DC
331
928
  5
931
331
2D8
  5
2E1
331
1EB
  5
21B
331
29A
  5
2A9
331
2B9
  5
2C2
331
2F7
  5
300
331
30E
  5
317
331
929
  5
932
331
8D4
  5
8DD
331
90A
  5
913
331
2F8
  5
301
331
2BA
  5
2C3
331
29B
  5
2AA
331
2D9
  5
2E2
331
30F
  5
318
331
90B
  5
914
331
8D5
  5
8DE
331
92A
  5
933
331
2DA
  5
2E3
331
2F9
  5
302
331
310
  5
319
331
92B
  5
934
331
8D6
  5
8DF
331
90C
  5
915
331
2FA
  5
303
331
2DB
  5
2E4
331
311
  5
31A
331
330
  5
339
331
90D
  5
916
331
8D7
  5
8E0
331
92C
  5
935
331
331
  5
33A
331
2DC
  5
2E5
331
2FB
  5
304
331
312
  5
31F
331
90E
  5
917
331
313
  5
324
331
332
  5
33B
331
4F8
  5
507
331
2FC
  5
305
331
288
  5
291
331
2DD
  5
2E6
331
90F
  5
918
  0
SORTENTSTABLE
  5
B34
102
{ACAD_REACTORS
330
B33
102
}
330
B33
100
AcDbSortentsTable
330
B2D
  0
LAYOUT
  5
9C1
102
{ACAD_XDICTIONARY
360
B1E
102
}
102
{ACAD_REACTORS
330
9BF
102
}
330
9BF
100
AcDbPlotSettings
  1

  2
クセロPDF2
  4

  6

 40
0.0
 41
0.0
 42
0.0
 43
0.0
 44
0.0
 45
0.0
 46
0.0
 47
0.0
 48
0.0
 49
0.0
140
0.0
141
0.0
142
1.0
143
1.0
 70
  1712
 72
     0
 73
     0
 74
     0
  7

 75
     0
147
1.0
 76
     0
 77
     2
 78
   300
148
0.0
149
0.0
100
AcDbLayout
  1
Model
 70
     1
 71
     0
 10
0.0
 20
0.0
 11
12.0
 21
9.0
 12
0.0
 22
0.0
 32
0.0
 14
0.0
 24
0.0
 34
0.0
 15
0.0
 25
0.0
 35
0.0
146
0.0
 13
0.0
 23
0.0
 33
0.0
 16
1.0
 26
0.0
 36
0.0
 17
0.0
 27
1.0
 37
0.0
 76
     0
330
A
331
9D8
  0
LAYOUT
  5
9C2
102
{ACAD_REACTORS
330
9BF
102
}
330
9BF
100
AcDbPlotSettings
  1

  2
クセロPDF2
  4

  6

 40
0.0
 41
0.0
 42
0.0
 43
0.0
 44
0.0
 45
0.0
 46
0.0
 47
0.0
 48
0.0
 49
0.0
140
0.0
141
0.0
142
1.0
143
1.0
 70
   688
 72
     0
 73
     0
 74
     5
  7

 75
    16
147
1.0
 76
     0
 77
     2
 78
   300
148
0.0
149
0.0
100
AcDbLayout
  1
レイアウト1
 70
     1
 71
     1
 10
0.0
 20
0.0
 11
12.0
 21
9.0
 12
0.0
 22
0.0
 32
0.0
 14
1.000000000000000E+20
 24
1.000000000000000E+20
 34
1.000000000000000E+20
 15
-1.000000000000000E+20
 25
-1.000000000000000E+20
 35
-1.000000000000000E+20
146
0.0
 13
0.0
 23
0.0
 33
0.0
 16
1.0
 26
0.0
 36
0.0
 17
0.0
 27
1.0
 37
0.0
 76
     0
330
B
  0
MATERIAL
  5
9E9
102
{ACAD_XDICTIONARY
360
9EA
102
}
102
{ACAD_REACTORS
330
9BB
102
}
330
9BB
100
AcDbMaterial
  1
ByBlock
 72
     0
 43
0.0208333333333333
 43
0.0
 43
0.0
 43
0.0
 43
0.0
 43
0.0208333333333333
 43
0.0
 43
0.0
 43
0.0
 43
0.0
 43
1.0
 43
0.0
 43
0.0
 43
0.0
 43
0.0
 43
1.0
 77
     0
 47
0.0208333333333333
 47
0.0
 47
0.0
 47
0.0
 47
0.0
 47
0.0208333333333333
 47
0.0
 47
0.0
 47
0.0
 47
0.0
 47
1.0
 47
0.0
 47
0.0
 47
0.0
 47
0.0
 47
1.0
171
     0
 49
0.0208333333333333
 49
0.0
 49
0.0
 49
0.0
 49
0.0
 49
0.0208333333333333
 49
0.0
 49
0.0
 49
0.0
 49
0.0
 49
1.0
 49
0.0
 49
0.0
 49
0.0
 49
0.0
 49
1.0
175
     0
142
0.0208333333333333
142
0.0
142
0.0
142
0.0
142
0.0
142
0.0208333333333333
142
0.0
142
0.0
142
0.0
142
0.0
142
1.0
142
0.0
142
0.0
142
0.0
142
0.0
142
1.0
179
     0
144
0.0208333333333333
144
0.0
144
0.0
144
0.0
144
0.0
144
0.0208333333333333
144
0.0
144
0.0
144
0.0
144
0.0
144
1.0
144
0.0
144
0.0
144
0.0
144
0.0
144
1.0
147
0.0208333333333333
147
0.0
147
0.0
147
0.0
147
0.0
147
0.0208333333333333
147
0.0
147
0.0
147
0.0
147
0.0
147
1.0
147
0.0
147
0.0
147
0.0
147
0.0
147
1.0
  0
MATERIAL
  5
9E1
102
{ACAD_XDICTIONARY
360
9E2
102
}
102
{ACAD_REACTORS
330
9BB
102
}
330
9BB
100
AcDbMaterial
  1
ByLayer
 72
     0
 43
0.0208333333333333
 43
0.0
 43
0.0
 43
0.0
 43
0.0
 43
0.0208333333333333
 43
0.0
 43
0.0
 43
0.0
 43
0.0
 43
1.0
 43
0.0
 43
0.0
 43
0.0
 43
0.0
 43
1.0
 77
     0
 47
0.0208333333333333
 47
0.0
 47
0.0
 47
0.0
 47
0.0
 47
0.0208333333333333
 47
0.0
 47
0.0
 47
0.0
 47
0.0
 47
1.0
 47
0.0
 47
0.0
 47
0.0
 47
0.0
 47
1.0
171
     0
 49
0.0208333333333333
 49
0.0
 49
0.0
 49
0.0
 49
0.0
 49
0.0208333333333333
 49
0.0
 49
0.0
 49
0.0
 49
0.0
 49
1.0
 49
0.0
 49
0.0
 49
0.0
 49
0.0
 49
1.0
175
     0
142
0.0208333333333333
142
0.0
142
0.0
142
0.0
142
0.0
142
0.0208333333333333
142
0.0
142
0.0
142
0.0
142
0.0
142
1.0
142
0.0
142
0.0
142
0.0
142
0.0
142
1.0
179
     0
144
0.0208333333333333
144
0.0
144
0.0
144
0.0
144
0.0
144
0.0208333333333333
144
0.0
144
0.0
144
0.0
144
0.0
144
1.0
144
0.0
144
0.0
144
0.0
144
0.0
144
1.0
147
0.0208333333333333
147
0.0
147
0.0
147
0.0
147
0.0
147
0.0208333333333333
147
0.0
147
0.0
147
0.0
147
0.0
147
1.0
147
0.0
147
0.0
147
0.0
147
0.0
147
1.0
  0
MATERIAL
  5
9F1
102
{ACAD_XDICTIONARY
360
9F2
102
}
102
{ACAD_REACTORS
330
9BB
102
}
330
9BB
100
AcDbMaterial
  1
Global
 72
     0
 43
0.0208333333333333
 43
0.0
 43
0.0
 43
0.0
 43
0.0
 43
0.0208333333333333
 43
0.0
 43
0.0
 43
0.0
 43
0.0
 43
1.0
 43
0.0
 43
0.0
 43
0.0
 43
0.0
 43
1.0
 77
     0
 47
0.0208333333333333
 47
0.0
 47
0.0
 47
0.0
 47
0.0
 47
0.0208333333333333
 47
0.0
 47
0.0
 47
0.0
 47
0.0
 47
1.0
 47
0.0
 47
0.0
 47
0.0
 47
0.0
 47
1.0
171
     0
 49
0.0208333333333333
 49
0.0
 49
0.0
 49
0.0
 49
0.0
 49
0.0208333333333333
 49
0.0
 49
0.0
 49
0.0
 49
0.0
 49
1.0
 49
0.0
 49
0.0
 49
0.0
 49
0.0
 49
1.0
175
     0
142
0.0208333333333333
142
0.0
142
0.0
142
0.0
142
0.0
142
0.0208333333333333
142
0.0
142
0.0
142
0.0
142
0.0
142
1.0
142
0.0
142
0.0
142
0.0
142
0.0
142
1.0
179
     0
144
0.0208333333333333
144
0.0
144
0.0
144
0.0
144
0.0
144
0.0208333333333333
144
0.0
144
0.0
144
0.0
144
0.0
144
1.0
144
0.0
144
0.0
144
0.0
144
0.0
144
1.0
147
0.0208333333333333
147
0.0
147
0.0
147
0.0
147
0.0
147
0.0208333333333333
147
0.0
147
0.0
147
0.0
147
0.0
147
1.0
147
0.0
147
0.0
147
0.0
147
0.0
147
1.0
  0
MLEADERSTYLE
  5
A25
102
{ACAD_XDICTIONARY
360
1959
102
}
102
{ACAD_REACTORS
330
A24
102
}
330
A24
100
AcDbMLeaderStyle
179
     2
170
     2
171
     1
172
     0
 90
        2
 40
0.0
 41
0.0
173
     1
 91
-1056964608
340
1D
 92
       -2
290
     1
 42
0.09
291
     1
 43
0.36
  3
Standard
 44
0.18
300

342
7
174
     1
178
     6
175
     1
176
     0
 93
-1056964608
 45
0.18
292
     0
297
     0
 46
0.18
 94
-1056964608
 47
1.0
 49
1.0
140
1.0
293
     1
141
0.0
294
     1
177
     0
142
1.0
295
     0
296
     0
143
0.125
271
     0
272
     9
273
     9
  0
MLINESTYLE
  5
3F
102
{ACAD_REACTORS
330
3E
102
}
330
0
100
AcDbMlineStyle
  2
STANDARD
 70
     0
  3

 62
   256
 51
90.0
 52
90.0
 71
     2
 49
0.5
 62
   256
  6
BYLAYER
 49
-0.5
 62
   256
  6
BYLAYER
  0
ACDBPLACEHOLDER
  5
9BA
102
{ACAD_REACTORS
330
9B9
102
}
330
9B9
  0
SCALE
  5
A13
102
{ACAD_REACTORS
330
A12
102
}
330
A12
100
AcDbScale
 70
     0
300
1:1
140
1.0
141
1.0
290
     1
  0
SCALE
  5
A14
102
{ACAD_REACTORS
330
A12
102
}
330
A12
100
AcDbScale
 70
     0
300
1/128" = 1'-0"
140
0.0078125
141
12.0
290
     0
  0
SCALE
  5
A15
102
{ACAD_REACTORS
330
A12
102
}
330
A12
100
AcDbScale
 70
     0
300
1/64" = 1'-0"
140
0.015625
141
12.0
290
     0
  0
SCALE
  5
A16
102
{ACAD_REACTORS
330
A12
102
}
330
A12
100
AcDbScale
 70
     0
300
1/32" = 1'-0"
140
0.03125
141
12.0
290
     0
  0
SCALE
  5
A17
102
{ACAD_REACTORS
330
A12
102
}
330
A12
100
AcDbScale
 70
     0
300
1/16" = 1'-0"
140
0.0625
141
12.0
290
     0
  0
SCALE
  5
A18
102
{ACAD_REACTORS
330
A12
102
}
330
A12
100
AcDbScale
 70
     0
300
3/32" = 1'-0"
140
0.09375
141
12.0
290
     0
  0
SCALE
  5
A19
102
{ACAD_REACTORS
330
A12
102
}
330
A12
100
AcDbScale
 70
     0
300
1/8" = 1'-0"
140
0.125
141
12.0
290
     0
  0
SCALE
  5
A1A
102
{ACAD_REACTORS
330
A12
102
}
330
A12
100
AcDbScale
 70
     0
300
3/16" = 1'-0"
140
0.1875
141
12.0
290
     0
  0
SCALE
  5
A1B
102
{ACAD_REACTORS
330
A12
102
}
330
A12
100
AcDbScale
 70
     0
300
1/4" = 1'-0"
140
0.25
141
12.0
290
     0
  0
SCALE
  5
A1C
102
{ACAD_REACTORS
330
A12
102
}
330
A12
100
AcDbScale
 70
     0
300
3/8" = 1'-0"
140
0.375
141
12.0
290
     0
  0
SCALE
  5
A1D
102
{ACAD_REACTORS
330
A12
102
}
330
A12
100
AcDbScale
 70
     0
300
1/2" = 1'-0"
140
0.5
141
12.0
290
     0
  0
SCALE
  5
A1E
102
{ACAD_REACTORS
330
A12
102
}
330
A12
100
AcDbScale
 70
     0
300
3/4" = 1'-0"
140
0.75
141
12.0
290
     0
  0
SCALE
  5
A1F
102
{ACAD_REACTORS
330
A12
102
}
330
A12
100
AcDbScale
 70
     0
300
1" = 1'-0"
140
1.0
141
12.0
290
     0
  0
SCALE
  5
A20
102
{ACAD_REACTORS
330
A12
102
}
330
A12
100
AcDbScale
 70
     0
300
1-1/2" = 1'-0"
140
1.5
141
12.0
290
     0
  0
SCALE
  5
A21
102
{ACAD_REACTORS
330
A12
102
}
330
A12
100
AcDbScale
 70
     0
300
3" = 1'-0"
140
3.0
141
12.0
290
     0
  0
SCALE
  5
A22
102
{ACAD_REACTORS
330
A12
102
}
330
A12
100
AcDbScale
 70
     0
300
6" = 1'-0"
140
6.0
141
12.0
290
     0
  0
SCALE
  5
A23
102
{ACAD_REACTORS
330
A12
102
}
330
A12
100
AcDbScale
 70
     0
300
1'-0" = 1'-0"
140
12.0
141
12.0
290
     0
  0
TABLESTYLE
  5
9BE
102
{ACAD_XDICTIONARY
360
1957
102
}
102
{ACAD_REACTORS
330
9BD
102
}
330
9BD
100
AcDbTableStyle
280
     0
  3
Standard
 70
     0
 71
     0
 40
0.06
 41
0.06
280
     0
281
     0
  7
STANDARD
140
0.18
170
     2
 62
     0
 63
     7
283
     0
 90
        4
 91
        0
  1

274
    -2
284
     1
 64
     0
275
    -2
285
     1
 65
     0
276
    -2
286
     1
 66
     0
277
    -2
287
     1
 67
     0
278
    -2
288
     1
 68
     0
279
    -2
289
     1
 69
     0
  7
STANDARD
140
0.25
170
     5
 62
     0
 63
     7
283
     0
 90
        4
 91
        0
  1

274
    -2
284
     1
 64
     0
275
    -2
285
     1
 65
     0
276
    -2
286
     1
 66
     0
277
    -2
287
     1
 67
     0
278
    -2
288
     1
 68
     0
279
    -2
289
     1
 69
     0
  7
STANDARD
140
0.18
170
     5
 62
     0
 63
     7
283
     0
 90
        4
 91
        0
  1

274
    -2
284
     1
 64
     0
275
    -2
285
     1
 65
     0
276
    -2
286
     1
 66
     0
277
    -2
287
     1
 67
     0
278
    -2
288
     1
 68
     0
279
    -2
289
     1
 69
     0
  0
VISUALSTYLE
  5
9FF
102
{ACAD_REACTORS
330
9F9
102
}
330
9F9
100
AcDbVisualStyle
  2
2dWireframe
 70
     4
177
     2
291
     0
 71
     0
176
     1
 72
     2
176
     1
 73
     0
176
     1
 90
        0
176
     1
 40
0.6
176
     1
 41
30.0
176
     1
 63
     7
421
 16777215
176
     1
 74
     1
176
     1
 91
        4
176
     1
 64
     7
176
     1
 65
   257
176
     1
 75
     1
176
     1
175
     1
176
     1
 42
1.0
176
     1
 92
        0
176
     1
 66
   257
176
     1
 43
1.0
176
     1
 76
     1
176
     1
 77
     6
176
     1
 78
     2
176
     1
 67
     7
176
     1
 79
     5
176
     1
170
     0
176
     1
171
     0
176
     1
290
     0
176
     1
 93
        1
176
     1
 44
0.0
176
     1
173
     0
176
     1
  0
VISUALSTYLE
  5
9FE
102
{ACAD_REACTORS
330
9F9
102
}
330
9F9
100
AcDbVisualStyle
  2
Basic
 70
     7
177
     2
291
     1
 71
     1
176
     1
 72
     0
176
     1
 73
     1
176
     1
 90
        0
176
     1
 40
0.6
176
     1
 41
30.0
176
     1
 63
     7
421
 16777215
176
     1
 74
     0
176
     1
 91
        4
176
     1
 64
     7
176
     1
 65
   257
176
     1
 75
     1
176
     1
175
     1
176
     1
 42
1.0
176
     1
 92
        8
176
     1
 66
     7
176
     1
 43
1.0
176
     1
 76
     1
176
     1
 77
     6
176
     1
 78
     2
176
     1
 67
     7
176
     1
 79
     5
176
     1
170
     0
176
     1
171
     0
176
     1
290
     0
176
     1
 93
        1
176
     1
 44
0.0
176
     1
173
     0
176
     1
  0
VISUALSTYLE
  5
A05
102
{ACAD_REACTORS
330
9F9
102
}
330
9F9
100
AcDbVisualStyle
  2
Brighten
 70
    12
177
     2
291
     1
 71
     2
176
     1
 72
     2
176
     1
 73
     0
176
     1
 90
        0
176
     1
 40
0.6
176
     1
 41
30.0
176
     1
 63
     7
421
 16777215
176
     1
 74
     1
176
     1
 91
        4
176
     1
 64
     7
176
     1
 65
   257
176
     1
 75
     1
176
     1
175
     1
176
     1
 42
1.0
176
     1
 92
        8
176
     1
 66
     7
176
     1
 43
1.0
176
     1
 76
     1
176
     1
 77
     6
176
     1
 78
     2
176
     1
 67
     7
176
     1
 79
     5
176
     1
170
     0
176
     1
171
     0
176
     1
290
     0
176
     1
 93
        1
176
     1
 44
50.0
176
     1
173
     0
176
     1
  0
VISUALSTYLE
  5
A09
102
{ACAD_REACTORS
330
9F9
102
}
330
9F9
100
AcDbVisualStyle
  2
ColorChange
 70
    16
177
     2
291
     1
 71
     2
176
     1
 72
     2
176
     1
 73
     3
176
     1
 90
        0
176
     1
 40
0.6
176
     1
 41
30.0
176
     1
 63
     8
421
  8421504
176
     1
 74
     1
176
     1
 91
        4
176
     1
 64
     7
176
     1
 65
   257
176
     1
 75
     1
176
     1
175
     1
176
     1
 42
1.0
176
     1
 92
        8
176
     1
 66
     8
424
  8421504
176
     1
 43
1.0
176
     1
 76
     1
176
     1
 77
     6
176
     1
 78
     2
176
     1
 67
     7
176
     1
 79
     5
176
     1
170
     0
176
     1
171
     0
176
     1
290
     0
176
     1
 93
        1
176
     1
 44
0.0
176
     1
173
     0
176
     1
  0
VISUALSTYLE
  5
A02
102
{ACAD_REACTORS
330
9F9
102
}
330
9F9
100
AcDbVisualStyle
  2
Conceptual
 70
     9
177
     2
291
     0
 71
     3
176
     1
 72
     2
176
     1
 73
     0
176
     1
 90
        0
176
     1
 40
0.6
176
     1
 41
30.0
176
     1
 63
     7
421
 16777215
176
     1
 74
     2
176
     1
 91
        2
176
     1
 64
     7
176
     1
 65
   257
176
     1
 75
     1
176
     1
175
     1
176
     1
 42
179.0
176
     1
 92
        8
176
     1
 66
     7
176
     1
 43
1.0
176
     1
 76
     1
176
     1
 77
     6
176
     1
 78
     2
176
     1
 67
     7
176
     1
 79
     3
176
     1
170
     0
176
     1
171
     0
176
     1
290
     0
176
     1
 93
        1
176
     1
 44
0.0
176
     1
173
     0
176
     1
  0
VISUALSTYLE
  5
A04
102
{ACAD_REACTORS
330
9F9
102
}
330
9F9
100
AcDbVisualStyle
  2
Dim
 70
    11
177
     2
291
     1
 71
     2
176
     1
 72
     2
176
     1
 73
     0
176
     1
 90
        0
176
     1
 40
0.6
176
     1
 41
30.0
176
     1
 63
     7
421
 16777215
176
     1
 74
     1
176
     1
 91
        4
176
     1
 64
     7
176
     1
 65
   257
176
     1
 75
     1
176
     1
175
     1
176
     1
 42
1.0
176
     1
 92
        8
176
     1
 66
     7
176
     1
 43
1.0
176
     1
 76
     1
176
     1
 77
     6
176
     1
 78
     2
176
     1
 67
     7
176
     1
 79
     5
176
     1
170
     0
176
     1
171
     0
176
     1
290
     0
176
     1
 93
        1
176
     1
 44
-50.0
176
     1
173
     0
176
     1
  0
VISUALSTYLE
  5
A11
102
{ACAD_REACTORS
330
9F9
102
}
330
9F9
100
AcDbVisualStyle
  2
EdgeColorOff
 70
    22
177
     2
291
     1
 71
     2
176
     0
 72
     2
176
     0
 73
     0
176
     0
 90
        0
176
     0
 40
0.6
176
     0
 41
30.0
176
     0
 63
     7
421
 16777215
176
     0
 74
     1
176
     0
 91
        4
176
     0
 64
     7
176
     0
 65
   257
176
     0
 75
     1
176
     0
175
     1
176
     0
 42
1.0
176
     0
 92
        8
176
     2
 66
     7
176
     0
 43
1.0
176
     0
 76
     1
176
     0
 77
     6
176
     0
 78
     2
176
     0
 67
     7
176
     0
 79
     5
176
     0
170
     0
176
     0
171
     0
176
     0
290
     0
176
     0
 93
        1
176
     0
 44
0.0
176
     0
173
     0
176
     0
  0
VISUALSTYLE
  5
A08
102
{ACAD_REACTORS
330
9F9
102
}
330
9F9
100
AcDbVisualStyle
  2
Facepattern
 70
    15
177
     2
291
     1
 71
     2
176
     1
 72
     2
176
     1
 73
     0
176
     1
 90
        0
176
     1
 40
0.6
176
     1
 41
30.0
176
     1
 63
     7
421
 16777215
176
     1
 74
     1
176
     1
 91
        4
176
     1
 64
     7
176
     1
 65
   257
176
     1
 75
     1
176
     1
175
     1
176
     1
 42
1.0
176
     1
 92
        8
176
     1
 66
     7
176
     1
 43
1.0
176
     1
 76
     1
176
     1
 77
     6
176
     1
 78
     2
176
     1
 67
     7
176
     1
 79
     5
176
     1
170
     0
176
     1
171
     0
176
     1
290
     0
176
     1
 93
        1
176
     1
 44
0.0
176
     1
173
     0
176
     1
  0
VISUALSTYLE
  5
9FA
102
{ACAD_REACTORS
330
9F9
102
}
330
9F9
100
AcDbVisualStyle
  2
Flat
 70
     0
177
     2
291
     1
 71
     2
176
     1
 72
     1
176
     1
 73
     1
176
     1
 90
        2
176
     1
 40
0.6
176
     1
 41
30.0
176
     1
 63
     7
421
 16777215
176
     1
 74
     0
176
     1
 91
        0
176
     1
 64
     7
176
     1
 65
   257
176
     1
 75
     1
176
     1
175
     1
176
     1
 42
1.0
176
     1
 92
        8
176
     1
 66
     7
176
     1
 43
1.0
176
     1
 76
     1
176
     1
 77
     6
176
     1
 78
     2
176
     1
 67
     7
176
     1
 79
     5
176
     1
170
     0
176
     1
171
     0
176
     1
290
     0
176
     1
 93
       13
176
     1
 44
0.0
176
     1
173
     0
176
     1
  0
VISUALSTYLE
  5
9FB
102
{ACAD_REACTORS
330
9F9
102
}
330
9F9
100
AcDbVisualStyle
  2
FlatWithEdges
 70
     1
177
     2
291
     1
 71
     2
176
     1
 72
     1
176
     1
 73
     1
176
     1
 90
        2
176
     1
 40
0.6
176
     1
 41
30.0
176
     1
 63
     7
421
 16777215
176
     1
 74
     1
176
     1
 91
        0
176
     1
 64
     7
176
     1
 65
   257
176
     1
 75
     1
176
     1
175
     1
176
     1
 42
1.0
176
     1
 92
        0
176
     1
 66
   257
176
     1
 43
1.0
176
     1
 76
     1
176
     1
 77
     6
176
     1
 78
     2
176
     1
 67
     7
176
     1
 79
     5
176
     1
170
     0
176
     1
171
     0
176
     1
290
     0
176
     1
 93
       13
176
     1
 44
0.0
176
     1
173
     0
176
     1
  0
VISUALSTYLE
  5
9FC
102
{ACAD_REACTORS
330
9F9
102
}
330
9F9
100
AcDbVisualStyle
  2
Gouraud
 70
     2
177
     2
291
     1
 71
     2
176
     1
 72
     2
176
     1
 73
     1
176
     1
 90
        2
176
     1
 40
0.6
176
     1
 41
30.0
176
     1
 63
     7
421
 16777215
176
     1
 74
     0
176
     1
 91
        0
176
     1
 64
     7
176
     1
 65
   257
176
     1
 75
     1
176
     1
175
     1
176
     1
 42
1.0
176
     1
 92
        0
176
     1
 66
     7
176
     1
 43
1.0
176
     1
 76
     1
176
     1
 77
     6
176
     1
 78
     2
176
     1
 67
     7
176
     1
 79
     5
176
     1
170
     0
176
     1
171
     0
176
     1
290
     0
176
     1
 93
       13
176
     1
 44
0.0
176
     1
173
     0
176
     1
  0
VISUALSTYLE
  5
9FD
102
{ACAD_REACTORS
330
9F9
102
}
330
9F9
100
AcDbVisualStyle
  2
GouraudWithEdges
 70
     3
177
     2
291
     1
 71
     2
176
     1
 72
     2
176
     1
 73
     1
176
     1
 90
        2
176
     1
 40
0.6
176
     1
 41
30.0
176
     1
 63
     7
421
 16777215
176
     1
 74
     1
176
     1
 91
        0
176
     1
 64
     7
176
     1
 65
   257
176
     1
 75
     1
176
     1
175
     1
176
     1
 42
1.0
176
     1
 92
        0
176
     1
 66
   257
176
     1
 43
1.0
176
     1
 76
     1
176
     1
 77
     6
176
     1
 78
     2
176
     1
 67
     7
176
     1
 79
     5
176
     1
170
     0
176
     1
171
     0
176
     1
290
     0
176
     1
 93
       13
176
     1
 44
0.0
176
     1
173
     0
176
     1
  0
VISUALSTYLE
  5
A01
102
{ACAD_REACTORS
330
9F9
102
}
330
9F9
100
AcDbVisualStyle
  2
Hidden
 70
     6
177
     2
291
     0
 71
     1
176
     1
 72
     2
176
     1
 73
     2
176
     1
 90
        0
176
     1
 40
0.6
176
     1
 41
30.0
176
     1
 63
     7
421
 16777215
176
     1
 74
     2
176
     1
 91
        2
176
     1
 64
     7
176
     1
 65
   257
176
     1
 75
     2
176
     1
175
     1
176
     1
 42
40.0
176
     1
 92
        0
176
     1
 66
   257
176
     1
 43
1.0
176
     1
 76
     1
176
     1
 77
     6
176
     1
 78
     2
176
     1
 67
     7
176
     1
 79
     3
176
     1
170
     0
176
     1
171
     0
176
     1
290
     0
176
     1
 93
        1
176
     1
 44
0.0
176
     1
173
     0
176
     1
  0
VISUALSTYLE
  5
A0F
102
{ACAD_REACTORS
330
9F9
102
}
330
9F9
100
AcDbVisualStyle
  2
JitterOff
 70
    20
177
     2
291
     1
 71
     2
176
     0
 72
     2
176
     0
 73
     0
176
     0
 90
        0
176
     0
 40
0.6
176
     0
 41
30.0
176
     0
 63
     7
421
 16777215
176
     0
 74
     1
176
     0
 91
        4
176
     0
 64
     7
176
     0
 65
   257
176
     0
 75
     1
176
     0
175
     1
176
     0
 42
1.0
176
     0
 92
       10
176
     2
 66
     7
176
     0
 43
1.0
176
     0
 76
     1
176
     0
 77
     6
176
     0
 78
     2
176
     0
 67
     7
176
     0
 79
     5
176
     0
170
     0
176
     0
171
     0
176
     0
290
     0
176
     0
 93
        1
176
     0
 44
0.0
176
     0
173
     0
176
     0
  0
VISUALSTYLE
  5
A07
102
{ACAD_REACTORS
330
9F9
102
}
330
9F9
100
AcDbVisualStyle
  2
Linepattern
 70
    14
177
     2
291
     1
 71
     2
176
     1
 72
     2
176
     1
 73
     0
176
     1
 90
        0
176
     1
 40
0.6
176
     1
 41
30.0
176
     1
 63
     7
421
 16777215
176
     1
 74
     1
176
     1
 91
        4
176
     1
 64
     7
176
     1
 65
   257
176
     1
 75
     7
176
     1
175
     7
176
     1
 42
1.0
176
     1
 92
        8
176
     1
 66
     7
176
     1
 43
1.0
176
     1
 76
     1
176
     1
 77
     6
176
     1
 78
     2
176
     1
 67
     7
176
     1
 79
     5
176
     1
170
     0
176
     1
171
     0
176
     1
290
     0
176
     1
 93
        1
176
     1
 44
0.0
176
     1
173
     0
176
     1
  0
VISUALSTYLE
  5
A10
102
{ACAD_REACTORS
330
9F9
102
}
330
9F9
100
AcDbVisualStyle
  2
OverhangOff
 70
    21
177
     2
291
     1
 71
     2
176
     0
 72
     2
176
     0
 73
     0
176
     0
 90
        0
176
     0
 40
0.6
176
     0
 41
30.0
176
     0
 63
     7
421
 16777215
176
     0
 74
     1
176
     0
 91
        4
176
     0
 64
     7
176
     0
 65
   257
176
     0
 75
     1
176
     0
175
     1
176
     0
 42
1.0
176
     0
 92
        9
176
     2
 66
     7
176
     0
 43
1.0
176
     0
 76
     1
176
     0
 77
     6
176
     0
 78
     2
176
     0
 67
     7
176
     0
 79
     5
176
     0
170
     0
176
     0
171
     0
176
     0
290
     0
176
     0
 93
        1
176
     0
 44
0.0
176
     0
173
     0
176
     0
  0
VISUALSTYLE
  5
A03
102
{ACAD_REACTORS
330
9F9
102
}
330
9F9
100
AcDbVisualStyle
  2
Realistic
 70
     8
177
     2
291
     0
 71
     2
176
     1
 72
     3
176
     1
 73
     0
176
     1
 90
        2
176
     1
 40
0.6
176
     1
 41
30.0
176
     1
 63
     7
421
 16777215
176
     1
 74
     0
176
     1
 91
        0
176
     1
 64
     7
176
     1
 65
   257
176
     1
 75
     1
176
     1
175
     1
176
     1
 42
1.0
176
     1
 92
        8
176
     1
 66
   257
176
     1
 43
1.0
176
     1
 76
     1
176
     1
 77
     6
176
     1
 78
     2
176
     1
 67
     7
176
     1
 79
     3
176
     1
170
     0
176
     1
171
     0
176
     1
290
     0
176
     1
 93
       13
176
     1
 44
0.0
176
     1
173
     0
176
     1
  0
VISUALSTYLE
  5
A0E
102
{ACAD_REACTORS
330
9F9
102
}
330
9F9
100
AcDbVisualStyle
  2
Shaded
 70
    27
177
     2
291
     0
 71
     2
176
     1
 72
     2
176
     1
 73
     1
176
     1
 90
        2
176
     1
 40
0.6
176
     1
 41
30.0
176
     1
 63
     7
421
 16777215
176
     1
 74
     0
176
     1
 91
        4
176
     1
 64
     7
176
     1
 65
   257
176
     1
 75
     1
176
     1
175
     1
176
     1
 42
1.0
176
     1
 92
        8
176
     1
 66
   257
176
     1
 43
1.0
176
     1
 76
     1
176
     1
 77
     6
176
     1
 78
     2
176
     1
 67
     8
425
  7895160
176
     1
 79
     3
176
     1
170
     0
176
     1
171
     0
176
     1
290
     0
176
     1
 93
        5
176
     1
 44
0.0
176
     1
173
     0
176
     1
  0
VISUALSTYLE
  5
A0D
102
{ACAD_REACTORS
330
9F9
102
}
330
9F9
100
AcDbVisualStyle
  2
Shaded with edges
 70
    26
177
     2
291
     0
 71
     2
176
     1
 72
     2
176
     1
 73
     1
176
     1
 90
        2
176
     1
 40
0.6
176
     1
 41
30.0
176
     1
 63
     7
421
 16777215
176
     1
 74
     1
176
     1
 91
       10
176
     1
 64
     7
176
     1
 65
   257
176
     1
 75
     2
176
     1
175
     1
176
     1
 42
1.0
176
     1
 92
        8
176
     1
 66
   257
176
     1
 43
1.0
176
     1
 76
     1
176
     1
 77
     6
176
     1
 78
     2
176
     1
 67
     7
176
     1
 79
     3
176
     1
170
     0
176
     1
171
     0
176
     1
290
     0
176
     1
 93
        5
176
     1
 44
0.0
176
     1
173
     0
176
     1
  0
VISUALSTYLE
  5
A0A
102
{ACAD_REACTORS
330
9F9
102
}
330
9F9
100
AcDbVisualStyle
  2
Shades of Gray
 70
    23
177
     2
291
     0
 71
     2
176
     1
 72
     2
176
     1
 73
     3
176
     1
 90
        0
176
     1
 40
0.6
176
     1
 41
30.0
176
     1
 63
     7
421
 16777215
176
     1
 74
     2
176
     1
 91
        2
176
     1
 64
     7
176
     1
 65
     7
176
     1
 75
     1
176
     1
175
     1
176
     1
 42
40.0
176
     1
 92
        8
176
     1
 66
     7
176
     1
 43
1.0
176
     1
 76
     1
176
     1
 77
     6
176
     1
 78
     2
176
     1
 67
     7
176
     1
 79
     3
176
     1
170
     0
176
     1
171
     0
176
     1
290
     0
176
     1
 93
        1
176
     1
 44
0.0
176
     1
173
     0
176
     1
  0
VISUALSTYLE
  5
A0B
102
{ACAD_REACTORS
330
9F9
102
}
330
9F9
100
AcDbVisualStyle
  2
Sketchy
 70
    24
177
     2
291
     0
 71
     1
176
     1
 72
     2
176
     1
 73
     2
176
     1
 90
        0
176
     1
 40
0.6
176
     1
 41
30.0
176
     1
 63
     7
421
 16777215
176
     1
 74
     2
176
     1
 91
        2
176
     1
 64
     7
176
     1
 65
     7
176
     1
 75
     1
176
     1
175
     1
176
     1
 42
40.0
176
     1
 92
       11
176
     1
 66
     7
176
     1
 43
1.0
176
     1
 76
     1
176
     1
 77
     6
176
     1
 78
     2
176
     1
 67
     7
176
     1
 79
     6
176
     1
170
     0
176
     1
171
     0
176
     1
290
     0
176
     1
 93
        1
176
     1
 44
0.0
176
     1
173
     0
176
     1
  0
VISUALSTYLE
  5
A06
102
{ACAD_REACTORS
330
9F9
102
}
330
9F9
100
AcDbVisualStyle
  2
Thicken
 70
    13
177
     2
291
     1
 71
     2
176
     1
 72
     2
176
     1
 73
     0
176
     1
 90
        0
176
     1
 40
0.6
176
     1
 41
30.0
176
     1
 63
     7
421
 16777215
176
     1
 74
     1
176
     1
 91
        4
176
     1
 64
     7
176
     1
 65
   257
176
     1
 75
     1
176
     1
175
     1
176
     1
 42
1.0
176
     1
 92
       12
176
     1
 66
     7
176
     1
 43
1.0
176
     1
 76
     1
176
     1
 77
     6
176
     1
 78
     2
176
     1
 67
     7
176
     1
 79
     5
176
     1
170
     0
176
     1
171
     0
176
     1
290
     0
176
     1
 93
        1
176
     1
 44
0.0
176
     1
173
     0
176
     1
  0
VISUALSTYLE
  5
A00
102
{ACAD_REACTORS
330
9F9
102
}
330
9F9
100
AcDbVisualStyle
  2
Wireframe
 70
     5
177
     2
291
     0
 71
     0
176
     1
 72
     2
176
     1
 73
     0
176
     1
 90
        0
176
     1
 40
0.6
176
     1
 41
30.0
176
     1
 63
     7
421
 16777215
176
     1
 74
     1
176
     1
 91
        4
176
     1
 64
     7
176
     1
 65
   257
176
     1
 75
     1
176
     1
175
     1
176
     1
 42
1.0
176
     1
 92
        0
176
     1
 66
   257
176
     1
 43
1.0
176
     1
 76
     1
176
     1
 77
     6
176
     1
 78
     2
176
     1
 67
     7
176
     1
 79
     3
176
     1
170
     0
176
     1
171
     0
176
     1
290
     0
176
     1
 93
        1
176
     1
 44
0.0
176
     1
173
     0
176
     1
  0
VISUALSTYLE
  5
A0C
102
{ACAD_REACTORS
330
9F9
102
}
330
9F9
100
AcDbVisualStyle
  2
X-Ray
 70
    25
177
     2
291
     0
 71
     2
176
     1
 72
     2
176
     1
 73
     1
176
     1
 90
        1
176
     1
 40
0.5
176
     1
 41
30.0
176
     1
 63
     7
421
 16777215
176
     1
 74
     1
176
     1
 91
        0
176
     1
 64
     7
176
     1
 65
   257
176
     1
 75
     1
176
     1
175
     1
176
     1
 42
1.0
176
     1
 92
        8
176
     1
 66
     7
176
     1
 43
1.0
176
     1
 76
     1
176
     1
 77
     6
176
     1
 78
     2
176
     1
 67
     7
176
     1
 79
     3
176
     1
170
     0
176
     1
171
     0
176
     1
290
     0
176
     1
 93
       13
176
     1
 44
0.0
176
     1
173
     0
176
     1
  0
DICTIONARYVAR
  5
B24
102
{ACAD_REACTORS
330
9C7
102
}
330
9C7
100
DictionaryVariables
280
     0
  1
1:1
  0
DICTIONARYVAR
  5
B22
102
{ACAD_REACTORS
330
9C7
102
}
330
9C7
100
DictionaryVariables
280
     0
  1
STANDARD
  0
DICTIONARYVAR
  5
9C8
102
{ACAD_REACTORS
330
9C7
102
}
330
9C7
100
DictionaryVariables
280
     0
  1
STANDARD
  0
DICTIONARYVAR
  5
9DE
102
{ACAD_REACTORS
330
9C7
102
}
330
9C7
100
DictionaryVariables
280
     0
  1
1
  0
DICTIONARYVAR
  5
B26
102
{ACAD_REACTORS
330
9C7
102
}
330
9C7
100
DictionaryVariables
280
     0
  1
1
  0
DICTIONARYVAR
  5
B27
102
{ACAD_REACTORS
330
9C7
102
}
330
9C7
100
DictionaryVariables
280
     0
  1
15
  0
DICTIONARYVAR
  5
B25
102
{ACAD_REACTORS
330
9C7
102
}
330
9C7
100
DictionaryVariables
280
     0
  1
0
  0
DICTIONARYVAR
  5
B23
102
{ACAD_REACTORS
330
9C7
102
}
330
9C7
100
DictionaryVariables
280
     0
  1
0
  0
DICTIONARYVAR
  5
9DF
102
{ACAD_REACTORS
330
9C7
102
}
330
9C7
100
DictionaryVariables
280
     0
  1

  0
DICTIONARY
  5
B1E
330
9C1
100
AcDbDictionary
280
     1
281
     1
  3
ADSK_XREC_LAYOUTTHUMBNAIL
360
B1F
  0
DICTIONARY
  5
9EA
330
9E9
100
AcDbDictionary
280
     1
281
     1
  3
BUMPTILE
360
9EC
  3
DIFFUSETILE
360
9EB
  3
OPACITYTILE
360
9EF
  3
REFLECTIONTILE
360
9EE
  3
REFRACTIONTILE
360
9F0
  3
SPECULARTILE
360
9ED
  0
DICTIONARY
  5
9E2
330
9E1
100
AcDbDictionary
280
     1
281
     1
  3
BUMPTILE
360
9E4
  3
DIFFUSETILE
360
9E3
  3
OPACITYTILE
360
9E7
  3
REFLECTIONTILE
360
9E6
  3
REFRACTIONTILE
360
9E8
  3
SPECULARTILE
360
9E5
  0
DICTIONARY
  5
9F2
330
9F1
100
AcDbDictionary
280
     1
281
     1
  3
BUMPTILE
360
9F4
  3
DIFFUSETILE
360
9F3
  3
OPACITYTILE
360
9F7
  3
REFLECTIONTILE
360
9F6
  3
REFRACTIONTILE
360
9F8
  3
SPECULARTILE
360
9F5
  0
DICTIONARY
  5
1959
330
A25
100
AcDbDictionary
280
     1
281
     1
  3
ACAD_XREC_ROUNDTRIP
360
195A
  0
DICTIONARY
  5
1957
330
9BE
100
AcDbDictionary
280
     1
281
     1
  3
ACAD_ROUNDTRIP_2008_TABLESTYLE_CELLSTYLEMAP
360
1958
  0
XRECORD
  5
B1F
102
{ACAD_REACTORS
330
B1E
102
}
330
B1E
100
AcDbXrecord
280
     1
310
280000000001000088000000010008000000000000880000000000000000000000010000000000000000000000000000C8C8C8000000000000000000000000000000000000000000000000000000000000000000330000006600000099000000CC000000FF00000000330000333300006633000099330000CC330000FF3300
310
0000660000336600006666000099660000CC660000FF66000000990000339900006699000099990000CC990000FF99000000CC000033CC000066CC000099CC0000CCCC0000FFCC000000FF000033FF000066FF000099FF0000CCFF0000FFFF000000003300330033006600330099003300CC003300FF003300003333003333
310
33006633330099333300CC333300FF33330000663300336633006666330099663300CC663300FF66330000993300339933006699330099993300CC993300FF99330000CC330033CC330066CC330099CC3300CCCC3300FFCC330000FF330033FF330066FF330099FF3300CCFF3300FFFF330000006600330066006600660099
310
006600CC006600FF00660000336600333366006633660099336600CC336600FF33660000666600336666006666660099666600CC666600FF66660000996600339966006699660099996600CC996600FF99660000CC660033CC660066CC660099CC6600CCCC6600FFCC660000FF660033FF660066FF660099FF6600CCFF6600
310
FFFF660000009900330099006600990099009900CC009900FF00990000339900333399006633990099339900CC339900FF33990000669900336699006666990099669900CC669900FF66990000999900339999006699990099999900CC999900FF99990000CC990033CC990066CC990099CC9900CCCC9900FFCC990000FF99
310
0033FF990066FF990099FF9900CCFF9900FFFF99000000CC003300CC006600CC009900CC00CC00CC00FF00CC000033CC003333CC006633CC009933CC00CC33CC00FF33CC000066CC003366CC006666CC009966CC00CC66CC00FF66CC000099CC003399CC006699CC009999CC00CC99CC00FF99CC0000CCCC0033CCCC0066CC
310
CC0099CCCC00CCCCCC00FFCCCC0000FFCC0033FFCC0066FFCC0099FFCC00CCFFCC00FFFFCC000000FF003300FF006600FF009900FF00CC00FF00FF00FF000033FF003333FF006633FF009933FF00CC33FF00FF33FF000066FF003366FF006666FF009966FF00CC66FF00FF66FF000099FF003399FF006699FF009999FF00CC
310
99FF00FF99FF0000CCFF0033CCFF0066CCFF0099CCFF00CCCCFF00FFCCFF0000FFFF0033FFFF0066FFFF0099FFFF00CCFFFF00FFFFFF00000000000D0D0D001A1A1A00282828003535350043434300505050005D5D5D006B6B6B00787878008686860093939300A1A1A100AEAEAE00BBBBBB00C9C9C900D6D6D600E4E4E400
310
F1F1F100FFFFFF000000000000000000000000000000000000000000000000000000000000000000000000000000000000000000000000000000000000000000000000000000000000000000000000000000000000000000000000000000000000000000000000000000000000000000000000000000000000000000000000
310
00000000000000000000000000000000000000000000000000000000000000000000000000000000000000000000000000000000000000000000000000000000000000000000000000000000000000000000000000000000000000000000000000000000000000000000000000000000000000000000000000000000000000
310
00000000000000000000000000000000000000000000000000000000000000000000000000000000000000000000000000000000000000000000000000000000000000000000000000000000000000000000000000000000000000000000000000000000000000000000000000000000000000000000000000000000000000
310
00000000000000000000000000000000000000282828282828282828282828282828282828282828282828282828282828282828282828282828282828282828282828282828282828282828282828282828280000000000000000000000000000000000000000000000000000000000000000000000000000000000000000
310
00000000000000000000000000000000000000000000000000000000000000000000000000000000000000000000000000000000000000000000000000000000000000000000000000000000000000000000000000000000000000000000000000000000000000000000000000000000000000000000000000000000000000
310
00000000000000000000000000000000000000000028002828282828282828282828282828282828282828282828282828282828282828282828282828282828282828282828282828282828282828282828280028000000000000000000000000000000000000000000000000000000000000000000000000000000000000
310
00000000000000000000000000000000000000000000000000000000000000000000000000000000000000000000000000000000000000000000000000000000000000000000000000000000000000000000000000000000000000000000000000000000000000000000000000000000000000000000000000000000000000
310
000000000000000000000000000000000000000000000028002800000000000000000000000000000000000000000000000000000000000000000000000000000000000000280000F5F50000280000F5F5F5000028002800000000000000000000000000000000000000000000000000000000000000000000000000000000
310
00000000000000000000000000000000000000000000000000000000000000000000000000000000000000000000000000000000000000000000000000000000000000000000000000000000000000000000000000000000000000000000000000000000000000000000000000000000000000000000000000000000000000
310
0000000000000000000000000000000000000000000000000028002800000000000000000000000000000000ECECECECECECECECECECECECECEC00000000000000000000000000280000F5F50000280000F5F5F500002800280000000000000000000000000000000000000000000000000000000000000000000000000000
310
00000000000000000000000000000000000000000000000000000000000000000000000000000000000000000000000000000000000000000000000000000000000000000000000000000000000000000000000000000000000000000000000000000000000000000000000000000000000000000000000000000000000000
310
00000000000000000000000000000000000000000000000000000028002800000000000000000000000000000000ECECECECECECECECECECECECECEC00000000000000000000000000282828282828282828282828282828280028000000000000000000000000000000000000000000000000000000000000000000000000
310
00000000000000000000000000000000000000000000000000000000000000000000000000000000000000000000000000000000000000000000000000000000000000000000000000000000000000000000000000000000000000000000000000000000000000000000000000000000000000000000000000000000000000
310
00000000000000000000000000000000000000000000000000000000002800280000000000000000C3C3C3C3C3C3C3C3C3C3C3C3C3C3C3C3C3C3C3C3C3C3C3C3C3C3C3C3C3C3C3C30000002800F5F5F5F500282828282828282828002800000000000000000000000000000000000000000000000000000000000000000000
310
00000000000000000000000000000000000000000000000000000000000000000000000000000000000000000000000000000000000000000000000000000000000000000000000000000000000000000000000000000000000000000000000000000000000000000000000000000000000000000000000000000000000000
310
000000000000000000000000000000000000000000000000000000000000002800280000000000000000C3C3C3C3C300C3C3C300C3C3C300C3C3C300C3C3C300C3C3C300C3C3C300C3C30000002800F5F5F5F50028282828282828282800280000000000000000000000000000000000000000000000000000000000000000
310
00000000000000000000000000000000000000000000000000000000000000000000000000000000000000000000000000000000000000000000000000000000000000000000000000000000000000000000000000000000000000000000000000000000000000000000000000000000000000000000000000000000000000
310
000000000000000000000000000000000000000000000000000000000000000000280028000000000000000000C3C3000000C3000000C3000000C3000000C3000000C3000000C3000000C3C300000028282828282828282828F5F5F5F5F5F50028000000000000000000000000000000000000000000000000000000000000
310
00000000000000000000000000000000000000000000000000000000000000000000000000000000000000000000000000000000000000000000000000000000000000000000000000000000000000000000000000000000000000000000000000000000000000000000000000000000000000000000000000000000000000
310
000000000000000000000000000000000000000000000000000000000000000000000028002800000000BEC3C3C300C3C3F5F5F5C3F5F5F5C3F5F5F5C3F5F5F5C3F5F5F5C3F5F5F5C3F5F5F5C3C3C3C300280000000000F5F5F5F5000000000028002800000000000000000000000000000000000000000000000000000000
310
00000000000000000000000000000000000000000000000000000000000000000000000000000000000000000000000000000000000000000000000000000000000000000000000000000000000000000000000000000000000000000000000000000000000000000000000000000000000000000000000000000000000000
310
0000000000000000000000000000000000000000000000000000000000000000000000000028002800000000BEBEC3C300F5F5F5F5F5F5F5F5F5F5F5F5F5F5F5F5F5F5F5F5F5F5F5F5F5F5F5F5F5F5F5C3C300280000000000F5F5F5F500000000002800280000000000000000000000000000000000000000000000000000
310
00000000000000000000000000000000000000000000000000000000000000000000000000000000000000000000000000000000000000000000000000000000000000000000000000000000000000000000000000000000000000000000000000000000000000000000000000000000000000000000000000000000000000
310
0000000000000000000000000000000000000000000000000000000000000000000000000000002800280000C3C3C3C3C3C300F5F5F5F5F5F5F5F5F5F5F5F5F5F5F5F5F5F5F5F5F5F5F5F5F5F5F5F5F5C3C3C3C300282828282828282828282828282828280028000000000000000000000000000000000000000000000000
310
00000000000000000000000000000000000000000000000000000000000000000000000000000000000000000000000000000000000000000000000000000000000000000000000000000000000000000000000000000000000000000000000000000000000000000000000000000000000000000000000000000000000000
310
00000000000000000000000000000000000000000000000000000000000000000000000000000000002800280000C3C3C30000C300F5F5F5F5F5F5F5F5F5F5F5F5F5F5F5F5F5F5F5F5F5F5F5F5F5F5F5F5F5F5F500000028ECECECECECECECECECECECEC000028002800000000000000000000000000000000000000000000
310
00000000000000000000000000000000000000000000000000000000000000000000000000000000000000000000000000000000000000000000000000000000000000000000000000000000000000000000000000000000000000000000000000000000000000000000000000000000000000000000000000000000000000
310
0000000000000000000000000000000000000000000000000000000000000000000000000000000000000028002800BEC3C3C3C3C3C300C3F5F5F5F5F5F5F5F5F5F5F5F5F5F5F5F5F5F5F5F5F5F5F5F5F5F5F5F5F5C30000002800000000000000000000000000002800280000000000000000000000000000000000000000
310
00000000000000000000000000000000000000000000000000000000000000000000000000000000000000000000000000000000000000000000000000000000000000000000000000000000000000000000000000000000000000000000000000000000000000000000000000000000000000000000000000000000000000
310
000000000000000000000000000000000000000000000000000000000000000000000000000000000000000000280028000000000000000000C3C3C3C3C3C3C3C3C3C3C3C3C3C3C3C3C3C3C3C3C3C3C3C3C3C3C3C3C3C3C3000000280000000000000000000000000000280028000000000000000000000000000000000000
310
00000000000000000000000000000000000000000000000000000000000000000000000000000000000000000000000000000000000000000000000000000000000000000000000000000000000000000000000000000000000000000000000000000000000000000000000000000000000000000000000000000000000000
310
0000000000000000000000000000000000000000000000000000000000000000000000000000000000000000000000280028000000000000000000C300000000000000000000000000C3C3C300000000000000000000000000C300000028000000000000000000000000000028002800000000000000000000000000000000
310
00000000000000000000000000000000000000000000000000000000000000000000000000000000000000000000000000000000000000000000000000000000000000000000000000000000000000000000000000000000000000000000000000000000000000000000000000000000000000000000000000000000000000
310
00000000000000000000000000000000000000000000000000000000000000000000000000000000000000000000000000280028000000000000000000C3C3C3C3C3C3C3C3C3C3C3C3C3C3C3C3C3C3C3C3C3C3C3C3C3C3C3C3C3C3C30000002800000000000000000000000000002800280000000000000000000000000000
310
00000000000000000000000000000000000000000000000000000000000000000000000000000000000000000000000000000000000000000000000000000000000000000000000000000000000000000000000000000000000000000000000000000000000000000000000000000000000000000000000000000000000000
310
00000000000000000000000000000000000000000000000000000000000000000000000000000000000000000000000000000028002800BEC3C3C3C3C3C300C3F5F5F5F5F5F5F5F5F5F5F5F5F5F5F5F5F5F5F5F5F5F5F5F5F5F5F5F5F5C3000000280000000000000000000000000000280028000000000000000000000000
310
00000000000000000000000000000000000000000000000000000000000000000000000000000000000000000000000000000000000000000000000000000000000000000000000000000000000000000000000000000000000000000000000000000000000000000000000000000000000000000000000000000000000000
310
00000000000000000000000000000000000000000000000000000000000000000000000000000000000000000000000000000000002800280000BEC3C30000C300F5F5F5F5F5F5F5F5F5F5F5F5F5F5F5F5F5F5F5F5F5F5F5F5F5F5F5F5F5F5F500000028000000000000000000000000000028002800000000000000000000
310
00000000000000000000000000000000000000000000000000000000000000000000000000000000000000000000000000000000000000000000000000000000000000000000000000000000000000000000000000000000000000000000000000000000000000000000000000000000000000000000000000000000000000
310
000000000000000000000000000000000000000000000000000000000000000000000000000000000000000000000000000000000000002800280000C3C3BE00C3C300F500BE000000BE000000BE000000BE000000BE000000BE000000BE000000BE00C3002800000000000000000000000000002800280000000000000000
310
00000000000000000000000000000000000000000000000000000000000000000000000000000000000000000000000000000000000000000000000000000000000000000000000000000000000000000000000000000000000000000000000000000000000000000000000000000000000000000000000000000000000000
310
00000000000000000000000000000000000000000000000000000000000000000000000000000000000000000000000000000000000000000028002800000000C3C3C3C300F5F5F5F5F5BEF5F5F5F5F5F5F5F5F5F5F5F5F5F5F5F5F5F5F5F5F5F5F5F5C3C3C300280000000000000000000000000000280028000000000000
310
00000000000000000000000000000000000000000000000000000000000000000000000000000000000000000000000000000000000000000000000000000000000000000000000000000000000000000000000000000000000000000000000000000000000000000000000000000000000000000000000000000000000000
310
000000000000000000000000000000000000000000000000000000000000000000000000000000000000000000000000000000000000000000000028002800000000BEC3C3C300C3F5C3F5F5F5C3F5F5F5C3F5F5F5C3F5F5F5C3F5F5F5C3F5F5F5C3F5F5F5C3C3C30028000000000000000000000000000028002800000000
310
00000000000000000000000000000000000000000000000000000000000000000000000000000000000000000000000000000000000000000000000000000000000000000000000000000000000000000000000000000000000000000000000000000000000000000000000000000000000000000000000000000000000000
310
00000000000000000000000000000000000000000000000000000000000000000000000000000000000000000000000000000000000000000000000000280028000000000000000000C300C3000000C3000000C3000000C3000000C3000000C3000000C3000000C30000002800000000000000000000000000002800280000
310
00000000000000000000000000000000000000000000000000000000000000000000000000000000000000000000000000000000000000000000000000000000000000000000000000000000000000000000000000000000000000000000000000000000000000000000000000000000000000000000000000000000000000
310
000000000000000000000000000000000000000000000000000000000000000000000000000000000000000000000000000000000000000000000000000000280028000000000000000000C300C3000000C3000000C3000000C3000000C3000000C3000000C3000000C30000002800ECECECEC000000000000000000280028
310
00000000000000000000000000000000000000000000000000000000000000000000000000000000000000000000000000000000000000000000000000000000000000000000000000000000000000000000000000000000000000000000000000000000000000000000000000000000000000000000000000000000000000
310
0000000000000000000000000000000000000000000000000000000000000000000000000000000000000000000000000000000000000000000000000000000000280028000000000000000000C3C3C3C3C3C3C3C3C3C3C3C3C3C3C3C3C3C3C3C3C3C3C3C3C3C3C3C3C3C3C3C3000028ECECECECECEC000000000000000028
310
00280000000000000000000000000000000000000000000000000000000000000000000000000000000000000000000000000000000000000000000000000000000000000000000000000000000000000000000000000000000000000000000000000000000000000000000000000000000000000000000000000000000000
310
000000000000000000000000000000000000000000000000000000000000000000000000000000000000000000000000000000000000000000000000000000000000002800280000000000000000000000000000000000000000000000000000000000000000000000000000000000000028ECECECECECECEC000000000000
310
00280028000000000000000000000000000000000000000000000000000000000000000000000000000000000000000000000000000000000000000000000000000000000000000000000000000000000000000000000000000000000000000000000000000000000000000000000000000000000000000000000000000000
310
00000000000000000000000000000000000000000000000000000000000000000000000000000000000000000000000000000000000000000000000000000000000000000028002800000000000000000000000000000000000000000000000000000000000000000000000000000000000000280000ECECECECECEC000000
310
00000028002800000000000000000000000000000000000000000000000000000000000000000000000000000000000000000000000000000000000000000000000000000000000000000000000000000000000000000000000000000000000000000000000000000000000000000000000000000000000000000000000000
310
000000000000000000000000000000000000000000000000000000000000000000000000000000000000000000000000000000000000000000000000000000000000000000000028002800000000000000ECECECECEC00000000000000000000000000000000ECECECECEC00000000000000000000280000ECECECECEC0000
310
ECEC0000002800280000000000000000000000000000000000000000000000000000000000000000000000000000000000000000000000000000000000000000000000000000000000000000000000000000000000000000000000000000000000000000000000000000000000000000000000000000000000000000000000
310
000000000000000000000000000000000000000000000000000000000000000000000000000000000000000000000000000000000000000000000000000000000000000000000000002800280000000000ECECECECECECECEC0000000000000000000000000000ECECECECECECECEC0000000000000000280000ECECECECEC
310
EC00ECEC000000280028000000000000000000000000000000000000000000000000000000000000000000000000000000000000000000000000000000000000000000000000000000000000000000000000000000000000000000000000000000000000000000000000000000000000000000000000000000000000000000
310
000000000000000000000000000000000000000000000000000000000000000000000000000000000000000000000000000000000000000000000000000000000000000000000000000000280028000000000000000000000000000000000000000000000000000000000000000000000000000000000000002800ECECECEC
310
ECECECEC000000000028002800000000000000000000000000000000000000000000000000000000000000000000000000000000000000000000000000000000000000000000000000000000000000000000000000000000000000000000000000000000000000000000000000000000000000000000000000000000000000
310
00000000000000000000000000000000000000000000000000000000000000000000000000000000000000000000000000000000000000000000000000000000000000000000000000000000002800280000000000000000000000000000000000000000000000C3C3C3C300000000000000000000000000000000280000EC
310
ECEC0000000000000000002800280000000000000000000000000000000000000000000000000000000000000000000000000000000000000000000000000000000000000000000000000000000000000000000000000000000000000000000000000000000000000000000000000000000000000000000000000000000000
310
000000000000000000000000000000000000000000000000000000000000000000000000000000000000000000000000000000000000000000000000000000000000000000000000000000000000002800280000000000000000000000000000000000000000000000C3C3C3C300000000C3C30000000000000000000028EC
310
ECECECECEC0000000000000000280028000000000000000000000000000000000000000000000000000000000000000000000000000000000000000000000000000000000000000000000000000000000000000000000000000000000000000000000000000000000000000000000000000000000000000000000000000000
310
0000000000000000000000000000000000000000000000000000000000000000000000000000000000000000000000000000000000000000000000000000000000000000000000000000000000000000002800280000000000000000000000000000000000000000000000C3C300C300000000C3C300000000000000000000
310
28ECECECECECEC000000000000000028002800000000000000000000000000000000000000000000000000000000000000000000000000000000000000000000000000000000000000000000000000000000000000000000000000000000000000000000000000000000000000000000000000000000000000000000000000
310
00000000000000000000000000000000000000000000000000000000000000000000000000000000000000000000000000000000000000000000000000000000000000000000000000000000000000000000002800280000C3C300000000000000000000C3C3C30000000000C3C3C300C3000000C3C3C30000000000000000
310
00002828282828282828282828282828282800280000000000000000000000000000000000000000000000000000000000000000000000000000000000000000000000000000000000000000000000000000000000000000000000000000000000000000000000000000000000000000000000000000000000000000000000
310
000000000000000000000000000000000000000000000000000000000000000000000000000000000000000000000000000000000000000000000000000000000000000000000000000000000000000000000000002800280000C3C3C300000000C3000000C3C3C3000000000000C3282800C3000000C3282800000000C300
310
0000000028000000ECECECECECECEC00000000280028000000000000000000000000000000000000000000000000000000000000000000000000000000000000000000000000000000000000000000000000000000000000000000000000000000000000000000000000000000000000000000000000000000000000000000
310
000000000000000000000000000000000000000000000000000000000000000000000000000000000000000000000000000000000000000000000000000000000000000000000000000000000000000000000000000000280028000000C328BE000000C30000BE28C300000000000000C3282828C3000000C32828000000C3
310
00000000000028280000ECECECECECECEC0000000028002800000000000000000000000000000000000000000000000000000000000000000000000000000000000000000000000000000000000000000000000000000000000000000000000000000000000000000000000000000000000000000000000000000000000000
310
00000000000000000000000000000000000000000000000000000000000000000000000000000000000000000000000000000000000000000000000000000000000000000000000000000000000000000000000000000000002800280000C30000BEBE0000C300BE282800C30000000000C3C3282828280000C3C328280000
310
C3000000000000002828282828282828282828282828282800280000000000000000000000000000000000000000000000000000000000000000000000000000000000000000000000000000000000000000000000000000000000000000000000000000000000000000000000000000000000000000000000000000000000
310
00000000000000000000000000000000000000000000000000000000000000000000000000000000000000000000000000000000000000000000000000000000000000000000000000000000000000000000000000000000000000280028000000C3000028BE00C3BE282800C3000000000000C3C3282828280000C3C32828
310
00C3C3000000000000002800ECECECECECECECECECECEC0000280028000000000000000000000000000000000000000000000000000000000000000000000000000000000000000000000000000000000000000000000000000000000000000000000000000000000000000000000000000000000000000000000000000000
310
00000000000000000000000000000000000000000000000000000000000000000000000000000000000000000000000000000000000000000000000000000000000000000000000000000000000000000000000000000000000000000028002800000000C3000028BEC3280000C30000000000000000C328280000000000C3
310
2828C300000000000000000028280000000000000000000000000028002800000000000000000000000000000000000000000000000000000000000000000000000000000000000000000000000000000000000000000000000000000000000000000000000000000000000000000000000000000000000000000000000000
310
000000000000000000000000000000000000000000000000000000000000000000000000000000000000000000000000000000000000000000000000000000000000000000000000000000000000000000000000000000000000000000000028002800000000C3C3000028C30000C3C30000000000000000C3282828280000
310
00C3C3C3C328282828C3C3C300002828282828282828282828282828282800280000000000000000000000000000000000000000000000000000000000000000000000000000000000000000000000000000000000000000000000000000000000000000000000000000000000000000000000000000000000000000000000
310
00000000000000000000000000000000000000000000000000000000000000000000000000000000000000000000000000000000000000000000000000000000000000000000000000000000000000000000000000000000000000000000000000280028000000000000C300C3C300C300000000000000000000C3C3C32828
310
000000C3C3C32828282828C3C3C30000280028282828282828282828282828280028000000000000000000000000000000000000000000000000000000000000000000000000000000000000000000000000000000000000000000000000000000000000000000000000000000000000000000000000000000000000000000
310
00000000000000000000000000000000000000000000000000000000000000000000000000000000000000000000000000000000000000000000000000000000000000000000000000000000000000000000000000000000000000000000000000000028002800000000000000C3C3C3C30000000000000000000000000000
310
0000000000C3C3C3C3C3C3C3C3C3C300000028282828282828282828282828282828002800000000000000000000000000000000000000000000000000000000000000000000000000000000000000000000000000000000000000000000000000000000000000000000000000000000000000000000000000000000000000
310
00000000000000000000000000000000000000000000000000000000000000000000000000000000000000000000000000000000000000000000000000000000000000000000000000000000000000000000000000000000000000000000000000000000002800280000000000000000000000000000000000000000000000
310
0000000000000000C30000C3C3000000C30000002800282828282828282828282800002800280000000000000000000000000000000000000000000000000000000000000000000000000000000000000000000000000000000000000000000000000000000000000000000000000000000000000000000000000000000000
310
00000000000000000000000000000000000000000000000000000000000000000000000000000000000000000000000000000000000000000000000000000000000000000000000000000000000000000000000000000000000000000000000000000000000000280028282828282828282828282828282828282828282828
310
28282828282828282828282828282828282828282828282828282828282828282828282828280028000000000000000000000000000000000000000000000000000000000000000000000000000000000000000000000000000000000000000000000000000000000000000000000000000000000000000000000000000000
310
00000000000000000000000000000000000000000000000000000000000000000000000000000000000000000000000000000000000000000000000000000000000000000000000000000000000000000000000000000000000000000000000000000000000000000028000000000000000000000000000000000000000000
310
00000000000000000000000000000000000000000000000000000000000000000000000000000000002800000000000000000000000000000000000000000000000000000000000000000000000000000000000000000000000000000000000000000000000000000000000000000000000000000000000000000000000000
310
00000000000000000000000000000000000000000000000000000000000000000000000000000000000000000000000000000000000000000000000000000000000000000000000000000000000000000000000000000000000000000000000000000000000000000000002828282828282828282828282828282828282828
310
28282828282828282828282828282828282828282828282828282828282828282828282828282828282828280000000000000000000000000000000000000000000000000000000000000000000000000000000000000000000000000000000000000000000000000000000000000000000000000000000000000000000000
310
00000000000000000000000000000000000000000000000000000000000000000000000000000000000000000000000000000000000000000000000000000000000000000000000000000000000000000000000000000000000000000000000000000000000000000000000000280000000000000000000000000000000000
310
00000000000000000000000000000000000000000000000000000000000000000000000000000000000000000028000000000000000000000000000000000000000000000000000000000000000000000000000000000000000000000000000000000000000000000000000000000000000000000000000000000000000000
310
00000000000000000000000000000000000000000000000000000000000000000000000000000000000000000000000000000000000000000000000000000000000000000000000000000000000000000000000000000000000000000000000000000000000000000000000000000028002828282828282828282828282828
310
28282828282828282828282828282828282828282828282828282828282828282828282828282828282828282828002800000000000000000000000000000000000000000000000000000000000000000000000000000000000000000000000000000000000000000000000000000000000000000000000000000000000000
310
00000000000000000000000000000000000000000000000000000000000000000000000000000000000000000000000000000000000000000000000000000000000000000000000000000000000000000000000000000000000000000000000000000000000000000000000000000000002800280000000000000000000000
310
00000000ECECECECECECECECECECECECECECECEC000000000000000000000000280000F5F50000280000F5F5F500002800280000000000000000000000000000000000000000000000000000000000000000000000000000000000000000000000000000000000000000000000000000000000000000000000000000000000
310
000000000000000000000000000000000000000000000000000000000000000000000000000000000000000000000000000000000000000000000000000000000000000000000000000000000000000000000000000000000000000000000000000000000000000000000000000000000000002800280000000000000000C3
310
C3C3C3C3C3C3C3C3C3C3C3C3C3C3C3C3C3C3C3C3C3C3C3C3C3C3C3C3C3C3C3000000282828000000002828282800000000280028000000000000000000000000000000000000000000000000000000000000000000000000000000000000000000000000000000000000000000000000000000000000000000000000000000
310
00000000000000000000000000000000000000000000000000000000000000000000000000000000000000000000000000000000000000000000000000000000000000000000000000000000000000000000000000000000000000000000000000000000000000000000000000000000000000000028002800000000000000
310
00C3C3C3C3C300C3C3C300C3C3C300C3C3C300C3C3C300C3C3C300C3C3C300C3C300000028282828282828282828282828282828002800000000000000000000000000000000000000000000000000000000000000000000000000000000000000000000000000000000000000000000000000000000000000000000000000
310
0000000000000000000000000000000000000000000000000000000000000000000000000000000000000000000000000000000000000000000000000000000000000000000000000000000000000000000000000000000000000000000000000000000000000000000000000000000000000000000000280028000000C3C3
310
C3C30000C3C3F5F5F5C3F5F5F5C3F5F5F5C3F5F5F5C3F5F5F5C3F5F5F5C3F5F5F5C3C3C3C3002800F5F5F5F50028282828282828282800280000000000000000000000000000000000000000000000000000000000000000000000000000000000000000000000000000000000000000000000000000000000000000000000
310
000000000000000000000000000000000000000000000000000000000000000000000000000000000000000000000000000000000000000000000000000000000000000000000000000000000000000000000000000000000000000000000000000000000000000000000000000000000000000000000000002800280000BE
310
BEC3C3C30000F5F5F5F5F5F5F5F5F5F5F5F5F5F5F5F5F5F5F5F5F5F5F5F5F5F5F5F5F5F5F5C3C30028280000000000282828F5F5F5F5F5F50028000000000000000000000000000000000000000000000000000000000000000000000000000000000000000000000000000000000000000000000000000000000000000000
310
00000000000000000000000000000000000000000000000000000000000000000000000000000000000000000000000000000000000000000000000000000000000000000000000000000000000000000000000000000000000000000000000000000000000000000000000000000000000000000000000000000028002800
310
00C3C3C3C3C30000F5F5F5F5F5F5F5F5F5F5F5F5F5F5F5F5F5F5F5F5F5F5F5F5F5F5F5F5F5F5C3C3C30028282828282828282828F5F5F5F5F5F5002800000000000000000000000000000000000000000000000000000000000000000000000000000000000000000000000000000000000000000000000000000000000000
310
00000000000000000000000000000000000000000000000000000000000000000000000000000000000000000000000000000000000000000000000000000000000000000000000000000000000000000000000000000000000000000000000000000000000000000000000000000000000000000000000000000000002800
310
280000C3BE00C3C30000F50000000000000000000000000000000000000000000000000000000000F5000000280000000000F5F5F5F500000000002800280000000000000000000000000000000000000000000000000000000000000000000000000000000000000000000000000000000000000000000000000000000000
310
00000000000000000000000000000000000000000000000000000000000000000000000000000000000000000000000000000000000000000000000000000000000000000000000000000000000000000000000000000000000000000000000000000000000000000000000000000000000000000000000000000000000000
310
28002800C3C3C3C3C3C30000F5F5F5F5F5F5F5F5F5F5F5F5F5F5F5F5F5F5F5F5F5F5F5F5F5F5F5F5F5F5F5000000282828000000000000000000000000280028000000000000000000000000000000000000000000000000000000000000000000000000000000000000000000000000000000000000000000000000000000
310
00000000000000000000000000000000000000000000000000000000000000000000000000000000000000000000000000000000000000000000000000000000000000000000000000000000000000000000000000000000000000000000000000000000000000000000000000000000000000000000000000000000000000
310
000028002800C3C3000000000000F5F5F5F5F5F5F5F5F5F5F5F5F5F5F5F5F5F5F5F5F5F5F5F5F5F5F5F5F5F5F500000028ECECECECECECECECECECECEC282828002800000000000000000000000000000000000000000000000000000000000000000000000000000000000000000000000000000000000000000000000000
310
00000000000000000000000000000000000000000000000000000000000000000000000000000000000000000000000000000000000000000000000000000000000000000000000000000000000000000000000000000000000000000000000000000000000000000000000000000000000000000000000000000000000000
310
00000000280028BEC300000000000000F5F5BEF5F5F5BEF5F5F5BEF5F5F5BEF5F5F5BEF5F5F5BEF5F5F5BEF5F5F5F500000028ECECECECECECECECECECECEC00002800280000000000000000000000000000000000000000000000000000000000000000000000000000000000000000000000000000000000000000000000
310
00000000000000000000000000000000000000000000000000000000000000000000000000000000000000000000000000000000000000000000000000000000000000000000000000000000000000000000000000000000000000000000000000000000000000000000000000000000000000000000000000000000000000
310
000000000000280028BE0000000000000000C3C3C3C3C3C3C3C3C3C3C3C3C3C3C3C3C3C3C3C3C3C3C3C3C3C3C3C3C3C3C3000000280000000000000000000000000000280028000000000000000000000000000000000000000000000000000000000000000000000000000000000000000000000000000000000000000000
310
00000000000000000000000000000000000000000000000000000000000000000000000000000000000000000000000000000000000000000000000000000000000000000000000000000000000000000000000000000000000000000000000000000000000000000000000000000000000000000000000000000000000000
310
00000000000000002800280000000000000000000000000000000000000000000000C3C3C3000000000000000000000000000000000028000000000000000000000000000028002800000000000000000000000000000000000000000000000000000000000000000000000000000000000000000000000000000000000000
310
00000000000000000000000000000000000000000000000000000000000000000000000000000000000000000000000000000000000000000000000000000000000000000000000000000000000000000000000000000000000000000000000000000000000000000000000000000000000000000000000000000000000000
310
00000000000000000000280028000000000000000000C3C3C3C3C3C3C3C3C3C3C3C3C3C3C3C3C3C3C3C3C3C3C3C3C3C3C3C3C3C3C30000002800000000000000000000000000002800280000000000000000000000000000000000000000000000000000000000000000000000000000000000000000000000000000000000
310
00000000000000000000000000000000000000000000000000000000000000000000000000000000000000000000000000000000000000000000000000000000000000000000000000000000000000000000000000000000000000000000000000000000000000000000000000000000000000000000000000000000000000
310
000000000000000000000000280028BE0000000000000000C3F5F5F5F5F5F5F5F5F5F5F5F5F5F5F5F5F5F5F5F5F5F5F5F5F5F5F5F5F5C3000000280000000000000000000000000000280028000000000000000000000000000000000000000000000000000000000000000000000000000000000000000000000000000000
310
00000000000000000000000000000000000000000000000000000000000000000000000000000000000000000000000000000000000000000000000000000000000000000000000000000000000000000000000000000000000000000000000000000000000000000000000000000000000000000000000000000000000000
310
0000000000000000000000000000280028BEC300000000000000F5F5F5F5F5F5F5F5F5F5F5F5F5F5F5F5F5F5F5F5F5F5F5F5F5F5F5F5F5F5F500000028000000000000000000000000000028002800000000000000000000000000000000000000000000000000000000000000000000000000000000000000000000000000
310
00000000000000000000000000000000000000000000000000000000000000000000000000000000000000000000000000000000000000000000000000000000000000000000000000000000000000000000000000000000000000000000000000000000000000000000000000000000000000000000000000000000000000
310
0000000000000000000000000000000028002800C3C300C300000000F5BE000000BE000000BE000000BE000000BE000000BE000000BE000000BEF50000002800000000000000000000000000002800280000000000000000000000000000000000000000000000000000000000000000000000000000000000000000000000
310
00000000000000000000000000000000000000000000000000000000000000000000000000000000000000000000000000000000000000000000000000000000000000000000000000000000000000000000000000000000000000000000000000000000000000000000000000000000000000000000000000000000000000
310
00000000000000000000000000000000000028002800C3C3C3C3C3C30000F5F5F5F5F5F5F5F5F5F5F5F5F5F5F5F5F5F5F5F5F5F5F5F5F5F5F5F5F5F5F5000000280000000000000000000000000000280028000000000000000000000000000000000000000000000000000000000000000000000000000000000000000000
310
00000000000000000000000000000000000000000000000000000000000000000000000000000000000000000000000000000000000000000000000000000000000000000000000000000000000000000000000000000000000000000000000000000000000000000000000000000000000000000000000000000000000000
310
000000000000000000000000000000000000000028002800C3C3BE00C3C30000F50000000000000000000000000000000000000000000000000000000000F500000028000000000000000000000000000028002800000000000000000000000000000000000000000000000000000000000000000000000000000000000000
310
00000000000000000000000000000000000000000000000000000000000000000000000000000000000000000000000000000000000000000000000000000000000000000000000000000000000000000000000000000000000000000000000000000000000000000000000000000000000000000000000000000000000000
310
000000000000000000000000000000000000000000002800280000C3C3C3C3C30000F5F5F5F5F5F5F5F5F5F5F5F5F5F5F5F5F5F5F5F5F5F5F5F5F5F5F5F5F5F5C3C3C3002800000000000000000000000000002800280000000000000000000000000000000000000000000000000000000000000000000000000000000000
310
00000000000000000000000000000000000000000000000000000000000000000000000000000000000000000000000000000000000000000000000000000000000000000000000000000000000000000000000000000000000000000000000000000000000000000000000000000000000000000000000000000000000000
310
0000000000000000000000000000000000000000000000002800280000BEC3C3C3C30000F5F5F5F5F5F5F5F5F5F5F5F5F5F5F5F5F5F5F5F5F5F5F5F5F5F5F5F5F5F5C3C3C300280000000000000000000000000000280028000000000000000000000000000000000000000000000000000000000000000000000000000000
310
00000000000000000000000000000000000000000000000000000000000000000000000000000000000000000000000000000000000000000000000000000000000000000000000000000000000000000000000000000000000000000000000000000000000000000000000000000000000000000000000000000000000000
310
0000000000000000000000000000000000000000000000000000280028000000000000000000C300C3000000C3000000C3000000C3000000C3000000C3000000C3000000C30000002800ECECECECECEC0000000000000028002800000000000000000000000000000000000000000000000000000000000000000000000000
310
00000000000000000000000000000000000000000000000000000000000000000000000000000000000000000000000000000000000000000000000000000000000000000000000000000000000000000000000000000000000000000000000000000000000000000000000000000000000000000000000000000000000000
310
00000000000000000000000000000000000000000000000000000000280028000000000000000000C3C3C3C3C3C3C3C3C3C3C3C3C3C3C3C3C3C3C3C3C3C3C3C3C3C3C3C3C3C3C3C3000028ECECECECECEC00000000000000002800280000000000000000000000000000000000000000000000000000000000000000000000
310
00000000000000000000000000000000000000000000000000000000000000000000000000000000000000000000000000000000000000000000000000000000000000000000000000000000000000000000000000000000000000000000000000000000000000000000000000000000000000000000000000000000000000
310
000000000000000000000000000000000000000000000000000000000000280028000000000000000000C3C300C3C30000C3C30000C3C30000C3C30000C3C3ECECC3C30000C3C30000C30000280000000000000000000000000000280028000000000000000000000000000000000000000000000000000000000000000000
310
00000000000000000000000000000000000000000000000000000000000000000000000000000000000000000000000000000000000000000000000000000000000000000000000000000000000000000000000000000000000000000000000000000000000000000000000000000000000000000000000000000000000000
310
00000000000000000000000000000000000000000000000000000000000000002800280000000000000000000000000000000000000000000000000000ECECECECECECECECEC0000000000000000280000ECECECECECEC00000000000028002800000000000000000000000000000000000000000000000000000000000000
310
00000000000000000000000000000000000000000000000000000000000000000000000000000000000000000000000000000000000000000000000000000000000000000000000000000000000000000000000000000000000000000000000000000000000000000000000000000000000000000000000000000000000000
310
0000000000000000000000000000000000000000000000000000000000000000000028002800000000000000000000000000000000000000000000C3C3C3C3C3ECECECECC3C3ECEC0000000000000000280000ECECECECECEC00ECEC0000002800280000000000000000000000000000000000000000000000000000000000
310
00000000000000000000000000000000000000000000000000000000000000000000000000000000000000000000000000000000000000000000000000000000000000000000000000000000000000000000000000000000000000000000000000000000000000000000000000000000000000000000000000000000000000
310
00000000000000000000000000000000000000000000000000000000000000000000000028002800000000000000000000000000000000000000000000C3C3C3C3C300000000C3C30000C300000000000000280000ECECECECECEC00ECEC000000280028000000000000000000000000000000000000000000000000000000
310
00000000000000000000000000000000000000000000000000000000000000000000000000000000000000000000000000000000000000000000000000000000000000000000000000000000000000000000000000000000000000000000000000000000000000000000000000000000000000000000000000000000000000
310
000000000000000000000000000000000000000000000000000000000000000000000000000028002800000000000000000000000000000000000000000000C3C3C3C3C300000000C3C3C3C3C3000000000000002800ECECECECECECECEC000000000028002800000000000000000000000000000000000000000000000000
310
00000000000000000000000000000000000000000000000000000000000000000000000000000000000000000000000000000000000000000000000000000000000000000000000000000000000000000000000000000000000000000000000000000000000000000000000000000000000000000000000000000000000000
310
0000000000000000000000000000000000000000000000000000000000000000000000000000000028002800000000000000000000000000000000000000000000C3282800C300000000C3C3000000C30000000000002800ECECECECEC00000000000000002800280000000000000000000000000000000000000000000000
310
00000000000000000000000000000000000000000000000000000000000000000000000000000000000000000000000000000000000000000000000000000000000000000000000000000000000000000000000000000000000000000000000000000000000000000000000000000000000000000000000000000000000000
310
0000000000000000000000000000000000000000000000000000000000000000000000000000000000002800280000000000000000000000000000000000000000000028002800C3000000002828000000C300000000000028ECECECECECECEC00000000000000280028000000000000000000000000000000000000000000
310
00000000000000000000000000000000000000000000000000000000000000000000000000000000000000000000000000000000000000000000000000000000000000000000000000000000000000000000000000000000000000000000000000000000000000000000000000000000000000000000000000000000000000
310
00000000000000000000000000000000000000000000000000000000000000000000000000000000000000002800280000000000000000000000000000000000000000000028002828C30000000028C3C3C30000C3000000000028280000000000000000000000000028002800000000000000000000000000000000000000
310
00000000000000000000000000000000000000000000000000000000000000000000000000000000000000000000000000000000000000000000000000000000000000000000000000000000000000000000000000000000000000000000000000000000000000000000000000000000000000000000000000000000000000
310
000000000000000000000000000000000000000000000000000000000000000000000000000000000000000000002800280000000000000000000000000000000000000000000028002828280000000028280000C300C300000000002828282828282828282828282828282800280000000000000000000000000000000000
310
00000000000000000000000000000000000000000000000000000000000000000000000000000000000000000000000000000000000000000000000000000000000000000000000000000000000000000000000000000000000000000000000000000000000000000000000000000000000000000000000000000000000000
310
00000000000000000000000000000000000000000000000000000000000000000000000000000000000000000000000028002800000000000000ECECECEC00000000000000000000002800282828000000002828000000C3C3C300000000280000ECECECECECECECECEC000000280028000000000000000000000000000000
310
00000000000000000000000000000000000000000000000000000000000000000000000000000000000000000000000000000000000000000000000000000000000000000000000000000000000000000000000000000000000000000000000000000000000000000000000000000000000000000000000000000000000000
310
00000000000000000000000000000000000000000000000000000000000000000000000000000000000000000000000000002800280000000000ECECECECECECECEC00000000000000000028002800000000000028280000C3C3C3C30000000028280000000000000000000000000028002800000000000000000000000000
310
00000000000000000000000000000000000000000000000000000000000000000000000000000000000000000000000000000000000000000000000000000000000000000000000000000000000000000000000000000000000000000000000000000000000000000000000000000000000000000000000000000000000000
310
0000000000000000000000000000000000000000000000000000000000000000000000000000000000000000000000000000000028002800C300000000000000000000000000C30000000000002800282828000000002828C3C3C3C3C300C30000002828ECECECECECECECECECECEC28282800280000000000000000000000
310
00000000000000000000000000000000000000000000000000000000000000000000000000000000000000000000000000000000000000000000000000000000000000000000000000000000000000000000000000000000000000000000000000000000000000000000000000000000000000000000000000000000000000
310
000000000000000000000000000000000000000000000000000000000000000000000000000000000000000000000000000000000000280028C3C3C300BE000000C3C3000000BE28C3C300000000002800280028000000C3C3C3C3000000C300C30000002800ECECECECECECECECECECEC0000280028000000000000000000
310
00000000000000000000000000000000000000000000000000000000000000000000000000000000000000000000000000000000000000000000000000000000000000000000000000000000000000000000000000000000000000000000000000000000000000000000000000000000000000000000000000000000000000
310
000000000000000000000000000000000000000000000000000000000000000000000000000000000000000000000000000000000000000028002800C3C328BEBEBEC3C3C3C3BEBE2828C3000000000000280028282800000000282828000000C30000C3000028280000000000000000000000000028002800000000000000
310
00000000000000000000000000000000000000000000000000000000000000000000000000000000000000000000000000000000000000000000000000000000000000000000000000000000000000000000000000000000000000000000000000000000000000000000000000000000000000000000000000000000000000
310
0000000000000000000000000000000000000000000000000000000000000000000000000000000000000000000000000000000000000000000028002800C300C3C32828BEC3BEBE2828C3C3C30000000000002800282828000000000028282800C3000000C300002828282828282828282828282828282800280000000000
310
00000000000000000000000000000000000000000000000000000000000000000000000000000000000000000000000000000000000000000000000000000000000000000000000000000000000000000000000000000000000000000000000000000000000000000000000000000000000000000000000000000000000000
310
00000000000000000000000000000000000000000000000000000000000000000000000000000000000000000000000000000000000000000000000028002800000000C3C3C328C32828C3C300000000000000000028002828280000000000002828C30000000000C300280028282828282828282828282828280028000000
310
00000000000000000000000000000000000000000000000000000000000000000000000000000000000000000000000000000000000000000000000000000000000000000000000000000000000000000000000000000000000000000000000000000000000000000000000000000000000000000000000000000000000000
310
000000000000000000000000000000000000000000000000000000000000000000000000000000000000000000000000000000000000000000000000000028002800000000000000C3C3C3C300000000000000000000002800282828000000000000000028280000C3C3C30028282828282828282828282828282828002800
310
00000000000000000000000000000000000000000000000000000000000000000000000000000000000000000000000000000000000000000000000000000000000000000000000000000000000000000000000000000000000000000000000000000000000000000000000000000000000000000000000000000000000000
310
000000000000000000000000000000000000000000000000000000000000000000000000000000000000000000000000000000000000000000000000000000002800280000000000000000C3000000000000000000000000002828280000000000000000000000C3C3C3000000002800282828282828282828282800002800
310
28000000000000000000000000000000000000000000000000000000000000000000000000000000000000000000000000000000000000000000000000000000000000000000000000000000000000000000000000000000000000000000000000000000000000000000000000000000000000000000000000000000000000
310
00000000000000000000000000000000000000000000000000000000000000000000000000000000000000000000000000000000000000000000000000000000000028002828282828282828282828282828282828282828282828282828282828282828282828282828282828282828282828282828282828282828282828
310
28002800000000000000000000000000000000000000000000000000000000000000000000000000000000000000000000000000000000000000000000000000000000000000000000000000000000000000000000000000000000000000000000000000000000000000000000000000000000000000000000000000000000
310
00000000000000000000000000000000000000000000000000000000000000000000000000000000000000000000000000000000000000000000000000000000000000002800000000000000000000000000000000000000000000000000000000000000000000000000000000000000000000000000000000000000000000
310
00000000280000000000000000000000000000000000000000000000000000000000000000000000000000000000000000000000000000000000000000000000000000000000000000000000000000000000000000000000000000000000000000000000000000000000000000000000000000000000000000000000000000
310
00000000000000000000000000000000000000000000000000000000000000000000000000000000000000000000000000000000000000000000000000000000000000000000282828282828282828282828282828282828282828282828282828282828282828282828282828282828282828282828282828282828282828
310
28282828282828000000000000000000000000000000000000000000000000000000000000000000000000000000000000000000000000000000000000000000000000000000000000000000000000000000000000000000000000000000000000000000000000000000000000000000000000000000000000000000000000
310
00000000000000000000000000000000000000000000000000000000000000000000000000000000000000000000000000000000000000000000000000000000000000000000000028000000000000000000000000000000000000000000000000000000000000000000000000000000000000000000000000000000000000
310
00000000000000002800000000000000000000000000000000000000000000000000000000000000000000000000000000000000000000000000000000000000000000000000000000000000000000000000000000000000000000000000000000000000000000000000000000000000000000000000000000000000000000
310
00000000000000000000000000000000000000000000000000000000000000000000000000000000000000000000000000000000000000000000000000000000000000000000000000002800282828282828282828282828282828282828282828282828282828282828282828282828282828282828282828282828282828
310
282828F5F5F528282800280000000000000000000000000000000000000000000000000000000000000000000000000000000000000000000000000000000000000000000000000000000000000000000000000000000000000000000000000000000000000000000000000000000000000000000000000000000000000000
310
000000000000000000000000000000000000000000000000000000000000000000000000000000000000000000000000000000000000000000000000000000000000000000000000000000002800280000000000000000000000000000000000ECECECECECECECECECECECEC0000000000000000000000000000280000F5F5
310
0000280000F5F5F50000280028000000000000000000000000000000000000000000000000000000000000000000000000000000000000000000000000000000000000000000000000000000000000000000000000000000000000000000000000000000000000000000000000000000000000000000000000000000000000
310
00000000000000000000000000000000000000000000000000000000000000000000000000000000000000000000000000000000000000000000000000000000000000000000000000000000000028002800000000000000000000C3000000C3000000C3000000C3000000C3000000C3000000C3000000C300C30000282828
310
00000000282828280000000028002800000000000000000000000000000000000000000000000000000000000000000000000000000000000000000000000000000000000000000000000000000000000000000000000000000000000000000000000000000000000000000000000000000000000000000000000000000000
310
0000000000000000000000000000000000000000000000000000000000000000000000000000000000000000000000000000000000000000000000000000000000000000000000000000000000000000280028000000000000000000C3C3C3C3C3C3C3C3C3C3C3C3C3C3C3C3C3C3C3C3C3C3C3C3C3C3C3C3C3C3C3C3000028
310
28F5F5F5F52828282828282828282800280000000000000000000000000000000000000000000000000000000000000000000000000000000000000000000000000000000000000000000000000000000000000000000000000000000000000000000000000000000000000000000000000000000000000000000000000000
310
0000000000000000000000000000000000000000000000000000000000000000000000000000000000000000000000000000000000000000000000000000000000000000000000000000000000000000000028002800000000000000000000C3000000C3000000C3000000C3000000C3000000C3000000C3000000C300C300
310
002800F5F5F5F5002828282828282828280028000000000000000000000000000000000000000000000000000000000000000000000000000000000000000000000000000000000000000000000000000000000000000000000000000000000000000000000000000000000000000000000000000000000000000000000000
310
0000000000000000000000000000000000000000000000000000000000000000000000000000000000000000000000000000000000000000000000000000000000000000000000000000000000000000000000002800280000000000BEC3C3C300F5F5F5F5F5F5F5F5F5F5F5F5F5F5F5F5F5F5F5F5F5F5F5F5F5F5F5F5F5F5
310
C3C30028280000000000282828F5F5F5F5F5F5002800000000000000000000000000000000000000000000000000000000000000000000000000000000000000000000000000000000000000000000000000000000000000000000000000000000000000000000000000000000000000000000000000000000000000000000
310
00000000000000000000000000000000000000000000000000000000000000000000000000000000000000000000000000000000000000000000000000000000000000000000000000000000000000000000000000002800280000C30000C3C3C3C300F5F5F5F5F5F5F5F5F5F5F5F5F5F5F5F5F5F5F5F5F5F5F5F5F5F5F5F5
310
F5F5C3C300282828282828F5F5F5F528282828282800280000000000000000000000000000000000000000000000000000000000000000000000000000000000000000000000000000000000000000000000000000000000000000000000000000000000000000000000000000000000000000000000000000000000000000
310
000000000000000000000000000000000000000000000000000000000000000000000000000000000000000000000000000000000000000000000000000000000000000000000000000000000000000000000000000000002800280000C3C300BE00C3C300BE000000BE000000BE000000BE000000BE000000BE000000BE00
310
0000BE00F5C300280000000000F5F5F5F50000000000280028000000000000000000000000000000000000000000000000000000000000000000000000000000000000000000000000000000000000000000000000000000000000000000000000000000000000000000000000000000000000000000000000000000000000
310
000000000000000000000000000000000000000000000000000000000000000000000000000000000000000000000000000000000000000000000000000000000000000000000000000000000000000000000000000000000000280028000000C3C3BE00C3C300F50000000000000000000000000000000000000000000000
310
000000000000F5000028282800000000000000000000000028002800000000000000000000000000000000000000000000000000000000000000000000000000000000000000000000000000000000000000000000000000000000000000000000000000000000000000000000000000000000000000000000000000000000
310
00000000000000000000000000000000000000000000000000000000000000000000000000000000000000000000000000000000000000000000000000000000000000000000000000000000000000000000000000000000000000002800280000C300C3C30000C300F5000000000000000000000000000000000000000000
310
0000000000000000F5000028ECECECECECECECECECECECEC28282800280000000000000000000000000000000000000000000000000000000000000000000000000000000000000000000000000000000000000000000000000000000000000000000000000000000000000000000000000000000000000000000000000000
310
00000000000000000000000000000000000000000000000000000000000000000000000000000000000000000000000000000000000000000000000000000000000000000000000000000000000000000000000000000000000000000000280028BEBEC3BEBEC3C3C3C300C3F5F5F5F5F5F5F5F5F5F5F5F5F5F5F5F5F5F5F5
310
F5F5F5F5F5F5F5F5F5F5C30000280000000000000000000000000000280028000000000000000000000000000000000000000000000000000000000000000000000000000000000000000000000000000000000000000000000000000000000000000000000000000000000000000000000000000000000000000000000000
310
0000000000000000000000000000000000000000000000000000000000000000000000000000000000000000000000000000000000000000000000000000000000000000000000000000000000000000000000000000000000000000000000002800280000C3000000C3000000C3C3C3C3C3C3C3C3C3C3C3C3C3C3C3C3C3C3
310
C3C3C3C3C3C3C3C3C3C3C3C3C3000028000000000000000000000000000028002800000000000000000000000000000000000000000000000000000000000000000000000000000000000000000000000000000000000000000000000000000000000000000000000000000000000000000000000000000000000000000000
310
00000000000000000000000000000000000000000000000000000000000000000000000000000000000000000000000000000000000000000000000000000000000000000000000000000000000000000000000000000000000000000000000000002800280000000000000000000000000000000000000000000000000000
310
00000000000000000000000000000000002800000000000000000000000000002800280000000000000000000000000000000000000000000000000000000000000000000000000000000000000000000000000000000000000000000000000000000000000000000000000000000000000000000000000000000000000000
310
0000000000000000000000000000000000000000000000000000000000000000000000000000000000000000000000000000000000000000000000000000000000000000000000000000000000000000000000000000000000000000000000000000000028002800000000000000000000C3C3C3C3C3C3C3C3C3C3C3C3C3C3
310
C3C3C3C3C3C3C3C3C3C3C3C3C3C3C3C3C30000280000000000000000000000000000280028000000000000000000000000000000000000000000000000000000000000000000000000000000000000000000000000000000000000000000000000000000000000000000000000000000000000000000000000000000000000
310
000000000000000000000000000000000000000000000000000000000000000000000000000000000000000000000000000000000000000000000000000000000000000000000000000000000000000000000000000000000000000000000000000000000000280028BEBEC3BEBEC3C3C3C300C3F5F5F5F5F5F5F5F5F5F5F5
310
F5F5C3C3C3F5F5F5F5F5F5F5F5F5F5F5F5F5C3000028000000000000000000000000000028002800000000000000000000000000000000000000000000000000000000000000000000000000000000000000000000000000000000000000000000000000000000000000000000000000000000000000000000000000000000
310
000000000000000000000000000000000000000000000000000000000000000000000000000000000000000000000000000000000000000000000000000000000000000000000000000000000000000000000000000000000000000000000000000000000000000028002800BEC3BEC3C30000C300F5000000000000000000
310
0000000000000000000000000000000000000000F500002800000000000000000000000000002800280000000000000000000000000000000000000000000000000000000000000000000000000000000000000000000000000000000000000000000000000000000000000000000000000000000000000000000000000000
310
00000000000000000000000000000000000000000000000000000000000000000000000000000000000000000000000000000000000000000000000000000000000000000000000000000000000000000000000000000000000000000000000000000000000000000000280028000000C3C3BE00C3C300F500000000000000
310
00000000000000000000000000000000000000000000F50000280000000000000000000000000000280028000000000000000000000000000000000000000000000000000000000000000000000000000000000000000000000000000000000000000000000000000000000000000000000000000000000000000000000000
310
0000000000000000000000000000000000000000000000000000000000000000000000000000000000000000000000000000000000000000000000000000000000000000000000000000000000000000000000000000000000000000000000000000000000000000000000002800280000C3C300BE00C3C300F50000000000
310
000000000000000000000000000000000000000000000000F5000028000000000000000000000000000028002800000000000000000000000000000000000000000000000000000000000000000000000000000000000000000000000000000000000000000000000000000000000000000000000000000000000000000000
310
00000000000000000000000000000000000000000000000000000000000000000000000000000000000000000000000000000000000000000000000000000000000000000000000000000000000000000000000000000000000000000000000000000000000000000000000000002800280000C30000C3C3C3C300F5F5F5F5
310
F5F5F5F5F5F5F5F5F5F5F5F5F5F5F5F5F5F5F5F5F5F5F5F5F5F5C3C3002800000000000000000000000000002800280000000000000000000000000000000000000000000000000000000000000000000000000000000000000000000000000000000000000000000000000000000000000000000000000000000000000000
310
00000000000000000000000000000000000000000000000000000000000000000000000000000000000000000000000000000000000000000000000000000000000000000000000000000000000000000000000000000000000000000000000000000000000000000000000000000000280028000000000000C3C3C300F5F5
310
F5F5F5F5F5F5F5F5F5F5F5F5F5F5F5F5F5F5F5F5F5F5F5F5F5F5F5F5F5C300280000000000000000000000000000280028000000000000000000000000000000000000000000000000000000000000000000000000000000000000000000000000000000000000000000000000000000000000000000000000000000000000
310
0000000000000000000000000000000000000000000000000000000000000000000000000000000000000000000000000000000000000000000000000000000000000000000000000000000000000000000000000000000000000000000000000000000000000000000000000000000000002800280000000000BEC3C3C300
310
C3C3F5F5F5C3F5F5F5C3F5F5F5C3F5F5F5C3F5F5F5C3F5F5F5C3F5F5F5C3C3C3002800ECECECEC00000000000000000028002800000000000000000000000000000000000000000000000000000000000000000000000000000000000000000000000000000000000000000000000000000000000000000000000000000000
310
00000000000000000000000000000000000000000000000000000000000000000000000000000000000000000000000000000000000000000000000000000000000000000000000000000000000000000000000000000000000000000000000000000000000000000000000000000000000000002800280000000000000000
310
0000C3C3C3C3C3C3C3C3C3C3C3C3C3C3C3C3C3C3C3C3C3C3C3C3C3C3C3C3C3C3C3C30028ECECECECECEC00000000000000002800280000000000000000000000000000000000000000000000000000000000000000000000000000000000000000000000000000000000000000000000000000000000000000000000000000
310
00000000000000000000000000000000000000000000000000000000000000000000000000000000000000000000000000000000000000000000000000000000000000000000000000000000000000000000000000000000000000000000000000000000000000000000000000000000000000000000280028000000000000
310
00000000C3C300C3C3C300C3C3C300C3C3C300C3C3C300C3C3C300C3C3C300C3C3C3C3C30028ECECECECECEC0000000000000000280028000000000000000000000000000000000000000000000000000000000000000000000000000000000000000000000000000000000000000000000000000000000000000000000000
310
00000000000000000000000000000000000000000000000000000000000000000000000000000000000000000000000000000000000000000000000000000000000000000000000000000000000000000000000000000000000000000000000000000000000000000000000000000000000000000000000028002800000000
310
000000000000000000000000000000000000000000000000000000000000000000000000000000280000ECECECECECEC00000000000028002800000000000000000000000000000000000000000000000000000000000000000000000000000000000000000000000000000000000000000000000000000000000000000000
310
00000000000000000000000000000000000000000000000000000000000000000000000000000000000000000000000000000000000000000000000000000000000000000000000000000000000000000000000000000000000000000000000000000000000000000000000000000000000000000000000000002800280000
310
0000000000ECECECEC000000000000000000000000000000000000ECECECEC00000000000000000000280000ECECECECECEC00ECEC0000002800280000000000000000000000000000000000000000000000000000000000000000000000000000000000000000000000000000000000000000000000000000000000000000
310
00000000000000000000000000000000000000000000000000000000000000000000000000000000000000000000000000000000000000000000000000000000000000000000000000000000000000000000000000000000000000000000000000000000000000000000000000000000000000000000000000000000280028
310
000000000000ECECECECECEC000000000000000000000000000000ECECECECECECECEC000000C3C3000000280000ECECECECECEC00ECEC000000280028000000000000000000000000000000000000000000000000000000000000000000000000000000000000000000000000000000000000000000000000000000000000
310
00000000000000000000000000000000000000000000000000000000000000000000000000000000000000000000000000000000000000000000000000000000000000000000000000000000000000000000000000000000000000000000000000000000000000000000000000000000000000000000000000000000000028
310
0028000000000000ECECECECECEC000000000000000000000000000000ECECECECECECECEC000000C3C30000002800ECECECECECECECEC000000000028002800000000000000000000000000000000000000000000000000000000000000000000000000000000000000000000000000000000000000000000000000000000
310
00000000000000000000000000000000000000000000000000000000000000000000000000000000000000000000000000000000000000000000000000000000000000000000000000000000000000000000000000000000000000000000000000000000000000000000000000000000000000000000000000000000000000
310
0028002800C300000000000000C300000000000000C30000282828000000000000000000000000000000C3C3C3C3002800ECECECECECECECEC00000000002800280000000000000000000000000000000000000000000000000000000000000000000000000000000000000000000000000000000000000000000000000000
310
00000000000000000000000000000000000000000000000000000000000000000000000000000000000000000000000000000000000000000000000000000000000000000000000000000000000000000000000000000000000000000000000000000000000000000000000000000000000000000000000000000000000000
310
000000280028C3C3C3000000000000C3000000000000C3C3C3002828280000000000000000000000000000002828C300002800ECECECECEC0000000000000000280028000000000000000000000000000000000000000000000000000000000000000000000000000000000000000000000000000000000000000000000000
310
00000000000000000000000000000000000000000000000000000000000000000000000000000000000000000000000000000000000000000000000000000000000000000000000000000000000000000000000000000000000000000000000000000000000000000000000000000000000000000000000000000000000000
310
000000000028002800C328000000000000C300000000000028C300002800280000000000000000000000000000002828C3000028ECECECEC0000000000000000000028002800000000000000000000000000000000000000000000000000000000000000000000000000000000000000000000000000000000000000000000
310
00000000000000000000000000000000000000000000000000000000000000000000000000000000000000000000000000000000000000000000000000000000000000000000000000000000000000000000000000000000000000000000000000000000000000000000000000000000000000000000000000000000000000
310
00000000000000280028C3002828BE00000000C300000000BE282800C3002800282828280000000000000000000000002828C300002828282828282828282828282828282800280000000000000000000000000000000000000000000000000000000000000000000000000000000000000000000000000000000000000000
310
00000000000000000000000000000000000000000000000000000000000000000000000000000000000000000000000000000000000000000000000000000000000000000000000000000000000000000000000000000000000000000000000000000000000000000000000000000000000000000000000000000000000000
310
00000000000000000028002800C3002828BE000000C3000000BE282800C300002800280000280000000000000000000000002828C300002800000000ECECECECEC0000000000280028000000000000000000000000000000000000000000000000000000000000000000000000000000000000000000000000000000000000
310
00000000000000000000000000000000000000000000000000000000000000000000000000000000000000000000000000000000000000000000000000000000000000000000000000000000000000000000000000000000000000000000000000000000000000000000000000000000000000000000000000000000000000
310
00000000000000000000002800280000C3002828BE0000C30000BE282800C30000002800282828280000000000000000000000002828C300002800000000ECECECECEC000000000028002800000000000000000000000000000000000000000000000000000000000000000000000000000000000000000000000000000000
310
00000000000000000000000000000000000000000000000000000000000000000000000000000000000000000000000000000000000000000000000000000000000000000000000000000000000000000000000000000000000000000000000000000000000000000000000000000000000000000000000000000000000000
310
00000000000000000000000000280028000000C30028BEBE00C300BEBE2800C3000000002800282828280000000000000000000000002828C300002828282828282828282828282828282800280000000000000000000000000000000000000000000000000000000000000000000000000000000000000000000000000000
310
00000000000000000000000000000000000000000000000000000000000000000000000000000000000000000000000000000000000000000000000000000000000000000000000000000000000000000000000000000000000000000000000000000000000000000000000000000000000000000000000000000000000000
310
00000000000000000000000000000028002800000000C3002800BEC3BE002800C300000000002800280000280000000000000000000000002828C300002800ECECECECECECECECECECEC0000280028000000000000000000000000000000000000000000000000000000000000000000000000000000000000000000000000
310
00000000000000000000000000000000000000000000000000000000000000000000000000000000000000000000000000000000000000000000000000000000000000000000000000000000000000000000000000000000000000000000000000000000000000000000000000000000000000000000000000000000000000
310
00000000000000000000000000000000002800280000000000C3002800C3002800C30000000000002800282828280000000000000000000000002828C3000028000000ECEC000000ECECECEC000028002800000000000000000000000000000000000000000000000000000000000000000000000000000000000000000000
310
00000000000000000000000000000000000000000000000000000000000000000000000000000000000000000000000000000000000000000000000000000000000000000000000000000000000000000000000000000000000000000000000000000000000000000000000000000000000000000000000000000000000000
310
00000000000000000000000000000000000000280028000000000000C30028282800C3000000000000002800280000000000000000000000000000002828C300002828282828282828282828282828282800280000000000000000000000000000000000000000000000000000000000000000000000000000000000000000
310
00000000000000000000000000000000000000000000000000000000000000000000000000000000000000000000000000000000000000000000000000000000000000000000000000000000000000000000000000000000000000000000000000000000000000000000000000000000000000000000000000000000000000
310
00000000000000000000000000000000000000000028002800000000000000C300C300C30000000000000000282828282828C3C3C32828282828282828282828C30000280028282828282828282828282828280028000000000000000000000000000000000000000000000000000000000000000000000000000000000000
310
00000000000000000000000000000000000000000000000000000000000000000000000000000000000000000000000000000000000000000000000000000000000000000000000000000000000000000000000000000000000000000000000000000000000000000000000000000000000000000000000000000000000000
310
00000000000000000000000000000000000000000000002800280000000000000000C3C3C3000000000000000000282828282828C3C3C328282828282828282828C3C3C30028282828282828282828282828282828002800000000000000000000000000000000000000000000000000000000000000000000000000000000
310
00000000000000000000000000000000000000000000000000000000000000000000000000000000000000000000000000000000000000000000000000000000000000000000000000000000000000000000000000000000000000000000000000000000000000000000000000000000000000000000000000000000000000
310
00000000000000000000000000000000000000000000000000280028000000000000000000C3000000000000000000000000000000000000C300000000000000000000C30000002800282828282828282828282828282800280000000000000000000000000000000000000000000000000000000000000000000000000000
310
00000000000000000000000000000000000000000000000000000000000000000000000000000000000000000000000000000000000000000000000000000000000000000000000000000000000000000000000000000000000000000000000000000000000000000000000000000000000000000000000000000000000000
310
000000000000000000000000000000000000000000000000000000280028000000000000000000000000000000000000000000000000000000C3C3C3C3C3C3C3C3C3C3C3C3C3000000280028282800000000000000000000280028000000000000000000000000000000000000000000000000000000000000000000000000
310
00000000000000000000000000000000000000000000000000000000000000000000000000000000000000000000000000000000000000000000000000000000000000000000000000000000000000000000000000000000000000000000000000000000000000000000000000000000000000000000000000000000000000
310
00000000000000000000000000000000000000000000000000000000002800282828282828282828282828282828282828282828282828282828282828282828282828282828282828282828282828282828282828282828282828002800000000000000000000000000000000000000000000000000000000000000000000
310
00000000000000000000000000000000000000000000000000000000000000000000000000000000000000000000000000000000000000000000000000000000000000000000000000000000000000000000000000000000000000000000000000000000000000000000000000000000000000000000000000000000000000
310
00000000000000000000000000000000000000000000000000000000000000282828282828282828282828282828282828282828282828282828282828282828282828282828282828282828282828282828282828282828282828282828280000000000000000000000000000000000000000000000000000000000000000
310
00000000000000000000000000000000000000000000000000000000000000000000000000000000000000000000000000000000000000000000000000000000000000000000000000000000000000000000000000000000000000000000000000000000000000000000000000000000000000000000000000000000000000
310
00000000000000000000000000000000000000000000000000000000000000000000000000000000000000000000000000000000000000000000000000000000000000000000000000000000000000000000000000000000000000000000000000000000000000000000000000000000000000000000000000000000000000
310
000000000000000000000000000000000000000000000000000000000000000000000000000000000000000000000000000000000000000000000000000000000000
  0
XRECORD
  5
9EC
102
{ACAD_REACTORS
330
9EA
102
}
330
9EA
100
AcDbXrecord
280
     1
270
     1
271
     1
  0
XRECORD
  5
9EB
102
{ACAD_REACTORS
330
9EA
102
}
330
9EA
100
AcDbXrecord
280
     1
270
     1
271
     1
  0
XRECORD
  5
9EF
102
{ACAD_REACTORS
330
9EA
102
}
330
9EA
100
AcDbXrecord
280
     1
270
     1
271
     1
  0
XRECORD
  5
9EE
102
{ACAD_REACTORS
330
9EA
102
}
330
9EA
100
AcDbXrecord
280
     1
270
     1
271
     1
  0
XRECORD
  5
9F0
102
{ACAD_REACTORS
330
9EA
102
}
330
9EA
100
AcDbXrecord
280
     1
270
     1
271
     1
  0
XRECORD
  5
9ED
102
{ACAD_REACTORS
330
9EA
102
}
330
9EA
100
AcDbXrecord
280
     1
270
     1
271
     1
  0
XRECORD
  5
9E4
102
{ACAD_REACTORS
330
9E2
102
}
330
9E2
100
AcDbXrecord
280
     1
270
     1
271
     1
  0
XRECORD
  5
9E3
102
{ACAD_REACTORS
330
9E2
102
}
330
9E2
100
AcDbXrecord
280
     1
270
     1
271
     1
  0
XRECORD
  5
9E7
102
{ACAD_REACTORS
330
9E2
102
}
330
9E2
100
AcDbXrecord
280
     1
270
     1
271
     1
  0
XRECORD
  5
9E6
102
{ACAD_REACTORS
330
9E2
102
}
330
9E2
100
AcDbXrecord
280
     1
270
     1
271
     1
  0
XRECORD
  5
9E8
102
{ACAD_REACTORS
330
9E2
102
}
330
9E2
100
AcDbXrecord
280
     1
270
     1
271
     1
  0
XRECORD
  5
9E5
102
{ACAD_REACTORS
330
9E2
102
}
330
9E2
100
AcDbXrecord
280
     1
270
     1
271
     1
  0
XRECORD
  5
9F4
102
{ACAD_REACTORS
330
9F2
102
}
330
9F2
100
AcDbXrecord
280
     1
270
     1
271
     1
  0
XRECORD
  5
9F3
102
{ACAD_REACTORS
330
9F2
102
}
330
9F2
100
AcDbXrecord
280
     1
270
     1
271
     1
  0
XRECORD
  5
9F7
102
{ACAD_REACTORS
330
9F2
102
}
330
9F2
100
AcDbXrecord
280
     1
270
     1
271
     1
  0
XRECORD
  5
9F6
102
{ACAD_REACTORS
330
9F2
102
}
330
9F2
100
AcDbXrecord
280
     1
270
     1
271
     1
  0
XRECORD
  5
9F8
102
{ACAD_REACTORS
330
9F2
102
}
330
9F2
100
AcDbXrecord
280
     1
270
     1
271
     1
  0
XRECORD
  5
9F5
102
{ACAD_REACTORS
330
9F2
102
}
330
9F2
100
AcDbXrecord
280
     1
270
     1
271
     1
  0
XRECORD
  5
195A
102
{ACAD_REACTORS
330
1959
102
}
330
1959
100
AcDbXrecord
280
     1
102
ACAD_ROUNDTRIP_2012_MLEADER_STYLE
298
     1
  0
CELLSTYLEMAP
  5
1958
102
{ACAD_REACTORS
330
1957
102
}
330
1957
100
AcDbCellStyleMap
 90
        3
300
CELLSTYLE
  1
TABLEFORMAT_BEGIN
 90
        5
170
     1
 91
        0
 92
    32768
 62
   257
 93
        1
300
CONTENTFORMAT
  1
CONTENTFORMAT_BEGIN
 90
        0
 91
        0
 92
        4
 93
        0
300

 40
0.0
140
1.0
 94
        5
 62
     0
340
7
144
0.25
309
CONTENTFORMAT_END
171
     0
 94
        6
 95
        1
302
GRIDFORMAT
  1
GRIDFORMAT_BEGIN
 90
        0
 91
        1
 62
     0
 92
       -2
340
0
 93
        0
 40
0.045
309
GRIDFORMAT_END
 95
        2
302
GRIDFORMAT
  1
GRIDFORMAT_BEGIN
 90
        0
 91
        1
 62
     0
 92
       -2
340
0
 93
        0
 40
0.045
309
GRIDFORMAT_END
 95
        4
302
GRIDFORMAT
  1
GRIDFORMAT_BEGIN
 90
        0
 91
        1
 62
     0
 92
       -2
340
0
 93
        0
 40
0.045
309
GRIDFORMAT_END
 95
        8
302
GRIDFORMAT
  1
GRIDFORMAT_BEGIN
 90
        0
 91
        1
 62
     0
 92
       -2
340
0
 93
        0
 40
0.045
309
GRIDFORMAT_END
 95
       16
302
GRIDFORMAT
  1
GRIDFORMAT_BEGIN
 90
        0
 91
        1
 62
     0
 92
       -2
340
0
 93
        0
 40
0.045
309
GRIDFORMAT_END
 95
       32
302
GRIDFORMAT
  1
GRIDFORMAT_BEGIN
 90
        0
 91
        1
 62
     0
 92
       -2
340
0
 93
        0
 40
0.045
309
GRIDFORMAT_END
309
TABLEFORMAT_END
  1
CELLSTYLE_BEGIN
 90
        1
 91
        1
300
_TITLE
309
CELLSTYLE_END
300
CELLSTYLE
  1
TABLEFORMAT_BEGIN
 90
        5
170
     1
 91
        0
 92
        0
 62
   257
 93
        1
300
CONTENTFORMAT
  1
CONTENTFORMAT_BEGIN
 90
        0
 91
        0
 92
        4
 93
        0
300

 40
0.0
140
1.0
 94
        5
 62
     0
340
7
144
0.18
309
CONTENTFORMAT_END
171
     0
 94
        6
 95
        1
302
GRIDFORMAT
  1
GRIDFORMAT_BEGIN
 90
        0
 91
        1
 62
     0
 92
       -2
340
0
 93
        0
 40
0.045
309
GRIDFORMAT_END
 95
        2
302
GRIDFORMAT
  1
GRIDFORMAT_BEGIN
 90
        0
 91
        1
 62
     0
 92
       -2
340
0
 93
        0
 40
0.045
309
GRIDFORMAT_END
 95
        4
302
GRIDFORMAT
  1
GRIDFORMAT_BEGIN
 90
        0
 91
        1
 62
     0
 92
       -2
340
0
 93
        0
 40
0.045
309
GRIDFORMAT_END
 95
        8
302
GRIDFORMAT
  1
GRIDFORMAT_BEGIN
 90
        0
 91
        1
 62
     0
 92
       -2
340
0
 93
        0
 40
0.045
309
GRIDFORMAT_END
 95
       16
302
GRIDFORMAT
  1
GRIDFORMAT_BEGIN
 90
        0
 91
        1
 62
     0
 92
       -2
340
0
 93
        0
 40
0.045
309
GRIDFORMAT_END
 95
       32
302
GRIDFORMAT
  1
GRIDFORMAT_BEGIN
 90
        0
 91
        1
 62
     0
 92
       -2
340
0
 93
        0
 40
0.045
309
GRIDFORMAT_END
309
TABLEFORMAT_END
  1
CELLSTYLE_BEGIN
 90
        2
 91
        1
300
_HEADER
309
CELLSTYLE_END
300
CELLSTYLE
  1
TABLEFORMAT_BEGIN
 90
        5
170
     1
 91
        0
 92
        0
 62
   257
 93
        1
300
CONTENTFORMAT
  1
CONTENTFORMAT_BEGIN
 90
        0
 91
        0
 92
        4
 93
        0
300

 40
0.0
140
1.0
 94
        2
 62
     0
340
7
144
0.18
309
CONTENTFORMAT_END
171
     0
 94
        6
 95
        1
302
GRIDFORMAT
  1
GRIDFORMAT_BEGIN
 90
        0
 91
        1
 62
     0
 92
       -2
340
0
 93
        0
 40
0.045
309
GRIDFORMAT_END
 95
        2
302
GRIDFORMAT
  1
GRIDFORMAT_BEGIN
 90
        0
 91
        1
 62
     0
 92
       -2
340
0
 93
        0
 40
0.045
309
GRIDFORMAT_END
 95
        4
302
GRIDFORMAT
  1
GRIDFORMAT_BEGIN
 90
        0
 91
        1
 62
     0
 92
       -2
340
0
 93
        0
 40
0.045
309
GRIDFORMAT_END
 95
        8
302
GRIDFORMAT
  1
GRIDFORMAT_BEGIN
 90
        0
 91
        1
 62
     0
 92
       -2
340
0
 93
        0
 40
0.045
309
GRIDFORMAT_END
 95
       16
302
GRIDFORMAT
  1
GRIDFORMAT_BEGIN
 90
        0
 91
        1
 62
     0
 92
       -2
340
0
 93
        0
 40
0.045
309
GRIDFORMAT_END
 95
       32
302
GRIDFORMAT
  1
GRIDFORMAT_BEGIN
 90
        0
 91
        1
 62
     0
 92
       -2
340
0
 93
        0
 40
0.045
309
GRIDFORMAT_END
309
TABLEFORMAT_END
  1
CELLSTYLE_BEGIN
 90
        3
 91
        2
300
_DATA
309
CELLSTYLE_END
  0
ENDSEC
  0
EOF
