  0
SECTION
  2
HEADER
  9
$ACADVER
  1
AC1024
  9
$ACADMAINTVER
 70
    63
  9
$DWGCODEPAGE
  3
ANSI_932
  9
$LASTSAVEDBY
  1
kg-paltec
  9
$INSBASE
 10
0.0
 20
0.0
 30
0.0
  9
$EXTMIN
 10
-0.0192209888435855
 20
-0.0226492051633613
 30
-0.0000000000000058
  9
$EXTMAX
 10
420.0192288123715
 20
297.0120954723984
 30
0.0000000000000104
  9
$LIMMIN
 10
0.0
 20
0.0
  9
$LIMMAX
 10
420.0
 20
297.0
  9
$ORTHOMODE
 70
     0
  9
$REGENMODE
 70
     1
  9
$FILLMODE
 70
     1
  9
$QTEXTMODE
 70
     0
  9
$MIRRTEXT
 70
     1
  9
$LTSCALE
 40
8.4
  9
$ATTMODE
 70
     1
  9
$TEXTSIZE
 40
0.2
  9
$TRACEWID
 40
0.05
  9
$TEXTSTYLE
  7
STANDARD
  9
$CLAYER
  8
LEVEL001
  9
$CELTYPE
  6
CONTINUOUS
  9
$CECOLOR
 62
   256
  9
$CELTSCALE
 40
1.0
  9
$DISPSILH
 70
     0
  9
$DIMSCALE
 40
1.0
  9
$DIMASZ
 40
0.18
  9
$DIMEXO
 40
0.0625
  9
$DIMDLI
 40
0.38
  9
$DIMRND
 40
0.0
  9
$DIMDLE
 40
0.0
  9
$DIMEXE
 40
0.18
  9
$DIMTP
 40
0.0
  9
$DIMTM
 40
0.0
  9
$DIMTXT
 40
0.18
  9
$DIMCEN
 40
0.09
  9
$DIMTSZ
 40
0.0
  9
$DIMTOL
 70
     0
  9
$DIMLIM
 70
     0
  9
$DIMTIH
 70
     1
  9
$DIMTOH
 70
     1
  9
$DIMSE1
 70
     0
  9
$DIMSE2
 70
     0
  9
$DIMTAD
 70
     0
  9
$DIMZIN
 70
     0
  9
$DIMBLK
  1

  9
$DIMASO
 70
     1
  9
$DIMSHO
 70
     1
  9
$DIMPOST
  1

  9
$DIMAPOST
  1

  9
$DIMALT
 70
     0
  9
$DIMALTD
 70
     2
  9
$DIMALTF
 40
25.4
  9
$DIMLFAC
 40
1.0
  9
$DIMTOFL
 70
     0
  9
$DIMTVP
 40
0.0
  9
$DIMTIX
 70
     0
  9
$DIMSOXD
 70
     0
  9
$DIMSAH
 70
     0
  9
$DIMBLK1
  1

  9
$DIMBLK2
  1

  9
$DIMSTYLE
  2
STANDARD
  9
$DIMCLRD
 70
     0
  9
$DIMCLRE
 70
     0
  9
$DIMCLRT
 70
     0
  9
$DIMTFAC
 40
1.0
  9
$DIMGAP
 40
0.09
  9
$DIMJUST
 70
     0
  9
$DIMSD1
 70
     0
  9
$DIMSD2
 70
     0
  9
$DIMTOLJ
 70
     1
  9
$DIMTZIN
 70
     0
  9
$DIMALTZ
 70
     0
  9
$DIMALTTZ
 70
     0
  9
$DIMUPT
 70
     0
  9
$DIMDEC
 70
     4
  9
$DIMTDEC
 70
     4
  9
$DIMALTU
 70
     2
  9
$DIMALTTD
 70
     2
  9
$DIMTXSTY
  7
STANDARD
  9
$DIMAUNIT
 70
     0
  9
$DIMADEC
 70
     0
  9
$DIMALTRND
 40
0.0
  9
$DIMAZIN
 70
     0
  9
$DIMDSEP
 70
    46
  9
$DIMATFIT
 70
     3
  9
$DIMFRAC
 70
     0
  9
$DIMLDRBLK
  1

  9
$DIMLUNIT
 70
     2
  9
$DIMLWD
 70
    -2
  9
$DIMLWE
 70
    -2
  9
$DIMTMOVE
 70
     0
  9
$DIMFXL
 40
1.0
  9
$DIMFXLON
 70
     0
  9
$DIMJOGANG
 40
0.7853981633974483
  9
$DIMTFILL
 70
     0
  9
$DIMTFILLCLR
 70
     0
  9
$DIMARCSYM
 70
     0
  9
$DIMLTYPE
  6

  9
$DIMLTEX1
  6

  9
$DIMLTEX2
  6

  9
$DIMTXTDIRECTION
 70
     0
  9
$LUNITS
 70
     2
  9
$LUPREC
 70
     4
  9
$SKETCHINC
 40
0.1
  9
$FILLETRAD
 40
0.0
  9
$AUNITS
 70
     0
  9
$AUPREC
 70
     0
  9
$MENU
  1
.
  9
$ELEVATION
 40
0.0
  9
$PELEVATION
 40
0.0
  9
$THICKNESS
 40
0.0
  9
$LIMCHECK
 70
     0
  9
$CHAMFERA
 40
0.0
  9
$CHAMFERB
 40
0.0
  9
$CHAMFERC
 40
0.0
  9
$CHAMFERD
 40
0.0
  9
$SKPOLY
 70
     0
  9
$TDCREATE
 40
2451212.682759178
  9
$TDUCREATE
 40
2451212.307759178
  9
$TDUPDATE
 40
2460782.819028993
  9
$TDUUPDATE
 40
2460782.444028993
  9
$TDINDWG
 40
0.0158142708
  9
$TDUSRTIMER
 40
0.0158142708
  9
$USRTIMER
 70
     1
  9
$ANGBASE
 50
0.0
  9
$ANGDIR
 70
     0
  9
$PDMODE
 70
     0
  9
$PDSIZE
 40
0.0
  9
$PLINEWID
 40
0.0
  9
$SPLFRAME
 70
     0
  9
$SPLINETYPE
 70
     6
  9
$SPLINESEGS
 70
     8
  9
$HANDSEED
  5
194F
  9
$SURFTAB1
 70
     6
  9
$SURFTAB2
 70
     6
  9
$SURFTYPE
 70
     6
  9
$SURFU
 70
     6
  9
$SURFV
 70
     6
  9
$UCSBASE
  2

  9
$UCSNAME
  2

  9
$UCSORG
 10
0.0
 20
0.0
 30
0.0
  9
$UCSXDIR
 10
1.0
 20
0.0
 30
0.0
  9
$UCSYDIR
 10
0.0
 20
1.0
 30
0.0
  9
$UCSORTHOREF
  2

  9
$UCSORTHOVIEW
 70
     0
  9
$UCSORGTOP
 10
0.0
 20
0.0
 30
0.0
  9
$UCSORGBOTTOM
 10
0.0
 20
0.0
 30
0.0
  9
$UCSORGLEFT
 10
0.0
 20
0.0
 30
0.0
  9
$UCSORGRIGHT
 10
0.0
 20
0.0
 30
0.0
  9
$UCSORGFRONT
 10
0.0
 20
0.0
 30
0.0
  9
$UCSORGBACK
 10
0.0
 20
0.0
 30
0.0
  9
$PUCSBASE
  2

  9
$PUCSNAME
  2

  9
$PUCSORG
 10
0.0
 20
0.0
 30
0.0
  9
$PUCSXDIR
 10
1.0
 20
0.0
 30
0.0
  9
$PUCSYDIR
 10
0.0
 20
1.0
 30
0.0
  9
$PUCSORTHOREF
  2

  9
$PUCSORTHOVIEW
 70
     0
  9
$PUCSORGTOP
 10
0.0
 20
0.0
 30
0.0
  9
$PUCSORGBOTTOM
 10
0.0
 20
0.0
 30
0.0
  9
$PUCSORGLEFT
 10
0.0
 20
0.0
 30
0.0
  9
$PUCSORGRIGHT
 10
0.0
 20
0.0
 30
0.0
  9
$PUCSORGFRONT
 10
0.0
 20
0.0
 30
0.0
  9
$PUCSORGBACK
 10
0.0
 20
0.0
 30
0.0
  9
$USERI1
 70
     0
  9
$USERI2
 70
     0
  9
$USERI3
 70
     0
  9
$USERI4
 70
     0
  9
$USERI5
 70
     0
  9
$USERR1
 40
0.0
  9
$USERR2
 40
0.0
  9
$USERR3
 40
0.0
  9
$USERR4
 40
0.0
  9
$USERR5
 40
0.0
  9
$WORLDVIEW
 70
     1
  9
$SHADEDGE
 70
     3
  9
$SHADEDIF
 70
    70
  9
$TILEMODE
 70
     1
  9
$MAXACTVP
 70
    16
  9
$PINSBASE
 10
0.0
 20
0.0
 30
0.0
  9
$PLIMCHECK
 70
     0
  9
$PEXTMIN
 10
1.000000000000000E+20
 20
1.000000000000000E+20
 30
1.000000000000000E+20
  9
$PEXTMAX
 10
-1.000000000000000E+20
 20
-1.000000000000000E+20
 30
-1.000000000000000E+20
  9
$PLIMMIN
 10
0.0
 20
0.0
  9
$PLIMMAX
 10
12.0
 20
9.0
  9
$UNITMODE
 70
     0
  9
$VISRETAIN
 70
     1
  9
$PLINEGEN
 70
     0
  9
$PSLTSCALE
 70
     1
  9
$TREEDEPTH
 70
  3020
  9
$CMLSTYLE
  2
STANDARD
  9
$CMLJUST
 70
     0
  9
$CMLSCALE
 40
1.0
  9
$PROXYGRAPHICS
 70
     1
  9
$MEASUREMENT
 70
     0
  9
$CELWEIGHT
370
    -1
  9
$ENDCAPS
280
     0
  9
$JOINSTYLE
280
     0
  9
$LWDISPLAY
290
     0
  9
$INSUNITS
 70
     0
  9
$HYPERLINKBASE
  1

  9
$STYLESHEET
  1

  9
$XEDIT
290
     1
  9
$CEPSNTYPE
380
     0
  9
$PSTYLEMODE
290
     0
  9
$FINGERPRINTGUID
  2
{BE23516F-949D-4B3E-9790-BFC755D99CAB}
  9
$VERSIONGUID
  2
{A6EEFB58-3FB3-47A3-9915-2B5F5941428F}
  9
$EXTNAMES
290
     1
  9
$PSVPSCALE
 40
0.0
  9
$OLESTARTUP
290
     0
  9
$SORTENTS
280
   127
  9
$INDEXCTL
280
     0
  9
$HIDETEXT
280
     0
  9
$XCLIPFRAME
280
     2
  9
$HALOGAP
280
     0
  9
$OBSCOLOR
 70
   257
  9
$OBSLTYPE
280
     0
  9
$INTERSECTIONDISPLAY
280
     0
  9
$INTERSECTIONCOLOR
 70
   257
  9
$DIMASSOC
280
     1
  9
$PROJECTNAME
  1

  9
$CAMERADISPLAY
290
     0
  9
$LENSLENGTH
 40
50.0
  9
$CAMERAHEIGHT
 40
0.0
  9
$STEPSPERSEC
 40
2.0
  9
$STEPSIZE
 40
6.0
  9
$3DDWFPREC
 40
2.0
  9
$PSOLWIDTH
 40
0.25
  9
$PSOLHEIGHT
 40
4.0
  9
$LOFTANG1
 40
1.570796326794896
  9
$LOFTANG2
 40
1.570796326794896
  9
$LOFTMAG1
 40
0.0
  9
$LOFTMAG2
 40
0.0
  9
$LOFTPARAM
 70
     7
  9
$LOFTNORMALS
280
     1
  9
$LATITUDE
 40
37.795
  9
$LONGITUDE
 40
-122.394
  9
$NORTHDIRECTION
 40
0.0
  9
$TIMEZONE
 70
 -8000
  9
$LIGHTGLYPHDISPLAY
280
     1
  9
$TILEMODELIGHTSYNCH
280
     1
  9
$CMATERIAL
347
9E1
  9
$SOLIDHIST
280
     0
  9
$SHOWHIST
280
     1
  9
$DWFFRAME
280
     2
  9
$DGNFRAME
280
     0
  9
$REALWORLDSCALE
290
     1
  9
$INTERFERECOLOR
 62
     1
  9
$INTERFEREOBJVS
345
A03
  9
$INTERFEREVPVS
346
A00
  9
$CSHADOW
280
     0
  9
$SHADOWPLANELOCATION
 40
0.0
  0
ENDSEC
  0
SECTION
  2
CLASSES
  0
CLASS
  1
ACDBDICTIONARYWDFLT
  2
AcDbDictionaryWithDefault
  3
ObjectDBX Classes
 90
        0
 91
        1
280
     0
281
     0
  0
CLASS
  1
TABLESTYLE
  2
AcDbTableStyle
  3
ObjectDBX Classes
 90
     4095
 91
        1
280
     0
281
     0
  0
CLASS
  1
DICTIONARYVAR
  2
AcDbDictionaryVar
  3
ObjectDBX Classes
 90
        0
 91
        9
280
     0
281
     0
  0
CLASS
  1
MATERIAL
  2
AcDbMaterial
  3
ObjectDBX Classes
 90
     1153
 91
        3
280
     0
281
     0
  0
CLASS
  1
VISUALSTYLE
  2
AcDbVisualStyle
  3
ObjectDBX Classes
 90
     4095
 91
       24
280
     0
281
     0
  0
CLASS
  1
SCALE
  2
AcDbScale
  3
ObjectDBX Classes
 90
     1153
 91
       17
280
     0
281
     0
  0
CLASS
  1
MLEADERSTYLE
  2
AcDbMLeaderStyle
  3
ACDB_MLEADERSTYLE_CLASS
 90
     4095
 91
        1
280
     0
281
     0
  0
CLASS
  1
SORTENTSTABLE
  2
AcDbSortentsTable
  3
ObjectDBX Classes
 90
        0
 91
        3
280
     0
281
     0
  0
CLASS
  1
CELLSTYLEMAP
  2
AcDbCellStyleMap
  3
ObjectDBX Classes
 90
     1152
 91
        1
280
     0
281
     0
  0
ENDSEC
  0
SECTION
  2
TABLES
  0
TABLE
  2
VPORT
  5
1
330
0
100
AcDbSymbolTable
 70
     1
  0
VPORT
  5
9D8
330
1
100
AcDbSymbolTableRecord
100
AcDbViewportTableRecord
  2
*Active
 70
     0
 10
0.0
 20
0.0
 11
1.0
 21
1.0
 12
210.000003911764
 22
148.4947231336175
 13
0.0
 23
0.0
 14
1.0
 24
1.0
 15
0.0
 25
0.0
 16
0.0
 26
0.0
 36
1.0
 17
0.0
 27
0.0
 37
0.0
 40
299.430186166897
 41
1.612382234185733
 42
50.0
 43
0.0
 44
0.0
 50
0.0
 51
0.0
 71
     0
 72
   100
 73
     1
 74
     1
 75
     0
 76
     0
 77
     0
 78
     0
281
     0
 65
     1
110
0.0
120
0.0
130
0.0
111
1.0
121
0.0
131
0.0
112
0.0
122
1.0
132
0.0
 79
     0
146
0.0
348
9FF
 60
     3
 61
     5
292
     1
282
     1
141
0.0
142
0.0
 63
   250
421
  3355443
1001
ACAD_NAV_VCDISPLAY
1070
     3
  0
ENDTAB
  0
TABLE
  2
LTYPE
  5
68
330
0
100
AcDbSymbolTable
 70
    25
  0
LTYPE
  5
1D
330
68
100
AcDbSymbolTableRecord
100
AcDbLinetypeTableRecord
  2
BYBLOCK
 70
     0
  3

 72
    65
 73
     0
 40
0.0
  0
LTYPE
  5
1E
330
68
100
AcDbSymbolTableRecord
100
AcDbLinetypeTableRecord
  2
BYLAYER
 70
     0
  3

 72
    65
 73
     0
 40
0.0
  0
LTYPE
  5
1F
330
68
100
AcDbSymbolTableRecord
100
AcDbLinetypeTableRecord
  2
CONTINUOUS
 70
     0
  3
Solid line
 72
    65
 73
     0
 40
0.0
  0
LTYPE
  5
20
330
68
100
AcDbSymbolTableRecord
100
AcDbLinetypeTableRecord
  2
BORDER
 70
     0
  3
__ __ . __ __ . __ __ . __ __ . __ __ . __ __ .
 72
    65
 73
     6
 40
1.75
 49
0.5
 74
     0
 49
-0.25
 74
     0
 49
0.5
 74
     0
 49
-0.25
 74
     0
 49
0.0
 74
     0
 49
-0.25
 74
     0
  0
LTYPE
  5
21
330
68
100
AcDbSymbolTableRecord
100
AcDbLinetypeTableRecord
  2
BORDER2
 70
     0
  3
__.__.__.__.__.__.__.__.__.__.__.__.__.__.__.__
 72
    65
 73
     6
 40
0.875
 49
0.25
 74
     0
 49
-0.125
 74
     0
 49
0.25
 74
     0
 49
-0.125
 74
     0
 49
0.0
 74
     0
 49
-0.125
 74
     0
  0
LTYPE
  5
22
330
68
100
AcDbSymbolTableRecord
100
AcDbLinetypeTableRecord
  2
BORDERX2
 70
     0
  3
____  ____  .  ____  ____  .  ____  ____  .  __
 72
    65
 73
     6
 40
3.5
 49
1.0
 74
     0
 49
-0.5
 74
     0
 49
1.0
 74
     0
 49
-0.5
 74
     0
 49
0.0
 74
     0
 49
-0.5
 74
     0
  0
LTYPE
  5
23
330
68
100
AcDbSymbolTableRecord
100
AcDbLinetypeTableRecord
  2
CENTER
 70
     0
  3
____ _ ____ _ ____ _ ____ _ ____ _ ____ _ ____ 
 72
    65
 73
     4
 40
2.0
 49
1.25
 74
     0
 49
-0.25
 74
     0
 49
0.25
 74
     0
 49
-0.25
 74
     0
  0
LTYPE
  5
24
330
68
100
AcDbSymbolTableRecord
100
AcDbLinetypeTableRecord
  2
CENTER2
 70
     0
  3
___ _ ___ _ ___ _ ___ _ ___ _ ___ _ ___ _ ___ _
 72
    65
 73
     4
 40
1.125
 49
0.75
 74
     0
 49
-0.125
 74
     0
 49
0.125
 74
     0
 49
-0.125
 74
     0
  0
LTYPE
  5
25
330
68
100
AcDbSymbolTableRecord
100
AcDbLinetypeTableRecord
  2
CENTERX2
 70
     0
  3
________  __  ________  __  ________  __  _____
 72
    65
 73
     4
 40
4.0
 49
2.5
 74
     0
 49
-0.5
 74
     0
 49
0.5
 74
     0
 49
-0.5
 74
     0
  0
LTYPE
  5
26
330
68
100
AcDbSymbolTableRecord
100
AcDbLinetypeTableRecord
  2
DASHDOT
 70
     0
  3
__ . __ . __ . __ . __ . __ . __ . __ . __ . __
 72
    65
 73
     4
 40
1.0
 49
0.5
 74
     0
 49
-0.25
 74
     0
 49
0.0
 74
     0
 49
-0.25
 74
     0
  0
LTYPE
  5
27
330
68
100
AcDbSymbolTableRecord
100
AcDbLinetypeTableRecord
  2
DASHDOT2
 70
     0
  3
_._._._._._._._._._._._._._._._._._._._._._._._
 72
    65
 73
     4
 40
0.5
 49
0.25
 74
     0
 49
-0.125
 74
     0
 49
0.0
 74
     0
 49
-0.125
 74
     0
  0
LTYPE
  5
28
330
68
100
AcDbSymbolTableRecord
100
AcDbLinetypeTableRecord
  2
DASHDOTX2
 70
     0
  3
____  .  ____  .  ____  .  ____  .  ____  .  __
 72
    65
 73
     4
 40
2.0
 49
1.0
 74
     0
 49
-0.5
 74
     0
 49
0.0
 74
     0
 49
-0.5
 74
     0
  0
LTYPE
  5
29
330
68
100
AcDbSymbolTableRecord
100
AcDbLinetypeTableRecord
  2
DASHED
 70
     0
  3
__ __ __ __ __ __ __ __ __ __ __ __ __ __ __ __
 72
    65
 73
     2
 40
0.75
 49
0.5
 74
     0
 49
-0.25
 74
     0
  0
LTYPE
  5
2A
330
68
100
AcDbSymbolTableRecord
100
AcDbLinetypeTableRecord
  2
DASHED2
 70
     0
  3
_ _ _ _ _ _ _ _ _ _ _ _ _ _ _ _ _ _ _ _ _ _ _ _
 72
    65
 73
     2
 40
0.375
 49
0.25
 74
     0
 49
-0.125
 74
     0
  0
LTYPE
  5
2B
330
68
100
AcDbSymbolTableRecord
100
AcDbLinetypeTableRecord
  2
DASHEDX2
 70
     0
  3
____  ____  ____  ____  ____  ____  ____  ____ 
 72
    65
 73
     2
 40
1.5
 49
1.0
 74
     0
 49
-0.5
 74
     0
  0
LTYPE
  5
2C
330
68
100
AcDbSymbolTableRecord
100
AcDbLinetypeTableRecord
  2
DIVIDE
 70
     0
  3
____ . . ____ . . ____ . . ____ . . ____ . . __
 72
    65
 73
     6
 40
1.25
 49
0.5
 74
     0
 49
-0.25
 74
     0
 49
0.0
 74
     0
 49
-0.25
 74
     0
 49
0.0
 74
     0
 49
-0.25
 74
     0
  0
LTYPE
  5
2D
330
68
100
AcDbSymbolTableRecord
100
AcDbLinetypeTableRecord
  2
DIVIDE2
 70
     0
  3
__..__..__..__..__..__..__..__..__..__..__..__.
 72
    65
 73
     6
 40
0.625
 49
0.25
 74
     0
 49
-0.125
 74
     0
 49
0.0
 74
     0
 49
-0.125
 74
     0
 49
0.0
 74
     0
 49
-0.125
 74
     0
  0
LTYPE
  5
2E
330
68
100
AcDbSymbolTableRecord
100
AcDbLinetypeTableRecord
  2
DIVIDEX2
 70
     0
  3
________  .  .  ________  .  .  ________  .  . 
 72
    65
 73
     6
 40
2.5
 49
1.0
 74
     0
 49
-0.5
 74
     0
 49
0.0
 74
     0
 49
-0.5
 74
     0
 49
0.0
 74
     0
 49
-0.5
 74
     0
  0
LTYPE
  5
2F
330
68
100
AcDbSymbolTableRecord
100
AcDbLinetypeTableRecord
  2
DOT
 70
     0
  3
. . . . . . . . . . . . . . . . . . . . . . . .
 72
    65
 73
     2
 40
0.25
 49
0.0
 74
     0
 49
-0.25
 74
     0
  0
LTYPE
  5
30
330
68
100
AcDbSymbolTableRecord
100
AcDbLinetypeTableRecord
  2
DOT2
 70
     0
  3
...............................................
 72
    65
 73
     2
 40
0.125
 49
0.0
 74
     0
 49
-0.125
 74
     0
  0
LTYPE
  5
31
330
68
100
AcDbSymbolTableRecord
100
AcDbLinetypeTableRecord
  2
DOTX2
 70
     0
  3
.  .  .  .  .  .  .  .  .  .  .  .  .  .  .  . 
 72
    65
 73
     2
 40
0.5
 49
0.0
 74
     0
 49
-0.5
 74
     0
  0
LTYPE
  5
32
330
68
100
AcDbSymbolTableRecord
100
AcDbLinetypeTableRecord
  2
HIDDEN
 70
     0
  3
__ __ __ __ __ __ __ __ __ __ __ __ __ __ __ __
 72
    65
 73
     2
 40
0.375
 49
0.25
 74
     0
 49
-0.125
 74
     0
  0
LTYPE
  5
33
330
68
100
AcDbSymbolTableRecord
100
AcDbLinetypeTableRecord
  2
HIDDEN2
 70
     0
  3
_ _ _ _ _ _ _ _ _ _ _ _ _ _ _ _ _ _ _ _ _ _ _ _
 72
    65
 73
     2
 40
0.1875
 49
0.125
 74
     0
 49
-0.0625
 74
     0
  0
LTYPE
  5
34
330
68
100
AcDbSymbolTableRecord
100
AcDbLinetypeTableRecord
  2
HIDDENX2
 70
     0
  3
____ ____ ____ ____ ____ ____ ____ ____ ____ __
 72
    65
 73
     2
 40
0.75
 49
0.5
 74
     0
 49
-0.25
 74
     0
  0
LTYPE
  5
35
330
68
100
AcDbSymbolTableRecord
100
AcDbLinetypeTableRecord
  2
PHANTOM
 70
     0
  3
______  __  __  ______  __  __  ______  __  __ 
 72
    65
 73
     6
 40
2.5
 49
1.25
 74
     0
 49
-0.25
 74
     0
 49
0.25
 74
     0
 49
-0.25
 74
     0
 49
0.25
 74
     0
 49
-0.25
 74
     0
  0
LTYPE
  5
36
330
68
100
AcDbSymbolTableRecord
100
AcDbLinetypeTableRecord
  2
PHANTOM2
 70
     0
  3
___ _ _ ___ _ _ ___ _ _ ___ _ _ ___ _ _ ___ _ _
 72
    65
 73
     6
 40
1.25
 49
0.625
 74
     0
 49
-0.125
 74
     0
 49
0.125
 74
     0
 49
-0.125
 74
     0
 49
0.125
 74
     0
 49
-0.125
 74
     0
  0
LTYPE
  5
37
330
68
100
AcDbSymbolTableRecord
100
AcDbLinetypeTableRecord
  2
PHANTOMX2
 70
     0
  3
____________    ____    ____    ____________   
 72
    65
 73
     6
 40
5.0
 49
2.5
 74
     0
 49
-0.5
 74
     0
 49
0.5
 74
     0
 49
-0.5
 74
     0
 49
0.5
 74
     0
 49
-0.5
 74
     0
  0
ENDTAB
  0
TABLE
  2
LAYER
  5
67
102
{ACAD_XDICTIONARY
360
B18
102
}
330
0
100
AcDbSymbolTable
 70
     4
  0
LAYER
  5
38
102
{ACAD_XDICTIONARY
360
B0F
102
}
330
67
100
AcDbSymbolTableRecord
100
AcDbLayerTableRecord
  2
0
 70
     0
 62
     7
  6
CONTINUOUS
370
    -3
390
9BA
347
9F1
  0
LAYER
  5
39
102
{ACAD_XDICTIONARY
360
B11
102
}
330
67
100
AcDbSymbolTableRecord
100
AcDbLayerTableRecord
  2
LEVEL001
 70
     0
 62
     7
  6
CONTINUOUS
370
    -3
390
9BA
347
9F1
  0
LAYER
  5
3A
102
{ACAD_XDICTIONARY
360
B13
102
}
330
67
100
AcDbSymbolTableRecord
100
AcDbLayerTableRecord
  2
LEVEL002
 70
     0
 62
     7
  6
CONTINUOUS
370
    -3
390
9BA
347
9F1
  0
LAYER
  5
B83
330
67
100
AcDbSymbolTableRecord
100
AcDbLayerTableRecord
  2
Defpoints
 70
     0
 62
     7
  6
CONTINUOUS
290
     0
370
    -3
390
9BA
347
9F1
  0
ENDTAB
  0
TABLE
  2
STYLE
  5
6
330
0
100
AcDbSymbolTable
 70
     3
  0
STYLE
  5
7
330
6
100
AcDbSymbolTableRecord
100
AcDbTextStyleTableRecord
  2
STANDARD
 70
     0
 40
0.0
 41
0.8
 50
0.0
 71
     0
 42
0.2
  3
TXT.shx
  4
BIGFONT.shx
  0
STYLE
  5
8
330
6
100
AcDbSymbolTableRecord
100
AcDbTextStyleTableRecord
  2
STANDARD1
 70
     4
 40
0.0
 41
1.0
 50
0.0
 71
     0
 42
0.2
  3
TXT
  4
BIGFONT
  0
STYLE
  5
B84
330
6
100
AcDbSymbolTableRecord
100
AcDbTextStyleTableRecord
  2
GMM001
 70
     0
 40
0.0
 41
1.0
 50
0.0
 71
     0
 42
1.0
  3
txt.shx
  4
bigfont.shx
  0
ENDTAB
  0
TABLE
  2
VIEW
  5
2
330
0
100
AcDbSymbolTable
 70
     0
  0
ENDTAB
  0
TABLE
  2
UCS
  5
3
330
0
100
AcDbSymbolTable
 70
     0
  0
ENDTAB
  0
TABLE
  2
APPID
  5
4
330
0
100
AcDbSymbolTable
 70
     6
  0
APPID
  5
5
330
4
100
AcDbSymbolTableRecord
100
AcDbRegAppTableRecord
  2
ACAD
 70
     0
  0
APPID
  5
A2A
330
4
100
AcDbSymbolTableRecord
100
AcDbRegAppTableRecord
  2
ACAD_NAV_VCDISPLAY
 70
     0
  0
APPID
  5
A74
330
4
100
AcDbSymbolTableRecord
100
AcDbRegAppTableRecord
  2
GradientColor1ACI
 70
     0
  0
APPID
  5
A75
330
4
100
AcDbSymbolTableRecord
100
AcDbRegAppTableRecord
  2
GradientColor2ACI
 70
     0
  0
APPID
  5
B43
330
4
100
AcDbSymbolTableRecord
100
AcDbRegAppTableRecord
  2
ACAD_EXEMPT_FROM_CAD_STANDARDS
 70
     0
  0
APPID
  5
B86
330
4
100
AcDbSymbolTableRecord
100
AcDbRegAppTableRecord
  2
ACAD_PSEXT
 70
     0
  0
ENDTAB
  0
TABLE
  2
DIMSTYLE
  5
66
330
0
100
AcDbSymbolTable
 70
     2
100
AcDbDimStyleTable
 71
     0
  0
DIMSTYLE
105
3B
330
66
100
AcDbSymbolTableRecord
100
AcDbDimStyleTableRecord
  2
STANDARD
 70
     0
340
7
  0
DIMSTYLE
105
B85
102
{ACAD_REACTORS
330
11E2
330
11E8
330
11EE
330
18F1
102
}
330
66
100
AcDbSymbolTableRecord
100
AcDbDimStyleTableRecord
  2
GMM002
 70
     0
  3
%%c<>
 41
2.0
 42
1.0
 43
8.0
 44
1.0
 73
     0
 74
     0
 77
     3
 78
     8
140
3.0
141
1.0
143
0.0394
146
0.83333333333333
147
1.0
172
     1
173
     1
176
     8
177
     8
178
     8
271
     6
272
     0
275
     1
288
     1
340
B84
  0
ENDTAB
  0
TABLE
  2
BLOCK_RECORD
  5
9
330
0
100
AcDbSymbolTable
 70
    30
  0
BLOCK_RECORD
  5
A
102
{ACAD_XDICTIONARY
360
A2C
102
}
330
9
100
AcDbSymbolTableRecord
100
AcDbBlockTableRecord
  2
*MODEL_SPACE
340
9C1
 70
     0
280
     1
281
     0
  0
BLOCK_RECORD
  5
B
330
9
100
AcDbSymbolTableRecord
100
AcDbBlockTableRecord
  2
*PAPER_SPACE
340
9C2
 70
     0
280
     1
281
     0
  0
BLOCK_RECORD
  5
C
330
9
100
AcDbSymbolTableRecord
100
AcDbBlockTableRecord
  2
_ARCHTICK
340
0
 70
     0
280
     1
281
     0
  0
BLOCK_RECORD
  5
D
330
9
100
AcDbSymbolTableRecord
100
AcDbBlockTableRecord
  2
_OBLIQUE
340
0
 70
     0
280
     1
281
     0
  0
BLOCK_RECORD
  5
E
330
9
100
AcDbSymbolTableRecord
100
AcDbBlockTableRecord
  2
_BOXBLANK
340
0
 70
     0
280
     1
281
     0
  0
BLOCK_RECORD
  5
F
330
9
100
AcDbSymbolTableRecord
100
AcDbBlockTableRecord
  2
_BOXFILLED
340
0
 70
     0
280
     1
281
     0
  0
BLOCK_RECORD
  5
10
330
9
100
AcDbSymbolTableRecord
100
AcDbBlockTableRecord
  2
_CLOSED
340
0
 70
     0
280
     1
281
     0
  0
BLOCK_RECORD
  5
11
330
9
100
AcDbSymbolTableRecord
100
AcDbBlockTableRecord
  2
_OPEN
340
0
 70
     0
280
     1
281
     0
  0
BLOCK_RECORD
  5
12
330
9
100
AcDbSymbolTableRecord
100
AcDbBlockTableRecord
  2
_OPEN30
340
0
 70
     0
280
     1
281
     0
  0
BLOCK_RECORD
  5
13
330
9
100
AcDbSymbolTableRecord
100
AcDbBlockTableRecord
  2
_OPEN90
340
0
 70
     0
280
     1
281
     0
  0
BLOCK_RECORD
  5
14
330
9
100
AcDbSymbolTableRecord
100
AcDbBlockTableRecord
  2
_CLOSEDBLANK
340
0
 70
     0
280
     1
281
     0
  0
BLOCK_RECORD
  5
15
330
9
100
AcDbSymbolTableRecord
100
AcDbBlockTableRecord
  2
_DOT
340
0
102
{BLKREFS
331
18AE
331
18AF
331
18C5
331
18C6
331
18DC
331
18DD
331
1917
331
1918
331
191F
331
1920
331
1927
331
1928
102
}
 70
     0
280
     1
281
     0
  0
BLOCK_RECORD
  5
16
330
9
100
AcDbSymbolTableRecord
100
AcDbBlockTableRecord
  2
_DOTSMALL
340
0
 70
     0
280
     1
281
     0
  0
BLOCK_RECORD
  5
17
330
9
100
AcDbSymbolTableRecord
100
AcDbBlockTableRecord
  2
_DATUMBLANK
340
0
 70
     0
280
     1
281
     0
  0
BLOCK_RECORD
  5
18
330
9
100
AcDbSymbolTableRecord
100
AcDbBlockTableRecord
  2
_DATUMFILLED
340
0
 70
     0
280
     1
281
     0
  0
BLOCK_RECORD
  5
19
330
9
100
AcDbSymbolTableRecord
100
AcDbBlockTableRecord
  2
_ORIGIN
340
0
 70
     0
280
     1
281
     0
  0
BLOCK_RECORD
  5
1A
330
9
100
AcDbSymbolTableRecord
100
AcDbBlockTableRecord
  2
_NONE
340
0
 70
     0
280
     1
281
     0
  0
BLOCK_RECORD
  5
1B
330
9
100
AcDbSymbolTableRecord
100
AcDbBlockTableRecord
  2
_DOTBLANK
340
0
 70
     0
280
     1
281
     0
  0
BLOCK_RECORD
  5
1C
330
9
100
AcDbSymbolTableRecord
100
AcDbBlockTableRecord
  2
_INTEGRAL
340
0
 70
     0
280
     1
281
     0
  0
BLOCK_RECORD
  5
B2D
102
{ACAD_XDICTIONARY
360
B33
102
}
330
9
100
AcDbSymbolTableRecord
100
AcDbBlockTableRecord
  2
A$C130B57D2
340
0
 70
     0
280
     1
281
     0
  0
BLOCK_RECORD
  5
B62
330
9
100
AcDbSymbolTableRecord
100
AcDbBlockTableRecord
  2
*D18
340
0
 70
     0
280
     1
281
     0
  0
BLOCK_RECORD
  5
B6D
330
9
100
AcDbSymbolTableRecord
100
AcDbBlockTableRecord
  2
*D19
340
0
 70
     0
280
     1
281
     0
  0
BLOCK_RECORD
  5
B78
330
9
100
AcDbSymbolTableRecord
100
AcDbBlockTableRecord
  2
*D20
340
0
 70
     0
280
     1
281
     0
  0
BLOCK_RECORD
  5
1861
330
9
100
AcDbSymbolTableRecord
100
AcDbBlockTableRecord
  2
*D22
340
0
 70
     0
280
     1
281
     0
  0
BLOCK_RECORD
  5
186C
330
9
100
AcDbSymbolTableRecord
100
AcDbBlockTableRecord
  2
*D23
340
0
 70
     0
280
     1
281
     0
  0
BLOCK_RECORD
  5
1877
330
9
100
AcDbSymbolTableRecord
100
AcDbBlockTableRecord
  2
*D24
340
0
 70
     0
280
     1
281
     0
  0
BLOCK_RECORD
  5
18B6
330
9
100
AcDbSymbolTableRecord
100
AcDbBlockTableRecord
  2
*D25
340
0
 70
     0
280
     1
281
     0
  0
BLOCK_RECORD
  5
18CD
330
9
100
AcDbSymbolTableRecord
100
AcDbBlockTableRecord
  2
*D26
340
0
 70
     0
280
     1
281
     0
  0
BLOCK_RECORD
  5
18F2
330
9
100
AcDbSymbolTableRecord
100
AcDbBlockTableRecord
  2
*D27
340
0
 70
     0
280
     1
281
     0
  0
BLOCK_RECORD
  5
18FD
330
9
100
AcDbSymbolTableRecord
100
AcDbBlockTableRecord
  2
*D28
340
0
 70
     0
280
     1
281
     0
  0
BLOCK_RECORD
  5
1908
330
9
100
AcDbSymbolTableRecord
100
AcDbBlockTableRecord
  2
*D29
340
0
 70
     0
280
     1
281
     0
  0
ENDTAB
  0
ENDSEC
  0
SECTION
  2
BLOCKS
  0
BLOCK
  5
40
330
A
100
AcDbEntity
  8
0
100
AcDbBlockBegin
  2
*MODEL_SPACE
 70
     0
 10
0.0
 20
0.0
 30
0.0
  3
*MODEL_SPACE
  1

  0
ENDBLK
  5
53
330
A
100
AcDbEntity
  8
0
100
AcDbBlockEnd
  0
BLOCK
  5
41
330
B
100
AcDbEntity
 67
     1
  8
0
100
AcDbBlockBegin
  2
*PAPER_SPACE
 70
     0
 10
0.0
 20
0.0
 30
0.0
  3
*PAPER_SPACE
  1

  0
ENDBLK
  5
54
330
B
100
AcDbEntity
 67
     1
  8
0
100
AcDbBlockEnd
  0
BLOCK
  5
42
330
C
100
AcDbEntity
  8
0
100
AcDbBlockBegin
  2
_ARCHTICK
 70
     0
 10
0.0
 20
0.0
 30
0.0
  3
_ARCHTICK
  1

  0
LWPOLYLINE
  5
75
330
C
100
AcDbEntity
  8
0
  6
ByBlock
 62
     0
380
     1
100
AcDbPolyline
 90
        2
 70
     1
 43
0.15
 10
-0.5
 20
-0.5
 10
0.5
 20
0.5
  0
ENDBLK
  5
55
330
C
100
AcDbEntity
  8
0
100
AcDbBlockEnd
  0
BLOCK
  5
43
330
D
100
AcDbEntity
  8
0
100
AcDbBlockBegin
  2
_OBLIQUE
 70
     0
 10
0.0
 20
0.0
 30
0.0
  3
_OBLIQUE
  1

  0
LINE
  5
79
330
D
100
AcDbEntity
  8
0
  6
ByBlock
 62
     0
380
     1
100
AcDbLine
 10
-0.5
 20
-0.5
 30
0.0
 11
0.5
 21
0.5
 31
0.0
  0
ENDBLK
  5
61
330
D
100
AcDbEntity
  8
0
100
AcDbBlockEnd
  0
BLOCK
  5
44
330
E
100
AcDbEntity
  8
0
100
AcDbBlockBegin
  2
_BOXBLANK
 70
     0
 10
0.0
 20
0.0
 30
0.0
  3
_BOXBLANK
  1

  0
LINE
  5
7A
330
E
100
AcDbEntity
  8
0
  6
ByBlock
 62
     0
380
     1
100
AcDbLine
 10
-0.5
 20
-0.5
 30
0.0
 11
0.5
 21
-0.5
 31
0.0
  0
LINE
  5
7B
330
E
100
AcDbEntity
  8
0
  6
ByBlock
 62
     0
380
     1
100
AcDbLine
 10
0.5
 20
-0.5
 30
0.0
 11
0.5
 21
0.5
 31
0.0
  0
LINE
  5
7C
330
E
100
AcDbEntity
  8
0
  6
ByBlock
 62
     0
380
     1
100
AcDbLine
 10
0.5
 20
0.5
 30
0.0
 11
-0.5
 21
0.5
 31
0.0
  0
LINE
  5
7D
330
E
100
AcDbEntity
  8
0
  6
ByBlock
 62
     0
380
     1
100
AcDbLine
 10
-0.5
 20
0.5
 30
0.0
 11
-0.5
 21
-0.5
 31
0.0
  0
LINE
  5
7E
330
E
100
AcDbEntity
  8
0
  6
ByBlock
 62
     0
380
     1
100
AcDbLine
 10
-0.5
 20
0.0
 30
0.0
 11
-1.0
 21
0.0
 31
0.0
  0
ENDBLK
  5
56
330
E
100
AcDbEntity
  8
0
100
AcDbBlockEnd
  0
BLOCK
  5
45
330
F
100
AcDbEntity
  8
0
100
AcDbBlockBegin
  2
_BOXFILLED
 70
     0
 10
0.0
 20
0.0
 30
0.0
  3
_BOXFILLED
  1

  0
SOLID
  5
7F
330
F
100
AcDbEntity
  8
0
  6
ByBlock
 62
     0
380
     1
100
AcDbTrace
 10
-0.5
 20
0.5
 30
0.0
 11
0.5
 21
0.5
 31
0.0
 12
-0.5
 22
-0.5
 32
0.0
 13
0.5
 23
-0.5
 33
0.0
  0
LINE
  5
80
330
F
100
AcDbEntity
  8
0
  6
ByBlock
 62
     0
380
     1
100
AcDbLine
 10
-0.5
 20
0.0
 30
0.0
 11
-1.0
 21
0.0
 31
0.0
  0
ENDBLK
  5
57
330
F
100
AcDbEntity
  8
0
100
AcDbBlockEnd
  0
BLOCK
  5
46
330
10
100
AcDbEntity
  8
0
100
AcDbBlockBegin
  2
_CLOSED
 70
     0
 10
0.0
 20
0.0
 30
0.0
  3
_CLOSED
  1

  0
LINE
  5
81
330
10
100
AcDbEntity
  8
0
  6
ByBlock
 62
     0
380
     1
100
AcDbLine
 10
-1.0
 20
0.16666666666667
 30
0.0
 11
0.0
 21
0.0
 31
0.0
  0
LINE
  5
82
330
10
100
AcDbEntity
  8
0
  6
ByBlock
 62
     0
380
     1
100
AcDbLine
 10
0.0
 20
0.0
 30
0.0
 11
-1.0
 21
-0.16666666666667
 31
0.0
  0
LINE
  5
83
330
10
100
AcDbEntity
  8
0
  6
ByBlock
 62
     0
380
     1
100
AcDbLine
 10
-1.0
 20
0.16666666666667
 30
0.0
 11
-1.0
 21
-0.16666666666667
 31
0.0
  0
LINE
  5
84
330
10
100
AcDbEntity
  8
0
  6
ByBlock
 62
     0
380
     1
100
AcDbLine
 10
0.0
 20
0.0
 30
0.0
 11
-1.0
 21
0.0
 31
0.0
  0
ENDBLK
  5
58
330
10
100
AcDbEntity
  8
0
100
AcDbBlockEnd
  0
BLOCK
  5
47
330
11
100
AcDbEntity
  8
0
100
AcDbBlockBegin
  2
_OPEN
 70
     0
 10
0.0
 20
0.0
 30
0.0
  3
_OPEN
  1

  0
LINE
  5
85
330
11
100
AcDbEntity
  8
0
  6
ByBlock
 62
     0
380
     1
100
AcDbLine
 10
-1.0
 20
0.16666666666667
 30
0.0
 11
0.0
 21
0.0
 31
0.0
  0
LINE
  5
86
330
11
100
AcDbEntity
  8
0
  6
ByBlock
 62
     0
380
     1
100
AcDbLine
 10
0.0
 20
0.0
 30
0.0
 11
-1.0
 21
-0.16666666666667
 31
0.0
  0
LINE
  5
87
330
11
100
AcDbEntity
  8
0
  6
ByBlock
 62
     0
380
     1
100
AcDbLine
 10
0.0
 20
0.0
 30
0.0
 11
-1.0
 21
0.0
 31
0.0
  0
ENDBLK
  5
62
330
11
100
AcDbEntity
  8
0
100
AcDbBlockEnd
  0
BLOCK
  5
48
330
12
100
AcDbEntity
  8
0
100
AcDbBlockBegin
  2
_OPEN30
 70
     0
 10
0.0
 20
0.0
 30
0.0
  3
_OPEN30
  1

  0
LINE
  5
88
330
12
100
AcDbEntity
  8
0
  6
ByBlock
 62
     0
380
     1
100
AcDbLine
 10
-1.0
 20
0.2679491924311
 30
0.0
 11
0.0
 21
0.0
 31
0.0
  0
LINE
  5
89
330
12
100
AcDbEntity
  8
0
  6
ByBlock
 62
     0
380
     1
100
AcDbLine
 10
0.0
 20
0.0
 30
0.0
 11
-1.0
 21
-0.2679491924311
 31
0.0
  0
LINE
  5
8A
330
12
100
AcDbEntity
  8
0
  6
ByBlock
 62
     0
380
     1
100
AcDbLine
 10
0.0
 20
0.0
 30
0.0
 11
-1.0
 21
0.0
 31
0.0
  0
ENDBLK
  5
63
330
12
100
AcDbEntity
  8
0
100
AcDbBlockEnd
  0
BLOCK
  5
49
330
13
100
AcDbEntity
  8
0
100
AcDbBlockBegin
  2
_OPEN90
 70
     0
 10
0.0
 20
0.0
 30
0.0
  3
_OPEN90
  1

  0
LINE
  5
8B
330
13
100
AcDbEntity
  8
0
  6
ByBlock
 62
     0
380
     1
100
AcDbLine
 10
-0.5
 20
0.5
 30
0.0
 11
0.0
 21
0.0
 31
0.0
  0
LINE
  5
8C
330
13
100
AcDbEntity
  8
0
  6
ByBlock
 62
     0
380
     1
100
AcDbLine
 10
0.0
 20
0.0
 30
0.0
 11
-0.5
 21
-0.5
 31
0.0
  0
LINE
  5
8D
330
13
100
AcDbEntity
  8
0
  6
ByBlock
 62
     0
380
     1
100
AcDbLine
 10
0.0
 20
0.0
 30
0.0
 11
-1.0
 21
0.0
 31
0.0
  0
ENDBLK
  5
64
330
13
100
AcDbEntity
  8
0
100
AcDbBlockEnd
  0
BLOCK
  5
4A
330
14
100
AcDbEntity
  8
0
100
AcDbBlockBegin
  2
_CLOSEDBLANK
 70
     0
 10
0.0
 20
0.0
 30
0.0
  3
_CLOSEDBLANK
  1

  0
LINE
  5
8E
330
14
100
AcDbEntity
  8
0
  6
ByBlock
 62
     0
380
     1
100
AcDbLine
 10
-1.0
 20
0.16666666666667
 30
0.0
 11
0.0
 21
0.0
 31
0.0
  0
LINE
  5
8F
330
14
100
AcDbEntity
  8
0
  6
ByBlock
 62
     0
380
     1
100
AcDbLine
 10
0.0
 20
0.0
 30
0.0
 11
-1.0
 21
-0.16666666666667
 31
0.0
  0
LINE
  5
90
330
14
100
AcDbEntity
  8
0
  6
ByBlock
 62
     0
380
     1
100
AcDbLine
 10
-1.0
 20
0.16666666666667
 30
0.0
 11
-1.0
 21
-0.16666666666667
 31
0.0
  0
ENDBLK
  5
59
330
14
100
AcDbEntity
  8
0
100
AcDbBlockEnd
  0
BLOCK
  5
4B
330
15
100
AcDbEntity
  8
0
100
AcDbBlockBegin
  2
_DOT
 70
     0
 10
0.0
 20
0.0
 30
0.0
  3
_DOT
  1

  0
LWPOLYLINE
  5
91
330
15
100
AcDbEntity
  8
0
  6
ByBlock
 62
     0
380
     1
100
AcDbPolyline
 90
        2
 70
     1
 43
0.5
 10
-0.25
 20
0.0
 42
1.0
 10
0.25
 20
0.0
 42
1.0
  0
LINE
  5
95
330
15
100
AcDbEntity
  8
0
  6
ByBlock
 62
     0
380
     1
100
AcDbLine
 10
-0.5
 20
0.0
 30
0.0
 11
-1.0
 21
0.0
 31
0.0
  0
ENDBLK
  5
5C
330
15
100
AcDbEntity
  8
0
100
AcDbBlockEnd
  0
BLOCK
  5
4C
330
16
100
AcDbEntity
  8
0
100
AcDbBlockBegin
  2
_DOTSMALL
 70
     0
 10
0.0
 20
0.0
 30
0.0
  3
_DOTSMALL
  1

  0
LWPOLYLINE
  5
96
330
16
100
AcDbEntity
  8
0
  6
ByBlock
 62
     0
380
     1
100
AcDbPolyline
 90
        2
 70
     1
 43
0.5
 10
-0.0625
 20
0.0
 42
1.0
 10
0.0625
 20
0.0
 42
1.0
  0
ENDBLK
  5
5E
330
16
100
AcDbEntity
  8
0
100
AcDbBlockEnd
  0
BLOCK
  5
4D
330
17
100
AcDbEntity
  8
0
100
AcDbBlockBegin
  2
_DATUMBLANK
 70
     0
 10
0.0
 20
0.0
 30
0.0
  3
_DATUMBLANK
  1

  0
LINE
  5
9A
330
17
100
AcDbEntity
  8
0
  6
ByBlock
 62
     0
380
     1
100
AcDbLine
 10
0.0
 20
0.5773502700000001
 30
0.0
 11
-1.0
 21
0.0
 31
0.0
  0
LINE
  5
9B
330
17
100
AcDbEntity
  8
0
  6
ByBlock
 62
     0
380
     1
100
AcDbLine
 10
-1.0
 20
0.0
 30
0.0
 11
0.0
 21
-0.5773502700000001
 31
0.0
  0
LINE
  5
9C
330
17
100
AcDbEntity
  8
0
  6
ByBlock
 62
     0
380
     1
100
AcDbLine
 10
0.0
 20
-0.5773502700000001
 30
0.0
 11
0.0
 21
0.5773502700000001
 31
0.0
  0
ENDBLK
  5
5A
330
17
100
AcDbEntity
  8
0
100
AcDbBlockEnd
  0
BLOCK
  5
4E
330
18
100
AcDbEntity
  8
0
100
AcDbBlockBegin
  2
_DATUMFILLED
 70
     0
 10
0.0
 20
0.0
 30
0.0
  3
_DATUMFILLED
  1

  0
SOLID
  5
9D
330
18
100
AcDbEntity
  8
0
  6
ByBlock
 62
     0
380
     1
100
AcDbTrace
 10
0.0
 20
0.5773502700000001
 30
0.0
 11
-1.0
 21
0.0
 31
0.0
 12
0.0
 22
-0.5773502700000001
 32
0.0
 13
0.0
 23
-0.5773502700000001
 33
0.0
  0
ENDBLK
  5
5B
330
18
100
AcDbEntity
  8
0
100
AcDbBlockEnd
  0
BLOCK
  5
4F
330
19
100
AcDbEntity
  8
0
100
AcDbBlockBegin
  2
_ORIGIN
 70
     0
 10
0.0
 20
0.0
 30
0.0
  3
_ORIGIN
  1

  0
CIRCLE
  5
9E
330
19
100
AcDbEntity
  8
0
  6
ByBlock
 62
     0
380
     1
100
AcDbCircle
 10
0.0
 20
0.0
 30
0.0
 40
0.5
  0
LINE
  5
9F
330
19
100
AcDbEntity
  8
0
  6
ByBlock
 62
     0
380
     1
100
AcDbLine
 10
0.0
 20
0.0
 30
0.0
 11
-1.0
 21
0.0
 31
0.0
  0
ENDBLK
  5
65
330
19
100
AcDbEntity
  8
0
100
AcDbBlockEnd
  0
BLOCK
  5
50
330
1A
100
AcDbEntity
  8
0
100
AcDbBlockBegin
  2
_NONE
 70
     0
 10
0.0
 20
0.0
 30
0.0
  3
_NONE
  1

  0
CIRCLE
  5
A0
330
1A
100
AcDbEntity
  8
0
  6
ByBlock
 62
     0
380
     1
100
AcDbCircle
 10
0.0
 20
0.0
 30
0.0
 40
0.25
  0
ENDBLK
  5
60
330
1A
100
AcDbEntity
  8
0
100
AcDbBlockEnd
  0
BLOCK
  5
51
330
1B
100
AcDbEntity
  8
0
100
AcDbBlockBegin
  2
_DOTBLANK
 70
     0
 10
0.0
 20
0.0
 30
0.0
  3
_DOTBLANK
  1

  0
CIRCLE
  5
A1
330
1B
100
AcDbEntity
  8
0
  6
ByBlock
 62
     0
380
     1
100
AcDbCircle
 10
0.0
 20
0.0
 30
0.0
 40
0.5
  0
LINE
  5
A2
330
1B
100
AcDbEntity
  8
0
  6
ByBlock
 62
     0
380
     1
100
AcDbLine
 10
-0.5
 20
0.0
 30
0.0
 11
-1.0
 21
0.0
 31
0.0
  0
ENDBLK
  5
5D
330
1B
100
AcDbEntity
  8
0
100
AcDbBlockEnd
  0
BLOCK
  5
52
330
1C
100
AcDbEntity
  8
0
100
AcDbBlockBegin
  2
_INTEGRAL
 70
     0
 10
0.0
 20
0.0
 30
0.0
  3
_INTEGRAL
  1

  0
ARC
  5
A3
330
1C
100
AcDbEntity
  8
0
  6
ByBlock
 62
     0
380
     1
100
AcDbCircle
 10
0.444888
 20
-0.091335
 30
0.0
 40
0.454167
100
AcDbArc
 50
102.0
 51
168.0
  0
ARC
  5
A4
330
1C
100
AcDbEntity
  8
0
  6
ByBlock
 62
     0
380
     1
100
AcDbCircle
 10
-0.444888
 20
0.091335
 30
0.0
 40
0.454167
100
AcDbArc
 50
282.0
 51
348.0
  0
ENDBLK
  5
5F
330
1C
100
AcDbEntity
  8
0
100
AcDbBlockEnd
  0
BLOCK
  5
B35
330
B2D
100
AcDbEntity
  8
0
100
AcDbBlockBegin
  2
A$C130B57D2
 70
     0
 10
0.0
 20
0.0
 30
0.0
  3
A$C130B57D2
  1

  0
TEXT
  5
B2E
330
B2D
100
AcDbEntity
  8
LEVEL001
 62
     7
100
AcDbText
 10
-32.64491543920001
 20
1.833333333340021
 30
0.0
 40
3.0
  1
令和　　年　　月　　日
 41
0.8
 72
     1
 11
-17.2849154392
 21
3.333333333340021
 31
0.0
100
AcDbText
 73
     2
  0
TEXT
  5
B2F
330
B2D
100
AcDbEntity
  8
LEVEL001
 62
     7
100
AcDbText
 10
-97.80352811570004
 20
45.2067590062245
 30
0.0
 40
3.0
  1
※カラーバリエーションはカタログ参照願います
 41
0.8
100
AcDbText
  0
TEXT
  5
B30
330
B2D
100
AcDbEntity
  8
LEVEL001
 62
     7
100
AcDbText
 10
-97.80352811570004
 20
41.2067590062245
 30
0.0
 40
3.0
  1
※本製品は予告無しに変更する事があります。
 41
0.8
100
AcDbText
  0
LINE
  5
B31
330
B2D
100
AcDbEntity
  8
LEVEL001
  6
Continuous
 62
     3
100
AcDbLine
 10
-100.0
 20
51.34590242265199
 30
0.0
 11
0.0
 21
51.34590242265199
 31
0.0
  0
TEXT
  5
B32
330
B2D
100
AcDbEntity
  8
LEVEL001
 62
     7
100
AcDbText
 10
-32.64491543920006
 20
8.50000000000648
 30
0.0
 40
3.0
  1
令和　２年　４月　１日
 41
0.8
 72
     1
 11
-17.28491543920006
 21
10.00000000000648
 31
0.0
100
AcDbText
 73
     2
  0
ENDBLK
  5
B36
330
B2D
100
AcDbEntity
  8
0
100
AcDbBlockEnd
  0
BLOCK
  5
B63
330
B62
100
AcDbEntity
  8
0
100
AcDbBlockBegin
  2
*D18
 70
     1
 10
0.0
 20
0.0
 30
0.0
  3
*D18
  1

  0
LINE
  5
B64
330
B62
100
AcDbEntity
  8
0
  6
Continuous
 62
     7
440
 16777216
370
    -2
100
AcDbLine
 10
55.0714817259525
 20
47.21687938485097
 30
0.0
 11
48.11222487659012
 21
41.50997618744145
 31
0.0
  0
LINE
  5
B65
330
B62
100
AcDbEntity
  8
0
  6
Continuous
 62
     7
440
 16777216
370
    -2
100
AcDbLine
 10
41.92621878826908
 20
36.43717334530055
 30
0.0
 11
40.37971726618855
 21
35.1689726347651
 31
0.0
  0
MTEXT
  5
B66
330
B62
100
AcDbEntity
  8
0
  6
Continuous
 62
     7
440
 16777216
370
    15
100
AcDbMText
 10
50.77985317414227
 20
46.9306550440146
 30
0.0
 40
3.0
 41
0.0
 46
0.0
 71
     5
 72
     1
  1
\A1;%%c4
  7
GMM001
 11
0.7732507610402638
 21
0.6341003552677233
 31
0.0
 73
     1
 44
1.0
  0
LINE
  5
B67
330
B62
100
AcDbEntity
  8
0
  6
Continuous
 62
     7
440
 16777216
370
    -2
100
AcDbLine
 10
43.4727203103496
 20
37.705374055836
 30
0.0
 11
46.56572335450959
 21
40.24177547690601
 31
0.0
  0
SOLID
  5
B68
330
B62
100
AcDbEntity
  8
0
  6
Continuous
 62
     7
440
 16777216
100
AcDbTrace
 10
41.71485200317984
 20
36.69492359898064
 30
0.0
 11
42.13758557335832
 21
36.17942309162046
 31
0.0
 12
43.4727203103496
 22
37.705374055836
 32
0.0
 13
43.4727203103496
 23
37.705374055836
 33
0.0
  0
SOLID
  5
B69
330
B62
100
AcDbEntity
  8
0
  6
Continuous
 62
     7
440
 16777216
100
AcDbTrace
 10
47.90085809150087
 20
41.76772644112154
 30
0.0
 11
48.32359166167936
 21
41.25222593376137
 31
0.0
 12
46.56572335450959
 22
40.24177547690601
 32
0.0
 13
46.56572335450959
 23
40.24177547690601
 33
0.0
  0
POINT
  5
B6A
330
B62
100
AcDbEntity
  8
Defpoints
  6
Continuous
 62
     0
440
 16777216
100
AcDbPoint
 10
46.56572335450959
 20
40.24177547690601
 30
0.0
  0
POINT
  5
B6B
330
B62
100
AcDbEntity
  8
Defpoints
  6
Continuous
 62
     0
440
 16777216
100
AcDbPoint
 10
43.4727203103496
 20
37.705374055836
 30
0.0
  0
ENDBLK
  5
B6C
330
B62
100
AcDbEntity
  8
0
100
AcDbBlockEnd
  0
BLOCK
  5
B6E
330
B6D
100
AcDbEntity
  8
0
100
AcDbBlockBegin
  2
*D19
 70
     1
 10
0.0
 20
0.0
 30
0.0
  3
*D19
  1

  0
LINE
  5
B6F
330
B6D
100
AcDbEntity
  8
0
  6
Continuous
 62
     7
440
 16777216
370
    -2
100
AcDbLine
 10
55.0714817259525
 20
332.216879384849
 30
0.0
 11
48.11222487659015
 21
326.5099761874395
 31
0.0
  0
LINE
  5
B70
330
B6D
100
AcDbEntity
  8
0
  6
Continuous
 62
     7
440
 16777216
370
    -2
100
AcDbLine
 10
41.92621878826907
 20
321.4371733452986
 30
0.0
 11
40.37971726618855
 21
320.1689726347631
 31
0.0
  0
MTEXT
  5
B71
330
B6D
100
AcDbEntity
  8
0
  6
Continuous
 62
     7
440
 16777216
370
    15
100
AcDbMText
 10
50.77985317414226
 20
331.9306550440127
 30
0.0
 40
3.0
 41
0.0
 46
0.0
 71
     5
 72
     1
  1
\A1;%%c4
  7
GMM001
 11
0.7732507610402616
 21
0.6341003552677261
 31
0.0
 73
     1
 44
1.0
  0
LINE
  5
B72
330
B6D
100
AcDbEntity
  8
0
  6
Continuous
 62
     7
440
 16777216
370
    -2
100
AcDbLine
 10
43.47272031034958
 20
322.705374055834
 30
0.0
 11
46.56572335450962
 21
325.2417754769041
 31
0.0
  0
SOLID
  5
B73
330
B6D
100
AcDbEntity
  8
0
  6
Continuous
 62
     7
440
 16777216
100
AcDbTrace
 10
41.7148520031798
 20
321.6949235989787
 30
0.0
 11
42.13758557335831
 21
321.1794230916185
 31
0.0
 12
43.47272031034958
 22
322.705374055834
 32
0.0
 13
43.47272031034958
 23
322.705374055834
 33
0.0
  0
SOLID
  5
B74
330
B6D
100
AcDbEntity
  8
0
  6
Continuous
 62
     7
440
 16777216
100
AcDbTrace
 10
47.90085809150087
 20
326.7677264411196
 30
0.0
 11
48.32359166167939
 21
326.2522259337594
 31
0.0
 12
46.56572335450962
 22
325.2417754769041
 32
0.0
 13
46.56572335450962
 23
325.2417754769041
 33
0.0
  0
POINT
  5
B75
330
B6D
100
AcDbEntity
  8
Defpoints
  6
Continuous
 62
     0
440
 16777216
100
AcDbPoint
 10
46.56572335450962
 20
325.2417754769041
 30
0.0
  0
POINT
  5
B76
330
B6D
100
AcDbEntity
  8
Defpoints
  6
Continuous
 62
     0
440
 16777216
100
AcDbPoint
 10
43.47272031034958
 20
322.705374055834
 30
0.0
  0
ENDBLK
  5
B77
330
B6D
100
AcDbEntity
  8
0
100
AcDbBlockEnd
  0
BLOCK
  5
B79
330
B78
100
AcDbEntity
  8
0
100
AcDbBlockBegin
  2
*D20
 70
     1
 10
0.0
 20
0.0
 30
0.0
  3
*D20
  1

  0
LINE
  5
B7A
330
B78
100
AcDbEntity
  8
0
  6
Continuous
 62
     7
440
 16777216
370
    -2
100
AcDbLine
 10
55.07148172595265
 20
629.2168793848487
 30
0.0
 11
48.11222487659023
 21
623.5099761874394
 31
0.0
  0
LINE
  5
B7B
330
B78
100
AcDbEntity
  8
0
  6
Continuous
 62
     7
440
 16777216
370
    -2
100
AcDbLine
 10
41.92621878826907
 20
618.4371733452985
 30
0.0
 11
40.37971726618855
 21
617.1689726347631
 31
0.0
  0
MTEXT
  5
B7C
330
B78
100
AcDbEntity
  8
0
  6
Continuous
 62
     7
440
 16777216
370
    15
100
AcDbMText
 10
50.77985317414243
 20
628.9306550440125
 30
0.0
 40
3.0
 41
0.0
 46
0.0
 71
     5
 72
     1
  1
\A1;%%c4
  7
GMM001
 11
0.7732507610402728
 21
0.6341003552677123
 31
0.0
 73
     1
 44
1.0
  0
LINE
  5
B7D
330
B78
100
AcDbEntity
  8
0
  6
Continuous
 62
     7
440
 16777216
370
    -2
100
AcDbLine
 10
43.47272031034964
 20
619.705374055834
 30
0.0
 11
46.56572335450966
 21
622.241775476904
 31
0.0
  0
SOLID
  5
B7E
330
B78
100
AcDbEntity
  8
0
  6
Continuous
 62
     7
440
 16777216
100
AcDbTrace
 10
41.71485200317983
 20
618.6949235989787
 30
0.0
 11
42.13758557335831
 21
618.1794230916184
 31
0.0
 12
43.47272031034964
 22
619.705374055834
 32
0.0
 13
43.47272031034964
 23
619.705374055834
 33
0.0
  0
SOLID
  5
B7F
330
B78
100
AcDbEntity
  8
0
  6
Continuous
 62
     7
440
 16777216
100
AcDbTrace
 10
47.90085809150099
 20
623.7677264411195
 30
0.0
 11
48.32359166167947
 21
623.2522259337592
 31
0.0
 12
46.56572335450966
 22
622.241775476904
 32
0.0
 13
46.56572335450966
 23
622.241775476904
 33
0.0
  0
POINT
  5
B80
330
B78
100
AcDbEntity
  8
Defpoints
  6
Continuous
 62
     0
440
 16777216
100
AcDbPoint
 10
46.56572335450966
 20
622.241775476904
 30
0.0
  0
POINT
  5
B81
330
B78
100
AcDbEntity
  8
Defpoints
  6
Continuous
 62
     0
440
 16777216
100
AcDbPoint
 10
43.47272031034964
 20
619.705374055834
 30
0.0
  0
ENDBLK
  5
B82
330
B78
100
AcDbEntity
  8
0
100
AcDbBlockEnd
  0
BLOCK
  5
1862
330
1861
100
AcDbEntity
  8
0
100
AcDbBlockBegin
  2
*D22
 70
     1
 10
0.0
 20
0.0
 30
0.0
  3
*D22
  1

  0
LINE
  5
1882
330
1861
100
AcDbEntity
  8
0
  6
Continuous
 62
     7
440
 16777216
370
    -2
100
AcDbLine
 10
570.3027642126734
 20
47.21687938485092
 30
0.0
 11
563.3435073633109
 21
41.50997618744145
 31
0.0
  0
LINE
  5
1883
330
1861
100
AcDbEntity
  8
0
  6
Continuous
 62
     7
440
 16777216
370
    -2
100
AcDbLine
 10
557.1575012749899
 20
36.43717334530055
 30
0.0
 11
555.6109997529094
 21
35.16897263476511
 31
0.0
  0
MTEXT
  5
1884
330
1861
100
AcDbEntity
  8
0
  6
Continuous
 62
     7
440
 16777216
370
    15
100
AcDbMText
 10
566.0111356608631
 20
46.93065504401451
 30
0.0
 40
3.0
 41
0.0
 46
0.0
 71
     5
 72
     1
  1
\A1;%%c4
  7
GMM001
 11
0.7732507610402663
 21
0.6341003552677206
 31
0.0
 73
     1
 44
1.0
  0
LINE
  5
1885
330
1861
100
AcDbEntity
  8
0
  6
Continuous
 62
     7
440
 16777216
370
    -2
100
AcDbLine
 10
558.7040027970703
 20
37.70537405583599
 30
0.0
 11
561.7970058412304
 21
40.24177547690601
 31
0.0
  0
SOLID
  5
1886
330
1861
100
AcDbEntity
  8
0
  6
Continuous
 62
     7
440
 16777216
100
AcDbTrace
 10
556.9461344899007
 20
36.69492359898064
 30
0.0
 11
557.3688680600792
 21
36.17942309162046
 31
0.0
 12
558.7040027970703
 22
37.70537405583599
 32
0.0
 13
558.7040027970703
 23
37.70537405583599
 33
0.0
  0
SOLID
  5
1887
330
1861
100
AcDbEntity
  8
0
  6
Continuous
 62
     7
440
 16777216
100
AcDbTrace
 10
563.1321405782217
 20
41.76772644112154
 30
0.0
 11
563.5548741484001
 21
41.25222593376136
 31
0.0
 12
561.7970058412304
 22
40.24177547690601
 32
0.0
 13
561.7970058412304
 23
40.24177547690601
 33
0.0
  0
POINT
  5
1888
330
1861
100
AcDbEntity
  8
Defpoints
  6
Continuous
 62
     0
440
 16777216
100
AcDbPoint
 10
561.7970058412304
 20
40.24177547690601
 30
0.0
  0
POINT
  5
1889
330
1861
100
AcDbEntity
  8
Defpoints
  6
Continuous
 62
     0
440
 16777216
100
AcDbPoint
 10
558.7040027970703
 20
37.70537405583599
 30
0.0
  0
ENDBLK
  5
1863
330
1861
100
AcDbEntity
  8
0
100
AcDbBlockEnd
  0
BLOCK
  5
186D
330
186C
100
AcDbEntity
  8
0
100
AcDbBlockBegin
  2
*D23
 70
     1
 10
0.0
 20
0.0
 30
0.0
  3
*D23
  1

  0
LINE
  5
188A
330
186C
100
AcDbEntity
  8
0
  6
Continuous
 62
     7
440
 16777216
370
    -2
100
AcDbLine
 10
570.3027642126733
 20
332.2168793848492
 30
0.0
 11
563.3435073633109
 21
326.5099761874396
 31
0.0
  0
LINE
  5
188B
330
186C
100
AcDbEntity
  8
0
  6
Continuous
 62
     7
440
 16777216
370
    -2
100
AcDbLine
 10
557.1575012749899
 20
321.4371733452986
 30
0.0
 11
555.6109997529094
 21
320.1689726347631
 31
0.0
  0
MTEXT
  5
188C
330
186C
100
AcDbEntity
  8
0
  6
Continuous
 62
     7
440
 16777216
370
    15
100
AcDbMText
 10
566.0111356608631
 20
331.9306550440128
 30
0.0
 40
3.0
 41
0.0
 46
0.0
 71
     5
 72
     1
  1
\A1;%%c4
  7
GMM001
 11
0.7732507610402589
 21
0.6341003552677296
 31
0.0
 73
     1
 44
1.0
  0
LINE
  5
188D
330
186C
100
AcDbEntity
  8
0
  6
Continuous
 62
     7
440
 16777216
370
    -2
100
AcDbLine
 10
558.7040027970703
 20
322.705374055834
 30
0.0
 11
561.7970058412304
 21
325.2417754769041
 31
0.0
  0
SOLID
  5
188E
330
186C
100
AcDbEntity
  8
0
  6
Continuous
 62
     7
440
 16777216
100
AcDbTrace
 10
556.9461344899007
 20
321.6949235989787
 30
0.0
 11
557.3688680600792
 21
321.1794230916185
 31
0.0
 12
558.7040027970703
 22
322.705374055834
 32
0.0
 13
558.7040027970703
 23
322.705374055834
 33
0.0
  0
SOLID
  5
188F
330
186C
100
AcDbEntity
  8
0
  6
Continuous
 62
     7
440
 16777216
100
AcDbTrace
 10
563.1321405782217
 20
326.7677264411196
 30
0.0
 11
563.5548741484002
 21
326.2522259337595
 31
0.0
 12
561.7970058412304
 22
325.2417754769041
 32
0.0
 13
561.7970058412304
 23
325.2417754769041
 33
0.0
  0
POINT
  5
1890
330
186C
100
AcDbEntity
  8
Defpoints
  6
Continuous
 62
     0
440
 16777216
100
AcDbPoint
 10
561.7970058412304
 20
325.2417754769041
 30
0.0
  0
POINT
  5
1891
330
186C
100
AcDbEntity
  8
Defpoints
  6
Continuous
 62
     0
440
 16777216
100
AcDbPoint
 10
558.7040027970703
 20
322.705374055834
 30
0.0
  0
ENDBLK
  5
186E
330
186C
100
AcDbEntity
  8
0
100
AcDbBlockEnd
  0
BLOCK
  5
1878
330
1877
100
AcDbEntity
  8
0
100
AcDbBlockBegin
  2
*D24
 70
     1
 10
0.0
 20
0.0
 30
0.0
  3
*D24
  1

  0
LINE
  5
18AA
330
1877
100
AcDbEntity
  8
0
  6
Continuous
 62
     7
440
 16777216
370
    -2
100
AcDbLine
 10
568.7562626905928
 20
627.9486786743127
 30
0.0
 11
562.5702566022705
 21
622.8758758321713
 31
0.0
  0
LINE
  5
18AB
330
1877
100
AcDbEntity
  8
0
  6
Continuous
 62
     7
440
 16777216
370
    -2
100
AcDbLine
 10
557.9307520360298
 20
619.071273700566
 30
0.0
 11
557.1575012749895
 21
618.4371733452984
 31
0.0
  0
MTEXT
  5
18AC
330
1877
100
AcDbEntity
  8
0
  6
Continuous
 62
     7
440
 16777216
370
    15
100
AcDbMText
 10
564.4646341387825
 20
627.6624543334766
 30
0.0
 40
3.0
 41
0.0
 46
0.0
 71
     5
 72
     1
  1
\A1;%%c4
  7
GMM001
 11
0.7732507610402976
 21
0.6341003552676821
 31
0.0
 73
     1
 44
1.0
  0
LINE
  5
18AD
330
1877
100
AcDbEntity
  8
0
  6
Continuous
 62
     7
440
 16777216
370
    -2
100
AcDbLine
 10
558.7040027970699
 20
619.7053740558337
 30
0.0
 11
561.7970058412302
 21
622.2417754769036
 31
0.0
  0
INSERT
  5
18AE
330
1877
100
AcDbEntity
  8
0
  6
Continuous
 62
     7
440
 16777216
370
    -2
100
AcDbBlockReference
  2
_DOT
 10
558.7040027970699
 20
619.7053740558337
 30
0.0
 50
39.35329139206362
  0
INSERT
  5
18AF
330
1877
100
AcDbEntity
  8
0
  6
Continuous
 62
     7
440
 16777216
370
    -2
100
AcDbBlockReference
  2
_DOT
 10
561.7970058412302
 20
622.2417754769036
 30
0.0
 50
219.3532913920636
  0
POINT
  5
18B0
330
1877
100
AcDbEntity
  8
Defpoints
  6
Continuous
 62
     0
440
 16777216
100
AcDbPoint
 10
561.7970058412302
 20
622.2417754769036
 30
0.0
  0
POINT
  5
18B1
330
1877
100
AcDbEntity
  8
Defpoints
  6
Continuous
 62
     0
440
 16777216
100
AcDbPoint
 10
558.7040027970699
 20
619.7053740558337
 30
0.0
  0
ENDBLK
  5
1879
330
1877
100
AcDbEntity
  8
0
100
AcDbBlockEnd
  0
BLOCK
  5
18B7
330
18B6
100
AcDbEntity
  8
0
100
AcDbBlockBegin
  2
*D25
 70
     1
 10
0.0
 20
0.0
 30
0.0
  3
*D25
  1

  0
LINE
  5
18C1
330
18B6
100
AcDbEntity
  8
0
  6
Continuous
 62
     7
440
 16777216
370
    -2
100
AcDbLine
 10
568.7562626905927
 20
330.9486786743128
 30
0.0
 11
562.5702566022704
 21
325.8758758321714
 31
0.0
  0
LINE
  5
18C2
330
18B6
100
AcDbEntity
  8
0
  6
Continuous
 62
     7
440
 16777216
370
    -2
100
AcDbLine
 10
557.9307520360297
 20
322.0712737005662
 30
0.0
 11
557.1575012749895
 21
321.4371733452984
 31
0.0
  0
MTEXT
  5
18C3
330
18B6
100
AcDbEntity
  8
0
  6
Continuous
 62
     7
440
 16777216
370
    15
100
AcDbMText
 10
564.4646341387825
 20
330.6624543334766
 30
0.0
 40
3.0
 41
0.0
 46
0.0
 71
     5
 72
     1
  1
\A1;%%c4
  7
GMM001
 11
0.7732507610402976
 21
0.6341003552676821
 31
0.0
 73
     1
 44
1.0
  0
LINE
  5
18C4
330
18B6
100
AcDbEntity
  8
0
  6
Continuous
 62
     7
440
 16777216
370
    -2
100
AcDbLine
 10
558.70400279707
 20
322.7053740558339
 30
0.0
 11
561.7970058412301
 21
325.2417754769036
 31
0.0
  0
INSERT
  5
18C5
330
18B6
100
AcDbEntity
  8
0
  6
Continuous
 62
     7
440
 16777216
370
    -2
100
AcDbBlockReference
  2
_DOT
 10
558.70400279707
 20
322.7053740558339
 30
0.0
 50
39.35329139206362
  0
INSERT
  5
18C6
330
18B6
100
AcDbEntity
  8
0
  6
Continuous
 62
     7
440
 16777216
370
    -2
100
AcDbBlockReference
  2
_DOT
 10
561.7970058412301
 20
325.2417754769036
 30
0.0
 50
219.3532913920636
  0
POINT
  5
18C7
330
18B6
100
AcDbEntity
  8
Defpoints
  6
Continuous
 62
     0
440
 16777216
100
AcDbPoint
 10
561.7970058412301
 20
325.2417754769036
 30
0.0
  0
POINT
  5
18C8
330
18B6
100
AcDbEntity
  8
Defpoints
  6
Continuous
 62
     0
440
 16777216
100
AcDbPoint
 10
558.70400279707
 20
322.7053740558339
 30
0.0
  0
ENDBLK
  5
18B8
330
18B6
100
AcDbEntity
  8
0
100
AcDbBlockEnd
  0
BLOCK
  5
18CE
330
18CD
100
AcDbEntity
  8
0
100
AcDbBlockBegin
  2
*D26
 70
     1
 10
0.0
 20
0.0
 30
0.0
  3
*D26
  1

  0
LINE
  5
18D8
330
18CD
100
AcDbEntity
  8
0
  6
Continuous
 62
     7
440
 16777216
370
    -2
100
AcDbLine
 10
568.7562626905928
 20
45.94867867431477
 30
0.0
 11
562.5702566022704
 21
40.8758758321733
 31
0.0
  0
LINE
  5
18D9
330
18CD
100
AcDbEntity
  8
0
  6
Continuous
 62
     7
440
 16777216
370
    -2
100
AcDbLine
 10
557.9307520360297
 20
37.07127370056813
 30
0.0
 11
557.1575012749893
 21
36.43717334530041
 31
0.0
  0
MTEXT
  5
18DA
330
18CD
100
AcDbEntity
  8
0
  6
Continuous
 62
     7
440
 16777216
370
    15
100
AcDbMText
 10
564.4646341387825
 20
45.66245433347861
 30
0.0
 40
3.0
 41
0.0
 46
0.0
 71
     5
 72
     1
  1
\A1;%%c4
  7
GMM001
 11
0.7732507610402976
 21
0.6341003552676821
 31
0.0
 73
     1
 44
1.0
  0
LINE
  5
18DB
330
18CD
100
AcDbEntity
  8
0
  6
Continuous
 62
     7
440
 16777216
370
    -2
100
AcDbLine
 10
558.7040027970699
 20
37.70537405583579
 30
0.0
 11
561.7970058412301
 21
40.24177547690564
 31
0.0
  0
INSERT
  5
18DC
330
18CD
100
AcDbEntity
  8
0
  6
Continuous
 62
     7
440
 16777216
370
    -2
100
AcDbBlockReference
  2
_DOT
 10
558.7040027970699
 20
37.70537405583579
 30
0.0
 50
39.35329139206362
  0
INSERT
  5
18DD
330
18CD
100
AcDbEntity
  8
0
  6
Continuous
 62
     7
440
 16777216
370
    -2
100
AcDbBlockReference
  2
_DOT
 10
561.7970058412301
 20
40.24177547690564
 30
0.0
 50
219.3532913920636
  0
POINT
  5
18DE
330
18CD
100
AcDbEntity
  8
Defpoints
  6
Continuous
 62
     0
440
 16777216
100
AcDbPoint
 10
561.7970058412301
 20
40.24177547690564
 30
0.0
  0
POINT
  5
18DF
330
18CD
100
AcDbEntity
  8
Defpoints
  6
Continuous
 62
     0
440
 16777216
100
AcDbPoint
 10
558.7040027970699
 20
37.70537405583579
 30
0.0
  0
ENDBLK
  5
18CF
330
18CD
100
AcDbEntity
  8
0
100
AcDbBlockEnd
  0
BLOCK
  5
18F3
330
18F2
100
AcDbEntity
  8
0
100
AcDbBlockBegin
  2
*D27
 70
     1
 10
0.0
 20
0.0
 30
0.0
  3
*D27
  1

  0
LINE
  5
1913
330
18F2
100
AcDbEntity
  8
0
  6
Continuous
 62
     7
440
 16777216
370
    -2
100
AcDbLine
 10
53.52498020387208
 20
627.9486786743127
 30
0.0
 11
47.33897411554972
 21
622.8758758321712
 31
0.0
  0
LINE
  5
1914
330
18F2
100
AcDbEntity
  8
0
  6
Continuous
 62
     7
440
 16777216
370
    -2
100
AcDbLine
 10
42.69946954930901
 20
619.071273700566
 30
0.0
 11
41.92621878826867
 21
618.4371733452983
 31
0.0
  0
MTEXT
  5
1915
330
18F2
100
AcDbEntity
  8
0
  6
Continuous
 62
     7
440
 16777216
370
    15
100
AcDbMText
 10
49.2333516520618
 20
627.6624543334766
 30
0.0
 40
3.0
 41
0.0
 46
0.0
 71
     5
 72
     1
  1
\A1;%%c4
  7
GMM001
 11
0.7732507610402976
 21
0.6341003552676821
 31
0.0
 73
     1
 44
1.0
  0
LINE
  5
1916
330
18F2
100
AcDbEntity
  8
0
  6
Continuous
 62
     7
440
 16777216
370
    -2
100
AcDbLine
 10
43.4727203103493
 20
619.7053740558337
 30
0.0
 11
46.56572335450943
 21
622.2417754769034
 31
0.0
  0
INSERT
  5
1917
330
18F2
100
AcDbEntity
  8
0
  6
Continuous
 62
     7
440
 16777216
370
    -2
100
AcDbBlockReference
  2
_DOT
 10
43.4727203103493
 20
619.7053740558337
 30
0.0
 50
39.35329139206362
  0
INSERT
  5
1918
330
18F2
100
AcDbEntity
  8
0
  6
Continuous
 62
     7
440
 16777216
370
    -2
100
AcDbBlockReference
  2
_DOT
 10
46.56572335450943
 20
622.2417754769034
 30
0.0
 50
219.3532913920636
  0
POINT
  5
1919
330
18F2
100
AcDbEntity
  8
Defpoints
  6
Continuous
 62
     0
440
 16777216
100
AcDbPoint
 10
46.56572335450943
 20
622.2417754769034
 30
0.0
  0
POINT
  5
191A
330
18F2
100
AcDbEntity
  8
Defpoints
  6
Continuous
 62
     0
440
 16777216
100
AcDbPoint
 10
43.4727203103493
 20
619.7053740558337
 30
0.0
  0
ENDBLK
  5
18F4
330
18F2
100
AcDbEntity
  8
0
100
AcDbBlockEnd
  0
BLOCK
  5
18FE
330
18FD
100
AcDbEntity
  8
0
100
AcDbBlockBegin
  2
*D28
 70
     1
 10
0.0
 20
0.0
 30
0.0
  3
*D28
  1

  0
LINE
  5
191B
330
18FD
100
AcDbEntity
  8
0
  6
Continuous
 62
     7
440
 16777216
370
    -2
100
AcDbLine
 10
53.52498020387196
 20
330.9486786743128
 30
0.0
 11
47.33897411554957
 21
325.8758758321714
 31
0.0
  0
LINE
  5
191C
330
18FD
100
AcDbEntity
  8
0
  6
Continuous
 62
     7
440
 16777216
370
    -2
100
AcDbLine
 10
42.69946954930896
 20
322.0712737005662
 30
0.0
 11
41.92621878826864
 21
321.4371733452986
 31
0.0
  0
MTEXT
  5
191D
330
18FD
100
AcDbEntity
  8
0
  6
Continuous
 62
     7
440
 16777216
370
    15
100
AcDbMText
 10
49.23335165206174
 20
330.6624543334766
 30
0.0
 40
3.0
 41
0.0
 46
0.0
 71
     5
 72
     1
  1
\A1;%%c4
  7
GMM001
 11
0.7732507610403005
 21
0.6341003552676786
 31
0.0
 73
     1
 44
1.0
  0
LINE
  5
191E
330
18FD
100
AcDbEntity
  8
0
  6
Continuous
 62
     7
440
 16777216
370
    -2
100
AcDbLine
 10
43.47272031034925
 20
322.7053740558339
 30
0.0
 11
46.56572335450926
 21
325.2417754769036
 31
0.0
  0
INSERT
  5
191F
330
18FD
100
AcDbEntity
  8
0
  6
Continuous
 62
     7
440
 16777216
370
    -2
100
AcDbBlockReference
  2
_DOT
 10
43.47272031034925
 20
322.7053740558339
 30
0.0
 50
39.35329139206338
  0
INSERT
  5
1920
330
18FD
100
AcDbEntity
  8
0
  6
Continuous
 62
     7
440
 16777216
370
    -2
100
AcDbBlockReference
  2
_DOT
 10
46.56572335450926
 20
325.2417754769036
 30
0.0
 50
219.3532913920634
  0
POINT
  5
1921
330
18FD
100
AcDbEntity
  8
Defpoints
  6
Continuous
 62
     0
440
 16777216
100
AcDbPoint
 10
46.56572335450926
 20
325.2417754769036
 30
0.0
  0
POINT
  5
1922
330
18FD
100
AcDbEntity
  8
Defpoints
  6
Continuous
 62
     0
440
 16777216
100
AcDbPoint
 10
43.47272031034925
 20
322.7053740558339
 30
0.0
  0
ENDBLK
  5
18FF
330
18FD
100
AcDbEntity
  8
0
100
AcDbBlockEnd
  0
BLOCK
  5
1909
330
1908
100
AcDbEntity
  8
0
100
AcDbBlockBegin
  2
*D29
 70
     1
 10
0.0
 20
0.0
 30
0.0
  3
*D29
  1

  0
LINE
  5
1923
330
1908
100
AcDbEntity
  8
0
  6
Continuous
 62
     7
440
 16777216
370
    -2
100
AcDbLine
 10
53.52498020387193
 20
45.94867867431477
 30
0.0
 11
47.33897411554955
 21
40.87587583217333
 31
0.0
  0
LINE
  5
1924
330
1908
100
AcDbEntity
  8
0
  6
Continuous
 62
     7
440
 16777216
370
    -2
100
AcDbLine
 10
42.69946954930882
 20
37.0712737005681
 30
0.0
 11
41.92621878826853
 21
36.43717334530042
 31
0.0
  0
MTEXT
  5
1925
330
1908
100
AcDbEntity
  8
0
  6
Continuous
 62
     7
440
 16777216
370
    15
100
AcDbMText
 10
49.23335165206168
 20
45.66245433347862
 30
0.0
 40
3.0
 41
0.0
 46
0.0
 71
     5
 72
     1
  1
\A1;%%c4
  7
GMM001
 11
0.7732507610402976
 21
0.6341003552676821
 31
0.0
 73
     1
 44
1.0
  0
LINE
  5
1926
330
1908
100
AcDbEntity
  8
0
  6
Continuous
 62
     7
440
 16777216
370
    -2
100
AcDbLine
 10
43.47272031034912
 20
37.70537405583578
 30
0.0
 11
46.56572335450926
 21
40.24177547690564
 31
0.0
  0
INSERT
  5
1927
330
1908
100
AcDbEntity
  8
0
  6
Continuous
 62
     7
440
 16777216
370
    -2
100
AcDbBlockReference
  2
_DOT
 10
43.47272031034912
 20
37.70537405583578
 30
0.0
 50
39.35329139206362
  0
INSERT
  5
1928
330
1908
100
AcDbEntity
  8
0
  6
Continuous
 62
     7
440
 16777216
370
    -2
100
AcDbBlockReference
  2
_DOT
 10
46.56572335450926
 20
40.24177547690564
 30
0.0
 50
219.3532913920636
  0
POINT
  5
1929
330
1908
100
AcDbEntity
  8
Defpoints
  6
Continuous
 62
     0
440
 16777216
100
AcDbPoint
 10
46.56572335450926
 20
40.24177547690564
 30
0.0
  0
POINT
  5
192A
330
1908
100
AcDbEntity
  8
Defpoints
  6
Continuous
 62
     0
440
 16777216
100
AcDbPoint
 10
43.47272031034912
 20
37.70537405583578
 30
0.0
  0
ENDBLK
  5
190A
330
1908
100
AcDbEntity
  8
0
100
AcDbBlockEnd
  0
ENDSEC
  0
SECTION
  2
ENTITIES
  0
TEXT
  5
A5
330
A
100
AcDbEntity
  8
LEVEL001
 62
     7
100
AcDbText
 10
326.40000000003
 20
16.375000000002
 30
0.0
 40
3.75
  1
Ａ３
 41
0.8
 72
     1
 11
329.50000000003
 21
18.250000000002
 31
0.0
100
AcDbText
 73
     2
  0
LWPOLYLINE
  5
A8
330
A
100
AcDbEntity
  8
LEVEL001
  6
Continuous
 62
     3
370
    40
100
AcDbPolyline
 90
        5
 70
     0
 43
0.0
 10
15.500000000027
 20
12.000000000002
 10
404.50000000003
 20
12.000000000002
 10
404.50000000003
 20
285.0
 10
15.500000000027
 20
285.0
 10
15.500000000027
 20
12.000000000002
  0
LINE
  5
AF
330
A
100
AcDbEntity
  8
LEVEL001
  6
Continuous
 62
     3
370
    40
100
AcDbLine
 10
304.50000000003
 20
285.0
 30
0.0
 11
304.50000000003
 21
12.000000000002
 31
0.0
  0
LWPOLYLINE
  5
B0
102
{ACAD_REACTORS
330
A76
102
}
330
A
100
AcDbEntity
  8
LEVEL001
  6
Continuous
 62
     3
100
AcDbPolyline
 90
        6
 70
     0
 43
0.0
 10
344.15000000004
 20
272.075
 10
336.95000000004
 20
272.075
 10
336.95000000004
 20
261.275
 10
340.55000000004
 20
261.275
 10
340.55000000004
 20
263.075
 10
344.15000000004
 20
263.075
  0
ARC
  5
B8
330
A
100
AcDbEntity
  8
LEVEL001
  6
Continuous
 62
     3
100
AcDbCircle
 10
344.15000000004
 20
267.575
 30
0.0
 40
4.5
100
AcDbArc
 50
270.0
 51
90.0
  0
LINE
  5
B9
330
A
100
AcDbEntity
  8
LEVEL001
  6
Continuous
 62
     3
100
AcDbLine
 10
340.55000000004
 20
266.675
 30
0.0
 11
344.15000000004
 21
266.675
 31
0.0
  0
ARC
  5
BA
330
A
100
AcDbEntity
  8
LEVEL001
  6
Continuous
 62
     3
100
AcDbCircle
 10
344.15000000004
 20
267.575
 30
0.0
 40
0.9
100
AcDbArc
 50
270.0
 51
90.0
  0
LINE
  5
BB
330
A
100
AcDbEntity
  8
LEVEL001
  6
Continuous
 62
     3
100
AcDbLine
 10
344.15000000004
 20
268.475
 30
0.0
 11
340.55000000004
 21
268.475
 31
0.0
  0
LINE
  5
BC
330
A
100
AcDbEntity
  8
LEVEL001
  6
Continuous
 62
     3
100
AcDbLine
 10
340.55000000004
 20
268.475
 30
0.0
 11
340.55000000004
 21
266.675
 31
0.0
  0
LWPOLYLINE
  5
BD
102
{ACAD_REACTORS
330
A76
102
}
330
A
100
AcDbEntity
  8
LEVEL001
  6
Continuous
 62
     3
100
AcDbPolyline
 90
       26
 70
     0
 43
0.0
 10
345.95000000004
 20
261.275
 10
353.15000000004
 20
272.075
 10
362.15000000004
 20
272.075
 10
362.15000000004
 20
264.875
 10
367.55000000004
 20
264.875
 10
367.55000000004
 20
268.475
 10
363.95000000004
 20
268.475
 10
363.95000000004
 20
272.075
 10
385.55000000004
 20
272.075
 10
385.55000000004
 20
268.475
 10
378.35000000004
 20
268.475
 10
378.35000000004
 20
267.575
 10
384.65000000004
 20
267.575
 10
384.65000000004
 20
265.775
 10
378.35000000004
 20
265.775
 10
378.35000000004
 20
264.875
 10
385.55000000004
 20
264.875
 10
385.55000000004
 20
261.275
 10
374.75000000004
 20
261.275
 10
374.75000000004
 20
268.475
 10
371.15000000004
 20
268.475
 10
371.15000000004
 20
261.275
 10
358.55000000004
 20
261.275
 10
358.55000000004
 20
272.075
 10
351.35000000004
 20
261.275
 10
345.95000000004
 20
261.275
  0
LWPOLYLINE
  5
D9
102
{ACAD_REACTORS
330
A76
102
}
330
A
100
AcDbEntity
  8
LEVEL001
  6
Continuous
 62
     3
100
AcDbPolyline
 90
        4
 70
     0
 43
0.0
 10
357.35000000004
 20
268.11166923472
 10
352.79222051023
 20
261.275
 10
357.35000000004
 20
261.275
 10
357.35000000004
 20
268.11166923472
  0
ARC
  5
DF
330
A
100
AcDbEntity
  8
LEVEL001
  6
Continuous
 62
     3
100
AcDbCircle
 10
390.95000000004
 20
266.675
 30
0.0
 40
5.4
100
AcDbArc
 50
90.0
 51
270.0
  0
ARC
  5
E0
330
A
100
AcDbEntity
  8
LEVEL001
  6
Continuous
 62
     3
100
AcDbCircle
 10
390.95000000004
 20
266.675
 30
0.0
 40
1.8
100
AcDbArc
 50
90.0
 51
270.0
  0
LWPOLYLINE
  5
E1
102
{ACAD_REACTORS
330
A76
102
}
330
A
100
AcDbEntity
  8
LEVEL001
  6
Continuous
 62
     3
100
AcDbPolyline
 90
        4
 70
     0
 43
0.0
 10
390.95000000004
 20
272.075
 10
396.35000000004
 20
272.075
 10
396.35000000004
 20
268.475
 10
390.95000000004
 20
268.475
  0
LINE
  5
E7
330
A
100
AcDbEntity
  8
LEVEL001
  6
Continuous
 62
     3
100
AcDbLine
 10
336.95000000004
 20
272.075
 30
0.0
 11
336.95000000004
 21
261.275
 31
0.0
  0
LINE
  5
E8
330
A
100
AcDbEntity
  8
LEVEL001
  6
Continuous
 62
     3
100
AcDbLine
 10
336.95000000004
 20
261.275
 30
0.0
 11
340.55000000004
 21
261.275
 31
0.0
  0
LINE
  5
E9
330
A
100
AcDbEntity
  8
LEVEL001
  6
Continuous
 62
     3
100
AcDbLine
 10
340.55000000004
 20
261.275
 30
0.0
 11
340.55000000004
 21
263.075
 31
0.0
  0
LINE
  5
EA
330
A
100
AcDbEntity
  8
LEVEL001
  6
Continuous
 62
     3
100
AcDbLine
 10
340.55000000004
 20
263.075
 30
0.0
 11
344.15000000004
 21
263.075
 31
0.0
  0
ARC
  5
EB
102
{ACAD_REACTORS
330
A76
102
}
330
A
100
AcDbEntity
  8
LEVEL001
  6
Continuous
 62
     3
100
AcDbCircle
 10
344.15000000004
 20
267.575
 30
0.0
 40
4.5
100
AcDbArc
 50
270.0
 51
90.0
  0
LINE
  5
EC
102
{ACAD_REACTORS
330
A76
102
}
330
A
100
AcDbEntity
  8
LEVEL001
  6
Continuous
 62
     3
100
AcDbLine
 10
344.15000000004
 20
272.075
 30
0.0
 11
336.95000000004
 21
272.075
 31
0.0
  0
LINE
  5
ED
102
{ACAD_REACTORS
330
A76
102
}
330
A
100
AcDbEntity
  8
LEVEL001
  6
Continuous
 62
     3
100
AcDbLine
 10
340.55000000004
 20
268.475
 30
0.0
 11
340.55000000004
 21
266.675
 31
0.0
  0
LINE
  5
EE
102
{ACAD_REACTORS
330
A76
102
}
330
A
100
AcDbEntity
  8
LEVEL001
  6
Continuous
 62
     3
100
AcDbLine
 10
340.55000000004
 20
266.675
 30
0.0
 11
344.15000000004
 21
266.675
 31
0.0
  0
ARC
  5
EF
102
{ACAD_REACTORS
330
A76
102
}
330
A
100
AcDbEntity
  8
LEVEL001
  6
Continuous
 62
     3
100
AcDbCircle
 10
344.15000000004
 20
267.575
 30
0.0
 40
0.9
100
AcDbArc
 50
270.0
 51
90.0
  0
LINE
  5
F0
102
{ACAD_REACTORS
330
A76
102
}
330
A
100
AcDbEntity
  8
LEVEL001
  6
Continuous
 62
     3
100
AcDbLine
 10
344.15000000004
 20
268.475
 30
0.0
 11
340.55000000004
 21
268.475
 31
0.0
  0
LINE
  5
F1
330
A
100
AcDbEntity
  8
LEVEL001
  6
Continuous
 62
     3
100
AcDbLine
 10
353.15000000004
 20
272.075
 30
0.0
 11
345.95000000004
 21
261.275
 31
0.0
  0
LINE
  5
F2
330
A
100
AcDbEntity
  8
LEVEL001
  6
Continuous
 62
     3
100
AcDbLine
 10
345.95000000004
 20
261.275
 30
0.0
 11
351.35000000004
 21
261.275
 31
0.0
  0
LINE
  5
F3
102
{ACAD_REACTORS
330
A76
102
}
330
A
100
AcDbEntity
  8
LEVEL001
  6
Continuous
 62
     3
100
AcDbLine
 10
351.35000000004
 20
261.275
 30
0.0
 11
358.55000000004
 21
272.075
 31
0.0
  0
LINE
  5
F4
330
A
100
AcDbEntity
  8
LEVEL001
  6
Continuous
 62
     3
100
AcDbLine
 10
358.55000000004
 20
272.075
 30
0.0
 11
353.15000000004
 21
272.075
 31
0.0
  0
LINE
  5
F5
330
A
100
AcDbEntity
  8
LEVEL001
  6
Continuous
 62
     3
100
AcDbLine
 10
357.35000000004
 20
261.275
 30
0.0
 11
357.35000000004
 21
268.11166923472
 31
0.0
  0
LINE
  5
F6
102
{ACAD_REACTORS
330
A76
102
}
330
A
100
AcDbEntity
  8
LEVEL001
  6
Continuous
 62
     3
100
AcDbLine
 10
357.35000000004
 20
268.11166923472
 30
0.0
 11
352.79222051023
 21
261.275
 31
0.0
  0
LINE
  5
F7
330
A
100
AcDbEntity
  8
LEVEL001
  6
Continuous
 62
     3
100
AcDbLine
 10
352.79222051023
 20
261.275
 30
0.0
 11
357.35000000004
 21
261.275
 31
0.0
  0
LINE
  5
F8
102
{ACAD_REACTORS
330
A76
102
}
330
A
100
AcDbEntity
  8
LEVEL001
  6
Continuous
 62
     3
100
AcDbLine
 10
358.55000000004
 20
261.275
 30
0.0
 11
371.15000000004
 21
261.275
 31
0.0
  0
LINE
  5
F9
330
A
100
AcDbEntity
  8
LEVEL001
  6
Continuous
 62
     3
100
AcDbLine
 10
371.15000000004
 20
261.275
 30
0.0
 11
371.15000000004
 21
268.475
 31
0.0
  0
LINE
  5
FA
330
A
100
AcDbEntity
  8
LEVEL001
  6
Continuous
 62
     3
100
AcDbLine
 10
371.15000000004
 20
268.475
 30
0.0
 11
374.75000000004
 21
268.475
 31
0.0
  0
LINE
  5
FB
330
A
100
AcDbEntity
  8
LEVEL001
  6
Continuous
 62
     3
100
AcDbLine
 10
374.75000000004
 20
268.475
 30
0.0
 11
374.75000000004
 21
261.275
 31
0.0
  0
LINE
  5
FC
330
A
100
AcDbEntity
  8
LEVEL001
  6
Continuous
 62
     3
100
AcDbLine
 10
374.75000000004
 20
261.275
 30
0.0
 11
385.55000000004
 21
261.275
 31
0.0
  0
LINE
  5
FD
330
A
100
AcDbEntity
  8
LEVEL001
  6
Continuous
 62
     3
100
AcDbLine
 10
385.55000000004
 20
261.275
 30
0.0
 11
385.55000000004
 21
264.875
 31
0.0
  0
LINE
  5
FE
330
A
100
AcDbEntity
  8
LEVEL001
  6
Continuous
 62
     3
100
AcDbLine
 10
385.55000000004
 20
264.875
 30
0.0
 11
378.35000000004
 21
264.875
 31
0.0
  0
LINE
  5
FF
330
A
100
AcDbEntity
  8
LEVEL001
  6
Continuous
 62
     3
100
AcDbLine
 10
378.35000000004
 20
264.875
 30
0.0
 11
378.35000000004
 21
265.775
 31
0.0
  0
LINE
  5
100
330
A
100
AcDbEntity
  8
LEVEL001
  6
Continuous
 62
     3
100
AcDbLine
 10
378.35000000004
 20
265.775
 30
0.0
 11
384.65000000004
 21
265.775
 31
0.0
  0
LINE
  5
101
330
A
100
AcDbEntity
  8
LEVEL001
  6
Continuous
 62
     3
100
AcDbLine
 10
384.65000000004
 20
265.775
 30
0.0
 11
384.65000000004
 21
267.575
 31
0.0
  0
LINE
  5
102
330
A
100
AcDbEntity
  8
LEVEL001
  6
Continuous
 62
     3
100
AcDbLine
 10
384.65000000004
 20
267.575
 30
0.0
 11
378.35000000004
 21
267.575
 31
0.0
  0
LINE
  5
103
330
A
100
AcDbEntity
  8
LEVEL001
  6
Continuous
 62
     3
100
AcDbLine
 10
378.35000000004
 20
267.575
 30
0.0
 11
378.35000000004
 21
268.475
 31
0.0
  0
LINE
  5
104
330
A
100
AcDbEntity
  8
LEVEL001
  6
Continuous
 62
     3
100
AcDbLine
 10
378.35000000004
 20
268.475
 30
0.0
 11
385.55000000004
 21
268.475
 31
0.0
  0
LINE
  5
105
330
A
100
AcDbEntity
  8
LEVEL001
  6
Continuous
 62
     3
100
AcDbLine
 10
385.55000000004
 20
268.475
 30
0.0
 11
385.55000000004
 21
272.075
 31
0.0
  0
LINE
  5
106
330
A
100
AcDbEntity
  8
LEVEL001
  6
Continuous
 62
     3
100
AcDbLine
 10
385.55000000004
 20
272.075
 30
0.0
 11
363.95000000004
 21
272.075
 31
0.0
  0
LINE
  5
107
330
A
100
AcDbEntity
  8
LEVEL001
  6
Continuous
 62
     3
100
AcDbLine
 10
363.95000000004
 20
272.075
 30
0.0
 11
363.95000000004
 21
268.475
 31
0.0
  0
LINE
  5
108
330
A
100
AcDbEntity
  8
LEVEL001
  6
Continuous
 62
     3
100
AcDbLine
 10
363.95000000004
 20
268.475
 30
0.0
 11
367.55000000004
 21
268.475
 31
0.0
  0
LINE
  5
109
330
A
100
AcDbEntity
  8
LEVEL001
  6
Continuous
 62
     3
100
AcDbLine
 10
367.55000000004
 20
268.475
 30
0.0
 11
367.55000000004
 21
264.875
 31
0.0
  0
LINE
  5
10A
330
A
100
AcDbEntity
  8
LEVEL001
  6
Continuous
 62
     3
100
AcDbLine
 10
367.55000000004
 20
264.875
 30
0.0
 11
362.15000000004
 21
264.875
 31
0.0
  0
LINE
  5
10B
330
A
100
AcDbEntity
  8
LEVEL001
  6
Continuous
 62
     3
100
AcDbLine
 10
362.15000000004
 20
264.875
 30
0.0
 11
362.15000000004
 21
272.075
 31
0.0
  0
LINE
  5
10C
330
A
100
AcDbEntity
  8
LEVEL001
  6
Continuous
 62
     3
100
AcDbLine
 10
362.15000000004
 20
272.075
 30
0.0
 11
358.55000000004
 21
272.075
 31
0.0
  0
LINE
  5
10D
330
A
100
AcDbEntity
  8
LEVEL001
  6
Continuous
 62
     3
100
AcDbLine
 10
358.55000000004
 20
272.075
 30
0.0
 11
358.55000000004
 21
261.275
 31
0.0
  0
LINE
  5
10E
102
{ACAD_REACTORS
330
A76
102
}
330
A
100
AcDbEntity
  8
LEVEL001
  6
Continuous
 62
     3
100
AcDbLine
 10
390.95000000004
 20
261.275
 30
0.0
 11
396.35000000004
 21
261.275
 31
0.0
  0
LINE
  5
10F
102
{ACAD_REACTORS
330
A76
102
}
330
A
100
AcDbEntity
  8
LEVEL001
  6
Continuous
 62
     3
100
AcDbLine
 10
396.35000000004
 20
261.275
 30
0.0
 11
396.35000000004
 21
264.875
 31
0.0
  0
LINE
  5
110
102
{ACAD_REACTORS
330
A76
102
}
330
A
100
AcDbEntity
  8
LEVEL001
  6
Continuous
 62
     3
100
AcDbLine
 10
396.35000000004
 20
264.875
 30
0.0
 11
390.95000000004
 21
264.875
 31
0.0
  0
ARC
  5
111
102
{ACAD_REACTORS
330
A76
102
}
330
A
100
AcDbEntity
  8
LEVEL001
  6
Continuous
 62
     3
100
AcDbCircle
 10
390.95000000004
 20
266.675
 30
0.0
 40
1.8
100
AcDbArc
 50
90.0
 51
270.0
  0
LINE
  5
112
102
{ACAD_REACTORS
330
A76
102
}
330
A
100
AcDbEntity
  8
LEVEL001
  6
Continuous
 62
     3
100
AcDbLine
 10
390.95000000004
 20
268.475
 30
0.0
 11
396.35000000004
 21
268.475
 31
0.0
  0
LINE
  5
113
330
A
100
AcDbEntity
  8
LEVEL001
  6
Continuous
 62
     3
100
AcDbLine
 10
396.35000000004
 20
268.475
 30
0.0
 11
396.35000000004
 21
272.075
 31
0.0
  0
LINE
  5
114
330
A
100
AcDbEntity
  8
LEVEL001
  6
Continuous
 62
     3
100
AcDbLine
 10
396.35000000004
 20
272.075
 30
0.0
 11
390.95000000004
 21
272.075
 31
0.0
  0
ARC
  5
115
102
{ACAD_REACTORS
330
A76
102
}
330
A
100
AcDbEntity
  8
LEVEL001
  6
Continuous
 62
     3
100
AcDbCircle
 10
390.95000000004
 20
266.675
 30
0.0
 40
5.4
100
AcDbArc
 50
90.0
 51
270.0
  0
TEXT
  5
116
330
A
100
AcDbEntity
  8
LEVEL001
 62
     3
100
AcDbText
 10
336.95000000004
 20
273.875
 30
0.0
 40
3.75
  1
ケージーパルテック株式会社
 41
0.8
100
AcDbText
  0
LWPOLYLINE
  5
117
102
{ACAD_REACTORS
330
A76
102
}
330
A
100
AcDbEntity
  8
LEVEL001
  6
Continuous
 62
     3
100
AcDbPolyline
 90
        4
 70
     0
 43
0.0
 10
333.35000000004
 20
263.675
 10
328.85000000004
 20
270.875
 10
333.35000000004
 20
270.875
 10
333.35000000004
 20
263.675
  0
LINE
  5
11D
330
A
100
AcDbEntity
  8
LEVEL001
  6
Continuous
 62
     3
100
AcDbLine
 10
328.85000000004
 20
270.875
 30
0.0
 11
333.35000000004
 21
263.675
 31
0.0
  0
LINE
  5
11E
330
A
100
AcDbEntity
  8
LEVEL001
  6
Continuous
 62
     3
100
AcDbLine
 10
333.35000000004
 20
263.675
 30
0.0
 11
333.35000000004
 21
270.875
 31
0.0
  0
LINE
  5
11F
102
{ACAD_REACTORS
330
A76
102
}
330
A
100
AcDbEntity
  8
LEVEL001
  6
Continuous
 62
     3
100
AcDbLine
 10
333.35000000004
 20
270.875
 30
0.0
 11
328.85000000004
 21
270.875
 31
0.0
  0
LWPOLYLINE
  5
120
330
A
100
AcDbEntity
  8
LEVEL001
  6
Continuous
 62
     3
100
AcDbPolyline
 90
        3
 70
     0
 43
0.0
 10
319.05000000004
 20
280.475
 10
312.65000000004
 20
270.875
 10
319.05000000004
 20
261.275
  0
LWPOLYLINE
  5
125
330
A
100
AcDbEntity
  8
LEVEL001
  6
Continuous
 62
     3
100
AcDbPolyline
 90
        3
 70
     0
 43
0.0
 10
324.45000000004
 20
261.275
 10
318.05000000004
 20
270.875
 10
324.45000000004
 20
280.475
  0
LWPOLYLINE
  5
12A
330
A
100
AcDbEntity
  8
LEVEL001
  6
Continuous
 62
     3
100
AcDbPolyline
 90
        3
 70
     0
 43
0.0
 10
327.15000000004
 20
280.475
 10
320.75000000004
 20
270.875
 10
327.15000000004
 20
261.275
  0
LWPOLYLINE
  5
12F
330
A
100
AcDbEntity
  8
LEVEL001
  6
Continuous
 62
     3
100
AcDbPolyline
 90
        3
 70
     0
 43
0.0
 10
332.55000000004
 20
261.275
 10
326.15000000004
 20
270.875
 10
332.55000000004
 20
280.475
  0
LWPOLYLINE
  5
134
102
{ACAD_REACTORS
330
A76
102
}
330
A
100
AcDbEntity
  8
LEVEL001
  6
Continuous
 62
     3
100
AcDbPolyline
 90
        3
 70
     0
 43
0.0
 10
319.05000000004
 20
261.275
 10
312.65000000004
 20
270.875
 10
319.05000000004
 20
280.475
  0
LINE
  5
139
102
{ACAD_REACTORS
330
A76
102
}
330
A
100
AcDbEntity
  8
LEVEL001
  6
Continuous
 62
     3
100
AcDbLine
 10
319.05000000004
 20
280.475
 30
0.0
 11
324.45000000004
 21
280.475
 31
0.0
  0
LWPOLYLINE
  5
13A
102
{ACAD_REACTORS
330
A76
102
}
330
A
100
AcDbEntity
  8
LEVEL001
  6
Continuous
 62
     3
100
AcDbPolyline
 90
        3
 70
     0
 43
0.0
 10
324.45000000004
 20
280.475
 10
318.05000000004
 20
270.875
 10
324.45000000004
 20
261.275
  0
LINE
  5
13F
102
{ACAD_REACTORS
330
A76
102
}
330
A
100
AcDbEntity
  8
LEVEL001
  6
Continuous
 62
     3
100
AcDbLine
 10
324.45000000004
 20
261.275
 30
0.0
 11
319.05000000004
 21
261.275
 31
0.0
  0
LWPOLYLINE
  5
140
102
{ACAD_REACTORS
330
A76
102
}
330
A
100
AcDbEntity
  8
LEVEL001
  6
Continuous
 62
     3
100
AcDbPolyline
 90
        3
 70
     0
 43
0.0
 10
327.15000000004
 20
261.275
 10
320.75000000004
 20
270.875
 10
327.15000000004
 20
280.475
  0
LINE
  5
145
102
{ACAD_REACTORS
330
A76
102
}
330
A
100
AcDbEntity
  8
LEVEL001
  6
Continuous
 62
     3
100
AcDbLine
 10
327.15000000004
 20
280.475
 30
0.0
 11
332.55000000004
 21
280.475
 31
0.0
  0
LWPOLYLINE
  5
146
102
{ACAD_REACTORS
330
A76
102
}
330
A
100
AcDbEntity
  8
LEVEL001
  6
Continuous
 62
     3
100
AcDbPolyline
 90
        3
 70
     0
 43
0.0
 10
332.55000000004
 20
280.475
 10
326.15000000004
 20
270.875
 10
332.55000000004
 20
261.275
  0
LINE
  5
14B
102
{ACAD_REACTORS
330
A76
102
}
330
A
100
AcDbEntity
  8
LEVEL001
  6
Continuous
 62
     3
100
AcDbLine
 10
332.55000000004
 20
261.275
 30
0.0
 11
327.15000000004
 21
261.275
 31
0.0
  0
LINE
  5
14C
330
A
100
AcDbEntity
  8
LEVEL001
  6
Continuous
 62
     3
100
AcDbLine
 10
304.50000000003
 20
256.75
 30
0.0
 11
404.50000000003
 21
256.75
 31
0.0
  0
LINE
  5
14D
330
A
100
AcDbEntity
  8
LEVEL001
  6
Continuous
 62
     3
100
AcDbLine
 10
304.50000000003
 20
236.75
 30
0.0
 11
404.50000000003
 21
236.75
 31
0.0
  0
LINE
  5
14E
330
A
100
AcDbEntity
  8
LEVEL001
  6
Continuous
 62
     3
100
AcDbLine
 10
304.50000000003
 20
216.75
 30
0.0
 11
404.50000000003
 21
216.75
 31
0.0
  0
TEXT
  5
14F
330
A
100
AcDbEntity
  8
LEVEL001
 62
     3
100
AcDbText
 10
305.84000000003
 20
251.5
 30
0.0
 40
3.0
  1
商品名：
 41
0.8
 72
     1
 11
310.80000000003
 21
253.0
 31
0.0
100
AcDbText
 73
     2
  0
TEXT
  5
150
330
A
100
AcDbEntity
  8
LEVEL001
 62
     3
100
AcDbText
 10
305.78000000003
 20
231.5
 30
0.0
 40
3.0
  1
形式：
 41
0.8
 72
     1
 11
309.30000000003
 21
233.0
 31
0.0
100
AcDbText
 73
     2
  0
TEXT
  5
151
330
A
100
AcDbEntity
  8
LEVEL001
 62
     3
100
AcDbText
 10
305.78000000003
 20
211.5
 30
0.0
 40
3.0
  1
仕様：
 41
0.8
 72
     1
 11
309.30000000003
 21
213.0
 31
0.0
100
AcDbText
 73
     2
  0
LINE
  5
152
330
A
100
AcDbEntity
  8
LEVEL001
  6
Continuous
 62
     3
100
AcDbLine
 10
304.50000000003
 20
72.000000000002
 30
0.0
 11
404.50000000003
 21
72.000000000002
 31
0.0
  0
TEXT
  5
153
330
A
100
AcDbEntity
  8
LEVEL001
 62
     3
100
AcDbText
 10
305.82000000003
 20
66.750000000002
 30
0.0
 40
3.0
  1
図面名称：
 41
0.8
 72
     1
 11
312.30000000003
 21
68.250000000002
 31
0.0
100
AcDbText
 73
     2
  0
LINE
  5
154
330
A
100
AcDbEntity
  8
LEVEL001
  6
Continuous
 62
     3
100
AcDbLine
 10
304.50000000003
 20
52.000000000002
 30
0.0
 11
404.50000000003
 21
52.000000000002
 31
0.0
  0
TEXT
  5
155
330
A
100
AcDbEntity
  8
LEVEL001
 62
     3
100
AcDbText
 10
305.78000000003
 20
46.75000000000199
 30
0.0
 40
3.0
  1
縮尺：
 41
0.8
 72
     1
 11
309.30000000003
 21
48.250000000002
 31
0.0
100
AcDbText
 73
     2
  0
LINE
  5
156
330
A
100
AcDbEntity
  8
LEVEL001
  6
Continuous
 62
     3
100
AcDbLine
 10
304.50000000003
 20
32.000000000002
 30
0.0
 11
404.50000000003
 21
32.000000000002
 31
0.0
  0
TEXT
  5
157
330
A
100
AcDbEntity
  8
LEVEL001
 62
     3
100
AcDbText
 10
305.9600000000301
 20
27.221535228628
 30
0.0
 40
3.0
  1
用紙サイズ：
 41
0.8
 72
     1
 11
313.80000000003
 21
28.721535228628
 31
0.0
100
AcDbText
 73
     2
  0
TEXT
  5
158
330
A
100
AcDbEntity
  8
LEVEL001
 62
     3
100
AcDbText
 10
356.3266666666967
 20
47.266666666669
 30
0.0
 40
2.799999999999999
  1
作成日付：
 41
0.8
 72
     1
 11
362.30000000003
 21
48.666666666669
 31
0.0
100
AcDbText
 73
     2
  0
TEXT
  5
159
330
A
100
AcDbEntity
  8
LEVEL001
 62
     3
100
AcDbText
 10
356.3266666666967
 20
40.600000000002
 30
0.0
 40
2.799999999999999
  1
変更日付：
 41
0.8
 72
     1
 11
362.30000000003
 21
42.000000000002
 31
0.0
100
AcDbText
 73
     2
  0
LINE
  5
15A
330
A
100
AcDbEntity
  8
LEVEL001
  6
Continuous
 62
     3
100
AcDbLine
 10
354.50000000003
 20
45.333333333336
 30
0.0
 11
404.50000000003
 21
45.333333333336
 31
0.0
  0
TEXT
  5
15B
330
A
100
AcDbEntity
  8
LEVEL001
 62
     3
100
AcDbText
 10
355.88000000003
 20
26.750000000002
 30
0.0
 40
3.0
  1
ファイル名：
 41
0.8
 72
     1
 11
363.80000000003
 21
28.250000000002
 31
0.0
100
AcDbText
 73
     2
  0
LINE
  5
15C
330
A
100
AcDbEntity
  8
LEVEL001
  6
Continuous
 62
     3
100
AcDbLine
 10
354.50000000003
 20
52.000000000002
 30
0.0
 11
354.50000000003
 21
12.000000000002
 31
0.0
  0
LINE
  5
15D
330
A
100
AcDbEntity
  8
LEVEL001
  6
Continuous
 62
     3
100
AcDbLine
 10
354.50000000003
 20
38.666666666669
 30
0.0
 11
404.50000000003
 21
38.666666666669
 31
0.0
  0
TEXT
  5
15E
330
A
100
AcDbEntity
  8
LEVEL001
 62
     7
100
AcDbText
 10
321.30000000003
 20
36.375000000002
 30
0.0
 40
3.75
  1
Ｓ＝１：１　
 41
0.8
 72
     1
 11
329.50000000003
 21
38.250000000002
 31
0.0
100
AcDbText
 73
     2
  0
LWPOLYLINE
  5
15F
330
A
100
AcDbEntity
  8
0
  6
DOT
 62
     3
100
AcDbPolyline
 90
        5
 70
     0
 43
0.0
 10
0.0
 20
0.0
 10
420.0
 20
0.0
 10
420.0
 20
297.0
 10
0.0
 20
297.0
 10
0.0
 20
0.0
  0
TEXT
  5
167
330
A
100
AcDbEntity
  8
LEVEL001
 62
     7
100
AcDbText
 10
343.40000000003
 20
56.375000000002
 30
0.0
 40
3.75
  1
平面図･断面図
 41
0.8
 72
     1
 11
354.50000000003
 21
58.250000000002
 31
0.0
100
AcDbText
 73
     2
  0
TEXT
  5
168
330
A
100
AcDbEntity
  8
LEVEL001
 62
     8
100
AcDbText
 10
320.33487664471
 20
240.45460526316
 30
0.0
 40
4.5
  1
コーナープロテクター(硬質タイプ)
 41
0.8
 72
     1
 11
354.77487664471
 21
242.70460526316
 31
0.0
100
AcDbText
 73
     2
  0
TEXT
  5
169
330
A
100
AcDbEntity
  8
LEVEL001
 62
     7
100
AcDbText
 10
371.85508456083
 20
47.166666666669
 30
0.0
 40
3.0
  1
平成２６年１０月３１日
 41
0.8
 72
     1
 11
387.21508456083
 21
48.666666666669
 31
0.0
100
AcDbText
 73
     2
  0
TEXT
  5
16A
330
A
100
AcDbEntity
  8
LEVEL001
 62
     7
100
AcDbText
 10
371.30000000003
 20
16.375000000002
 30
0.0
 40
3.75
  1
ＣＰＶ－１
 41
0.8
 72
     1
 11
379.50000000003
 21
18.250000000002
 31
0.0
100
AcDbText
 73
     2
  0
ARC
  5
16B
330
A
100
AcDbEntity
  8
LEVEL001
  6
Continuous
 62
     1
100
AcDbCircle
 10
99.157037166866
 20
233.24807093572
 30
0.0
 40
1.5
100
AcDbArc
 50
224.99999999995
 51
291.0375110254
  0
ARC
  5
16C
330
A
100
AcDbEntity
  8
LEVEL001
  6
Continuous
 62
     1
100
AcDbCircle
 10
103.38186557511
 20
233.2658832146
 30
0.0
 40
1.5
100
AcDbArc
 50
44.999999999993
 51
111.03751102541
  0
LINE
  5
16D
330
A
100
AcDbEntity
  8
LEVEL001
  6
Continuous
 62
     1
100
AcDbLine
 10
103.38186557511
 20
233.2658832146
 30
0.0
 11
99.695505785829
 21
231.84805252642
 31
0.0
  0
LINE
  5
16E
330
A
100
AcDbEntity
  8
LEVEL001
  6
Continuous
 62
     1
100
AcDbLine
 10
106.93521175992
 20
229.71253702979
 30
0.0
 11
103.38186557511
 21
233.2658832146
 31
0.0
  0
LINE
  5
16F
330
A
100
AcDbEntity
  8
LEVEL001
  6
Continuous
 62
     1
100
AcDbLine
 10
109.05653210348
 20
229.71253702979
 30
0.0
 11
104.44252574689
 21
234.32654338638
 31
0.0
  0
ARC
  5
170
330
A
100
AcDbEntity
  8
LEVEL001
  6
Continuous
 62
     1
100
AcDbCircle
 10
107.9958719317
 20
228.65187685801
 30
0.0
 40
1.5
100
AcDbArc
 50
135.0
 51
44.999999999998
  0
LWPOLYLINE
  5
171
330
A
100
AcDbEntity
  8
LEVEL001
  6
Continuous
 62
     1
100
AcDbPolyline
 90
        3
 70
     0
 43
0.0
 10
96.540742076475
 20
235.86436602611
 10
96.11647800776301
 20
235.86436602611
 10
96.11647800776301
 20
236.28863009483
  0
LWPOLYLINE
  5
176
330
A
100
AcDbEntity
  8
LEVEL001
  6
Continuous
 62
     1
100
AcDbPolyline
 90
        3
 70
     0
 43
0.0
 10
102.84339695614
 20
234.66590162391
 10
99.157037166865
 20
233.24807093572
 10
96.540742076475
 20
235.86436602611
  0
LINE
  5
17B
330
A
100
AcDbEntity
  8
LEVEL001
  6
Continuous
 62
     1
100
AcDbLine
 10
96.11647800776301
 20
236.28863009483
 30
0.0
 11
81.090280340849
 21
251.31482776174
 31
0.0
  0
LINE
  5
17C
330
A
100
AcDbEntity
  8
LEVEL001
  6
Continuous
 62
     1
100
AcDbLine
 10
98.096376995086
 20
232.18741076394
 30
0.0
 11
80.02962016914899
 21
250.25416758988
 31
0.0
  0
LINE
  5
17D
330
A
100
AcDbEntity
  8
LEVEL001
  6
Continuous
 62
     3
370
    30
100
AcDbLine
 10
106.77582753624
 20
224.84248167333
 30
0.0
 11
108.67546401589
 21
225.21848864822
 31
0.0
  0
LINE
  5
17E
330
A
100
AcDbEntity
  8
LEVEL001
  6
Continuous
 62
     3
370
    30
100
AcDbLine
 10
106.38748920241
 20
226.8044177932
 30
0.0
 11
108.28712568207
 21
227.1804247681
 31
0.0
  0
ARC
  5
17F
330
A
100
AcDbEntity
  8
LEVEL001
  6
Continuous
 62
     3
370
    30
100
AcDbCircle
 10
106.58165836932
 20
225.82344973326
 30
0.0
 40
1.0
100
AcDbArc
 50
101.19619272995
 51
281.19619272996
  0
ARC
  5
180
330
A
100
AcDbEntity
  8
LEVEL001
  6
Continuous
 62
     3
370
    30
100
AcDbCircle
 10
107.9958719317
 20
228.65187685801
 30
0.0
 40
3.5
100
AcDbArc
 50
281.18999999768
 51
45.000000000008
  0
ARC
  5
181
330
A
100
AcDbEntity
  8
LEVEL001
  6
Continuous
 62
     3
370
    30
100
AcDbCircle
 10
107.9958719317
 20
228.65187685801
 30
0.0
 40
1.5
100
AcDbArc
 50
281.19619272993
 51
45.000000000054
  0
LINE
  5
182
330
A
100
AcDbEntity
  8
LEVEL001
  6
Continuous
 62
     3
370
    30
100
AcDbLine
 10
110.47074566585
 20
231.12675059216
 30
0.0
 11
83.247134590341
 21
258.35036166767
 31
0.0
  0
LINE
  5
183
330
A
100
AcDbEntity
  8
LEVEL001
  6
Continuous
 62
     3
370
    30
100
AcDbLine
 10
81.832921027968
 20
256.9361481053
 30
0.0
 11
109.05653210348
 21
229.71253702979
 31
0.0
  0
LINE
  5
184
330
A
100
AcDbEntity
  8
LEVEL001
  6
Continuous
 62
     1
100
AcDbLine
 10
81.090280340849
 20
251.31482776174
 30
0.0
 11
81.090280340849
 21
252.69350741818
 31
0.0
  0
ARC
  5
185
330
A
100
AcDbEntity
  8
LEVEL001
  6
Continuous
 62
     1
100
AcDbCircle
 10
81.09028034092899
 20
251.31482776166
 30
0.0
 40
1.5
100
AcDbArc
 50
180.00000000331
 51
224.99999999998
  0
LINE
  5
186
330
A
100
AcDbEntity
  8
LEVEL001
  6
Continuous
 62
     1
100
AcDbLine
 10
79.590280340929
 20
251.31482776157
 30
0.0
 11
79.59028034084901
 21
252.6935074183
 31
0.0
  0
ARC
  5
187
330
A
100
AcDbEntity
  8
LEVEL001
  6
Continuous
 62
     1
100
AcDbCircle
 10
77.590280340849
 20
252.69350741831
 30
0.0
 40
3.5
100
AcDbArc
 50
0.0
 51
180.0
  0
ARC
  5
188
330
A
100
AcDbEntity
  8
LEVEL001
  6
Continuous
 62
     1
100
AcDbCircle
 10
77.590280340849
 20
252.69350741831
 30
0.0
 40
2.0
100
AcDbArc
 50
0.0
 51
180.0
  0
LINE
  5
189
330
A
100
AcDbEntity
  8
LEVEL001
  6
Continuous
 62
     1
100
AcDbLine
 10
57.084183686612
 20
232.18741076394
 30
0.0
 11
75.150940512548
 21
250.25416758988
 31
0.0
  0
ARC
  5
18A
330
A
100
AcDbEntity
  8
LEVEL001
  6
Continuous
 62
     1
100
AcDbCircle
 10
74.090280340769
 20
251.31482776166
 30
0.0
 40
1.5
100
AcDbArc
 50
315.00000000003
 51
0.0
  0
LINE
  5
18B
330
A
100
AcDbEntity
  8
LEVEL001
  6
Continuous
 62
     1
100
AcDbLine
 10
59.064082673934
 20
236.28863009483
 30
0.0
 11
74.09028034084901
 21
251.31482776174
 31
0.0
  0
LINE
  5
18C
330
A
100
AcDbEntity
  8
LEVEL001
  6
Continuous
 62
     1
100
AcDbLine
 10
74.09028034084901
 20
251.31482776174
 30
0.0
 11
74.09028034084901
 21
252.69350741818
 31
0.0
  0
LINE
  5
18D
330
A
100
AcDbEntity
  8
LEVEL001
  6
Continuous
 62
     1
100
AcDbLine
 10
75.590280340769
 20
251.31482776157
 30
0.0
 11
75.590280340849
 21
252.6935074183
 31
0.0
  0
ARC
  5
18E
330
A
100
AcDbEntity
  8
LEVEL001
  6
Continuous
 62
     3
370
    30
100
AcDbCircle
 10
77.590280340849
 20
252.69350741818
 30
0.0
 40
8.0
100
AcDbArc
 50
45.0
 51
135.0
  0
LINE
  5
18F
330
A
100
AcDbEntity
  8
LEVEL001
  6
Continuous
 62
     3
370
    30
100
AcDbLine
 10
44.709815015848
 20
231.12675059216
 30
0.0
 11
71.933426091356
 21
258.35036166767
 31
0.0
  0
ARC
  5
190
330
A
100
AcDbEntity
  8
LEVEL001
  6
Continuous
 62
     3
370
    30
100
AcDbCircle
 10
77.590280340849
 20
252.69350741818
 30
0.0
 40
6.0
100
AcDbArc
 50
45.0
 51
135.0
  0
LINE
  5
191
330
A
100
AcDbEntity
  8
LEVEL001
  6
Continuous
 62
     3
370
    30
100
AcDbLine
 10
73.34763965372999
 20
256.9361481053
 30
0.0
 11
46.12402857822099
 21
229.71253702979
 31
0.0
  0
LINE
  5
192
330
A
100
AcDbEntity
  8
LEVEL001
  6
DASHDOT
 62
     6
370
    15
100
AcDbLine
 10
77.590280340849
 20
220.7237658834
 30
0.0
 11
77.590280340849
 21
265.90298951185
 31
0.0
  0
ARC
  5
193
330
A
100
AcDbEntity
  8
LEVEL001
  6
Continuous
 62
     1
100
AcDbCircle
 10
56.023523514833
 20
233.24807093572
 30
0.0
 40
1.5
100
AcDbArc
 50
248.9624889745599
 51
314.99999999995
  0
ARC
  5
194
330
A
100
AcDbEntity
  8
LEVEL001
  6
Continuous
 62
     1
100
AcDbCircle
 10
51.79869510659
 20
233.2658832146
 30
0.0
 40
1.5
100
AcDbArc
 50
68.96248897449701
 51
134.99999999997
  0
LINE
  5
195
330
A
100
AcDbEntity
  8
LEVEL001
  6
Continuous
 62
     1
100
AcDbLine
 10
51.798695106592
 20
233.2658832146
 30
0.0
 11
55.485054895869
 21
231.84805252642
 31
0.0
  0
LINE
  5
196
330
A
100
AcDbEntity
  8
LEVEL001
  6
Continuous
 62
     1
100
AcDbLine
 10
48.24534892178
 20
229.71253702979
 30
0.0
 11
51.798695106592
 21
233.2658832146
 31
0.0
  0
LINE
  5
197
330
A
100
AcDbEntity
  8
LEVEL001
  6
Continuous
 62
     1
100
AcDbLine
 10
46.12402857822
 20
229.71253702979
 30
0.0
 11
50.738034934812
 21
234.32654338638
 31
0.0
  0
ARC
  5
198
330
A
100
AcDbEntity
  8
LEVEL001
  6
Continuous
 62
     1
100
AcDbCircle
 10
47.184688750002
 20
228.65187685801
 30
0.0
 40
1.5
100
AcDbArc
 50
135.00000000008
 51
44.999999999998
  0
LWPOLYLINE
  5
199
330
A
100
AcDbEntity
  8
LEVEL001
  6
Continuous
 62
     1
100
AcDbPolyline
 90
        3
 70
     0
 43
0.0
 10
58.639818605222
 20
235.86436602611
 10
59.064082673934
 20
235.86436602611
 10
59.064082673934
 20
236.28863009483
  0
LWPOLYLINE
  5
19E
330
A
100
AcDbEntity
  8
LEVEL001
  6
Continuous
 62
     1
100
AcDbPolyline
 90
        3
 70
     0
 43
0.0
 10
52.337163725555
 20
234.66590162391
 10
56.023523514832
 20
233.24807093572
 10
58.639818605222
 20
235.86436602611
  0
LINE
  5
1A3
330
A
100
AcDbEntity
  8
LEVEL001
  6
Continuous
 62
     3
370
    30
100
AcDbLine
 10
48.404733145462
 20
224.84248167333
 30
0.0
 11
46.505096665809
 21
225.21848864822
 31
0.0
  0
LINE
  5
1A4
330
A
100
AcDbEntity
  8
LEVEL001
  6
Continuous
 62
     3
370
    30
100
AcDbLine
 10
48.793071479285
 20
226.8044177932
 30
0.0
 11
46.893434999633
 21
227.1804247681
 31
0.0
  0
ARC
  5
1A5
330
A
100
AcDbEntity
  8
LEVEL001
  6
Continuous
 62
     3
370
    30
100
AcDbCircle
 10
48.598902312374
 20
225.82344973326
 30
0.0
 40
1.0
100
AcDbArc
 50
258.80380727004
 51
78.803807270042
  0
ARC
  5
1A6
330
A
100
AcDbEntity
  8
LEVEL001
  6
Continuous
 62
     3
370
    30
100
AcDbCircle
 10
47.184688750001
 20
228.65187685801
 30
0.0
 40
3.5
100
AcDbArc
 50
135.00000000001
 51
258.81000000231
  0
ARC
  5
1A7
330
A
100
AcDbEntity
  8
LEVEL001
  6
Continuous
 62
     3
370
    30
100
AcDbCircle
 10
47.18468874999899
 20
228.65187685801
 30
0.0
 40
1.5
100
AcDbArc
 50
134.99999999993
 51
258.80380727008
  0
ARC
  5
1A8
330
A
100
AcDbEntity
  8
LEVEL002
  6
Continuous
 62
     3
370
    30
100
AcDbCircle
 10
193.07020396774
 20
259.85102341845
 30
0.0
 40
1.0
100
AcDbArc
 50
0.0
 51
89.999999999671
  0
LINE
  5
1A9
330
A
100
AcDbEntity
  8
LEVEL002
  6
Continuous
 62
     3
370
    30
100
AcDbLine
 10
194.07020396775
 20
259.85102341845
 30
0.0
 11
194.07020396775
 21
254.85102341834
 31
0.0
  0
LINE
  5
1AA
330
A
100
AcDbEntity
  8
LEVEL002
  6
Continuous
 62
     3
370
    30
100
AcDbLine
 10
182.07020396775
 20
262.85102341845
 30
0.0
 11
182.07020396775
 21
212.85102341834
 31
0.0
  0
LINE
  5
1AB
330
A
100
AcDbEntity
  8
LEVEL002
  6
Continuous
 62
     3
370
    30
100
AcDbLine
 10
194.07020396775
 20
244.35102341823
 30
0.0
 11
182.07020396775
 21
244.35102341823
 31
0.0
  0
LINE
  5
1AC
330
A
100
AcDbEntity
  8
LEVEL002
  6
Continuous
 62
     3
370
    30
100
AcDbLine
 10
194.07020396775
 20
254.85102341834
 30
0.0
 11
182.07020396775
 21
254.85102341834
 31
0.0
  0
LINE
  5
1AD
330
A
100
AcDbEntity
  8
LEVEL002
  6
Continuous
 62
     3
370
    30
100
AcDbLine
 10
193.07020396775
 20
260.85102341845
 30
0.0
 11
182.07020396775
 21
260.85102341845
 31
0.0
  0
ARC
  5
1AE
330
A
100
AcDbEntity
  8
LEVEL002
  6
Continuous
 62
     3
370
    30
100
AcDbCircle
 10
173.57020396775
 20
214.94906416697
 30
0.0
 40
1.5
100
AcDbArc
 50
180.00000000001
 51
266.00000000011
  0
LINE
  5
1AF
330
A
100
AcDbEntity
  8
LEVEL002
  6
Continuous
 62
     3
370
    30
100
AcDbLine
 10
182.07020396775
 20
212.85102341833
 30
0.0
 11
173.46556925713
 21
213.45271809158
 31
0.0
  0
LINE
  5
1B0
330
A
100
AcDbEntity
  8
LEVEL002
  6
Continuous
 62
     3
370
    30
100
AcDbLine
 10
172.07020396775
 20
214.94906416697
 30
0.0
 11
172.07020396775
 21
260.75298266981
 31
0.0
  0
ARC
  5
1B1
330
A
100
AcDbEntity
  8
LEVEL002
  6
Continuous
 62
     3
370
    30
100
AcDbCircle
 10
173.57020396775
 20
260.75298266981
 30
0.0
 40
1.5
100
AcDbArc
 50
94.00000000000201
 51
180.00000000002
  0
LINE
  5
1B2
330
A
100
AcDbEntity
  8
LEVEL002
  6
Continuous
 62
     3
370
    30
100
AcDbLine
 10
173.46556925713
 20
262.2493287452
 30
0.0
 11
182.07020396775
 21
262.85102341845
 31
0.0
  0
ARC
  5
1B3
330
A
100
AcDbEntity
  8
LEVEL002
  6
Continuous
 62
     3
370
    30
100
AcDbCircle
 10
234.96119568057
 20
254.85102341834
 30
0.0
 40
8.0
100
AcDbArc
 50
90.00000000000099
 51
180.0
  0
ARC
  5
1B4
330
A
100
AcDbEntity
  8
LEVEL002
  6
Continuous
 62
     3
370
    30
100
AcDbCircle
 10
234.96119568057
 20
254.85102341834
 30
0.0
 40
6.0
100
AcDbArc
 50
89.999999999995
 51
134.99999999999
  0
LINE
  5
1B5
330
A
100
AcDbEntity
  8
LEVEL002
  6
Continuous
 62
     3
370
    30
100
AcDbLine
 10
226.96119568057
 20
216.35102341834
 30
0.0
 11
226.96119568057
 21
254.85102341834
 31
0.0
  0
LINE
  5
1B6
330
A
100
AcDbEntity
  8
LEVEL002
  6
Continuous
 62
     3
370
    30
100
AcDbLine
 10
228.96119568057
 20
216.35102341834
 30
0.0
 11
228.96119568057
 21
254.85102341834
 31
0.0
  0
ARC
  5
1B7
330
A
100
AcDbEntity
  8
LEVEL002
  6
Continuous
 62
     3
370
    30
100
AcDbCircle
 10
230.46119568057
 20
216.35102341834
 30
0.0
 40
3.5
100
AcDbArc
 50
180.0
 51
303.68333333
  0
ARC
  5
1B8
330
A
100
AcDbEntity
  8
LEVEL002
  6
Continuous
 62
     3
370
    30
100
AcDbCircle
 10
230.46119568057
 20
216.35102341835
 30
0.0
 40
1.5
100
AcDbArc
 50
180.00000000014
 51
303.68333332984
  0
ARC
  5
1B9
330
A
100
AcDbEntity
  8
LEVEL002
  6
Continuous
 62
     3
370
    30
100
AcDbCircle
 10
234.96119568057
 20
254.85102341834
 30
0.0
 40
6.0
100
AcDbArc
 50
135.0
 51
180.0
  0
LINE
  5
1BA
330
A
100
AcDbEntity
  8
LEVEL002
  6
Continuous
 62
     3
370
    30
100
AcDbLine
 10
230.96119568057
 20
254.85102341834
 30
0.0
 11
228.96119568057
 21
254.85102341834
 31
0.0
  0
ARC
  5
1BB
330
A
100
AcDbEntity
  8
LEVEL002
  6
Continuous
 62
     3
370
    30
100
AcDbCircle
 10
234.96119568057
 20
254.85102341834
 30
0.0
 40
4.0
100
AcDbArc
 50
90.000000000002
 51
180.00000000002
  0
LINE
  5
1BC
330
A
100
AcDbEntity
  8
LEVEL002
  6
Continuous
 62
     3
370
    30
100
AcDbLine
 10
234.96119568057
 20
260.85102341834
 30
0.0
 11
234.96119568057
 21
258.85102341834
 31
0.0
  0
LINE
  5
1BD
330
A
100
AcDbEntity
  8
LEVEL002
  6
Continuous
 62
     3
370
    30
100
AcDbLine
 10
231.29309927799
 20
215.10285019135
 30
0.0
 11
233.46119568057
 21
216.54787974162
 31
0.0
  0
LINE
  5
1BE
330
A
100
AcDbEntity
  8
LEVEL002
  6
Continuous
 62
     3
370
    30
100
AcDbLine
 10
232.40230407456
 20
213.43861922202
 30
0.0
 11
234.96119568057
 21
215.14411256735
 31
0.0
  0
LINE
  5
1BF
330
A
100
AcDbEntity
  8
LEVEL002
  6
Continuous
 62
     3
370
    30
100
AcDbLine
 10
234.96119568057
 20
215.14411256735
 30
0.0
 11
234.96119568057
 21
254.85102341829
 31
0.0
  0
LINE
  5
1C0
330
A
100
AcDbEntity
  8
LEVEL002
  6
Continuous
 62
     3
370
    30
100
AcDbLine
 10
273.46119568067
 20
262.85102341845
 30
0.0
 11
234.96119568067
 21
262.85102341845
 31
0.0
  0
LINE
  5
1C1
330
A
100
AcDbEntity
  8
LEVEL002
  6
Continuous
 62
     3
370
    30
100
AcDbLine
 10
273.46119568067
 20
260.85102341845
 30
0.0
 11
234.96119568067
 21
260.85102341845
 31
0.0
  0
ARC
  5
1C2
330
A
100
AcDbEntity
  8
LEVEL002
  6
Continuous
 62
     3
370
    30
100
AcDbCircle
 10
273.46119568067
 20
259.35102341845
 30
0.0
 40
3.5
100
AcDbArc
 50
326.31666666999
 51
90.00000000002399
  0
ARC
  5
1C3
330
A
100
AcDbEntity
  8
LEVEL002
  6
Continuous
 62
     3
370
    30
100
AcDbCircle
 10
273.46119568067
 20
259.35102341845
 30
0.0
 40
1.5
100
AcDbArc
 50
326.31666667014
 51
89.99999999975001
  0
LINE
  5
1C4
330
A
100
AcDbEntity
  8
LEVEL002
  6
Continuous
 62
     3
370
    30
100
AcDbLine
 10
274.70936890766
 20
258.51911982102
 30
0.0
 11
273.26433935739
 21
256.35102341845
 31
0.0
  0
LINE
  5
1C5
330
A
100
AcDbEntity
  8
LEVEL002
  6
Continuous
 62
     3
370
    30
100
AcDbLine
 10
276.37359987699
 20
257.40991502445
 30
0.0
 11
274.66810653166
 21
254.85102341845
 31
0.0
  0
LINE
  5
1C6
330
A
100
AcDbEntity
  8
LEVEL002
  6
Continuous
 62
     3
370
    30
100
AcDbLine
 10
274.66810653166
 20
254.85102341845
 30
0.0
 11
234.96119568073
 21
254.85102341845
 31
0.0
  0
LINE
  5
1C7
330
A
100
AcDbEntity
  8
LEVEL002
  6
Continuous
 62
     3
370
    30
100
AcDbLine
 10
233.46119568057
 20
216.54787974162
 30
0.0
 11
233.46119568057
 21
256.35102341845
 31
0.0
  0
LINE
  5
1C8
330
A
100
AcDbEntity
  8
LEVEL002
  6
Continuous
 62
     3
370
    30
100
AcDbLine
 10
273.26433935739
 20
256.35102341845
 30
0.0
 11
233.46119568057
 21
256.35102341845
 31
0.0
  0
LINE
  5
1C9
330
A
100
AcDbEntity
  8
LEVEL002
  6
Continuous
 62
     3
370
    30
100
AcDbLine
 10
230.96119568057
 20
234.35102341834
 30
0.0
 11
233.46119568057
 21
234.35102341834
 31
0.0
  0
LINE
  5
1CA
330
A
100
AcDbEntity
  8
LEVEL002
  6
Continuous
 62
     3
370
    30
100
AcDbLine
 10
228.96119568057
 20
232.35102341834
 30
0.0
 11
231.46119568057
 21
232.35102341834
 31
0.0
  0
LINE
  5
1CB
330
A
100
AcDbEntity
  8
LEVEL002
  6
Continuous
 62
     3
370
    30
100
AcDbLine
 10
231.46119568057
 20
232.35102341834
 30
0.0
 11
231.46119568057
 21
228.35102341834
 31
0.0
  0
LINE
  5
1CC
330
A
100
AcDbEntity
  8
LEVEL002
  6
Continuous
 62
     3
370
    30
100
AcDbLine
 10
231.46119568057
 20
228.35102341834
 30
0.0
 11
233.46119568057
 21
228.35102341834
 31
0.0
  0
LINE
  5
1CD
330
A
100
AcDbEntity
  8
LEVEL002
  6
Continuous
 62
     3
370
    30
100
AcDbLine
 10
230.96119568057
 20
238.35102341834
 30
0.0
 11
233.46119568057
 21
238.35102341834
 31
0.0
  0
LINE
  5
1CE
330
A
100
AcDbEntity
  8
LEVEL002
  6
Continuous
 62
     3
370
    30
100
AcDbLine
 10
228.96119568057
 20
240.35102341834
 30
0.0
 11
231.46119568057
 21
240.35102341834
 31
0.0
  0
LINE
  5
1CF
330
A
100
AcDbEntity
  8
LEVEL002
  6
Continuous
 62
     3
370
    30
100
AcDbLine
 10
230.96119568057
 20
238.35102341834
 30
0.0
 11
230.96119568057
 21
234.35102341834
 31
0.0
  0
LINE
  5
1D0
330
A
100
AcDbEntity
  8
LEVEL002
  6
Continuous
 62
     3
370
    30
100
AcDbLine
 10
231.46119568057
 20
244.35102341834
 30
0.0
 11
231.46119568057
 21
240.35102341834
 31
0.0
  0
LINE
  5
1D1
330
A
100
AcDbEntity
  8
LEVEL002
  6
Continuous
 62
     3
370
    30
100
AcDbLine
 10
231.46119568057
 20
244.35102341834
 30
0.0
 11
233.46119568057
 21
244.35102341834
 31
0.0
  0
LINE
  5
1D2
330
A
100
AcDbEntity
  8
LEVEL002
  6
Continuous
 62
     3
370
    30
100
AcDbLine
 10
255.46119568079
 20
258.85102341857
 30
0.0
 11
255.46119568079
 21
256.35102341857
 31
0.0
  0
LINE
  5
1D3
330
A
100
AcDbEntity
  8
LEVEL002
  6
Continuous
 62
     3
370
    30
100
AcDbLine
 10
257.46119568079
 20
260.85102341857
 30
0.0
 11
257.46119568079
 21
258.35102341857
 31
0.0
  0
LINE
  5
1D4
330
A
100
AcDbEntity
  8
LEVEL002
  6
Continuous
 62
     3
370
    30
100
AcDbLine
 10
257.46119568079
 20
258.35102341857
 30
0.0
 11
261.46119568079
 21
258.35102341857
 31
0.0
  0
LINE
  5
1D5
330
A
100
AcDbEntity
  8
LEVEL002
  6
Continuous
 62
     3
370
    30
100
AcDbLine
 10
261.46119568079
 20
258.35102341857
 30
0.0
 11
261.46119568079
 21
256.35102341857
 31
0.0
  0
LINE
  5
1D6
330
A
100
AcDbEntity
  8
LEVEL002
  6
Continuous
 62
     3
370
    30
100
AcDbLine
 10
251.46119568079
 20
258.85102341857
 30
0.0
 11
251.46119568079
 21
256.35102341857
 31
0.0
  0
LINE
  5
1D7
330
A
100
AcDbEntity
  8
LEVEL002
  6
Continuous
 62
     3
370
    30
100
AcDbLine
 10
249.46119568079
 20
260.85102341857
 30
0.0
 11
249.46119568079
 21
258.35102341857
 31
0.0
  0
LINE
  5
1D8
330
A
100
AcDbEntity
  8
LEVEL002
  6
Continuous
 62
     3
370
    30
100
AcDbLine
 10
251.46119568079
 20
258.85102341857
 30
0.0
 11
255.46119568079
 21
258.85102341857
 31
0.0
  0
LINE
  5
1D9
330
A
100
AcDbEntity
  8
LEVEL002
  6
Continuous
 62
     3
370
    30
100
AcDbLine
 10
245.46119568079
 20
258.35102341857
 30
0.0
 11
249.46119568079
 21
258.35102341857
 31
0.0
  0
LINE
  5
1DA
330
A
100
AcDbEntity
  8
LEVEL002
  6
Continuous
 62
     3
370
    30
100
AcDbLine
 10
245.46119568079
 20
258.35102341857
 30
0.0
 11
245.46119568079
 21
256.35102341857
 31
0.0
  0
LINE
  5
1DB
330
A
100
AcDbEntity
  8
LEVEL002
  6
Continuous
 62
     3
370
    30
100
AcDbLine
 10
226.96119568057
 20
254.85102341834
 30
0.0
 11
226.9455553919
 21
254.85102341834
 31
0.0
  0
LINE
  5
1DC
330
A
100
AcDbEntity
  8
LEVEL002
  6
Continuous
 62
     3
370
    30
100
AcDbLine
 10
194.07020396775
 20
244.35102341823
 30
0.0
 11
194.07020396775
 21
228.35102341823
 31
0.0
  0
LINE
  5
1DD
330
A
100
AcDbEntity
  8
LEVEL002
  6
Continuous
 62
     3
370
    30
100
AcDbLine
 10
194.07020396775
 20
228.35102341823
 30
0.0
 11
182.07020396775
 21
228.35102341823
 31
0.0
  0
LINE
  5
1DE
330
A
100
AcDbEntity
  8
LEVEL002
  6
Continuous
 62
     3
370
    30
100
AcDbLine
 10
194.07020396775
 20
232.35102341834
 30
0.0
 11
182.07020396775
 21
232.35102341834
 31
0.0
  0
LINE
  5
1DF
330
A
100
AcDbEntity
  8
LEVEL002
  6
Continuous
 62
     3
370
    30
100
AcDbLine
 10
194.07020396775
 20
240.35102341834
 30
0.0
 11
182.07020396775
 21
240.35102341834
 31
0.0
  0
LINE
  5
1E0
330
A
100
AcDbEntity
  8
LEVEL002
  6
DASHDOT
 62
     6
370
    15
100
AcDbLine
 10
219.3369630347
 20
270.47525606435
 30
0.0
 11
266.24449167625
 21
223.56772742276
 31
0.0
  0
TEXT
  5
2A7
330
A
100
AcDbEntity
  8
LEVEL001
 62
     8
100
AcDbText
 10
314.50000000003
 20
204.75
 30
0.0
 40
3.0
  1
●ＣＰＶ５０／ＣＰＶ５０Ｍ(９０%%D用)
 41
0.8
100
AcDbText
  0
TEXT
  5
2A8
330
A
100
AcDbEntity
  8
LEVEL001
 62
     8
100
AcDbText
 10
314.50000000003
 20
200.75
 30
0.0
 40
3.0
  1
　材質：本体－特殊樹脂
 41
0.8
100
AcDbText
  0
TEXT
  5
2A9
330
A
100
AcDbEntity
  8
LEVEL001
 62
     8
100
AcDbText
 10
314.50000000003
 20
196.75
 30
0.0
 40
3.0
  1
　　　　芯材－アルミ
 41
0.8
100
AcDbText
  0
TEXT
  5
2AA
330
A
100
AcDbEntity
  8
LEVEL001
 62
     8
100
AcDbText
 10
314.50000000003
 20
192.75
 30
0.0
 40
3.0
  1
              
 41
0.5
100
AcDbText
  0
TEXT
  5
2AB
330
A
100
AcDbEntity
  8
LEVEL001
 62
     8
100
AcDbText
 10
314.50000000003
 20
188.75
 30
0.0
 40
3.0
  1
　長さ：３０００m/m
 41
0.8
100
AcDbText
  0
TEXT
  5
2B2
330
A
100
AcDbEntity
  8
LEVEL001
 62
     8
100
AcDbText
 10
314.50000000003
 20
160.75
 30
0.0
 40
3.0
  1

 41
0.5
100
AcDbText
  0
TEXT
  5
2B3
330
A
100
AcDbEntity
  8
LEVEL001
 62
     8
100
AcDbText
 10
314.50000000003
 20
156.75
 30
0.0
 40
3.0
  1
●ＣＰ５０／ＣＰ５０Ｍ(キャップ)
 41
0.8
100
AcDbText
  0
TEXT
  5
2B4
330
A
100
AcDbEntity
  8
LEVEL001
 62
     8
100
AcDbText
 10
314.50000000003
 20
152.75
 30
0.0
 40
3.0
  1
　材質：特殊樹脂
 41
0.8
100
AcDbText
  0
TEXT
  5
2B5
330
A
100
AcDbEntity
  8
LEVEL001
 62
     8
100
AcDbText
 10
314.50000000003
 20
148.75
 30
0.0
 40
3.0
  1
　適応：ＣＰＶ５０用　
 41
0.8
100
AcDbText
  0
TEXT
  5
2B9
330
A
100
AcDbEntity
  8
LEVEL001
 62
     8
100
AcDbText
 10
314.50000000003
 20
489.7499999999999
 30
0.0
 40
3.0
  1
              
 41
0.5
100
AcDbText
  0
TEXT
  5
2C0
330
A
100
AcDbEntity
  8
LEVEL001
 62
     8
100
AcDbText
 10
314.50000000003
 20
461.7499999999999
 30
0.0
 40
3.0
  1
　　　　　
100
AcDbText
  0
TEXT
  5
2C1
330
A
100
AcDbEntity
  8
LEVEL001
 62
     8
100
AcDbText
 10
314.50000000003
 20
457.7499999999999
 30
0.0
 40
3.0
  1

 41
0.5
100
AcDbText
  0
TEXT
  5
40A
330
A
100
AcDbEntity
  8
LEVEL001
 62
     8
100
AcDbText
 10
314.50000000003
 20
786.75
 30
0.0
 40
3.0
  1
              
 41
0.5
100
AcDbText
  0
TEXT
  5
411
330
A
100
AcDbEntity
  8
LEVEL001
 62
     8
100
AcDbText
 10
314.50000000003
 20
758.75
 30
0.0
 40
3.0
  1
　　　　　
100
AcDbText
  0
TEXT
  5
412
330
A
100
AcDbEntity
  8
LEVEL001
 62
     8
100
AcDbText
 10
314.50000000003
 20
754.75
 30
0.0
 40
3.0
  1

 41
0.5
100
AcDbText
  0
TEXT
  5
418
330
A
100
AcDbEntity
  8
LEVEL001
 62
     8
100
AcDbText
 10
333.4066666666966
 20
223.58333333334
 30
0.0
 40
3.5
  1
ＣＰＶ５０(９０%%d用)タイプ
 41
0.8
 72
     1
 11
354.50000000003
 21
225.33333333334
 31
0.0
100
AcDbText
 73
     2
  0
LWPOLYLINE
  5
419
330
A
100
AcDbEntity
  8
LEVEL001
  6
Continuous
 62
     7
370
    25
100
AcDbPolyline
 90
        5
 70
     0
 43
0.0
 10
81.307187405776
 20
134.56444063536
 10
81.307187405776
 20
110.03110730216
 10
281.30718740578
 20
110.03110730216
 10
281.30718740578
 20
134.56444063536
 10
81.307187405776
 20
134.56444063536
  0
LINE
  5
420
330
A
100
AcDbEntity
  8
LEVEL001
  6
Continuous
 62
     7
100
AcDbLine
 10
81.307187405776
 20
128.6977739687
 30
0.0
 11
281.30718740578
 21
128.6977739687
 31
0.0
  0
LINE
  5
421
330
A
100
AcDbEntity
  8
LEVEL001
  6
Continuous
 62
     7
100
AcDbLine
 10
81.307187405776
 20
115.07097261859
 30
0.0
 11
281.30718740578
 21
115.07097261859
 31
0.0
  0
LINE
  5
422
330
A
100
AcDbEntity
  8
LEVEL001
  6
Continuous
 62
     7
100
AcDbLine
 10
81.307187405776
 20
111.36444063544
 30
0.0
 11
281.30718740578
 21
111.36444063544
 31
0.0
  0
LINE
  5
423
330
A
100
AcDbEntity
  8
LEVEL001
  6
Continuous
 62
     7
100
AcDbLine
 10
81.307187405776
 20
130.28433910663
 30
0.0
 11
281.30718740578
 21
130.28433910663
 31
0.0
  0
CIRCLE
  5
424
330
A
100
AcDbEntity
  8
LEVEL001
  6
Continuous
 62
     1
100
AcDbCircle
 10
91.307187405776
 20
126.03110730195
 30
0.0
 40
1.066666666666699
  0
LINE
  5
425
330
A
100
AcDbEntity
  8
LEVEL001
  6
Continuous
 62
     7
100
AcDbLine
 10
81.307187405776
 20
126.40444063536
 30
0.0
 11
90.30798772606301
 21
126.40444063536
 31
0.0
  0
LINE
  5
426
330
A
100
AcDbEntity
  8
LEVEL001
  6
Continuous
 62
     7
100
AcDbLine
 10
81.307187405776
 20
126.56444063536
 30
0.0
 11
90.38342697512
 21
126.56444063536
 31
0.0
  0
LINE
  5
427
330
A
100
AcDbEntity
  8
LEVEL001
  6
Continuous
 62
     7
100
AcDbLine
 10
81.307187405776
 20
126.72444063536
 30
0.0
 11
90.49659091765599
 21
126.72444063536
 31
0.0
  0
LINE
  5
428
330
A
100
AcDbEntity
  8
LEVEL001
  6
Continuous
 62
     7
100
AcDbLine
 10
92.230947836431
 20
126.56444063536
 30
0.0
 11
117.05009364179
 21
126.56444063536
 31
0.0
  0
LINE
  5
429
330
A
100
AcDbEntity
  8
LEVEL001
  6
Continuous
 62
     7
100
AcDbLine
 10
92.11778389389499
 20
126.72444063536
 30
0.0
 11
117.16325758432
 21
126.72444063536
 31
0.0
  0
LINE
  5
42A
330
A
100
AcDbEntity
  8
LEVEL001
  6
Continuous
 62
     7
100
AcDbLine
 10
92.306387085488
 20
126.40444063536
 30
0.0
 11
116.97465439273
 21
126.40444063536
 31
0.0
  0
CIRCLE
  5
42D
330
A
100
AcDbEntity
  8
LEVEL001
  6
Continuous
 62
     1
100
AcDbCircle
 10
117.97385407244
 20
126.03110730195
 30
0.0
 40
1.066666666666699
  0
CIRCLE
  5
42E
330
A
100
AcDbEntity
  8
LEVEL001
  6
Continuous
 62
     1
100
AcDbCircle
 10
144.64052073911
 20
126.03110730195
 30
0.0
 40
1.066666666666699
  0
CIRCLE
  5
42F
330
A
100
AcDbEntity
  8
LEVEL001
  6
Continuous
 62
     1
100
AcDbCircle
 10
171.30718740578
 20
126.03110730195
 30
0.0
 40
1.066666666666699
  0
CIRCLE
  5
430
330
A
100
AcDbEntity
  8
LEVEL001
  6
Continuous
 62
     1
100
AcDbCircle
 10
197.97385407244
 20
126.03110730195
 30
0.0
 40
1.066666666666699
  0
CIRCLE
  5
431
330
A
100
AcDbEntity
  8
LEVEL001
  6
Continuous
 62
     1
100
AcDbCircle
 10
224.64052073911
 20
126.03110730195
 30
0.0
 40
1.066666666666699
  0
CIRCLE
  5
432
330
A
100
AcDbEntity
  8
LEVEL001
  6
Continuous
 62
     1
100
AcDbCircle
 10
251.30718740578
 20
126.03110730195
 30
0.0
 40
1.066666666666699
  0
CIRCLE
  5
433
330
A
100
AcDbEntity
  8
LEVEL001
  6
Continuous
 62
     1
100
AcDbCircle
 10
277.97385407244
 20
126.03110730195
 30
0.0
 40
1.066666666666699
  0
LINE
  5
434
330
A
100
AcDbEntity
  8
LEVEL001
  6
Continuous
 62
     7
100
AcDbLine
 10
118.97305375216
 20
126.40444063536
 30
0.0
 11
143.6413210594
 21
126.40444063536
 31
0.0
  0
LINE
  5
435
330
A
100
AcDbEntity
  8
LEVEL001
  6
Continuous
 62
     7
100
AcDbLine
 10
118.8976145031
 20
126.56444063536
 30
0.0
 11
143.71676030845
 21
126.56444063536
 31
0.0
  0
LINE
  5
436
330
A
100
AcDbEntity
  8
LEVEL001
  6
Continuous
 62
     7
100
AcDbLine
 10
118.78445056056
 20
126.72444063536
 30
0.0
 11
143.82992425099
 21
126.72444063536
 31
0.0
  0
LINE
  5
437
330
A
100
AcDbEntity
  8
LEVEL001
  6
Continuous
 62
     7
100
AcDbLine
 10
145.56428116976
 20
126.56444063536
 30
0.0
 11
170.38342697512
 21
126.56444063536
 31
0.0
  0
LINE
  5
438
330
A
100
AcDbEntity
  8
LEVEL001
  6
Continuous
 62
     7
100
AcDbLine
 10
145.45111722723
 20
126.72444063536
 30
0.0
 11
170.49659091766
 21
126.72444063536
 31
0.0
  0
LINE
  5
439
330
A
100
AcDbEntity
  8
LEVEL001
  6
Continuous
 62
     7
100
AcDbLine
 10
145.63972041882
 20
126.40444063536
 30
0.0
 11
170.30798772606
 21
126.40444063536
 31
0.0
  0
LINE
  5
43A
330
A
100
AcDbEntity
  8
LEVEL001
  6
Continuous
 62
     7
100
AcDbLine
 10
172.30638708549
 20
126.40444063536
 30
0.0
 11
196.97465439273
 21
126.40444063536
 31
0.0
  0
LINE
  5
43B
330
A
100
AcDbEntity
  8
LEVEL001
  6
Continuous
 62
     7
100
AcDbLine
 10
172.11778389389
 20
126.72444063536
 30
0.0
 11
197.16325758432
 21
126.72444063536
 31
0.0
  0
LINE
  5
43C
330
A
100
AcDbEntity
  8
LEVEL001
  6
Continuous
 62
     7
100
AcDbLine
 10
172.23094783643
 20
126.56444063536
 30
0.0
 11
197.05009364179
 21
126.56444063536
 31
0.0
  0
LINE
  5
43D
330
A
100
AcDbEntity
  8
LEVEL001
  6
Continuous
 62
     7
100
AcDbLine
 10
198.8976145031
 20
126.56444063536
 30
0.0
 11
223.71676030845
 21
126.56444063536
 31
0.0
  0
LINE
  5
43E
330
A
100
AcDbEntity
  8
LEVEL001
  6
Continuous
 62
     7
100
AcDbLine
 10
198.78445056056
 20
126.72444063536
 30
0.0
 11
223.82992425099
 21
126.72444063536
 31
0.0
  0
LINE
  5
43F
330
A
100
AcDbEntity
  8
LEVEL001
  6
Continuous
 62
     7
100
AcDbLine
 10
198.97305375216
 20
126.40444063536
 30
0.0
 11
223.6413210594
 21
126.40444063536
 31
0.0
  0
LINE
  5
440
330
A
100
AcDbEntity
  8
LEVEL001
  6
Continuous
 62
     7
100
AcDbLine
 10
225.63972041882
 20
126.40444063536
 30
0.0
 11
250.30798772606
 21
126.40444063536
 31
0.0
  0
LINE
  5
441
330
A
100
AcDbEntity
  8
LEVEL001
  6
Continuous
 62
     7
100
AcDbLine
 10
225.56428116976
 20
126.56444063536
 30
0.0
 11
250.38342697512
 21
126.56444063536
 31
0.0
  0
LINE
  5
442
330
A
100
AcDbEntity
  8
LEVEL001
  6
Continuous
 62
     7
100
AcDbLine
 10
225.45111722723
 20
126.72444063536
 30
0.0
 11
250.49659091766
 21
126.72444063536
 31
0.0
  0
LINE
  5
443
330
A
100
AcDbEntity
  8
LEVEL001
  6
Continuous
 62
     7
100
AcDbLine
 10
252.23094783643
 20
126.56444063536
 30
0.0
 11
277.05009364179
 21
126.56444063536
 31
0.0
  0
LINE
  5
444
330
A
100
AcDbEntity
  8
LEVEL001
  6
Continuous
 62
     7
100
AcDbLine
 10
278.8976145031
 20
126.56444063536
 30
0.0
 11
281.30718740578
 21
126.56444063536
 31
0.0
  0
LINE
  5
445
330
A
100
AcDbEntity
  8
LEVEL001
  6
Continuous
 62
     7
100
AcDbLine
 10
252.11778389389
 20
126.72444063536
 30
0.0
 11
277.16325758432
 21
126.72444063536
 31
0.0
  0
LINE
  5
446
330
A
100
AcDbEntity
  8
LEVEL001
  6
Continuous
 62
     7
100
AcDbLine
 10
278.78445056056
 20
126.72444063536
 30
0.0
 11
281.30718740578
 21
126.72444063536
 31
0.0
  0
LINE
  5
447
330
A
100
AcDbEntity
  8
LEVEL001
  6
Continuous
 62
     7
100
AcDbLine
 10
252.30638708549
 20
126.40444063536
 30
0.0
 11
276.97465439273
 21
126.40444063536
 31
0.0
  0
LINE
  5
448
330
A
100
AcDbEntity
  8
LEVEL001
  6
Continuous
 62
     7
100
AcDbLine
 10
278.97305375216
 20
126.40444063536
 30
0.0
 11
281.30718740578
 21
126.40444063536
 31
0.0
  0
LWPOLYLINE
  5
457
330
A
100
AcDbEntity
  8
LEVEL001
  6
Continuous
 62
     7
370
    25
100
AcDbPolyline
 90
        5
 70
     0
 43
0.0
 10
281.30718740578
 20
57.74684938941099
 10
281.30718740578
 20
82.28018272261399
 10
81.307187405776
 20
82.28018272261399
 10
81.307187405776
 20
57.74684938941099
 10
281.30718740578
 20
57.74684938941099
  0
LINE
  5
45E
330
A
100
AcDbEntity
  8
LEVEL001
  6
Continuous
 62
     7
100
AcDbLine
 10
281.30718740578
 20
63.613516056078
 30
0.0
 11
81.307187405776
 21
63.613516056078
 31
0.0
  0
LINE
  5
45F
330
A
100
AcDbEntity
  8
LEVEL001
  6
Continuous
 62
     7
100
AcDbLine
 10
281.30718740578
 20
77.240317406184
 30
0.0
 11
81.307187405776
 21
77.240317406184
 31
0.0
  0
LINE
  5
460
330
A
100
AcDbEntity
  8
LEVEL001
  6
Continuous
 62
     7
100
AcDbLine
 10
281.30718740578
 20
80.94684938932999
 30
0.0
 11
81.307187405776
 21
80.94684938932999
 31
0.0
  0
LINE
  5
461
330
A
100
AcDbEntity
  8
LEVEL001
  6
Continuous
 62
     7
100
AcDbLine
 10
281.30718740578
 20
62.02695091814
 30
0.0
 11
81.307187405776
 21
62.02695091814
 31
0.0
  0
CIRCLE
  5
462
330
A
100
AcDbEntity
  8
LEVEL001
  6
Continuous
 62
     1
100
AcDbCircle
 10
271.30718740578
 20
66.28018272282701
 30
0.0
 40
1.066666666666699
  0
LINE
  5
463
330
A
100
AcDbEntity
  8
LEVEL001
  6
Continuous
 62
     7
100
AcDbLine
 10
281.30718740578
 20
65.90684938941099
 30
0.0
 11
272.30638708549
 21
65.90684938941099
 31
0.0
  0
LINE
  5
464
330
A
100
AcDbEntity
  8
LEVEL001
  6
Continuous
 62
     7
100
AcDbLine
 10
281.30718740578
 20
65.746849389411
 30
0.0
 11
272.23094783643
 21
65.746849389411
 31
0.0
  0
LINE
  5
465
330
A
100
AcDbEntity
  8
LEVEL001
  6
Continuous
 62
     7
100
AcDbLine
 10
281.30718740578
 20
65.586849389411
 30
0.0
 11
272.11778389389
 21
65.586849389411
 31
0.0
  0
LINE
  5
466
330
A
100
AcDbEntity
  8
LEVEL001
  6
Continuous
 62
     7
100
AcDbLine
 10
270.38342697512
 20
65.746849389411
 30
0.0
 11
245.56428116976
 21
65.746849389411
 31
0.0
  0
LINE
  5
467
330
A
100
AcDbEntity
  8
LEVEL001
  6
Continuous
 62
     7
100
AcDbLine
 10
270.49659091766
 20
65.586849389411
 30
0.0
 11
245.45111722723
 21
65.586849389411
 31
0.0
  0
LINE
  5
468
330
A
100
AcDbEntity
  8
LEVEL001
  6
Continuous
 62
     7
100
AcDbLine
 10
270.30798772606
 20
65.90684938941099
 30
0.0
 11
245.63972041882
 21
65.90684938941099
 31
0.0
  0
CIRCLE
  5
46B
330
A
100
AcDbEntity
  8
LEVEL001
  6
Continuous
 62
     1
100
AcDbCircle
 10
244.64052073911
 20
66.28018272282701
 30
0.0
 40
1.066666666666699
  0
CIRCLE
  5
46C
330
A
100
AcDbEntity
  8
LEVEL001
  6
Continuous
 62
     1
100
AcDbCircle
 10
217.97385407244
 20
66.28018272282701
 30
0.0
 40
1.066666666666699
  0
CIRCLE
  5
46D
330
A
100
AcDbEntity
  8
LEVEL001
  6
Continuous
 62
     1
100
AcDbCircle
 10
191.30718740578
 20
66.28018272282701
 30
0.0
 40
1.066666666666699
  0
CIRCLE
  5
46E
330
A
100
AcDbEntity
  8
LEVEL001
  6
Continuous
 62
     1
100
AcDbCircle
 10
164.64052073911
 20
66.28018272282701
 30
0.0
 40
1.066666666666699
  0
CIRCLE
  5
46F
330
A
100
AcDbEntity
  8
LEVEL001
  6
Continuous
 62
     1
100
AcDbCircle
 10
137.97385407244
 20
66.28018272282701
 30
0.0
 40
1.066666666666699
  0
CIRCLE
  5
470
330
A
100
AcDbEntity
  8
LEVEL001
  6
Continuous
 62
     1
100
AcDbCircle
 10
111.30718740578
 20
66.28018272282701
 30
0.0
 40
1.066666666666699
  0
CIRCLE
  5
471
330
A
100
AcDbEntity
  8
LEVEL001
  6
Continuous
 62
     1
100
AcDbCircle
 10
84.64052073910899
 20
66.28018272282701
 30
0.0
 40
1.066666666666699
  0
LINE
  5
472
330
A
100
AcDbEntity
  8
LEVEL001
  6
Continuous
 62
     7
100
AcDbLine
 10
243.6413210594
 20
65.90684938941099
 30
0.0
 11
218.97305375216
 21
65.90684938941099
 31
0.0
  0
LINE
  5
473
330
A
100
AcDbEntity
  8
LEVEL001
  6
Continuous
 62
     7
100
AcDbLine
 10
243.71676030845
 20
65.746849389411
 30
0.0
 11
218.8976145031
 21
65.746849389411
 31
0.0
  0
LINE
  5
474
330
A
100
AcDbEntity
  8
LEVEL001
  6
Continuous
 62
     7
100
AcDbLine
 10
243.82992425099
 20
65.586849389411
 30
0.0
 11
218.78445056056
 21
65.586849389411
 31
0.0
  0
LINE
  5
475
330
A
100
AcDbEntity
  8
LEVEL001
  6
Continuous
 62
     7
100
AcDbLine
 10
217.05009364179
 20
65.746849389411
 30
0.0
 11
192.23094783643
 21
65.746849389411
 31
0.0
  0
LINE
  5
476
330
A
100
AcDbEntity
  8
LEVEL001
  6
Continuous
 62
     7
100
AcDbLine
 10
217.16325758432
 20
65.586849389411
 30
0.0
 11
192.11778389389
 21
65.586849389411
 31
0.0
  0
LINE
  5
477
330
A
100
AcDbEntity
  8
LEVEL001
  6
Continuous
 62
     7
100
AcDbLine
 10
216.97465439273
 20
65.90684938941099
 30
0.0
 11
192.30638708549
 21
65.90684938941099
 31
0.0
  0
LINE
  5
478
330
A
100
AcDbEntity
  8
LEVEL001
  6
Continuous
 62
     7
100
AcDbLine
 10
190.30798772606
 20
65.90684938941099
 30
0.0
 11
165.63972041882
 21
65.90684938941099
 31
0.0
  0
LINE
  5
479
330
A
100
AcDbEntity
  8
LEVEL001
  6
Continuous
 62
     7
100
AcDbLine
 10
190.49659091766
 20
65.586849389411
 30
0.0
 11
165.45111722723
 21
65.586849389411
 31
0.0
  0
LINE
  5
47A
330
A
100
AcDbEntity
  8
LEVEL001
  6
Continuous
 62
     7
100
AcDbLine
 10
190.38342697512
 20
65.746849389411
 30
0.0
 11
165.56428116976
 21
65.746849389411
 31
0.0
  0
LINE
  5
47B
330
A
100
AcDbEntity
  8
LEVEL001
  6
Continuous
 62
     7
100
AcDbLine
 10
163.71676030845
 20
65.746849389411
 30
0.0
 11
138.8976145031
 21
65.746849389411
 31
0.0
  0
LINE
  5
47C
330
A
100
AcDbEntity
  8
LEVEL001
  6
Continuous
 62
     7
100
AcDbLine
 10
163.82992425099
 20
65.586849389411
 30
0.0
 11
138.78445056056
 21
65.586849389411
 31
0.0
  0
LINE
  5
47D
330
A
100
AcDbEntity
  8
LEVEL001
  6
Continuous
 62
     7
100
AcDbLine
 10
163.6413210594
 20
65.90684938941099
 30
0.0
 11
138.97305375216
 21
65.90684938941099
 31
0.0
  0
LINE
  5
47E
330
A
100
AcDbEntity
  8
LEVEL001
  6
Continuous
 62
     7
100
AcDbLine
 10
136.97465439273
 20
65.90684938941099
 30
0.0
 11
112.30638708549
 21
65.90684938941099
 31
0.0
  0
LINE
  5
47F
330
A
100
AcDbEntity
  8
LEVEL001
  6
Continuous
 62
     7
100
AcDbLine
 10
137.05009364179
 20
65.746849389411
 30
0.0
 11
112.23094783643
 21
65.746849389411
 31
0.0
  0
LINE
  5
480
330
A
100
AcDbEntity
  8
LEVEL001
  6
Continuous
 62
     7
100
AcDbLine
 10
137.16325758432
 20
65.586849389411
 30
0.0
 11
112.11778389389
 21
65.586849389411
 31
0.0
  0
LINE
  5
481
330
A
100
AcDbEntity
  8
LEVEL001
  6
Continuous
 62
     7
100
AcDbLine
 10
110.38342697512
 20
65.746849389411
 30
0.0
 11
85.56428116976499
 21
65.746849389411
 31
0.0
  0
LINE
  5
482
330
A
100
AcDbEntity
  8
LEVEL001
  6
Continuous
 62
     7
100
AcDbLine
 10
83.716760308453
 20
65.746849389411
 30
0.0
 11
81.307187405776
 21
65.746849389411
 31
0.0
  0
LINE
  5
483
330
A
100
AcDbEntity
  8
LEVEL001
  6
Continuous
 62
     7
100
AcDbLine
 10
110.49659091766
 20
65.586849389411
 30
0.0
 11
85.45111722722799
 21
65.586849389411
 31
0.0
  0
LINE
  5
484
330
A
100
AcDbEntity
  8
LEVEL001
  6
Continuous
 62
     7
100
AcDbLine
 10
83.82992425099001
 20
65.586849389411
 30
0.0
 11
81.307187405776
 21
65.586849389411
 31
0.0
  0
LINE
  5
485
330
A
100
AcDbEntity
  8
LEVEL001
  6
Continuous
 62
     7
100
AcDbLine
 10
110.30798772606
 20
65.90684938941099
 30
0.0
 11
85.639720418822
 21
65.90684938941099
 31
0.0
  0
LINE
  5
486
330
A
100
AcDbEntity
  8
LEVEL001
  6
Continuous
 62
     7
100
AcDbLine
 10
83.64132105939601
 20
65.90684938941099
 30
0.0
 11
81.307187405776
 21
65.90684938941099
 31
0.0
  0
ARC
  5
495
330
A
100
AcDbEntity
  8
LEVEL001
  6
Continuous
 62
     1
100
AcDbCircle
 10
33.145266575757
 20
112.43110730216
 30
0.0
 40
0.8
100
AcDbArc
 50
89.999999999972
 51
156.03751102543
  0
ARC
  5
496
330
A
100
AcDbEntity
  8
LEVEL001
  6
Continuous
 62
     1
100
AcDbCircle
 10
31.55870143782
 20
110.83110730216
 30
0.0
 40
0.8
100
AcDbArc
 50
270.00000000002
 51
336.03751102536
  0
LINE
  5
497
330
A
100
AcDbEntity
  8
LEVEL001
  6
Continuous
 62
     1
100
AcDbLine
 10
31.558701437819
 20
110.83110730216
 30
0.0
 11
32.414217336861
 21
112.756018075
 31
0.0
  0
LINE
  5
498
330
A
100
AcDbEntity
  8
LEVEL001
  6
Continuous
 62
     1
100
AcDbLine
 10
28.87859990909
 20
110.83110730216
 30
0.0
 11
31.558701437819
 21
110.83110730216
 31
0.0
  0
LINE
  5
499
330
A
100
AcDbEntity
  8
LEVEL001
  6
Continuous
 62
     1
100
AcDbLine
 10
28.07859990909
 20
110.03110730216
 30
0.0
 11
31.55870143782
 21
110.03110730216
 31
0.0
  0
ARC
  5
49A
330
A
100
AcDbEntity
  8
LEVEL001
  6
Continuous
 62
     1
100
AcDbCircle
 10
28.07859990909
 20
110.83110730216
 30
0.0
 40
0.8
100
AcDbArc
 50
0.0
 51
269.99999999998
  0
LWPOLYLINE
  5
49B
330
A
100
AcDbEntity
  8
LEVEL001
  6
Continuous
 62
     1
100
AcDbPolyline
 90
        3
 70
     0
 43
0.0
 10
35.11859990909
 20
112.43110730216
 10
35.27859990909
 20
112.59110730216
 10
35.43859990909
 20
112.43110730216
  0
LWPOLYLINE
  5
4A0
330
A
100
AcDbEntity
  8
LEVEL001
  6
Continuous
 62
     1
100
AcDbPolyline
 90
        3
 70
     0
 43
0.0
 10
32.289750676715
 20
110.50619652932
 10
33.145266575757
 20
112.43110730216
 10
35.11859990909
 20
112.43110730216
  0
LINE
  5
4A5
330
A
100
AcDbEntity
  8
LEVEL001
  6
Continuous
 62
     1
100
AcDbLine
 10
35.43859990909
 20
112.43110730216
 30
0.0
 11
46.772067925864
 21
112.43110730216
 31
0.0
  0
LINE
  5
4A6
330
A
100
AcDbEntity
  8
LEVEL001
  6
Continuous
 62
     1
100
AcDbLine
 10
33.145266575757
 20
113.23110730216
 30
0.0
 11
46.772067925803
 21
113.23110730216
 31
0.0
  0
LINE
  5
4A7
330
A
100
AcDbEntity
  8
LEVEL001
  6
Continuous
 62
     1
100
AcDbLine
 10
46.772067925864
 20
112.43110730216
 30
0.0
 11
47.292000584078
 21
111.91117464395
 31
0.0
  0
ARC
  5
4A8
330
A
100
AcDbEntity
  8
LEVEL001
  6
Continuous
 62
     1
100
AcDbCircle
 10
46.772067925804
 20
112.43110730216
 30
0.0
 40
0.8
100
AcDbArc
 50
45.00000000341
 51
90.00000000006899
  0
LINE
  5
4A9
330
A
100
AcDbEntity
  8
LEVEL001
  6
Continuous
 62
     1
100
AcDbLine
 10
47.33775335071899
 20
112.99679272714
 30
0.0
 11
47.857686009071
 21
112.47686006885
 31
0.0
  0
ARC
  5
4AA
330
A
100
AcDbEntity
  8
LEVEL001
  6
Continuous
 62
     1
100
AcDbCircle
 10
48.61193324234299
 20
113.23110730211
 30
0.0
 40
1.8666666666667
100
AcDbArc
 50
225.0
 51
44.999999999998
  0
ARC
  5
4AB
330
A
100
AcDbEntity
  8
LEVEL001
  6
Continuous
 62
     1
100
AcDbCircle
 10
48.61193324234299
 20
113.23110730211
 30
0.0
 40
1.066666666666699
100
AcDbArc
 50
225.0
 51
45.000000000004
  0
LINE
  5
4AC
330
A
100
AcDbEntity
  8
LEVEL001
  6
Continuous
 62
     1
100
AcDbLine
 10
48.611933242293
 20
128.6977739687
 30
0.0
 11
48.611933242294
 21
115.07097261865
 31
0.0
  0
ARC
  5
4AD
330
A
100
AcDbEntity
  8
LEVEL001
  6
Continuous
 62
     1
100
AcDbCircle
 10
49.411933242295
 20
115.07097261865
 30
0.0
 40
0.8
100
AcDbArc
 50
179.99999999988
 51
224.99999999652
  0
LINE
  5
4AE
330
A
100
AcDbEntity
  8
LEVEL001
  6
Continuous
 62
     1
100
AcDbLine
 10
49.411933242293
 20
126.40444063536
 30
0.0
 11
49.411933242293
 21
115.07097261859
 31
0.0
  0
LINE
  5
4AF
330
A
100
AcDbEntity
  8
LEVEL001
  6
Continuous
 62
     1
100
AcDbLine
 10
49.411933242293
 20
115.07097261859
 30
0.0
 11
49.931865900508
 21
114.55103996038
 31
0.0
  0
LINE
  5
4B0
330
A
100
AcDbEntity
  8
LEVEL001
  6
Continuous
 62
     1
100
AcDbLine
 10
48.846247817311
 20
114.50528719373
 30
0.0
 11
49.366180475603
 21
113.98535453538
 31
0.0
  0
LINE
  5
4B1
330
A
100
AcDbEntity
  8
LEVEL001
  6
DASHDOT
 62
     6
370
    15
100
AcDbLine
 10
36.555388691881
 20
125.28765185257
 30
0.0
 11
53.593540903303
 21
108.24949964115
 31
0.0
  0
ARC
  5
4B2
330
A
100
AcDbEntity
  8
LEVEL001
  6
Continuous
 62
     1
100
AcDbCircle
 10
49.411933242293
 20
128.6977739687
 30
0.0
 40
0.8
100
AcDbArc
 50
113.96248897455
 51
179.99999999997
  0
ARC
  5
4B3
330
A
100
AcDbEntity
  8
LEVEL001
  6
Continuous
 62
     1
100
AcDbCircle
 10
51.01193324229299
 20
130.28433910663
 30
0.0
 40
0.8
100
AcDbArc
 50
293.96248897462
 51
0.0
  0
LINE
  5
4B4
330
A
100
AcDbEntity
  8
LEVEL001
  6
Continuous
 62
     1
100
AcDbLine
 10
51.011933242294
 20
130.28433910663
 30
0.0
 11
49.087022469451
 21
129.42882320759
 31
0.0
  0
LINE
  5
4B5
330
A
100
AcDbEntity
  8
LEVEL001
  6
Continuous
 62
     1
100
AcDbLine
 10
51.011933242294
 20
132.96444063536
 30
0.0
 11
51.011933242294
 21
130.28433910663
 31
0.0
  0
LINE
  5
4B6
330
A
100
AcDbEntity
  8
LEVEL001
  6
Continuous
 62
     1
100
AcDbLine
 10
51.811933242293
 20
133.76444063536
 30
0.0
 11
51.811933242293
 21
130.28433910663
 31
0.0
  0
ARC
  5
4B7
330
A
100
AcDbEntity
  8
LEVEL001
  6
Continuous
 62
     1
100
AcDbCircle
 10
51.01193324229299
 20
133.76444063536
 30
0.0
 40
0.8
100
AcDbArc
 50
0.0
 51
270.00000000003
  0
LWPOLYLINE
  5
4B8
330
A
100
AcDbEntity
  8
LEVEL001
  6
Continuous
 62
     1
100
AcDbPolyline
 90
        3
 70
     0
 43
0.0
 10
49.41193324229399
 20
126.72444063536
 10
49.251933242293
 20
126.56444063536
 10
49.411933242293
 20
126.40444063536
  0
LWPOLYLINE
  5
4BD
330
A
100
AcDbEntity
  8
LEVEL001
  6
Continuous
 62
     1
100
AcDbPolyline
 90
        3
 70
     0
 43
0.0
 10
51.336844015136
 20
129.55328986774
 10
49.411933242293
 20
128.6977739687
 10
49.41193324229399
 20
126.72444063536
  0
LINE
  5
4C3
330
A
100
AcDbEntity
  8
LEVEL001
  6
DASHDOT
 62
     6
370
    15
100
AcDbLine
 10
54.0536612514109
 20
126.031107301946
 30
0.0
 11
45.6528366391109
 21
126.031107301945
 31
0.0
  0
ARC
  5
4C4
330
A
100
AcDbEntity
  8
LEVEL001
  6
Continuous
 62
     1
100
AcDbCircle
 10
33.145266575757
 20
79.88018272261399
 30
0.0
 40
0.8
100
AcDbArc
 50
203.96248897457
 51
270.00000000004
  0
ARC
  5
4C5
330
A
100
AcDbEntity
  8
LEVEL001
  6
Continuous
 62
     1
100
AcDbCircle
 10
31.558701437819
 20
81.480182722613
 30
0.0
 40
0.8
100
AcDbArc
 50
23.962488974628
 51
89.99999999997399
  0
LINE
  5
4C6
330
A
100
AcDbEntity
  8
LEVEL001
  6
Continuous
 62
     1
100
AcDbLine
 10
31.558701437819
 20
81.48018272261401
 30
0.0
 11
32.414217336861
 21
79.555271949771
 31
0.0
  0
LINE
  5
4C7
330
A
100
AcDbEntity
  8
LEVEL001
  6
Continuous
 62
     1
100
AcDbLine
 10
28.87859990909
 20
81.48018272261401
 30
0.0
 11
31.558701437819
 21
81.48018272261401
 31
0.0
  0
LINE
  5
4C8
330
A
100
AcDbEntity
  8
LEVEL001
  6
Continuous
 62
     1
100
AcDbLine
 10
28.07859990909
 20
82.28018272261399
 30
0.0
 11
31.55870143782
 21
82.28018272261399
 31
0.0
  0
ARC
  5
4C9
330
A
100
AcDbEntity
  8
LEVEL001
  6
Continuous
 62
     1
100
AcDbCircle
 10
28.07859990909
 20
81.48018272261401
 30
0.0
 40
0.8
100
AcDbArc
 50
90.00000000000399
 51
0.0
  0
LWPOLYLINE
  5
4CA
330
A
100
AcDbEntity
  8
LEVEL001
  6
Continuous
 62
     1
100
AcDbPolyline
 90
        3
 70
     0
 43
0.0
 10
35.11859990909
 20
79.88018272261399
 10
35.27859990909
 20
79.720182722614
 10
35.43859990909
 20
79.88018272261399
  0
LWPOLYLINE
  5
4CF
330
A
100
AcDbEntity
  8
LEVEL001
  6
Continuous
 62
     1
100
AcDbPolyline
 90
        3
 70
     0
 43
0.0
 10
32.289750676715
 20
81.80509349545699
 10
33.145266575757
 20
79.88018272261399
 10
35.11859990909
 20
79.88018272261399
  0
LINE
  5
4D4
330
A
100
AcDbEntity
  8
LEVEL001
  6
Continuous
 62
     1
100
AcDbLine
 10
35.43859990909
 20
79.88018272261399
 30
0.0
 11
46.772067925864
 21
79.88018272261399
 31
0.0
  0
LINE
  5
4D5
330
A
100
AcDbEntity
  8
LEVEL001
  6
Continuous
 62
     1
100
AcDbLine
 10
33.145266575757
 20
79.080182722614
 30
0.0
 11
46.772067925803
 21
79.080182722614
 31
0.0
  0
LINE
  5
4D6
330
A
100
AcDbEntity
  8
LEVEL001
  6
Continuous
 62
     1
100
AcDbLine
 10
46.772067925864
 20
79.88018272261399
 30
0.0
 11
47.292000584078
 21
80.400115380829
 31
0.0
  0
ARC
  5
4D7
330
A
100
AcDbEntity
  8
LEVEL001
  6
Continuous
 62
     1
100
AcDbCircle
 10
46.772067925803
 20
79.88018272261399
 30
0.0
 40
0.8
100
AcDbArc
 50
269.9999999999901
 51
314.99999999667
  0
LINE
  5
4D8
330
A
100
AcDbEntity
  8
LEVEL001
  6
Continuous
 62
     1
100
AcDbLine
 10
47.33775335071899
 20
79.31449729763099
 30
0.0
 11
47.857686009071
 21
79.834429955923
 31
0.0
  0
ARC
  5
4D9
330
A
100
AcDbEntity
  8
LEVEL001
  6
Continuous
 62
     1
100
AcDbCircle
 10
48.61193324234299
 20
79.080182722663
 30
0.0
 40
1.8666666666667
100
AcDbArc
 50
315.0
 51
135.0
  0
ARC
  5
4DA
330
A
100
AcDbEntity
  8
LEVEL001
  6
Continuous
 62
     1
100
AcDbCircle
 10
48.61193324234299
 20
79.080182722663
 30
0.0
 40
1.066666666666699
100
AcDbArc
 50
315.0
 51
135.0
  0
LINE
  5
4DB
330
A
100
AcDbEntity
  8
LEVEL001
  6
Continuous
 62
     1
100
AcDbLine
 10
48.611933242293
 20
63.613516056078
 30
0.0
 11
48.611933242294
 21
77.240317406123
 31
0.0
  0
ARC
  5
4DC
330
A
100
AcDbEntity
  8
LEVEL001
  6
Continuous
 62
     1
100
AcDbCircle
 10
49.41193324229399
 20
77.240317406124
 30
0.0
 40
0.8
100
AcDbArc
 50
135.00000000342
 51
180.00000000008
  0
LINE
  5
4DD
330
A
100
AcDbEntity
  8
LEVEL001
  6
Continuous
 62
     1
100
AcDbLine
 10
49.411933242293
 20
65.90684938941099
 30
0.0
 11
49.411933242293
 21
77.240317406184
 31
0.0
  0
LINE
  5
4DE
330
A
100
AcDbEntity
  8
LEVEL001
  6
Continuous
 62
     1
100
AcDbLine
 10
49.411933242293
 20
77.240317406184
 30
0.0
 11
49.931865900508
 21
77.760250064399
 31
0.0
  0
LINE
  5
4DF
330
A
100
AcDbEntity
  8
LEVEL001
  6
Continuous
 62
     1
100
AcDbLine
 10
48.846247817311
 20
77.80600283104
 30
0.0
 11
49.366180475603
 21
78.325935489392
 31
0.0
  0
LINE
  5
4E0
330
A
100
AcDbEntity
  8
LEVEL001
  6
DASHDOT
 62
     6
370
    15
100
AcDbLine
 10
36.555388691881
 20
67.023638172202
 30
0.0
 11
53.593540903303
 21
84.06179038362401
 31
0.0
  0
ARC
  5
4E1
330
A
100
AcDbEntity
  8
LEVEL001
  6
Continuous
 62
     1
100
AcDbCircle
 10
49.411933242293
 20
63.613516056077
 30
0.0
 40
0.8
100
AcDbArc
 50
179.99999999997
 51
246.03751102543
  0
ARC
  5
4E2
330
A
100
AcDbEntity
  8
LEVEL001
  6
Continuous
 62
     1
100
AcDbCircle
 10
51.01193324229299
 20
62.02695091814
 30
0.0
 40
0.8
100
AcDbArc
 50
0.0
 51
66.037511025411
  0
LINE
  5
4E3
330
A
100
AcDbEntity
  8
LEVEL001
  6
Continuous
 62
     1
100
AcDbLine
 10
51.011933242294
 20
62.02695091814
 30
0.0
 11
49.087022469451
 21
62.88246681718099
 31
0.0
  0
LINE
  5
4E4
330
A
100
AcDbEntity
  8
LEVEL001
  6
Continuous
 62
     1
100
AcDbLine
 10
51.011933242294
 20
59.34684938941099
 30
0.0
 11
51.011933242294
 21
62.02695091814
 31
0.0
  0
LINE
  5
4E5
330
A
100
AcDbEntity
  8
LEVEL001
  6
Continuous
 62
     1
100
AcDbLine
 10
51.811933242293
 20
58.546849389411
 30
0.0
 11
51.811933242293
 21
62.02695091814
 31
0.0
  0
ARC
  5
4E6
330
A
100
AcDbEntity
  8
LEVEL001
  6
Continuous
 62
     1
100
AcDbCircle
 10
51.01193324229299
 20
58.54684938941
 30
0.0
 40
0.8
100
AcDbArc
 50
89.999999999965
 51
0.0
  0
LWPOLYLINE
  5
4E7
330
A
100
AcDbEntity
  8
LEVEL001
  6
Continuous
 62
     1
100
AcDbPolyline
 90
        3
 70
     0
 43
0.0
 10
49.41193324229399
 20
65.586849389411
 10
49.251933242293
 20
65.746849389411
 10
49.411933242293
 20
65.90684938941099
  0
LWPOLYLINE
  5
4EC
330
A
100
AcDbEntity
  8
LEVEL001
  6
Continuous
 62
     1
100
AcDbPolyline
 90
        3
 70
     0
 43
0.0
 10
51.336844015136
 20
62.758000157037
 10
49.411933242293
 20
63.613516056078
 10
49.41193324229399
 20
65.586849389411
  0
LINE
  5
4F1
330
A
100
AcDbEntity
  8
LEVEL001
  6
DASHDOT
 62
     6
370
    15
100
AcDbLine
 10
54.053661251414
 20
66.28018272282701
 30
0.0
 11
45.652836639111
 21
66.28018272282701
 31
0.0
  0
LINE
  5
4F2
330
A
100
AcDbEntity
  8
LEVEL001
  6
DASHDOT
 62
     6
370
    15
100
AcDbLine
 10
35.811933242507
 20
84.521910731735
 30
0.0
 11
35.811933242507
 21
76.12108611943199
 31
0.0
  0
TEXT
  5
4F3
330
A
100
AcDbEntity
  8
LEVEL001
 62
     8
100
AcDbText
 10
127.3261950657666
 20
23.449071548362
 30
0.0
 40
4.0
  1
ＣＰＶ５０(９０%%d)用芯材ピッチ図(Ｓ＝１：１５)
 41
0.8
 72
     1
 11
170.7395283991
 21
25.449071548362
 31
0.0
100
AcDbText
 73
     2
  0
TEXT
  5
6BE
330
A
100
AcDbEntity
  8
LEVEL001
 62
     8
100
AcDbText
 10
53.16196153844099
 20
180.30437857388
 30
0.0
 40
4.0
  1
ＣＰＶ５０(９０%%d用)断面図
 41
0.8
100
AcDbText
  0
TEXT
  5
6BF
330
A
100
AcDbEntity
  8
LEVEL001
 62
     8
100
AcDbText
 10
53.16196153844099
 20
174.97104524055
 30
0.0
 40
4.0
  1
　　　　(Ｓ＝１：１)
 41
0.8
100
AcDbText
  0
TEXT
  5
6C0
330
A
100
AcDbEntity
  8
LEVEL001
 62
     8
100
AcDbText
 10
197.94883918288
 20
180.30437857388
 30
0.0
 40
4.0
  1
ＣＰ５０(キャップ)断面図
 41
0.8
100
AcDbText
  0
TEXT
  5
6C1
330
A
100
AcDbEntity
  8
LEVEL001
 62
     8
100
AcDbText
 10
197.94883918288
 20
174.97104524055
 30
0.0
 40
4.0
  1
　　　(Ｓ＝１：１)
 41
0.8
100
AcDbText
  0
LINE
  5
763
330
A
100
AcDbEntity
  8
LEVEL001
  6
Continuous
 62
     6
370
    15
100
AcDbLine
 10
84.78156128928999
 20
271.19849686555
 30
0.0
 11
120.13690034841
 21
235.84315780642
 31
0.0
  0
LINE
  5
764
330
A
100
AcDbEntity
  8
LEVEL001
  6
Continuous
 62
     6
370
    15
100
AcDbLine
 10
75.82251338783899
 20
262.23944896409
 30
0.0
 11
85.488668070477
 21
271.90560364673
 31
0.0
  0
LINE
  5
765
330
A
100
AcDbEntity
  8
LEVEL001
  6
Continuous
 62
     6
370
    15
100
AcDbLine
 10
111.17785244696
 20
226.88410990497
 30
0.0
 11
120.84400712959
 21
236.5502645876
 31
0.0
  0
CIRCLE
  5
766
330
A
100
AcDbEntity
  8
LEVEL001
  6
Continuous
 62
     6
370
    15
100
AcDbCircle
 10
84.78156128928999
 20
271.19849686555
 30
0.0
 40
0.4
  0
CIRCLE
  5
767
330
A
100
AcDbEntity
  8
LEVEL001
  6
Continuous
 62
     6
370
    15
100
AcDbCircle
 10
120.13690034841
 20
235.84315780642
 30
0.0
 40
0.4
  0
TEXT
  5
768
330
A
100
AcDbEntity
  8
LEVEL001
 62
     6
370
    15
100
AcDbText
 10
101.22179395177
 20
256.17247776543
 30
0.0
 40
3.0
  1
５０
 50
314.99999999999
 41
0.8
100
AcDbText
  0
LINE
  5
769
330
A
100
AcDbEntity
  8
LEVEL001
  6
Continuous
 62
     6
370
    15
100
AcDbLine
 10
117.84577337421
 20
213.14512116602
 30
0.0
 11
123.14907423311
 21
218.44842202492
 31
0.0
  0
LINE
  5
76A
330
A
100
AcDbEntity
  8
LEVEL001
  6
Continuous
 62
     6
370
    15
100
AcDbLine
 10
106.58165836937
 20
224.40923617086
 30
0.0
 11
118.5528801554
 21
212.43801438483
 31
0.0
  0
LINE
  5
76B
330
A
100
AcDbEntity
  8
LEVEL001
  6
Continuous
 62
     6
370
    15
100
AcDbLine
 10
111.88495922827
 20
229.71253702976
 30
0.0
 11
123.8561810143
 21
217.74131524373
 31
0.0
  0
CIRCLE
  5
76C
330
A
100
AcDbEntity
  8
LEVEL001
  6
Continuous
 62
     6
370
    15
100
AcDbCircle
 10
117.84577337421
 20
213.14512116602
 30
0.0
 40
0.4
  0
CIRCLE
  5
76D
330
A
100
AcDbEntity
  8
LEVEL001
  6
Continuous
 62
     6
370
    15
100
AcDbCircle
 10
123.14907423311
 20
218.44842202492
 30
0.0
 40
0.4
  0
TEXT
  5
76E
330
A
100
AcDbEntity
  8
LEVEL001
 62
     6
370
    15
100
AcDbText
 10
117.40383163597
 20
214.11739299015
 30
0.0
 40
3.0
  1
７.５
 50
45.000000000009
 41
0.8
100
AcDbText
  0
LINE
  5
76F
330
A
100
AcDbEntity
  8
LEVEL001
  6
Continuous
 62
     6
370
    15
100
AcDbLine
 10
37.33478730748601
 20
213.14512116602
 30
0.0
 11
32.031486448588
 21
218.44842202492
 31
0.0
  0
LINE
  5
770
330
A
100
AcDbEntity
  8
LEVEL001
  6
Continuous
 62
     6
370
    15
100
AcDbLine
 10
48.598902312326
 20
224.40923617086
 30
0.0
 11
36.627680526299
 21
212.43801438483
 31
0.0
  0
LINE
  5
771
330
A
100
AcDbEntity
  8
LEVEL001
  6
Continuous
 62
     6
370
    15
100
AcDbLine
 10
43.29560145342699
 20
229.71253702976
 30
0.0
 11
31.324379667401
 21
217.74131524373
 31
0.0
  0
CIRCLE
  5
772
330
A
100
AcDbEntity
  8
LEVEL001
  6
Continuous
 62
     6
370
    15
100
AcDbCircle
 10
37.33478730748601
 20
213.14512116602
 30
0.0
 40
0.4
  0
CIRCLE
  5
773
330
A
100
AcDbEntity
  8
LEVEL001
  6
Continuous
 62
     6
370
    15
100
AcDbCircle
 10
32.031486448588
 20
218.44842202492
 30
0.0
 40
0.4
  0
TEXT
  5
774
330
A
100
AcDbEntity
  8
LEVEL001
 62
     6
370
    15
100
AcDbText
 10
33.003758272719
 20
218.89036376316
 30
0.0
 40
3.0
  1
７.５
 50
314.99999999999
 41
0.8
100
AcDbText
  0
LINE
  5
775
330
A
100
AcDbEntity
  8
LEVEL001
  6
Continuous
 62
     6
370
    15
100
AcDbLine
 10
70.398999392408
 20
271.19849686555
 30
0.0
 11
35.04366033329
 21
235.84315780642
 31
0.0
  0
LINE
  5
776
330
A
100
AcDbEntity
  8
LEVEL001
  6
Continuous
 62
     6
370
    15
100
AcDbLine
 10
79.358047293859
 20
262.23944896409
 30
0.0
 11
69.691892611221
 21
271.90560364673
 31
0.0
  0
LINE
  5
777
330
A
100
AcDbEntity
  8
LEVEL001
  6
Continuous
 62
     6
370
    15
100
AcDbLine
 10
44.002708234736
 20
226.88410990497
 30
0.0
 11
34.336553552104
 21
236.5502645876
 31
0.0
  0
CIRCLE
  5
778
330
A
100
AcDbEntity
  8
LEVEL001
  6
Continuous
 62
     6
370
    15
100
AcDbCircle
 10
70.398999392408
 20
271.19849686555
 30
0.0
 40
0.4
  0
CIRCLE
  5
779
330
A
100
AcDbEntity
  8
LEVEL001
  6
Continuous
 62
     6
370
    15
100
AcDbCircle
 10
35.04366033329
 20
235.84315780642
 30
0.0
 40
0.4
  0
TEXT
  5
77A
330
A
100
AcDbEntity
  8
LEVEL001
 62
     6
370
    15
100
AcDbText
 10
50.0696794334
 20
252.2833904689
 30
0.0
 40
3.0
  1
５０
 50
45.000000000009
 41
0.8
100
AcDbText
  0
LINE
  5
77B
330
A
100
AcDbEntity
  8
LEVEL001
  6
Continuous
 62
     6
370
    15
100
AcDbLine
 10
286.96119568067
 20
262.85102341845
 30
0.0
 11
286.96119568067
 21
254.85102341845
 31
0.0
  0
LINE
  5
77C
330
A
100
AcDbEntity
  8
LEVEL001
  6
Continuous
 62
     6
370
    15
100
AcDbLine
 10
274.46119568067
 20
262.85102341845
 30
0.0
 11
287.96119568067
 21
262.85102341845
 31
0.0
  0
LINE
  5
77D
330
A
100
AcDbEntity
  8
LEVEL001
  6
Continuous
 62
     6
370
    15
100
AcDbLine
 10
275.66810653166
 20
254.85102341845
 30
0.0
 11
287.96119568067
 21
254.85102341845
 31
0.0
  0
CIRCLE
  5
77E
330
A
100
AcDbEntity
  8
LEVEL001
  6
Continuous
 62
     6
370
    15
100
AcDbCircle
 10
286.96119568067
 20
262.85102341845
 30
0.0
 40
0.4
  0
CIRCLE
  5
77F
330
A
100
AcDbEntity
  8
LEVEL001
  6
Continuous
 62
     6
370
    15
100
AcDbCircle
 10
286.96119568067
 20
254.85102341845
 30
0.0
 40
0.4
  0
TEXT
  5
780
330
A
100
AcDbEntity
  8
LEVEL001
 62
     6
370
    15
100
AcDbText
 10
285.96119568067
 20
257.35102341845
 30
0.0
 40
3.0
  1
８
 50
90.0
 41
0.8
100
AcDbText
  0
LINE
  5
781
330
A
100
AcDbEntity
  8
LEVEL001
  6
Continuous
 62
     6
370
    15
100
AcDbLine
 10
226.96119568057
 20
202.85102341834
 30
0.0
 11
234.96119568057
 21
202.85102341834
 31
0.0
  0
LINE
  5
782
330
A
100
AcDbEntity
  8
LEVEL001
  6
Continuous
 62
     6
370
    15
100
AcDbLine
 10
226.96119568057
 20
215.35102341834
 30
0.0
 11
226.96119568057
 21
201.85102341834
 31
0.0
  0
LINE
  5
783
330
A
100
AcDbEntity
  8
LEVEL001
  6
Continuous
 62
     6
370
    15
100
AcDbLine
 10
234.96119568057
 20
214.14411256735
 30
0.0
 11
234.96119568057
 21
201.85102341834
 31
0.0
  0
CIRCLE
  5
784
330
A
100
AcDbEntity
  8
LEVEL001
  6
Continuous
 62
     6
370
    15
100
AcDbCircle
 10
226.96119568057
 20
202.85102341834
 30
0.0
 40
0.4
  0
CIRCLE
  5
785
330
A
100
AcDbEntity
  8
LEVEL001
  6
Continuous
 62
     6
370
    15
100
AcDbCircle
 10
234.96119568057
 20
202.85102341834
 30
0.0
 40
0.4
  0
TEXT
  5
786
330
A
100
AcDbEntity
  8
LEVEL001
 62
     6
370
    15
100
AcDbText
 10
229.46119568057
 20
203.85102341834
 30
0.0
 40
3.0
  1
８
 41
0.8
100
AcDbText
  0
LINE
  5
787
330
A
100
AcDbEntity
  8
LEVEL001
  6
Continuous
 62
     6
370
    15
100
AcDbLine
 10
172.07020396775
 20
202.85102341834
 30
0.0
 11
182.07020396775
 21
202.85102341834
 31
0.0
  0
LINE
  5
788
330
A
100
AcDbEntity
  8
LEVEL001
  6
Continuous
 62
     6
370
    15
100
AcDbLine
 10
172.07020396775
 20
212.55029153777
 30
0.0
 11
172.07020396775
 21
201.85102341834
 31
0.0
  0
LINE
  5
789
330
A
100
AcDbEntity
  8
LEVEL001
  6
Continuous
 62
     6
370
    15
100
AcDbLine
 10
182.07020396775
 20
211.85102341834
 30
0.0
 11
182.07020396775
 21
201.85102341834
 31
0.0
  0
CIRCLE
  5
78A
330
A
100
AcDbEntity
  8
LEVEL001
  6
Continuous
 62
     6
370
    15
100
AcDbCircle
 10
172.07020396775
 20
202.85102341834
 30
0.0
 40
0.4
  0
CIRCLE
  5
78B
330
A
100
AcDbEntity
  8
LEVEL001
  6
Continuous
 62
     6
370
    15
100
AcDbCircle
 10
182.07020396775
 20
202.85102341834
 30
0.0
 40
0.4
  0
TEXT
  5
78C
330
A
100
AcDbEntity
  8
LEVEL001
 62
     6
370
    15
100
AcDbText
 10
174.32020396775
 20
203.85102341834
 30
0.0
 40
3.0
  1
１０
 41
0.8
100
AcDbText
  0
LINE
  5
78D
330
A
100
AcDbEntity
  8
LEVEL001
  6
Continuous
 62
     6
370
    15
100
AcDbLine
 10
172.07020396775
 20
195.85102341835
 30
0.0
 11
194.07020396775
 21
195.85102341835
 31
0.0
  0
LINE
  5
78E
330
A
100
AcDbEntity
  8
LEVEL001
  6
Continuous
 62
     6
370
    15
100
AcDbLine
 10
172.07020396775
 20
201.85102341834
 30
0.0
 11
172.07020396775
 21
194.85102341835
 31
0.0
  0
LINE
  5
78F
330
A
100
AcDbEntity
  8
LEVEL001
  6
Continuous
 62
     6
370
    15
100
AcDbLine
 10
194.07020396775
 20
227.35102341823
 30
0.0
 11
194.07020396775
 21
194.85102341835
 31
0.0
  0
CIRCLE
  5
790
330
A
100
AcDbEntity
  8
LEVEL001
  6
Continuous
 62
     6
370
    15
100
AcDbCircle
 10
172.07020396775
 20
195.85102341835
 30
0.0
 40
0.4
  0
CIRCLE
  5
791
330
A
100
AcDbEntity
  8
LEVEL001
  6
Continuous
 62
     6
370
    15
100
AcDbCircle
 10
194.07020396775
 20
195.85102341835
 30
0.0
 40
0.4
  0
TEXT
  5
792
330
A
100
AcDbEntity
  8
LEVEL001
 62
     6
370
    15
100
AcDbText
 10
180.32020396775
 20
196.85102341835
 30
0.0
 40
3.0
  1
２２
 41
0.8
100
AcDbText
  0
LINE
  5
793
330
A
100
AcDbEntity
  8
LEVEL001
  6
Continuous
 62
     6
370
    15
100
AcDbLine
 10
220.24186215677
 20
262.85102341848
 30
0.0
 11
220.24186215672
 21
212.85102341838
 31
0.0
  0
LINE
  5
794
330
A
100
AcDbEntity
  8
LEVEL001
  6
Continuous
 62
     6
370
    15
100
AcDbLine
 10
233.9611956807
 20
262.85102341847
 30
0.0
 11
219.24186215677
 21
262.85102341848
 31
0.0
  0
LINE
  5
795
330
A
100
AcDbEntity
  8
LEVEL001
  6
Continuous
 62
     6
370
    15
100
AcDbLine
 10
227.96119568055
 20
212.85102341837
 30
0.0
 11
219.24186215672
 21
212.85102341838
 31
0.0
  0
CIRCLE
  5
796
330
A
100
AcDbEntity
  8
LEVEL001
  6
Continuous
 62
     6
370
    15
100
AcDbCircle
 10
220.24186215677
 20
262.85102341848
 30
0.0
 40
0.4
  0
CIRCLE
  5
797
330
A
100
AcDbEntity
  8
LEVEL001
  6
Continuous
 62
     6
370
    15
100
AcDbCircle
 10
220.24186215672
 20
212.85102341838
 30
0.0
 40
0.4
  0
TEXT
  5
798
330
A
100
AcDbEntity
  8
LEVEL001
 62
     6
370
    15
100
AcDbText
 10
219.24186215675
 20
235.10102341843
 30
0.0
 40
3.0
  1
５０
 50
90.00000000005199
 41
0.8
100
AcDbText
  0
LINE
  5
799
330
A
100
AcDbEntity
  8
LEVEL001
  6
Continuous
 62
     6
370
    15
100
AcDbLine
 10
226.96119568057
 20
271.31488553474
 30
0.0
 11
276.96119568067
 21
271.31488553474
 31
0.0
  0
LINE
  5
79A
330
A
100
AcDbEntity
  8
LEVEL001
  6
Continuous
 62
     6
370
    15
100
AcDbLine
 10
226.96119568057
 20
255.85102341834
 30
0.0
 11
226.96119568057
 21
272.31488553474
 31
0.0
  0
LINE
  5
79B
330
A
100
AcDbEntity
  8
LEVEL001
  6
Continuous
 62
     6
370
    15
100
AcDbLine
 10
276.96119568067
 20
261.85102341845
 30
0.0
 11
276.96119568067
 21
272.31488553474
 31
0.0
  0
CIRCLE
  5
79C
330
A
100
AcDbEntity
  8
LEVEL001
  6
Continuous
 62
     6
370
    15
100
AcDbCircle
 10
226.96119568057
 20
271.31488553474
 30
0.0
 40
0.4
  0
CIRCLE
  5
79D
330
A
100
AcDbEntity
  8
LEVEL001
  6
Continuous
 62
     6
370
    15
100
AcDbCircle
 10
276.96119568067
 20
271.31488553474
 30
0.0
 40
0.4
  0
TEXT
  5
79E
330
A
100
AcDbEntity
  8
LEVEL001
 62
     6
370
    15
100
AcDbText
 10
249.21119568062
 20
272.31488553474
 30
0.0
 40
3.0
  1
５０
 41
0.8
100
AcDbText
  0
LINE
  5
79F
330
A
100
AcDbEntity
  8
LEVEL001
  6
Continuous
 62
     6
370
    15
100
AcDbLine
 10
165.3341011497
 20
262.85102341845
 30
0.0
 11
165.3341011497
 21
212.85102341834
 31
0.0
  0
LINE
  5
7A0
330
A
100
AcDbEntity
  8
LEVEL001
  6
Continuous
 62
     6
370
    15
100
AcDbLine
 10
181.07020396775
 20
262.85102341845
 30
0.0
 11
164.3341011497
 21
262.85102341845
 31
0.0
  0
LINE
  5
7A1
330
A
100
AcDbEntity
  8
LEVEL001
  6
Continuous
 62
     6
370
    15
100
AcDbLine
 10
181.07020396775
 20
212.85102341834
 30
0.0
 11
164.3341011497
 21
212.85102341834
 31
0.0
  0
CIRCLE
  5
7A2
330
A
100
AcDbEntity
  8
LEVEL001
  6
Continuous
 62
     6
370
    15
100
AcDbCircle
 10
165.3341011497
 20
262.85102341845
 30
0.0
 40
0.4
  0
CIRCLE
  5
7A3
330
A
100
AcDbEntity
  8
LEVEL001
  6
Continuous
 62
     6
370
    15
100
AcDbCircle
 10
165.3341011497
 20
212.85102341834
 30
0.0
 40
0.4
  0
TEXT
  5
7A4
330
A
100
AcDbEntity
  8
LEVEL001
 62
     6
370
    15
100
AcDbText
 10
164.3341011497
 20
235.1010234184
 30
0.0
 40
3.0
  1
５０
 50
90.0
 41
0.8
100
AcDbText
  0
LINE
  5
811
330
A
100
AcDbEntity
  8
LEVEL001
  6
Continuous
 62
     6
370
    15
100
AcDbLine
 10
81.307187405776
 20
100.03110730216
 30
0.0
 11
281.30718740578
 21
100.03110730216
 31
0.0
  0
LINE
  5
812
330
A
100
AcDbEntity
  8
LEVEL001
  6
Continuous
 62
     6
370
    15
100
AcDbLine
 10
81.307187405776
 20
109.03110730216
 30
0.0
 11
81.307187405776
 21
99.03110730215999
 31
0.0
  0
LINE
  5
813
330
A
100
AcDbEntity
  8
LEVEL001
  6
Continuous
 62
     6
370
    15
100
AcDbLine
 10
281.30718740578
 20
109.03110730216
 30
0.0
 11
281.30718740578
 21
99.03110730215999
 31
0.0
  0
CIRCLE
  5
814
330
A
100
AcDbEntity
  8
LEVEL001
  6
Continuous
 62
     6
370
    15
100
AcDbCircle
 10
81.307187405776
 20
100.03110730216
 30
0.0
 40
0.4
  0
CIRCLE
  5
815
330
A
100
AcDbEntity
  8
LEVEL001
  6
Continuous
 62
     6
370
    15
100
AcDbCircle
 10
281.30718740578
 20
100.03110730216
 30
0.0
 40
0.4
  0
TEXT
  5
816
330
A
100
AcDbEntity
  8
LEVEL001
 62
     6
370
    15
100
AcDbText
 10
176.05718740578
 20
101.03110730216
 30
0.0
 40
3.0
  1
３０００
 41
0.8
100
AcDbText
  0
LINE
  5
817
330
A
100
AcDbEntity
  8
LEVEL001
  6
Continuous
 62
     6
370
    15
100
AcDbLine
 10
291.30718740578
 20
126.03110730195
 30
0.0
 11
291.30718740578
 21
134.56444063536
 31
0.0
  0
LINE
  5
818
330
A
100
AcDbEntity
  8
LEVEL001
  6
Continuous
 62
     6
370
    15
100
AcDbLine
 10
281.3785477914
 20
126.03110730195
 30
0.0
 11
292.30718740578
 21
126.03110730195
 31
0.0
  0
LINE
  5
819
330
A
100
AcDbEntity
  8
LEVEL001
  6
Continuous
 62
     6
370
    15
100
AcDbLine
 10
282.30718740578
 20
134.56444063536
 30
0.0
 11
292.30718740578
 21
134.56444063536
 31
0.0
  0
CIRCLE
  5
81A
330
A
100
AcDbEntity
  8
LEVEL001
  6
Continuous
 62
     6
370
    15
100
AcDbCircle
 10
291.30718740578
 20
126.03110730195
 30
0.0
 40
0.4
  0
CIRCLE
  5
81B
330
A
100
AcDbEntity
  8
LEVEL001
  6
Continuous
 62
     6
370
    15
100
AcDbCircle
 10
291.30718740578
 20
134.56444063536
 30
0.0
 40
0.4
  0
TEXT
  5
81C
330
A
100
AcDbEntity
  8
LEVEL001
 62
     6
370
    15
100
AcDbText
 10
290.30718740578
 20
127.54777396866
 30
0.0
 40
3.0
  1
１６
 50
90.0
 41
0.8
100
AcDbText
  0
LINE
  5
81D
330
A
100
AcDbEntity
  8
LEVEL001
  6
Continuous
 62
     6
370
    15
100
AcDbLine
 10
81.307187405776
 20
154.56444063536
 30
0.0
 11
91.307187405776
 21
154.56444063536
 31
0.0
  0
LINE
  5
81E
330
A
100
AcDbEntity
  8
LEVEL001
  6
Continuous
 62
     6
370
    15
100
AcDbLine
 10
81.307187405776
 20
135.56444063536
 30
0.0
 11
81.307187405776
 21
155.56444063536
 31
0.0
  0
CIRCLE
  5
81F
330
A
100
AcDbEntity
  8
LEVEL001
  6
Continuous
 62
     6
370
    15
100
AcDbCircle
 10
81.307187405776
 20
154.56444063536
 30
0.0
 40
0.4
  0
TEXT
  5
820
330
A
100
AcDbEntity
  8
LEVEL001
 62
     6
370
    15
100
AcDbText
 10
82.307187405776
 20
155.56444063536
 30
0.0
 40
3.0
  1
１５０
 41
0.8
100
AcDbText
  0
LINE
  5
821
330
A
100
AcDbEntity
  8
LEVEL001
  6
Continuous
 62
     6
370
    15
100
AcDbLine
 10
91.307187405776
 20
154.56444063536
 30
0.0
 11
117.97385407244
 21
154.56444063536
 31
0.0
  0
LINE
  5
822
330
A
100
AcDbEntity
  8
LEVEL001
  6
Continuous
 62
     6
370
    15
100
AcDbLine
 10
91.307187405776
 20
135.56444063536
 30
0.0
 11
91.307187405776
 21
155.56444063536
 31
0.0
  0
CIRCLE
  5
823
330
A
100
AcDbEntity
  8
LEVEL001
  6
Continuous
 62
     6
370
    15
100
AcDbCircle
 10
91.307187405776
 20
154.56444063536
 30
0.0
 40
0.4
  0
TEXT
  5
824
330
A
100
AcDbEntity
  8
LEVEL001
 62
     6
370
    15
100
AcDbText
 10
100.64052073911
 20
155.56444063536
 30
0.0
 40
3.0
  1
４００
 41
0.8
100
AcDbText
  0
LINE
  5
825
330
A
100
AcDbEntity
  8
LEVEL001
  6
Continuous
 62
     6
370
    15
100
AcDbLine
 10
117.97385407244
 20
154.56444063536
 30
0.0
 11
144.64052073911
 21
154.56444063536
 31
0.0
  0
LINE
  5
826
330
A
100
AcDbEntity
  8
LEVEL001
  6
Continuous
 62
     6
370
    15
100
AcDbLine
 10
117.97385407244
 20
135.56444063536
 30
0.0
 11
117.97385407244
 21
155.56444063536
 31
0.0
  0
CIRCLE
  5
827
330
A
100
AcDbEntity
  8
LEVEL001
  6
Continuous
 62
     6
370
    15
100
AcDbCircle
 10
117.97385407244
 20
154.56444063536
 30
0.0
 40
0.4
  0
TEXT
  5
828
330
A
100
AcDbEntity
  8
LEVEL001
 62
     6
370
    15
100
AcDbText
 10
127.30718740578
 20
155.56444063536
 30
0.0
 40
3.0
  1
４００
 41
0.8
100
AcDbText
  0
LINE
  5
829
330
A
100
AcDbEntity
  8
LEVEL001
  6
Continuous
 62
     6
370
    15
100
AcDbLine
 10
144.64052073911
 20
154.56444063536
 30
0.0
 11
171.30718740578
 21
154.56444063536
 31
0.0
  0
LINE
  5
82A
330
A
100
AcDbEntity
  8
LEVEL001
  6
Continuous
 62
     6
370
    15
100
AcDbLine
 10
144.64052073911
 20
135.56444063536
 30
0.0
 11
144.64052073911
 21
155.56444063536
 31
0.0
  0
CIRCLE
  5
82B
330
A
100
AcDbEntity
  8
LEVEL001
  6
Continuous
 62
     6
370
    15
100
AcDbCircle
 10
144.64052073911
 20
154.56444063536
 30
0.0
 40
0.4
  0
TEXT
  5
82C
330
A
100
AcDbEntity
  8
LEVEL001
 62
     6
370
    15
100
AcDbText
 10
153.97385407244
 20
155.56444063536
 30
0.0
 40
3.0
  1
４００
 41
0.8
100
AcDbText
  0
LINE
  5
82D
330
A
100
AcDbEntity
  8
LEVEL001
  6
Continuous
 62
     6
370
    15
100
AcDbLine
 10
171.30718740578
 20
154.56444063536
 30
0.0
 11
197.97385407244
 21
154.56444063536
 31
0.0
  0
LINE
  5
82E
330
A
100
AcDbEntity
  8
LEVEL001
  6
Continuous
 62
     6
370
    15
100
AcDbLine
 10
171.30718740578
 20
135.56444063536
 30
0.0
 11
171.30718740578
 21
155.56444063536
 31
0.0
  0
CIRCLE
  5
82F
330
A
100
AcDbEntity
  8
LEVEL001
  6
Continuous
 62
     6
370
    15
100
AcDbCircle
 10
171.30718740578
 20
154.56444063536
 30
0.0
 40
0.4
  0
TEXT
  5
830
330
A
100
AcDbEntity
  8
LEVEL001
 62
     6
370
    15
100
AcDbText
 10
180.64052073911
 20
155.56444063536
 30
0.0
 40
3.0
  1
４００
 41
0.8
100
AcDbText
  0
LINE
  5
831
330
A
100
AcDbEntity
  8
LEVEL001
  6
Continuous
 62
     6
370
    15
100
AcDbLine
 10
197.97385407244
 20
154.56444063536
 30
0.0
 11
224.64052073911
 21
154.56444063536
 31
0.0
  0
LINE
  5
832
330
A
100
AcDbEntity
  8
LEVEL001
  6
Continuous
 62
     6
370
    15
100
AcDbLine
 10
197.97385407244
 20
135.56444063536
 30
0.0
 11
197.97385407244
 21
155.56444063536
 31
0.0
  0
CIRCLE
  5
833
330
A
100
AcDbEntity
  8
LEVEL001
  6
Continuous
 62
     6
370
    15
100
AcDbCircle
 10
197.97385407244
 20
154.56444063536
 30
0.0
 40
0.4
  0
TEXT
  5
834
330
A
100
AcDbEntity
  8
LEVEL001
 62
     6
370
    15
100
AcDbText
 10
207.30718740578
 20
155.56444063536
 30
0.0
 40
3.0
  1
４００
 41
0.8
100
AcDbText
  0
LINE
  5
835
330
A
100
AcDbEntity
  8
LEVEL001
  6
Continuous
 62
     6
370
    15
100
AcDbLine
 10
224.64052073911
 20
154.56444063536
 30
0.0
 11
251.30718740578
 21
154.56444063536
 31
0.0
  0
LINE
  5
836
330
A
100
AcDbEntity
  8
LEVEL001
  6
Continuous
 62
     6
370
    15
100
AcDbLine
 10
224.64052073911
 20
135.56444063536
 30
0.0
 11
224.64052073911
 21
155.56444063536
 31
0.0
  0
CIRCLE
  5
837
330
A
100
AcDbEntity
  8
LEVEL001
  6
Continuous
 62
     6
370
    15
100
AcDbCircle
 10
224.64052073911
 20
154.56444063536
 30
0.0
 40
0.4
  0
TEXT
  5
838
330
A
100
AcDbEntity
  8
LEVEL001
 62
     6
370
    15
100
AcDbText
 10
233.97385407244
 20
155.56444063536
 30
0.0
 40
3.0
  1
４００
 41
0.8
100
AcDbText
  0
LINE
  5
839
330
A
100
AcDbEntity
  8
LEVEL001
  6
Continuous
 62
     6
370
    15
100
AcDbLine
 10
251.30718740578
 20
154.56444063536
 30
0.0
 11
277.97385407244
 21
154.56444063536
 31
0.0
  0
LINE
  5
83A
330
A
100
AcDbEntity
  8
LEVEL001
  6
Continuous
 62
     6
370
    15
100
AcDbLine
 10
251.30718740578
 20
135.56444063536
 30
0.0
 11
251.30718740578
 21
155.56444063536
 31
0.0
  0
CIRCLE
  5
83B
330
A
100
AcDbEntity
  8
LEVEL001
  6
Continuous
 62
     6
370
    15
100
AcDbCircle
 10
251.30718740578
 20
154.56444063536
 30
0.0
 40
0.4
  0
TEXT
  5
83C
330
A
100
AcDbEntity
  8
LEVEL001
 62
     6
370
    15
100
AcDbText
 10
260.64052073911
 20
155.56444063536
 30
0.0
 40
3.0
  1
４００
 41
0.8
100
AcDbText
  0
LINE
  5
83D
330
A
100
AcDbEntity
  8
LEVEL001
  6
Continuous
 62
     6
370
    15
100
AcDbLine
 10
277.97385407244
 20
154.56444063536
 30
0.0
 11
288.11813199426
 21
154.56444063536
 31
0.0
  0
LINE
  5
83E
330
A
100
AcDbEntity
  8
LEVEL001
  6
Continuous
 62
     6
370
    15
100
AcDbLine
 10
277.97385407244
 20
135.56444063536
 30
0.0
 11
277.97385407244
 21
155.56444063536
 31
0.0
  0
LINE
  5
83F
330
A
100
AcDbEntity
  8
LEVEL001
  6
Continuous
 62
     6
370
    15
100
AcDbLine
 10
281.30718740578
 20
135.56444063536
 30
0.0
 11
281.30718740578
 21
155.56444063536
 31
0.0
  0
CIRCLE
  5
840
330
A
100
AcDbEntity
  8
LEVEL001
  6
Continuous
 62
     6
370
    15
100
AcDbCircle
 10
277.97385407244
 20
154.56444063536
 30
0.0
 40
0.4
  0
CIRCLE
  5
841
330
A
100
AcDbEntity
  8
LEVEL001
  6
Continuous
 62
     6
370
    15
100
AcDbCircle
 10
281.30718740578
 20
154.56444063536
 30
0.0
 40
0.4
  0
TEXT
  5
842
330
A
100
AcDbEntity
  8
LEVEL001
 62
     6
370
    15
100
AcDbText
 10
282.61813199426
 20
155.65214038676
 30
0.0
 40
3.0
  1
５０
 41
0.8
100
AcDbText
  0
LINE
  5
843
330
A
100
AcDbEntity
  8
LEVEL001
  6
Continuous
 62
     6
370
    15
100
AcDbLine
 10
281.30718740578
 20
92.28018272261399
 30
0.0
 11
81.307187405776
 21
92.28018272261399
 31
0.0
  0
LINE
  5
844
330
A
100
AcDbEntity
  8
LEVEL001
  6
Continuous
 62
     6
370
    15
100
AcDbLine
 10
281.30718740578
 20
83.28018272261401
 30
0.0
 11
281.30718740578
 21
93.28018272261401
 31
0.0
  0
LINE
  5
845
330
A
100
AcDbEntity
  8
LEVEL001
  6
Continuous
 62
     6
370
    15
100
AcDbLine
 10
81.307187405776
 20
83.28018272261401
 30
0.0
 11
81.307187405776
 21
93.28018272261401
 31
0.0
  0
CIRCLE
  5
846
330
A
100
AcDbEntity
  8
LEVEL001
  6
Continuous
 62
     6
370
    15
100
AcDbCircle
 10
281.30718740578
 20
92.28018272261399
 30
0.0
 40
0.4
  0
CIRCLE
  5
847
330
A
100
AcDbEntity
  8
LEVEL001
  6
Continuous
 62
     6
370
    15
100
AcDbCircle
 10
81.307187405776
 20
92.28018272261399
 30
0.0
 40
0.4
  0
TEXT
  5
848
330
A
100
AcDbEntity
  8
LEVEL001
 62
     6
370
    15
100
AcDbText
 10
176.05718740578
 20
93.28018272261401
 30
0.0
 40
3.0
  1
３０００
 41
0.8
100
AcDbText
  0
LINE
  5
849
330
A
100
AcDbEntity
  8
LEVEL001
  6
Continuous
 62
     6
370
    15
100
AcDbLine
 10
291.30718740578
 20
57.74684938941099
 30
0.0
 11
291.30718740578
 21
66.28018272282701
 31
0.0
  0
LINE
  5
84A
330
A
100
AcDbEntity
  8
LEVEL001
  6
Continuous
 62
     6
370
    15
100
AcDbLine
 10
282.30718740578
 20
57.74684938941099
 30
0.0
 11
292.30718740578
 21
57.74684938941099
 31
0.0
  0
LINE
  5
84B
330
A
100
AcDbEntity
  8
LEVEL001
  6
Continuous
 62
     6
370
    15
100
AcDbLine
 10
274.71188112473
 20
66.28018272282701
 30
0.0
 11
292.30718740578
 21
66.28018272282701
 31
0.0
  0
CIRCLE
  5
84C
330
A
100
AcDbEntity
  8
LEVEL001
  6
Continuous
 62
     6
370
    15
100
AcDbCircle
 10
291.30718740578
 20
57.74684938941099
 30
0.0
 40
0.4
  0
CIRCLE
  5
84D
330
A
100
AcDbEntity
  8
LEVEL001
  6
Continuous
 62
     6
370
    15
100
AcDbCircle
 10
291.30718740578
 20
66.28018272282701
 30
0.0
 40
0.4
  0
TEXT
  5
84E
330
A
100
AcDbEntity
  8
LEVEL001
 62
     6
370
    15
100
AcDbText
 10
290.30718740578
 20
59.263516056119
 30
0.0
 40
3.0
  1
１６
 50
90.0
 41
0.8
100
AcDbText
  0
LINE
  5
84F
330
A
100
AcDbEntity
  8
LEVEL001
  6
Continuous
 62
     6
370
    15
100
AcDbLine
 10
281.30718740578
 20
37.746849389411
 30
0.0
 11
271.30718740578
 21
37.746849389411
 31
0.0
  0
LINE
  5
850
330
A
100
AcDbEntity
  8
LEVEL001
  6
Continuous
 62
     6
370
    15
100
AcDbLine
 10
281.30718740578
 20
56.746849389411
 30
0.0
 11
281.30718740578
 21
36.746849389411
 31
0.0
  0
CIRCLE
  5
851
330
A
100
AcDbEntity
  8
LEVEL001
  6
Continuous
 62
     6
370
    15
100
AcDbCircle
 10
281.30718740578
 20
37.746849389411
 30
0.0
 40
0.4
  0
TEXT
  5
852
330
A
100
AcDbEntity
  8
LEVEL001
 62
     6
370
    15
100
AcDbText
 10
272.30718740578
 20
38.746849389411
 30
0.0
 40
3.0
  1
１５０
 41
0.8
100
AcDbText
  0
LINE
  5
853
330
A
100
AcDbEntity
  8
LEVEL001
  6
Continuous
 62
     6
370
    15
100
AcDbLine
 10
271.30718740578
 20
37.746849389411
 30
0.0
 11
244.64052073911
 21
37.746849389411
 31
0.0
  0
LINE
  5
854
330
A
100
AcDbEntity
  8
LEVEL001
  6
Continuous
 62
     6
370
    15
100
AcDbLine
 10
271.30718740578
 20
56.746849389411
 30
0.0
 11
271.30718740578
 21
36.746849389411
 31
0.0
  0
CIRCLE
  5
855
330
A
100
AcDbEntity
  8
LEVEL001
  6
Continuous
 62
     6
370
    15
100
AcDbCircle
 10
271.30718740578
 20
37.746849389411
 30
0.0
 40
0.4
  0
TEXT
  5
856
330
A
100
AcDbEntity
  8
LEVEL001
 62
     6
370
    15
100
AcDbText
 10
253.97385407244
 20
38.746849389411
 30
0.0
 40
3.0
  1
４００
 41
0.8
100
AcDbText
  0
LINE
  5
857
330
A
100
AcDbEntity
  8
LEVEL001
  6
Continuous
 62
     6
370
    15
100
AcDbLine
 10
244.64052073911
 20
37.746849389411
 30
0.0
 11
217.97385407244
 21
37.746849389411
 31
0.0
  0
LINE
  5
858
330
A
100
AcDbEntity
  8
LEVEL001
  6
Continuous
 62
     6
370
    15
100
AcDbLine
 10
244.64052073911
 20
56.746849389411
 30
0.0
 11
244.64052073911
 21
36.746849389411
 31
0.0
  0
CIRCLE
  5
859
330
A
100
AcDbEntity
  8
LEVEL001
  6
Continuous
 62
     6
370
    15
100
AcDbCircle
 10
244.64052073911
 20
37.746849389411
 30
0.0
 40
0.4
  0
TEXT
  5
85A
330
A
100
AcDbEntity
  8
LEVEL001
 62
     6
370
    15
100
AcDbText
 10
227.30718740578
 20
38.746849389411
 30
0.0
 40
3.0
  1
４００
 41
0.8
100
AcDbText
  0
LINE
  5
85B
330
A
100
AcDbEntity
  8
LEVEL001
  6
Continuous
 62
     6
370
    15
100
AcDbLine
 10
217.97385407244
 20
37.746849389411
 30
0.0
 11
191.30718740578
 21
37.746849389411
 31
0.0
  0
LINE
  5
85C
330
A
100
AcDbEntity
  8
LEVEL001
  6
Continuous
 62
     6
370
    15
100
AcDbLine
 10
217.97385407244
 20
56.746849389411
 30
0.0
 11
217.97385407244
 21
36.746849389411
 31
0.0
  0
CIRCLE
  5
85D
330
A
100
AcDbEntity
  8
LEVEL001
  6
Continuous
 62
     6
370
    15
100
AcDbCircle
 10
217.97385407244
 20
37.746849389411
 30
0.0
 40
0.4
  0
TEXT
  5
85E
330
A
100
AcDbEntity
  8
LEVEL001
 62
     6
370
    15
100
AcDbText
 10
200.64052073911
 20
38.746849389411
 30
0.0
 40
3.0
  1
４００
 41
0.8
100
AcDbText
  0
LINE
  5
85F
330
A
100
AcDbEntity
  8
LEVEL001
  6
Continuous
 62
     6
370
    15
100
AcDbLine
 10
191.30718740578
 20
37.746849389411
 30
0.0
 11
164.64052073911
 21
37.746849389411
 31
0.0
  0
LINE
  5
860
330
A
100
AcDbEntity
  8
LEVEL001
  6
Continuous
 62
     6
370
    15
100
AcDbLine
 10
191.30718740578
 20
56.746849389411
 30
0.0
 11
191.30718740578
 21
36.746849389411
 31
0.0
  0
CIRCLE
  5
861
330
A
100
AcDbEntity
  8
LEVEL001
  6
Continuous
 62
     6
370
    15
100
AcDbCircle
 10
191.30718740578
 20
37.746849389411
 30
0.0
 40
0.4
  0
TEXT
  5
862
330
A
100
AcDbEntity
  8
LEVEL001
 62
     6
370
    15
100
AcDbText
 10
173.97385407244
 20
38.746849389411
 30
0.0
 40
3.0
  1
４００
 41
0.8
100
AcDbText
  0
LINE
  5
863
330
A
100
AcDbEntity
  8
LEVEL001
  6
Continuous
 62
     6
370
    15
100
AcDbLine
 10
164.64052073911
 20
37.746849389411
 30
0.0
 11
137.97385407244
 21
37.746849389411
 31
0.0
  0
LINE
  5
864
330
A
100
AcDbEntity
  8
LEVEL001
  6
Continuous
 62
     6
370
    15
100
AcDbLine
 10
164.64052073911
 20
56.746849389411
 30
0.0
 11
164.64052073911
 21
36.746849389411
 31
0.0
  0
CIRCLE
  5
865
330
A
100
AcDbEntity
  8
LEVEL001
  6
Continuous
 62
     6
370
    15
100
AcDbCircle
 10
164.64052073911
 20
37.746849389411
 30
0.0
 40
0.4
  0
TEXT
  5
866
330
A
100
AcDbEntity
  8
LEVEL001
 62
     6
370
    15
100
AcDbText
 10
147.30718740578
 20
38.746849389411
 30
0.0
 40
3.0
  1
４００
 41
0.8
100
AcDbText
  0
LINE
  5
867
330
A
100
AcDbEntity
  8
LEVEL001
  6
Continuous
 62
     6
370
    15
100
AcDbLine
 10
137.97385407244
 20
37.746849389411
 30
0.0
 11
111.30718740578
 21
37.746849389411
 31
0.0
  0
LINE
  5
868
330
A
100
AcDbEntity
  8
LEVEL001
  6
Continuous
 62
     6
370
    15
100
AcDbLine
 10
137.97385407244
 20
56.746849389411
 30
0.0
 11
137.97385407244
 21
36.746849389411
 31
0.0
  0
CIRCLE
  5
869
330
A
100
AcDbEntity
  8
LEVEL001
  6
Continuous
 62
     6
370
    15
100
AcDbCircle
 10
137.97385407244
 20
37.746849389411
 30
0.0
 40
0.4
  0
TEXT
  5
86A
330
A
100
AcDbEntity
  8
LEVEL001
 62
     6
370
    15
100
AcDbText
 10
120.64052073911
 20
38.746849389411
 30
0.0
 40
3.0
  1
４００
 41
0.8
100
AcDbText
  0
LINE
  5
86B
330
A
100
AcDbEntity
  8
LEVEL001
  6
Continuous
 62
     6
370
    15
100
AcDbLine
 10
111.30718740578
 20
37.746849389411
 30
0.0
 11
84.64052073910899
 21
37.746849389411
 31
0.0
  0
LINE
  5
86C
330
A
100
AcDbEntity
  8
LEVEL001
  6
Continuous
 62
     6
370
    15
100
AcDbLine
 10
111.30718740578
 20
56.746849389411
 30
0.0
 11
111.30718740578
 21
36.746849389411
 31
0.0
  0
CIRCLE
  5
86D
330
A
100
AcDbEntity
  8
LEVEL001
  6
Continuous
 62
     6
370
    15
100
AcDbCircle
 10
111.30718740578
 20
37.746849389411
 30
0.0
 40
0.4
  0
TEXT
  5
86E
330
A
100
AcDbEntity
  8
LEVEL001
 62
     6
370
    15
100
AcDbText
 10
93.97385407244199
 20
38.746849389411
 30
0.0
 40
3.0
  1
４００
 41
0.8
100
AcDbText
  0
LINE
  5
86F
330
A
100
AcDbEntity
  8
LEVEL001
  6
Continuous
 62
     6
370
    15
100
AcDbLine
 10
84.64052073910899
 20
37.746849389411
 30
0.0
 11
74.889056188983
 21
37.746849389411
 31
0.0
  0
LINE
  5
870
330
A
100
AcDbEntity
  8
LEVEL001
  6
Continuous
 62
     6
370
    15
100
AcDbLine
 10
84.64052073910899
 20
56.746849389411
 30
0.0
 11
84.64052073910899
 21
36.746849389411
 31
0.0
  0
LINE
  5
871
330
A
100
AcDbEntity
  8
LEVEL001
  6
Continuous
 62
     6
370
    15
100
AcDbLine
 10
81.307187405776
 20
56.746849389411
 30
0.0
 11
81.307187405776
 21
36.746849389411
 31
0.0
  0
CIRCLE
  5
872
330
A
100
AcDbEntity
  8
LEVEL001
  6
Continuous
 62
     6
370
    15
100
AcDbCircle
 10
84.64052073910899
 20
37.746849389411
 30
0.0
 40
0.4
  0
CIRCLE
  5
873
330
A
100
AcDbEntity
  8
LEVEL001
  6
Continuous
 62
     6
370
    15
100
AcDbCircle
 10
81.307187405776
 20
37.746849389411
 30
0.0
 40
0.4
  0
TEXT
  5
874
330
A
100
AcDbEntity
  8
LEVEL001
 62
     6
370
    15
100
AcDbText
 10
74.889056188983
 20
38.551262496791
 30
0.0
 40
3.0
  1
５０
 41
0.8
100
AcDbText
  0
LINE
  5
875
330
A
100
AcDbEntity
  8
LEVEL001
  6
Continuous
 62
     6
370
    15
100
AcDbLine
 10
62.011933242293
 20
57.74684938941099
 30
0.0
 11
62.011933242293
 21
66.28018272282701
 31
0.0
  0
LINE
  5
876
330
A
100
AcDbEntity
  8
LEVEL001
  6
Continuous
 62
     6
370
    15
100
AcDbLine
 10
52.011933242293
 20
57.74684938941099
 30
0.0
 11
63.01193324229299
 21
57.74684938941099
 31
0.0
  0
LINE
  5
877
330
A
100
AcDbEntity
  8
LEVEL001
  6
Continuous
 62
     6
370
    15
100
AcDbLine
 10
55.05366125141399
 20
66.28018272282701
 30
0.0
 11
63.01193324229299
 21
66.28018272282701
 31
0.0
  0
CIRCLE
  5
878
330
A
100
AcDbEntity
  8
LEVEL001
  6
Continuous
 62
     6
370
    15
100
AcDbCircle
 10
62.011933242293
 20
57.74684938941099
 30
0.0
 40
0.4
  0
CIRCLE
  5
879
330
A
100
AcDbEntity
  8
LEVEL001
  6
Continuous
 62
     6
370
    15
100
AcDbCircle
 10
62.011933242293
 20
66.28018272282701
 30
0.0
 40
0.4
  0
TEXT
  5
87A
330
A
100
AcDbEntity
  8
LEVEL001
 62
     6
370
    15
100
AcDbText
 10
60.72621895657899
 20
59.013516056119
 30
0.0
 40
3.0
  1
１６
 50
90.0
 41
0.8
100
AcDbText
  0
LINE
  5
87B
330
A
100
AcDbEntity
  8
LEVEL001
  6
Continuous
 62
     6
370
    15
100
AcDbLine
 10
68.510570945558
 20
82.28018272261399
 30
0.0
 11
68.510570945558
 21
57.74684938941099
 31
0.0
  0
LINE
  5
87C
330
A
100
AcDbEntity
  8
LEVEL001
  6
Continuous
 62
     6
370
    15
100
AcDbLine
 10
32.55870143782
 20
82.28018272261399
 30
0.0
 11
69.510570945558
 21
82.28018272261399
 31
0.0
  0
LINE
  5
87D
330
A
100
AcDbEntity
  8
LEVEL001
  6
Continuous
 62
     6
370
    15
100
AcDbLine
 10
60.811933242293
 20
57.74684938941099
 30
0.0
 11
69.510570945558
 21
57.74684938941099
 31
0.0
  0
CIRCLE
  5
87E
330
A
100
AcDbEntity
  8
LEVEL001
  6
Continuous
 62
     6
370
    15
100
AcDbCircle
 10
68.510570945558
 20
82.28018272261399
 30
0.0
 40
0.4
  0
CIRCLE
  5
87F
330
A
100
AcDbEntity
  8
LEVEL001
  6
Continuous
 62
     6
370
    15
100
AcDbCircle
 10
68.510570945558
 20
57.74684938941099
 30
0.0
 40
0.4
  0
TEXT
  5
880
330
A
100
AcDbEntity
  8
LEVEL001
 62
     6
370
    15
100
AcDbText
 10
67.510570945558
 20
67.26351605601199
 30
0.0
 40
3.0
  1
４６
 50
90.0
 41
0.8
100
AcDbText
  0
LINE
  5
881
330
A
100
AcDbEntity
  8
LEVEL001
  6
Continuous
 62
     6
370
    15
100
AcDbLine
 10
62.011933242293
 20
134.56444063536
 30
0.0
 11
62.011933242293
 21
126.03110730195
 31
0.0
  0
LINE
  5
882
330
A
100
AcDbEntity
  8
LEVEL001
  6
Continuous
 62
     6
370
    15
100
AcDbLine
 10
52.011933242293
 20
134.56444063536
 30
0.0
 11
63.01193324229299
 21
134.56444063536
 31
0.0
  0
LINE
  5
883
330
A
100
AcDbEntity
  8
LEVEL001
  6
Continuous
 62
     6
370
    15
100
AcDbLine
 10
55.05366125141399
 20
126.03110730195
 30
0.0
 11
63.01193324229299
 21
126.03110730195
 31
0.0
  0
CIRCLE
  5
884
330
A
100
AcDbEntity
  8
LEVEL001
  6
Continuous
 62
     6
370
    15
100
AcDbCircle
 10
62.011933242293
 20
134.56444063536
 30
0.0
 40
0.4
  0
CIRCLE
  5
885
330
A
100
AcDbEntity
  8
LEVEL001
  6
Continuous
 62
     6
370
    15
100
AcDbCircle
 10
62.011933242293
 20
126.03110730195
 30
0.0
 40
0.4
  0
TEXT
  5
886
330
A
100
AcDbEntity
  8
LEVEL001
 62
     6
370
    15
100
AcDbText
 10
60.72621895657899
 20
127.29777396866
 30
0.0
 40
3.0
  1
１６
 50
90.0
 41
0.8
100
AcDbText
  0
LINE
  5
887
330
A
100
AcDbEntity
  8
LEVEL001
  6
Continuous
 62
     6
370
    15
100
AcDbLine
 10
68.510570945558
 20
134.56444063536
 30
0.0
 11
68.510570945558
 21
110.03110730216
 31
0.0
  0
LINE
  5
888
330
A
100
AcDbEntity
  8
LEVEL001
  6
Continuous
 62
     6
370
    15
100
AcDbLine
 10
60.811933242293
 20
134.56444063536
 30
0.0
 11
69.510570945558
 21
134.56444063536
 31
0.0
  0
LINE
  5
889
330
A
100
AcDbEntity
  8
LEVEL001
  6
Continuous
 62
     6
370
    15
100
AcDbLine
 10
32.55870143782
 20
110.03110730216
 30
0.0
 11
69.510570945558
 21
110.03110730216
 31
0.0
  0
CIRCLE
  5
88A
330
A
100
AcDbEntity
  8
LEVEL001
  6
Continuous
 62
     6
370
    15
100
AcDbCircle
 10
68.510570945558
 20
134.56444063536
 30
0.0
 40
0.4
  0
CIRCLE
  5
88B
330
A
100
AcDbEntity
  8
LEVEL001
  6
Continuous
 62
     6
370
    15
100
AcDbCircle
 10
68.510570945558
 20
110.03110730216
 30
0.0
 40
0.4
  0
TEXT
  5
88C
330
A
100
AcDbEntity
  8
LEVEL001
 62
     6
370
    15
100
AcDbText
 10
67.510570945558
 20
119.54777396876
 30
0.0
 40
3.0
  1
４６
 50
90.0
 41
0.8
100
AcDbText
  0
HATCH
  5
A76
330
A
100
AcDbEntity
  8
LEVEL001
  6
Continuous
100
AcDbHatch
 10
0.0
 20
0.0
 30
0.0
210
0.0
220
0.0
230
1.0
  2
SOLID
 70
     1
 71
     1
 91
        9
 92
        7
 72
     0
 73
     1
 93
        6
 10
324.45000000004
 20
280.475
 10
319.05000000004
 20
280.475
 10
312.65000000004
 20
270.875
 10
319.05000000004
 20
261.275
 10
324.45000000004
 20
261.275
 10
318.05000000004
 20
270.875
 97
        4
330
139
330
134
330
13F
330
13A
 92
        7
 72
     0
 73
     1
 93
        6
 10
332.55000000004
 20
280.475
 10
327.15000000004
 20
280.475
 10
320.75000000004
 20
270.875
 10
327.15000000004
 20
261.275
 10
332.55000000004
 20
261.275
 10
326.15000000004
 20
270.875
 97
        4
330
145
330
140
330
14B
330
146
 92
        7
 72
     0
 73
     1
 93
        3
 10
333.35000000004
 20
270.875
 10
328.85000000004
 20
270.875
 10
333.35000000004
 20
263.675
 97
        2
330
11F
330
117
 92
        7
 72
     1
 73
     1
 93
        6
 10
344.15000000004
 20
272.075
 42
0.0
 10
336.95000000004
 20
272.075
 42
0.0
 10
336.95000000004
 20
261.275
 42
0.0
 10
340.55000000004
 20
261.275
 42
0.0
 10
340.55000000004
 20
263.075
 42
0.0
 10
344.15000000004
 20
263.075
 42
1.0
 97
        3
330
EC
330
B0
330
EB
 92
       22
 72
     1
 73
     1
 93
        4
 10
344.15000000004
 20
268.475
 42
-1.0
 10
344.15000000004
 20
266.675
 42
0.0
 10
340.55000000004
 20
266.675
 42
0.0
 10
340.55000000004
 20
268.475
 42
0.0
 97
        4
330
EF
330
EE
330
ED
330
F0
 92
        7
 72
     0
 73
     1
 93
        4
 10
358.55000000004
 20
272.075
 10
353.15000000004
 20
272.075
 10
345.95000000004
 20
261.275
 10
351.35000000004
 20
261.275
 97
        2
330
BD
330
F3
 92
       23
 72
     0
 73
     1
 93
        3
 10
357.35000000004
 20
268.11166923472
 10
352.79222051023
 20
261.275
 10
357.35000000004
 20
261.275
 97
        2
330
F6
330
D9
 92
        7
 72
     0
 73
     1
 93
       22
 10
371.15000000004
 20
268.475
 10
374.75000000004
 20
268.475
 10
374.75000000004
 20
261.275
 10
385.55000000004
 20
261.275
 10
385.55000000004
 20
264.875
 10
378.35000000004
 20
264.875
 10
378.35000000004
 20
265.775
 10
384.65000000004
 20
265.775
 10
384.65000000004
 20
267.575
 10
378.35000000004
 20
267.575
 10
378.35000000004
 20
268.475
 10
385.55000000004
 20
268.475
 10
385.55000000004
 20
272.075
 10
363.95000000004
 20
272.075
 10
363.95000000004
 20
268.475
 10
367.55000000004
 20
268.475
 10
367.55000000004
 20
264.875
 10
362.15000000004
 20
264.875
 10
362.15000000004
 20
272.075
 10
358.55000000004
 20
272.075
 10
358.55000000004
 20
261.275
 10
371.15000000004
 20
261.275
 97
        2
330
BD
330
F8
 92
        7
 72
     1
 73
     1
 93
        8
 10
396.35000000004
 20
264.875
 42
0.0
 10
390.95000000004
 20
264.875
 42
-1.0
 10
390.95000000004
 20
268.475
 42
0.0
 10
396.35000000004
 20
268.475
 42
0.0
 10
396.35000000004
 20
272.075
 42
0.0
 10
390.95000000004
 20
272.075
 42
1.0
 10
390.95000000004
 20
261.2750000000001
 42
0.0
 10
396.35000000004
 20
261.275
 42
0.0
 97
        7
330
110
330
111
330
112
330
E1
330
115
330
10E
330
10F
 75
     1
 76
     1
 47
0.1768692574943107
 98
        9
 10
316.3028085384976
 20
271.1438256596732
 10
326.0377771801086
 20
271.1438256596732
 10
331.5247606487755
 20
269.3751313677205
 10
342.1447340622563
 20
269.3751313677205
 10
342.1447340622563
 20
269.3751313677205
 10
352.7647032832892
 20
264.599661457338
 10
355.7736943529599
 20
263.1847069148023
 10
364.6236666075974
 20
263.0078381538772
 10
394.359579588001
 20
263.0078381538772
450
        0
451
        0
460
0.0
461
0.0
452
        0
462
1.0
453
        2
463
0.0
 63
     5
421
      255
463
1.0
 63
     2
421
 16776960
470
LINEAR
1001
GradientColor1ACI
1070
     5
1001
GradientColor2ACI
1070
     2
1001
ACAD
1010
0.0
1020
0.0
1030
0.0
  0
TEXT
  5
B47
330
A
100
AcDbEntity
  8
LEVEL001
 62
     7
100
AcDbText
 10
306.69647188433
 20
77.20675900622649
 30
0.0
 40
3.0
  1
※カラーバリエーションはカタログ参照願います
 41
0.8
100
AcDbText
  0
TEXT
  5
B48
330
A
100
AcDbEntity
  8
LEVEL001
 62
     7
100
AcDbText
 10
306.69647188433
 20
73.20675900622649
 30
0.0
 40
3.0
  1
※本製品は予告無しに変更する事があります。
 41
0.8
100
AcDbText
  0
LINE
  5
B49
330
A
100
AcDbEntity
  8
LEVEL001
  6
Continuous
 62
     3
100
AcDbLine
 10
304.50000000003
 20
83.34590242265397
 30
0.0
 11
404.50000000003
 21
83.34590242265397
 31
0.0
  0
TEXT
  5
B4A
330
A
100
AcDbEntity
  8
LEVEL001
 62
     7
100
AcDbText
 10
371.8550845608299
 20
40.50000000000848
 30
0.0
 40
3.0
  1
令和　２年　４月　１日
 41
0.8
 72
     1
 11
387.21508456083
 21
42.00000000000847
 31
0.0
100
AcDbText
 73
     2
  0
MTEXT
  5
18E0
330
A
100
AcDbEntity
  8
0
 62
     8
370
    15
100
AcDbMText
 10
45.10617476264963
 20
28.28361192693601
 30
0.0
 40
3.0
 41
0.0
 46
0.0
 71
     5
 72
     1
  1
\T1.000000;穴－詳細図
  7
GMM001
 73
     1
 44
0.7999998400000301
  0
LINE
  5
18E1
330
A
100
AcDbEntity
  8
0
  6
Continuous
 62
     8
370
    15
100
AcDbLine
 10
34.05264678211563
 20
26.03543674445598
 30
0.0
 11
56.15970274318965
 21
26.03543674445598
 31
0.0
  0
LINE
  5
18EE
330
A
100
AcDbEntity
  8
0
  6
DASHDOT
 48
0.5
370
    15
100
AcDbLine
 10
45.01922183242959
 20
35.440728051046
 30
0.0
 11
45.01922183242959
 21
42.50642148170595
 31
0.0
  0
LINE
  5
18EF
330
A
100
AcDbEntity
  8
0
  6
DASHDOT
 48
0.5
370
    15
100
AcDbLine
 10
40.99952264780165
 20
38.97357476637603
 30
0.0
 11
49.03892101705969
 21
38.97357476637603
 31
0.0
  0
CIRCLE
  5
18F0
330
A
100
AcDbEntity
  8
0
  6
Continuous
370
    40
100
AcDbCircle
 10
45.01922183242959
 20
38.97357476637603
 30
0.0
 40
2.0
  0
DIMENSION
  5
18F1
330
A
100
AcDbEntity
  8
0
  6
Continuous
370
    15
100
AcDbDimension
280
     0
  2
*D29
 10
43.47272031034912
 20
37.70537405583578
 30
0.0
 11
49.23335165206168
 21
45.66245433347862
 31
0.0
 70
    35
 71
     5
 42
3.999999999998628
 73
     0
 74
     0
 75
     0
  3
GMM002
100
AcDbDiametricDimension
 15
46.56572335450926
 25
40.24177547690564
 35
0.0
 40
0.0
1001
ACAD
1000
DSTYLE
1002
{
1070
    41
1040
1.0
1070
   343
1005
15
1070
   344
1005
15
1070
   176
1070
     7
1070
   178
1070
     7
1002
}
  0
TEXT
  5
192B
330
A
100
AcDbEntity
  8
LEVEL001
100
AcDbText
 10
371.8550845608301
 20
33.8333333333385
 30
0.0
 40
3.0
  1
令和　３年１２月２２日
 41
0.8
 72
     1
 11
387.2150845608301
 21
35.3333333333385
 31
0.0
100
AcDbText
 73
     2
  0
ENDSEC
  0
SECTION
  2
OBJECTS
  0
DICTIONARY
  5
3C
330
0
100
AcDbDictionary
281
     1
  3
ACAD_CIP_PREVIOUS_PRODUCT_INFO
350
A29
  3
ACAD_COLOR
350
9BC
  3
ACAD_GROUP
350
3D
  3
ACAD_LAYOUT
350
9BF
  3
ACAD_MATERIAL
350
9BB
  3
ACAD_MLEADERSTYLE
350
A24
  3
ACAD_MLINESTYLE
350
3E
  3
ACAD_PLOTSETTINGS
350
9C0
  3
ACAD_PLOTSTYLENAME
350
9B9
  3
ACAD_SCALELIST
350
A12
  3
ACAD_TABLESTYLE
350
9BD
  3
ACAD_VISUALSTYLE
350
9F9
  3
ACDB_RECOMPOSE_DATA
350
194E
  3
AcDbVariableDictionary
350
9C7
  0
DICTIONARY
  5
B18
330
67
100
AcDbDictionary
280
     1
281
     1
  3
ACAD_LAYERSTATES
360
B19
  0
DICTIONARY
  5
B0F
330
38
100
AcDbDictionary
280
     1
281
     1
  3
ADSK_XREC_LAYER_RECONCILED
360
B10
  0
DICTIONARY
  5
B11
330
39
100
AcDbDictionary
280
     1
281
     1
  3
ADSK_XREC_LAYER_RECONCILED
360
B12
  0
DICTIONARY
  5
B13
330
3A
100
AcDbDictionary
280
     1
281
     1
  3
ADSK_XREC_LAYER_RECONCILED
360
B14
  0
DICTIONARY
  5
A2C
330
A
100
AcDbDictionary
280
     1
281
     1
  3
ACAD_SORTENTS
360
A2D
  0
DICTIONARY
  5
B33
330
B2D
100
AcDbDictionary
280
     1
281
     1
  3
ACAD_SORTENTS
360
B34
  0
XRECORD
  5
A29
102
{ACAD_REACTORS
330
3C
102
}
330
3C
100
AcDbXrecord
280
     1
300
ACDLT
300
2012
300
ACDLT_F_S
  0
DICTIONARY
  5
9BC
102
{ACAD_REACTORS
330
3C
102
}
330
3C
100
AcDbDictionary
281
     1
  0
DICTIONARY
  5
3D
102
{ACAD_REACTORS
330
3C
102
}
330
0
100
AcDbDictionary
281
     1
  0
DICTIONARY
  5
9BF
102
{ACAD_REACTORS
330
3C
102
}
330
3C
100
AcDbDictionary
281
     1
  3
Model
350
9C1
  3
レイアウト1
350
9C2
  0
DICTIONARY
  5
9BB
102
{ACAD_REACTORS
330
3C
102
}
330
3C
100
AcDbDictionary
281
     1
  3
ByBlock
350
9E9
  3
ByLayer
350
9E1
  3
Global
350
9F1
  0
DICTIONARY
  5
A24
102
{ACAD_REACTORS
330
3C
102
}
330
3C
100
AcDbDictionary
281
     1
  3
Standard
350
A25
  0
DICTIONARY
  5
3E
102
{ACAD_REACTORS
330
3C
102
}
330
0
100
AcDbDictionary
281
     1
  3
STANDARD
350
3F
  0
DICTIONARY
  5
9C0
102
{ACAD_REACTORS
330
3C
102
}
330
3C
100
AcDbDictionary
281
     1
  0
ACDBDICTIONARYWDFLT
  5
9B9
102
{ACAD_REACTORS
330
3C
102
}
330
3C
100
AcDbDictionary
281
     1
  3
Normal
350
9BA
100
AcDbDictionaryWithDefault
340
9BA
  0
DICTIONARY
  5
A12
102
{ACAD_REACTORS
330
3C
102
}
330
3C
100
AcDbDictionary
281
     1
  3
A0
350
A13
  3
A1
350
A14
  3
A2
350
A15
  3
A3
350
A16
  3
A4
350
A17
  3
A5
350
A18
  3
A6
350
A19
  3
A7
350
A1A
  3
A8
350
A1B
  3
A9
350
A1C
  3
B0
350
A1D
  3
B1
350
A1E
  3
B2
350
A1F
  3
B3
350
A20
  3
B4
350
A21
  3
B5
350
A22
  3
B6
350
A23
  0
DICTIONARY
  5
9BD
102
{ACAD_REACTORS
330
3C
102
}
330
3C
100
AcDbDictionary
281
     1
  3
Standard
350
9BE
  0
DICTIONARY
  5
9F9
102
{ACAD_REACTORS
330
3C
102
}
330
3C
100
AcDbDictionary
281
     1
  3
2dWireframe
350
9FF
  3
Basic
350
9FE
  3
Brighten
350
A05
  3
ColorChange
350
A09
  3
Conceptual
350
A02
  3
Dim
350
A04
  3
EdgeColorOff
350
A11
  3
Facepattern
350
A08
  3
Flat
350
9FA
  3
FlatWithEdges
350
9FB
  3
Gouraud
350
9FC
  3
GouraudWithEdges
350
9FD
  3
Hidden
350
A01
  3
JitterOff
350
A0F
  3
Linepattern
350
A07
  3
OverhangOff
350
A10
  3
Realistic
350
A03
  3
Shaded
350
A0E
  3
Shaded with edges
350
A0D
  3
Shades of Gray
350
A0A
  3
Sketchy
350
A0B
  3
Thicken
350
A06
  3
Wireframe
350
A00
  3
X-Ray
350
A0C
  0
XRECORD
  5
194E
102
{ACAD_REACTORS
330
3C
102
}
330
3C
100
AcDbXrecord
280
     1
 90
        1
330
9BE
  0
DICTIONARY
  5
9C7
102
{ACAD_REACTORS
330
3C
102
}
330
3C
100
AcDbDictionary
281
     1
  3
CANNOSCALE
350
B24
  3
CMLEADERSTYLE
350
B22
  3
CTABLESTYLE
350
9C8
  3
DIMASSOC
350
9DE
  3
LAYEREVAL
350
B26
  3
LAYERNOTIFY
350
B27
  3
LIGHTINGUNITS
350
B25
  3
MSLTSCALE
350
B23
  3
PROJECTNAME
350
9DF
  0
DICTIONARY
  5
B19
102
{ACAD_REACTORS
330
B18
102
}
330
B18
100
AcDbDictionary
281
     1
  0
XRECORD
  5
B10
102
{ACAD_REACTORS
330
B0F
102
}
330
B0F
100
AcDbXrecord
280
     1
290
     1
  0
XRECORD
  5
B12
102
{ACAD_REACTORS
330
B11
102
}
330
B11
100
AcDbXrecord
280
     1
290
     1
  0
XRECORD
  5
B14
102
{ACAD_REACTORS
330
B13
102
}
330
B13
100
AcDbXrecord
280
     1
290
     1
  0
SORTENTSTABLE
  5
A2D
102
{ACAD_REACTORS
330
A2C
102
}
330
A2C
100
AcDbSortentsTable
330
A
331
4DA
  5
4E3
331
43F
  5
448
331
1D2
  5
1DB
331
194
  5
1A5
331
15E
  5
16D
331
13F
  5
150
331
EA
  5
F0
331
120
  5
145
331
17D
  5
186
331
1B3
  5
1BC
331
420
  5
429
331
45E
  5
467
331
47D
  5
486
331
4DB
  5
4E4
331
45F
  5
468
331
440
  5
457
331
40A
  5
413
331
2C0
  5
2C9
331
1B4
  5
1BD
331
17E
  5
187
331
15F
  5
16E
331
EB
  5
F1
331
140
  5
151
331
195
  5
1A6
331
1D3
  5
1DC
331
421
  5
42A
331
47E
  5
495
331
4BD
  5
4CF
331
441
  5
45E
331
1D4
  5
1DD
331
196
  5
1A7
331
17F
  5
188
331
EC
  5
F2
331
1B5
  5
1BE
331
2C1
  5
2CA
331
422
  5
42D
331
460
  5
46B
331
47F
  5
496
331
4DC
  5
4E5
331
4DD
  5
4E6
331
461
  5
46C
331
442
  5
45F
331
1B6
  5
1BF
331
ED
  5
F3
331
197
  5
1A8
331
1D5
  5
1DE
331
423
  5
42E
331
480
  5
497
331
4A0
  5
4AD
331
462
  5
46D
331
1D6
  5
1DF
331
198
  5
1A9
331
EE
  5
F4
331
1B7
  5
1C0
331
424
  5
42F
331
443
  5
460
331
481
  5
498
331
4DE
  5
4E7
331
4DF
  5
4EC
331
463
  5
46E
331
444
  5
461
331
1B8
  5
1C1
331
EF
  5
F5
331
125
  5
146
331
199
  5
1AA
331
1D7
  5
1E0
331
425
  5
430
331
482
  5
499
331
4E0
  5
4F1
331
464
  5
46F
331
1D8
  5
1E1
331
145
  5
152
331
1B9
  5
1C2
331
426
  5
431
331
445
  5
462
331
483
  5
49A
331
4E1
  5
4F2
331
446
  5
463
331
2A7
  5
2B0
331
1BA
  5
1C3
331
146
  5
153
331
1D9
  5
1E2
331
427
  5
432
331
465
  5
470
331
484
  5
49B
331
4E2
  5
4F3
331
466
  5
471
331
1DA
  5
1E3
331
1BB
  5
1C4
331
2A8
  5
2B1
331
411
  5
420
331
428
  5
433
331
447
  5
464
331
485
  5
4A0
331
4C3
  5
4D4
331
4C4
  5
4D5
331
4A5
  5
4AE
331
448
  5
465
331
2A9
  5
2B2
331
1BC
  5
1C5
331
167
  5
170
331
1DB
  5
1E4
331
412
  5
421
331
429
  5
434
331
467
  5
472
331
486
  5
4A5
331
4E3
  5
4F4
331
4E4
  5
4F5
331
1DC
  5
1EB
331
1BD
  5
1C6
331
19E
  5
1AB
331
2AA
  5
2B3
331
42A
  5
435
331
468
  5
473
331
4A6
  5
4AF
331
4C5
  5
4D6
331
4C6
  5
4D7
331
2AB
  5
2B4
331
1BE
  5
1C7
331
1DD
  5
1EC
331
4A7
  5
4B0
331
4E5
  5
4F6
331
4E6
  5
4F7
331
4A8
  5
4B1
331
1DE
  5
1F4
331
1BF
  5
1C8
331
4C7
  5
4D8
331
4C8
  5
4D9
331
1DF
  5
1F5
331
42D
  5
436
331
46B
  5
474
331
4A9
  5
4B2
331
4E7
  5
4F8
331
4AA
  5
4B3
331
42E
  5
437
331
46C
  5
475
331
4C9
  5
4DA
331
4CA
  5
4DB
331
42F
  5
438
331
46D
  5
476
331
4AB
  5
4B4
331
4AC
  5
4B5
331
430
  5
439
331
46E
  5
477
331
495
  5
4A6
331
4AD
  5
4B6
331
431
  5
43A
331
46F
  5
478
331
496
  5
4A7
331
4EC
  5
4F9
331
497
  5
4A8
331
432
  5
43B
331
470
  5
479
331
4AE
  5
4B7
331
768
  5
771
331
471
  5
47A
331
433
  5
43C
331
4AF
  5
4B8
331
780
  5
789
331
4CF
  5
4DC
331
434
  5
43D
331
472
  5
47B
331
4B0
  5
4BD
331
769
  5
772
331
781
  5
78A
331
7A0
  5
7A9
331
76A
  5
773
331
4B1
  5
4C3
331
435
  5
43E
331
473
  5
47C
331
7A1
  5
7AA
331
782
  5
78B
331
436
  5
43F
331
474
  5
47D
331
4B2
  5
4C4
331
76B
  5
774
331
7A2
  5
7AB
331
783
  5
78C
331
76C
  5
775
331
4F1
  5
4FA
331
4B3
  5
4C5
331
437
  5
440
331
475
  5
47E
331
7A3
  5
7AC
331
784
  5
78D
331
4F2
  5
4FB
331
457
  5
466
331
476
  5
47F
331
4B4
  5
4C6
331
76D
  5
776
331
7A4
  5
7AD
331
785
  5
78E
331
818
  5
821
331
76E
  5
777
331
4F3
  5
4FD
331
4B5
  5
4C7
331
477
  5
480
331
4D4
  5
4DD
331
819
  5
822
331
786
  5
78F
331
838
  5
841
331
4D5
  5
4DE
331
4B6
  5
4C8
331
76F
  5
778
331
839
  5
842
331
787
  5
790
331
81A
  5
823
331
858
  5
861
331
770
  5
779
331
4B7
  5
4C9
331
4D6
  5
4DF
331
870
  5
879
331
859
  5
862
331
81B
  5
824
331
788
  5
791
331
83A
  5
843
331
4D7
  5
4E0
331
771
  5
77A
331
83B
  5
844
331
789
  5
792
331
81C
  5
825
331
85A
  5
863
331
871
  5
87A
331
772
  5
77B
331
872
  5
87B
331
85B
  5
864
331
81D
  5
826
331
78A
  5
793
331
83C
  5
845
331
773
  5
77C
331
83D
  5
846
331
78B
  5
794
331
81E
  5
827
331
85C
  5
865
331
873
  5
87C
331
774
  5
77D
331
874
  5
87D
331
85D
  5
866
331
81F
  5
828
331
78C
  5
795
331
83E
  5
847
331
775
  5
77E
331
83F
  5
848
331
78D
  5
796
331
820
  5
829
331
85E
  5
867
331
875
  5
87E
331
776
  5
77F
331
85F
  5
868
331
821
  5
82A
331
78E
  5
797
331
840
  5
849
331
876
  5
87F
331
777
  5
780
331
841
  5
84A
331
822
  5
82B
331
78F
  5
798
331
860
  5
869
331
877
  5
880
331
6BE
  5
6C7
331
778
  5
781
331
861
  5
86A
331
823
  5
82C
331
790
  5
799
331
842
  5
84B
331
878
  5
881
331
779
  5
782
331
6BF
  5
6D0
331
879
  5
882
331
843
  5
84C
331
824
  5
82D
331
791
  5
79A
331
862
  5
86B
331
6C0
  5
6D1
331
77A
  5
783
331
B8
  5
BB
331
863
  5
86C
331
844
  5
84D
331
792
  5
79B
331
825
  5
82E
331
87A
  5
883
331
77B
  5
784
331
6C1
  5
6DA
331
F0
  5
F6
331
B9
  5
BC
331
87B
  5
884
331
845
  5
84E
331
826
  5
82F
331
793
  5
79C
331
864
  5
86D
331
77C
  5
785
331
F1
  5
F7
331
BA
  5
BD
331
108
  5
10E
331
846
  5
84F
331
77D
  5
786
331
794
  5
79D
331
827
  5
830
331
865
  5
86E
331
87C
  5
885
331
109
  5
10F
331
F2
  5
F8
331
BB
  5
D9
331
87D
  5
886
331
866
  5
86F
331
828
  5
831
331
77E
  5
787
331
795
  5
79E
331
847
  5
850
331
10A
  5
110
331
BC
  5
E7
331
F3
  5
F9
331
848
  5
851
331
77F
  5
788
331
796
  5
79F
331
829
  5
832
331
867
  5
870
331
87E
  5
887
331
10B
  5
111
331
F4
  5
FA
331
BD
  5
E8
331
12A
  5
14B
331
168
  5
171
331
87F
  5
888
331
868
  5
871
331
82A
  5
833
331
797
  5
7A0
331
849
  5
852
331
169
  5
176
331
10C
  5
112
331
F5
  5
FB
331
180
  5
189
331
84A
  5
853
331
798
  5
7A1
331
82B
  5
834
331
869
  5
872
331
880
  5
889
331
181
  5
18A
331
14B
  5
154
331
F6
  5
FC
331
10D
  5
113
331
16A
  5
17B
331
881
  5
88A
331
86A
  5
873
331
82C
  5
835
331
763
  5
76C
331
799
  5
7A2
331
84B
  5
854
331
16B
  5
17C
331
10E
  5
114
331
F7
  5
FD
331
14C
  5
155
331
182
  5
18B
331
1C0
  5
1C9
331
84C
  5
855
331
764
  5
76D
331
79A
  5
7A3
331
82D
  5
836
331
86B
  5
874
331
882
  5
88B
331
1E0
  5
1F6
331
183
  5
18C
331
14D
  5
156
331
F8
  5
FE
331
D9
  5
E9
331
10F
  5
115
331
16C
  5
17D
331
1C1
  5
1CA
331
883
  5
88C
331
86C
  5
875
331
82E
  5
837
331
765
  5
76E
331
79B
  5
7A4
331
84D
  5
856
331
1A3
  5
1AC
331
16D
  5
17E
331
14E
  5
157
331
110
  5
116
331
F9
  5
FF
331
12F
  5
14C
331
184
  5
18D
331
1C2
  5
1CB
331
884
  5
89B
331
84E
  5
857
331
766
  5
76F
331
79C
  5
7A5
331
82F
  5
838
331
86D
  5
876
331
1C3
  5
1CC
331
185
  5
18E
331
14F
  5
158
331
FA
  5
100
331
111
  5
11D
331
16E
  5
17F
331
1A4
  5
1AD
331
885
  5
89C
331
86E
  5
877
331
830
  5
839
331
767
  5
770
331
79D
  5
7A6
331
811
  5
81A
331
84F
  5
858
331
1A5
  5
1AE
331
16F
  5
180
331
112
  5
11E
331
A5
  5
A5
331
FB
  5
101
331
150
  5
159
331
186
  5
18F
331
1C4
  5
1CD
331
886
  5
89D
331
850
  5
859
331
812
  5
81B
331
79E
  5
7A7
331
831
  5
83A
331
86F
  5
878
331
2B2
  5
2BB
331
1C5
  5
1CE
331
187
  5
190
331
170
  5
181
331
FC
  5
102
331
113
  5
11F
331
151
  5
15A
331
1A6
  5
1AF
331
832
  5
83B
331
79F
  5
7A8
331
813
  5
81C
331
851
  5
85A
331
887
  5
89E
331
1A7
  5
1B0
331
171
  5
182
331
114
  5
125
331
FD
  5
103
331
152
  5
15B
331
188
  5
191
331
1C6
  5
1CF
331
2B3
  5
2BC
331
852
  5
85B
331
833
  5
83C
331
814
  5
81D
331
888
  5
89F
331
2B4
  5
2BD
331
1C7
  5
1D0
331
189
  5
192
331
134
  5
14D
331
FE
  5
104
331
DF
  5
EA
331
A8
  5
A8
331
115
  5
12A
331
153
  5
15C
331
1A8
  5
1B1
331
834
  5
83D
331
815
  5
81E
331
853
  5
85C
331
889
  5
8A0
331
1A9
  5
1B2
331
116
  5
134
331
E0
  5
EB
331
FF
  5
105
331
154
  5
15D
331
18A
  5
193
331
1C8
  5
1D1
331
2B5
  5
2BE
331
88A
  5
8A1
331
835
  5
83E
331
816
  5
81F
331
854
  5
85D
331
1C9
  5
1D2
331
18B
  5
194
331
100
  5
106
331
E1
  5
EC
331
117
  5
139
331
155
  5
15E
331
1AA
  5
1B3
331
855
  5
85E
331
817
  5
820
331
836
  5
83F
331
88B
  5
8A2
331
1AB
  5
1B4
331
156
  5
15F
331
101
  5
107
331
18C
  5
195
331
1CA
  5
1D3
331
418
  5
427
331
A76
  5
B8
331
88C
  5
8A3
331
837
  5
840
331
856
  5
85F
331
1CB
  5
1D4
331
1AC
  5
1B5
331
176
  5
183
331
102
  5
108
331
157
  5
166
331
18D
  5
196
331
419
  5
428
331
438
  5
441
331
857
  5
860
331
439
  5
442
331
1AD
  5
1B6
331
158
  5
167
331
103
  5
109
331
139
  5
14E
331
18E
  5
197
331
1CC
  5
1D5
331
2B9
  5
2C2
331
478
  5
481
331
1CD
  5
1D6
331
1AE
  5
1B7
331
13A
  5
14F
331
104
  5
10A
331
159
  5
168
331
18F
  5
198
331
43A
  5
443
331
498
  5
4A9
331
43B
  5
444
331
1CE
  5
1D7
331
15A
  5
169
331
AF
  5
AF
331
105
  5
10B
331
190
  5
199
331
1AF
  5
1B8
331
479
  5
482
331
499
  5
4AA
331
47A
  5
483
331
1CF
  5
1D8
331
1B0
  5
1B9
331
11D
  5
13A
331
E7
  5
ED
331
B0
  5
BA
331
106
  5
10C
331
15B
  5
16A
331
191
  5
19E
331
43C
  5
445
331
4B8
  5
4CA
331
49A
  5
4AB
331
43D
  5
446
331
1D0
  5
1D9
331
192
  5
1A3
331
15C
  5
16B
331
107
  5
10D
331
E8
  5
EE
331
11E
  5
13F
331
17B
  5
184
331
1B1
  5
1BA
331
47B
  5
484
331
4D8
  5
4E1
331
49B
  5
4AC
331
47C
  5
485
331
43E
  5
447
331
4D9
  5
4E2
331
1B2
  5
1BB
331
17C
  5
185
331
E9
  5
EF
331
11F
  5
140
331
15D
  5
16C
331
193
  5
1A4
331
1D1
  5
1DA
  0
SORTENTSTABLE
  5
B34
102
{ACAD_REACTORS
330
B33
102
}
330
B33
100
AcDbSortentsTable
330
B2D
  0
LAYOUT
  5
9C1
102
{ACAD_XDICTIONARY
360
B1E
102
}
102
{ACAD_REACTORS
330
9BF
102
}
330
9BF
100
AcDbPlotSettings
  1

  2
クセロPDF2
  4

  6

 40
0.0
 41
0.0
 42
0.0
 43
0.0
 44
0.0
 45
0.0
 46
0.0
 47
0.0
 48
0.0
 49
0.0
140
0.0
141
0.0
142
1.0
143
1.0
 70
  1712
 72
     0
 73
     0
 74
     0
  7

 75
     0
147
1.0
 76
     0
 77
     2
 78
   300
148
0.0
149
0.0
100
AcDbLayout
  1
Model
 70
     1
 71
     0
 10
0.0
 20
0.0
 11
12.0
 21
9.0
 12
0.0
 22
0.0
 32
0.0
 14
0.0
 24
0.0
 34
0.0
 15
0.0
 25
0.0
 35
0.0
146
0.0
 13
0.0
 23
0.0
 33
0.0
 16
1.0
 26
0.0
 36
0.0
 17
0.0
 27
1.0
 37
0.0
 76
     0
330
A
331
9D8
  0
LAYOUT
  5
9C2
102
{ACAD_REACTORS
330
9BF
102
}
330
9BF
100
AcDbPlotSettings
  1

  2
クセロPDF2
  4

  6

 40
0.0
 41
0.0
 42
0.0
 43
0.0
 44
0.0
 45
0.0
 46
0.0
 47
0.0
 48
0.0
 49
0.0
140
0.0
141
0.0
142
1.0
143
1.0
 70
   688
 72
     0
 73
     0
 74
     5
  7

 75
    16
147
1.0
 76
     0
 77
     2
 78
   300
148
0.0
149
0.0
100
AcDbLayout
  1
レイアウト1
 70
     1
 71
     1
 10
0.0
 20
0.0
 11
12.0
 21
9.0
 12
0.0
 22
0.0
 32
0.0
 14
1.000000000000000E+20
 24
1.000000000000000E+20
 34
1.000000000000000E+20
 15
-1.000000000000000E+20
 25
-1.000000000000000E+20
 35
-1.000000000000000E+20
146
0.0
 13
0.0
 23
0.0
 33
0.0
 16
1.0
 26
0.0
 36
0.0
 17
0.0
 27
1.0
 37
0.0
 76
     0
330
B
  0
MATERIAL
  5
9E9
102
{ACAD_XDICTIONARY
360
9EA
102
}
102
{ACAD_REACTORS
330
9BB
102
}
330
9BB
100
AcDbMaterial
  1
ByBlock
 72
     0
 43
0.0208333333333333
 43
0.0
 43
0.0
 43
0.0
 43
0.0
 43
0.0208333333333333
 43
0.0
 43
0.0
 43
0.0
 43
0.0
 43
1.0
 43
0.0
 43
0.0
 43
0.0
 43
0.0
 43
1.0
 77
     0
 47
0.0208333333333333
 47
0.0
 47
0.0
 47
0.0
 47
0.0
 47
0.0208333333333333
 47
0.0
 47
0.0
 47
0.0
 47
0.0
 47
1.0
 47
0.0
 47
0.0
 47
0.0
 47
0.0
 47
1.0
171
     0
 49
0.0208333333333333
 49
0.0
 49
0.0
 49
0.0
 49
0.0
 49
0.0208333333333333
 49
0.0
 49
0.0
 49
0.0
 49
0.0
 49
1.0
 49
0.0
 49
0.0
 49
0.0
 49
0.0
 49
1.0
175
     0
142
0.0208333333333333
142
0.0
142
0.0
142
0.0
142
0.0
142
0.0208333333333333
142
0.0
142
0.0
142
0.0
142
0.0
142
1.0
142
0.0
142
0.0
142
0.0
142
0.0
142
1.0
179
     0
144
0.0208333333333333
144
0.0
144
0.0
144
0.0
144
0.0
144
0.0208333333333333
144
0.0
144
0.0
144
0.0
144
0.0
144
1.0
144
0.0
144
0.0
144
0.0
144
0.0
144
1.0
147
0.0208333333333333
147
0.0
147
0.0
147
0.0
147
0.0
147
0.0208333333333333
147
0.0
147
0.0
147
0.0
147
0.0
147
1.0
147
0.0
147
0.0
147
0.0
147
0.0
147
1.0
  0
MATERIAL
  5
9E1
102
{ACAD_XDICTIONARY
360
9E2
102
}
102
{ACAD_REACTORS
330
9BB
102
}
330
9BB
100
AcDbMaterial
  1
ByLayer
 72
     0
 43
0.0208333333333333
 43
0.0
 43
0.0
 43
0.0
 43
0.0
 43
0.0208333333333333
 43
0.0
 43
0.0
 43
0.0
 43
0.0
 43
1.0
 43
0.0
 43
0.0
 43
0.0
 43
0.0
 43
1.0
 77
     0
 47
0.0208333333333333
 47
0.0
 47
0.0
 47
0.0
 47
0.0
 47
0.0208333333333333
 47
0.0
 47
0.0
 47
0.0
 47
0.0
 47
1.0
 47
0.0
 47
0.0
 47
0.0
 47
0.0
 47
1.0
171
     0
 49
0.0208333333333333
 49
0.0
 49
0.0
 49
0.0
 49
0.0
 49
0.0208333333333333
 49
0.0
 49
0.0
 49
0.0
 49
0.0
 49
1.0
 49
0.0
 49
0.0
 49
0.0
 49
0.0
 49
1.0
175
     0
142
0.0208333333333333
142
0.0
142
0.0
142
0.0
142
0.0
142
0.0208333333333333
142
0.0
142
0.0
142
0.0
142
0.0
142
1.0
142
0.0
142
0.0
142
0.0
142
0.0
142
1.0
179
     0
144
0.0208333333333333
144
0.0
144
0.0
144
0.0
144
0.0
144
0.0208333333333333
144
0.0
144
0.0
144
0.0
144
0.0
144
1.0
144
0.0
144
0.0
144
0.0
144
0.0
144
1.0
147
0.0208333333333333
147
0.0
147
0.0
147
0.0
147
0.0
147
0.0208333333333333
147
0.0
147
0.0
147
0.0
147
0.0
147
1.0
147
0.0
147
0.0
147
0.0
147
0.0
147
1.0
  0
MATERIAL
  5
9F1
102
{ACAD_XDICTIONARY
360
9F2
102
}
102
{ACAD_REACTORS
330
9BB
102
}
330
9BB
100
AcDbMaterial
  1
Global
 72
     0
 43
0.0208333333333333
 43
0.0
 43
0.0
 43
0.0
 43
0.0
 43
0.0208333333333333
 43
0.0
 43
0.0
 43
0.0
 43
0.0
 43
1.0
 43
0.0
 43
0.0
 43
0.0
 43
0.0
 43
1.0
 77
     0
 47
0.0208333333333333
 47
0.0
 47
0.0
 47
0.0
 47
0.0
 47
0.0208333333333333
 47
0.0
 47
0.0
 47
0.0
 47
0.0
 47
1.0
 47
0.0
 47
0.0
 47
0.0
 47
0.0
 47
1.0
171
     0
 49
0.0208333333333333
 49
0.0
 49
0.0
 49
0.0
 49
0.0
 49
0.0208333333333333
 49
0.0
 49
0.0
 49
0.0
 49
0.0
 49
1.0
 49
0.0
 49
0.0
 49
0.0
 49
0.0
 49
1.0
175
     0
142
0.0208333333333333
142
0.0
142
0.0
142
0.0
142
0.0
142
0.0208333333333333
142
0.0
142
0.0
142
0.0
142
0.0
142
1.0
142
0.0
142
0.0
142
0.0
142
0.0
142
1.0
179
     0
144
0.0208333333333333
144
0.0
144
0.0
144
0.0
144
0.0
144
0.0208333333333333
144
0.0
144
0.0
144
0.0
144
0.0
144
1.0
144
0.0
144
0.0
144
0.0
144
0.0
144
1.0
147
0.0208333333333333
147
0.0
147
0.0
147
0.0
147
0.0
147
0.0208333333333333
147
0.0
147
0.0
147
0.0
147
0.0
147
1.0
147
0.0
147
0.0
147
0.0
147
0.0
147
1.0
  0
MLEADERSTYLE
  5
A25
102
{ACAD_XDICTIONARY
360
194C
102
}
102
{ACAD_REACTORS
330
A24
102
}
330
A24
100
AcDbMLeaderStyle
179
     2
170
     2
171
     1
172
     0
 90
        2
 40
0.0
 41
0.0
173
     1
 91
-1056964608
340
1D
 92
       -2
290
     1
 42
0.09
291
     1
 43
0.36
  3
Standard
 44
0.18
300

342
7
174
     1
178
     6
175
     1
176
     0
 93
-1056964608
 45
0.18
292
     0
297
     0
 46
0.18
 94
-1056964608
 47
1.0
 49
1.0
140
1.0
293
     1
141
0.0
294
     1
177
     0
142
1.0
295
     0
296
     0
143
0.125
271
     0
272
     9
273
     9
  0
MLINESTYLE
  5
3F
102
{ACAD_REACTORS
330
3E
102
}
330
0
100
AcDbMlineStyle
  2
STANDARD
 70
     0
  3

 62
   256
 51
90.0
 52
90.0
 71
     2
 49
0.5
 62
   256
  6
BYLAYER
 49
-0.5
 62
   256
  6
BYLAYER
  0
ACDBPLACEHOLDER
  5
9BA
102
{ACAD_REACTORS
330
9B9
102
}
330
9B9
  0
SCALE
  5
A13
102
{ACAD_REACTORS
330
A12
102
}
330
A12
100
AcDbScale
 70
     0
300
1:1
140
1.0
141
1.0
290
     1
  0
SCALE
  5
A14
102
{ACAD_REACTORS
330
A12
102
}
330
A12
100
AcDbScale
 70
     0
300
1/128" = 1'-0"
140
0.0078125
141
12.0
290
     0
  0
SCALE
  5
A15
102
{ACAD_REACTORS
330
A12
102
}
330
A12
100
AcDbScale
 70
     0
300
1/64" = 1'-0"
140
0.015625
141
12.0
290
     0
  0
SCALE
  5
A16
102
{ACAD_REACTORS
330
A12
102
}
330
A12
100
AcDbScale
 70
     0
300
1/32" = 1'-0"
140
0.03125
141
12.0
290
     0
  0
SCALE
  5
A17
102
{ACAD_REACTORS
330
A12
102
}
330
A12
100
AcDbScale
 70
     0
300
1/16" = 1'-0"
140
0.0625
141
12.0
290
     0
  0
SCALE
  5
A18
102
{ACAD_REACTORS
330
A12
102
}
330
A12
100
AcDbScale
 70
     0
300
3/32" = 1'-0"
140
0.09375
141
12.0
290
     0
  0
SCALE
  5
A19
102
{ACAD_REACTORS
330
A12
102
}
330
A12
100
AcDbScale
 70
     0
300
1/8" = 1'-0"
140
0.125
141
12.0
290
     0
  0
SCALE
  5
A1A
102
{ACAD_REACTORS
330
A12
102
}
330
A12
100
AcDbScale
 70
     0
300
3/16" = 1'-0"
140
0.1875
141
12.0
290
     0
  0
SCALE
  5
A1B
102
{ACAD_REACTORS
330
A12
102
}
330
A12
100
AcDbScale
 70
     0
300
1/4" = 1'-0"
140
0.25
141
12.0
290
     0
  0
SCALE
  5
A1C
102
{ACAD_REACTORS
330
A12
102
}
330
A12
100
AcDbScale
 70
     0
300
3/8" = 1'-0"
140
0.375
141
12.0
290
     0
  0
SCALE
  5
A1D
102
{ACAD_REACTORS
330
A12
102
}
330
A12
100
AcDbScale
 70
     0
300
1/2" = 1'-0"
140
0.5
141
12.0
290
     0
  0
SCALE
  5
A1E
102
{ACAD_REACTORS
330
A12
102
}
330
A12
100
AcDbScale
 70
     0
300
3/4" = 1'-0"
140
0.75
141
12.0
290
     0
  0
SCALE
  5
A1F
102
{ACAD_REACTORS
330
A12
102
}
330
A12
100
AcDbScale
 70
     0
300
1" = 1'-0"
140
1.0
141
12.0
290
     0
  0
SCALE
  5
A20
102
{ACAD_REACTORS
330
A12
102
}
330
A12
100
AcDbScale
 70
     0
300
1-1/2" = 1'-0"
140
1.5
141
12.0
290
     0
  0
SCALE
  5
A21
102
{ACAD_REACTORS
330
A12
102
}
330
A12
100
AcDbScale
 70
     0
300
3" = 1'-0"
140
3.0
141
12.0
290
     0
  0
SCALE
  5
A22
102
{ACAD_REACTORS
330
A12
102
}
330
A12
100
AcDbScale
 70
     0
300
6" = 1'-0"
140
6.0
141
12.0
290
     0
  0
SCALE
  5
A23
102
{ACAD_REACTORS
330
A12
102
}
330
A12
100
AcDbScale
 70
     0
300
1'-0" = 1'-0"
140
12.0
141
12.0
290
     0
  0
TABLESTYLE
  5
9BE
102
{ACAD_XDICTIONARY
360
194A
102
}
102
{ACAD_REACTORS
330
9BD
102
}
330
9BD
100
AcDbTableStyle
280
     0
  3
Standard
 70
     0
 71
     0
 40
0.06
 41
0.06
280
     0
281
     0
  7
STANDARD
140
0.18
170
     2
 62
     0
 63
     7
283
     0
 90
        4
 91
        0
  1

274
    -2
284
     1
 64
     0
275
    -2
285
     1
 65
     0
276
    -2
286
     1
 66
     0
277
    -2
287
     1
 67
     0
278
    -2
288
     1
 68
     0
279
    -2
289
     1
 69
     0
  7
STANDARD
140
0.25
170
     5
 62
     0
 63
     7
283
     0
 90
        4
 91
        0
  1

274
    -2
284
     1
 64
     0
275
    -2
285
     1
 65
     0
276
    -2
286
     1
 66
     0
277
    -2
287
     1
 67
     0
278
    -2
288
     1
 68
     0
279
    -2
289
     1
 69
     0
  7
STANDARD
140
0.18
170
     5
 62
     0
 63
     7
283
     0
 90
        4
 91
        0
  1

274
    -2
284
     1
 64
     0
275
    -2
285
     1
 65
     0
276
    -2
286
     1
 66
     0
277
    -2
287
     1
 67
     0
278
    -2
288
     1
 68
     0
279
    -2
289
     1
 69
     0
  0
VISUALSTYLE
  5
9FF
102
{ACAD_REACTORS
330
9F9
102
}
330
9F9
100
AcDbVisualStyle
  2
2dWireframe
 70
     4
177
     2
291
     0
 71
     0
176
     1
 72
     2
176
     1
 73
     0
176
     1
 90
        0
176
     1
 40
0.6
176
     1
 41
30.0
176
     1
 63
     7
421
 16777215
176
     1
 74
     1
176
     1
 91
        4
176
     1
 64
     7
176
     1
 65
   257
176
     1
 75
     1
176
     1
175
     1
176
     1
 42
1.0
176
     1
 92
        0
176
     1
 66
   257
176
     1
 43
1.0
176
     1
 76
     1
176
     1
 77
     6
176
     1
 78
     2
176
     1
 67
     7
176
     1
 79
     5
176
     1
170
     0
176
     1
171
     0
176
     1
290
     0
176
     1
 93
        1
176
     1
 44
0.0
176
     1
173
     0
176
     1
  0
VISUALSTYLE
  5
9FE
102
{ACAD_REACTORS
330
9F9
102
}
330
9F9
100
AcDbVisualStyle
  2
Basic
 70
     7
177
     2
291
     1
 71
     1
176
     1
 72
     0
176
     1
 73
     1
176
     1
 90
        0
176
     1
 40
0.6
176
     1
 41
30.0
176
     1
 63
     7
421
 16777215
176
     1
 74
     0
176
     1
 91
        4
176
     1
 64
     7
176
     1
 65
   257
176
     1
 75
     1
176
     1
175
     1
176
     1
 42
1.0
176
     1
 92
        8
176
     1
 66
     7
176
     1
 43
1.0
176
     1
 76
     1
176
     1
 77
     6
176
     1
 78
     2
176
     1
 67
     7
176
     1
 79
     5
176
     1
170
     0
176
     1
171
     0
176
     1
290
     0
176
     1
 93
        1
176
     1
 44
0.0
176
     1
173
     0
176
     1
  0
VISUALSTYLE
  5
A05
102
{ACAD_REACTORS
330
9F9
102
}
330
9F9
100
AcDbVisualStyle
  2
Brighten
 70
    12
177
     2
291
     1
 71
     2
176
     1
 72
     2
176
     1
 73
     0
176
     1
 90
        0
176
     1
 40
0.6
176
     1
 41
30.0
176
     1
 63
     7
421
 16777215
176
     1
 74
     1
176
     1
 91
        4
176
     1
 64
     7
176
     1
 65
   257
176
     1
 75
     1
176
     1
175
     1
176
     1
 42
1.0
176
     1
 92
        8
176
     1
 66
     7
176
     1
 43
1.0
176
     1
 76
     1
176
     1
 77
     6
176
     1
 78
     2
176
     1
 67
     7
176
     1
 79
     5
176
     1
170
     0
176
     1
171
     0
176
     1
290
     0
176
     1
 93
        1
176
     1
 44
50.0
176
     1
173
     0
176
     1
  0
VISUALSTYLE
  5
A09
102
{ACAD_REACTORS
330
9F9
102
}
330
9F9
100
AcDbVisualStyle
  2
ColorChange
 70
    16
177
     2
291
     1
 71
     2
176
     1
 72
     2
176
     1
 73
     3
176
     1
 90
        0
176
     1
 40
0.6
176
     1
 41
30.0
176
     1
 63
     8
421
  8421504
176
     1
 74
     1
176
     1
 91
        4
176
     1
 64
     7
176
     1
 65
   257
176
     1
 75
     1
176
     1
175
     1
176
     1
 42
1.0
176
     1
 92
        8
176
     1
 66
     8
424
  8421504
176
     1
 43
1.0
176
     1
 76
     1
176
     1
 77
     6
176
     1
 78
     2
176
     1
 67
     7
176
     1
 79
     5
176
     1
170
     0
176
     1
171
     0
176
     1
290
     0
176
     1
 93
        1
176
     1
 44
0.0
176
     1
173
     0
176
     1
  0
VISUALSTYLE
  5
A02
102
{ACAD_REACTORS
330
9F9
102
}
330
9F9
100
AcDbVisualStyle
  2
Conceptual
 70
     9
177
     2
291
     0
 71
     3
176
     1
 72
     2
176
     1
 73
     0
176
     1
 90
        0
176
     1
 40
0.6
176
     1
 41
30.0
176
     1
 63
     7
421
 16777215
176
     1
 74
     2
176
     1
 91
        2
176
     1
 64
     7
176
     1
 65
   257
176
     1
 75
     1
176
     1
175
     1
176
     1
 42
179.0
176
     1
 92
        8
176
     1
 66
     7
176
     1
 43
1.0
176
     1
 76
     1
176
     1
 77
     6
176
     1
 78
     2
176
     1
 67
     7
176
     1
 79
     3
176
     1
170
     0
176
     1
171
     0
176
     1
290
     0
176
     1
 93
        1
176
     1
 44
0.0
176
     1
173
     0
176
     1
  0
VISUALSTYLE
  5
A04
102
{ACAD_REACTORS
330
9F9
102
}
330
9F9
100
AcDbVisualStyle
  2
Dim
 70
    11
177
     2
291
     1
 71
     2
176
     1
 72
     2
176
     1
 73
     0
176
     1
 90
        0
176
     1
 40
0.6
176
     1
 41
30.0
176
     1
 63
     7
421
 16777215
176
     1
 74
     1
176
     1
 91
        4
176
     1
 64
     7
176
     1
 65
   257
176
     1
 75
     1
176
     1
175
     1
176
     1
 42
1.0
176
     1
 92
        8
176
     1
 66
     7
176
     1
 43
1.0
176
     1
 76
     1
176
     1
 77
     6
176
     1
 78
     2
176
     1
 67
     7
176
     1
 79
     5
176
     1
170
     0
176
     1
171
     0
176
     1
290
     0
176
     1
 93
        1
176
     1
 44
-50.0
176
     1
173
     0
176
     1
  0
VISUALSTYLE
  5
A11
102
{ACAD_REACTORS
330
9F9
102
}
330
9F9
100
AcDbVisualStyle
  2
EdgeColorOff
 70
    22
177
     2
291
     1
 71
     2
176
     0
 72
     2
176
     0
 73
     0
176
     0
 90
        0
176
     0
 40
0.6
176
     0
 41
30.0
176
     0
 63
     7
421
 16777215
176
     0
 74
     1
176
     0
 91
        4
176
     0
 64
     7
176
     0
 65
   257
176
     0
 75
     1
176
     0
175
     1
176
     0
 42
1.0
176
     0
 92
        8
176
     2
 66
     7
176
     0
 43
1.0
176
     0
 76
     1
176
     0
 77
     6
176
     0
 78
     2
176
     0
 67
     7
176
     0
 79
     5
176
     0
170
     0
176
     0
171
     0
176
     0
290
     0
176
     0
 93
        1
176
     0
 44
0.0
176
     0
173
     0
176
     0
  0
VISUALSTYLE
  5
A08
102
{ACAD_REACTORS
330
9F9
102
}
330
9F9
100
AcDbVisualStyle
  2
Facepattern
 70
    15
177
     2
291
     1
 71
     2
176
     1
 72
     2
176
     1
 73
     0
176
     1
 90
        0
176
     1
 40
0.6
176
     1
 41
30.0
176
     1
 63
     7
421
 16777215
176
     1
 74
     1
176
     1
 91
        4
176
     1
 64
     7
176
     1
 65
   257
176
     1
 75
     1
176
     1
175
     1
176
     1
 42
1.0
176
     1
 92
        8
176
     1
 66
     7
176
     1
 43
1.0
176
     1
 76
     1
176
     1
 77
     6
176
     1
 78
     2
176
     1
 67
     7
176
     1
 79
     5
176
     1
170
     0
176
     1
171
     0
176
     1
290
     0
176
     1
 93
        1
176
     1
 44
0.0
176
     1
173
     0
176
     1
  0
VISUALSTYLE
  5
9FA
102
{ACAD_REACTORS
330
9F9
102
}
330
9F9
100
AcDbVisualStyle
  2
Flat
 70
     0
177
     2
291
     1
 71
     2
176
     1
 72
     1
176
     1
 73
     1
176
     1
 90
        2
176
     1
 40
0.6
176
     1
 41
30.0
176
     1
 63
     7
421
 16777215
176
     1
 74
     0
176
     1
 91
        0
176
     1
 64
     7
176
     1
 65
   257
176
     1
 75
     1
176
     1
175
     1
176
     1
 42
1.0
176
     1
 92
        8
176
     1
 66
     7
176
     1
 43
1.0
176
     1
 76
     1
176
     1
 77
     6
176
     1
 78
     2
176
     1
 67
     7
176
     1
 79
     5
176
     1
170
     0
176
     1
171
     0
176
     1
290
     0
176
     1
 93
       13
176
     1
 44
0.0
176
     1
173
     0
176
     1
  0
VISUALSTYLE
  5
9FB
102
{ACAD_REACTORS
330
9F9
102
}
330
9F9
100
AcDbVisualStyle
  2
FlatWithEdges
 70
     1
177
     2
291
     1
 71
     2
176
     1
 72
     1
176
     1
 73
     1
176
     1
 90
        2
176
     1
 40
0.6
176
     1
 41
30.0
176
     1
 63
     7
421
 16777215
176
     1
 74
     1
176
     1
 91
        0
176
     1
 64
     7
176
     1
 65
   257
176
     1
 75
     1
176
     1
175
     1
176
     1
 42
1.0
176
     1
 92
        0
176
     1
 66
   257
176
     1
 43
1.0
176
     1
 76
     1
176
     1
 77
     6
176
     1
 78
     2
176
     1
 67
     7
176
     1
 79
     5
176
     1
170
     0
176
     1
171
     0
176
     1
290
     0
176
     1
 93
       13
176
     1
 44
0.0
176
     1
173
     0
176
     1
  0
VISUALSTYLE
  5
9FC
102
{ACAD_REACTORS
330
9F9
102
}
330
9F9
100
AcDbVisualStyle
  2
Gouraud
 70
     2
177
     2
291
     1
 71
     2
176
     1
 72
     2
176
     1
 73
     1
176
     1
 90
        2
176
     1
 40
0.6
176
     1
 41
30.0
176
     1
 63
     7
421
 16777215
176
     1
 74
     0
176
     1
 91
        0
176
     1
 64
     7
176
     1
 65
   257
176
     1
 75
     1
176
     1
175
     1
176
     1
 42
1.0
176
     1
 92
        0
176
     1
 66
     7
176
     1
 43
1.0
176
     1
 76
     1
176
     1
 77
     6
176
     1
 78
     2
176
     1
 67
     7
176
     1
 79
     5
176
     1
170
     0
176
     1
171
     0
176
     1
290
     0
176
     1
 93
       13
176
     1
 44
0.0
176
     1
173
     0
176
     1
  0
VISUALSTYLE
  5
9FD
102
{ACAD_REACTORS
330
9F9
102
}
330
9F9
100
AcDbVisualStyle
  2
GouraudWithEdges
 70
     3
177
     2
291
     1
 71
     2
176
     1
 72
     2
176
     1
 73
     1
176
     1
 90
        2
176
     1
 40
0.6
176
     1
 41
30.0
176
     1
 63
     7
421
 16777215
176
     1
 74
     1
176
     1
 91
        0
176
     1
 64
     7
176
     1
 65
   257
176
     1
 75
     1
176
     1
175
     1
176
     1
 42
1.0
176
     1
 92
        0
176
     1
 66
   257
176
     1
 43
1.0
176
     1
 76
     1
176
     1
 77
     6
176
     1
 78
     2
176
     1
 67
     7
176
     1
 79
     5
176
     1
170
     0
176
     1
171
     0
176
     1
290
     0
176
     1
 93
       13
176
     1
 44
0.0
176
     1
173
     0
176
     1
  0
VISUALSTYLE
  5
A01
102
{ACAD_REACTORS
330
9F9
102
}
330
9F9
100
AcDbVisualStyle
  2
Hidden
 70
     6
177
     2
291
     0
 71
     1
176
     1
 72
     2
176
     1
 73
     2
176
     1
 90
        0
176
     1
 40
0.6
176
     1
 41
30.0
176
     1
 63
     7
421
 16777215
176
     1
 74
     2
176
     1
 91
        2
176
     1
 64
     7
176
     1
 65
   257
176
     1
 75
     2
176
     1
175
     1
176
     1
 42
40.0
176
     1
 92
        0
176
     1
 66
   257
176
     1
 43
1.0
176
     1
 76
     1
176
     1
 77
     6
176
     1
 78
     2
176
     1
 67
     7
176
     1
 79
     3
176
     1
170
     0
176
     1
171
     0
176
     1
290
     0
176
     1
 93
        1
176
     1
 44
0.0
176
     1
173
     0
176
     1
  0
VISUALSTYLE
  5
A0F
102
{ACAD_REACTORS
330
9F9
102
}
330
9F9
100
AcDbVisualStyle
  2
JitterOff
 70
    20
177
     2
291
     1
 71
     2
176
     0
 72
     2
176
     0
 73
     0
176
     0
 90
        0
176
     0
 40
0.6
176
     0
 41
30.0
176
     0
 63
     7
421
 16777215
176
     0
 74
     1
176
     0
 91
        4
176
     0
 64
     7
176
     0
 65
   257
176
     0
 75
     1
176
     0
175
     1
176
     0
 42
1.0
176
     0
 92
       10
176
     2
 66
     7
176
     0
 43
1.0
176
     0
 76
     1
176
     0
 77
     6
176
     0
 78
     2
176
     0
 67
     7
176
     0
 79
     5
176
     0
170
     0
176
     0
171
     0
176
     0
290
     0
176
     0
 93
        1
176
     0
 44
0.0
176
     0
173
     0
176
     0
  0
VISUALSTYLE
  5
A07
102
{ACAD_REACTORS
330
9F9
102
}
330
9F9
100
AcDbVisualStyle
  2
Linepattern
 70
    14
177
     2
291
     1
 71
     2
176
     1
 72
     2
176
     1
 73
     0
176
     1
 90
        0
176
     1
 40
0.6
176
     1
 41
30.0
176
     1
 63
     7
421
 16777215
176
     1
 74
     1
176
     1
 91
        4
176
     1
 64
     7
176
     1
 65
   257
176
     1
 75
     7
176
     1
175
     7
176
     1
 42
1.0
176
     1
 92
        8
176
     1
 66
     7
176
     1
 43
1.0
176
     1
 76
     1
176
     1
 77
     6
176
     1
 78
     2
176
     1
 67
     7
176
     1
 79
     5
176
     1
170
     0
176
     1
171
     0
176
     1
290
     0
176
     1
 93
        1
176
     1
 44
0.0
176
     1
173
     0
176
     1
  0
VISUALSTYLE
  5
A10
102
{ACAD_REACTORS
330
9F9
102
}
330
9F9
100
AcDbVisualStyle
  2
OverhangOff
 70
    21
177
     2
291
     1
 71
     2
176
     0
 72
     2
176
     0
 73
     0
176
     0
 90
        0
176
     0
 40
0.6
176
     0
 41
30.0
176
     0
 63
     7
421
 16777215
176
     0
 74
     1
176
     0
 91
        4
176
     0
 64
     7
176
     0
 65
   257
176
     0
 75
     1
176
     0
175
     1
176
     0
 42
1.0
176
     0
 92
        9
176
     2
 66
     7
176
     0
 43
1.0
176
     0
 76
     1
176
     0
 77
     6
176
     0
 78
     2
176
     0
 67
     7
176
     0
 79
     5
176
     0
170
     0
176
     0
171
     0
176
     0
290
     0
176
     0
 93
        1
176
     0
 44
0.0
176
     0
173
     0
176
     0
  0
VISUALSTYLE
  5
A03
102
{ACAD_REACTORS
330
9F9
102
}
330
9F9
100
AcDbVisualStyle
  2
Realistic
 70
     8
177
     2
291
     0
 71
     2
176
     1
 72
     3
176
     1
 73
     0
176
     1
 90
        2
176
     1
 40
0.6
176
     1
 41
30.0
176
     1
 63
     7
421
 16777215
176
     1
 74
     0
176
     1
 91
        0
176
     1
 64
     7
176
     1
 65
   257
176
     1
 75
     1
176
     1
175
     1
176
     1
 42
1.0
176
     1
 92
        8
176
     1
 66
   257
176
     1
 43
1.0
176
     1
 76
     1
176
     1
 77
     6
176
     1
 78
     2
176
     1
 67
     7
176
     1
 79
     3
176
     1
170
     0
176
     1
171
     0
176
     1
290
     0
176
     1
 93
       13
176
     1
 44
0.0
176
     1
173
     0
176
     1
  0
VISUALSTYLE
  5
A0E
102
{ACAD_REACTORS
330
9F9
102
}
330
9F9
100
AcDbVisualStyle
  2
Shaded
 70
    27
177
     2
291
     0
 71
     2
176
     1
 72
     2
176
     1
 73
     1
176
     1
 90
        2
176
     1
 40
0.6
176
     1
 41
30.0
176
     1
 63
     7
421
 16777215
176
     1
 74
     0
176
     1
 91
        4
176
     1
 64
     7
176
     1
 65
   257
176
     1
 75
     1
176
     1
175
     1
176
     1
 42
1.0
176
     1
 92
        8
176
     1
 66
   257
176
     1
 43
1.0
176
     1
 76
     1
176
     1
 77
     6
176
     1
 78
     2
176
     1
 67
     8
425
  7895160
176
     1
 79
     3
176
     1
170
     0
176
     1
171
     0
176
     1
290
     0
176
     1
 93
        5
176
     1
 44
0.0
176
     1
173
     0
176
     1
  0
VISUALSTYLE
  5
A0D
102
{ACAD_REACTORS
330
9F9
102
}
330
9F9
100
AcDbVisualStyle
  2
Shaded with edges
 70
    26
177
     2
291
     0
 71
     2
176
     1
 72
     2
176
     1
 73
     1
176
     1
 90
        2
176
     1
 40
0.6
176
     1
 41
30.0
176
     1
 63
     7
421
 16777215
176
     1
 74
     1
176
     1
 91
       10
176
     1
 64
     7
176
     1
 65
   257
176
     1
 75
     2
176
     1
175
     1
176
     1
 42
1.0
176
     1
 92
        8
176
     1
 66
   257
176
     1
 43
1.0
176
     1
 76
     1
176
     1
 77
     6
176
     1
 78
     2
176
     1
 67
     7
176
     1
 79
     3
176
     1
170
     0
176
     1
171
     0
176
     1
290
     0
176
     1
 93
        5
176
     1
 44
0.0
176
     1
173
     0
176
     1
  0
VISUALSTYLE
  5
A0A
102
{ACAD_REACTORS
330
9F9
102
}
330
9F9
100
AcDbVisualStyle
  2
Shades of Gray
 70
    23
177
     2
291
     0
 71
     2
176
     1
 72
     2
176
     1
 73
     3
176
     1
 90
        0
176
     1
 40
0.6
176
     1
 41
30.0
176
     1
 63
     7
421
 16777215
176
     1
 74
     2
176
     1
 91
        2
176
     1
 64
     7
176
     1
 65
     7
176
     1
 75
     1
176
     1
175
     1
176
     1
 42
40.0
176
     1
 92
        8
176
     1
 66
     7
176
     1
 43
1.0
176
     1
 76
     1
176
     1
 77
     6
176
     1
 78
     2
176
     1
 67
     7
176
     1
 79
     3
176
     1
170
     0
176
     1
171
     0
176
     1
290
     0
176
     1
 93
        1
176
     1
 44
0.0
176
     1
173
     0
176
     1
  0
VISUALSTYLE
  5
A0B
102
{ACAD_REACTORS
330
9F9
102
}
330
9F9
100
AcDbVisualStyle
  2
Sketchy
 70
    24
177
     2
291
     0
 71
     1
176
     1
 72
     2
176
     1
 73
     2
176
     1
 90
        0
176
     1
 40
0.6
176
     1
 41
30.0
176
     1
 63
     7
421
 16777215
176
     1
 74
     2
176
     1
 91
        2
176
     1
 64
     7
176
     1
 65
     7
176
     1
 75
     1
176
     1
175
     1
176
     1
 42
40.0
176
     1
 92
       11
176
     1
 66
     7
176
     1
 43
1.0
176
     1
 76
     1
176
     1
 77
     6
176
     1
 78
     2
176
     1
 67
     7
176
     1
 79
     6
176
     1
170
     0
176
     1
171
     0
176
     1
290
     0
176
     1
 93
        1
176
     1
 44
0.0
176
     1
173
     0
176
     1
  0
VISUALSTYLE
  5
A06
102
{ACAD_REACTORS
330
9F9
102
}
330
9F9
100
AcDbVisualStyle
  2
Thicken
 70
    13
177
     2
291
     1
 71
     2
176
     1
 72
     2
176
     1
 73
     0
176
     1
 90
        0
176
     1
 40
0.6
176
     1
 41
30.0
176
     1
 63
     7
421
 16777215
176
     1
 74
     1
176
     1
 91
        4
176
     1
 64
     7
176
     1
 65
   257
176
     1
 75
     1
176
     1
175
     1
176
     1
 42
1.0
176
     1
 92
       12
176
     1
 66
     7
176
     1
 43
1.0
176
     1
 76
     1
176
     1
 77
     6
176
     1
 78
     2
176
     1
 67
     7
176
     1
 79
     5
176
     1
170
     0
176
     1
171
     0
176
     1
290
     0
176
     1
 93
        1
176
     1
 44
0.0
176
     1
173
     0
176
     1
  0
VISUALSTYLE
  5
A00
102
{ACAD_REACTORS
330
9F9
102
}
330
9F9
100
AcDbVisualStyle
  2
Wireframe
 70
     5
177
     2
291
     0
 71
     0
176
     1
 72
     2
176
     1
 73
     0
176
     1
 90
        0
176
     1
 40
0.6
176
     1
 41
30.0
176
     1
 63
     7
421
 16777215
176
     1
 74
     1
176
     1
 91
        4
176
     1
 64
     7
176
     1
 65
   257
176
     1
 75
     1
176
     1
175
     1
176
     1
 42
1.0
176
     1
 92
        0
176
     1
 66
   257
176
     1
 43
1.0
176
     1
 76
     1
176
     1
 77
     6
176
     1
 78
     2
176
     1
 67
     7
176
     1
 79
     3
176
     1
170
     0
176
     1
171
     0
176
     1
290
     0
176
     1
 93
        1
176
     1
 44
0.0
176
     1
173
     0
176
     1
  0
VISUALSTYLE
  5
A0C
102
{ACAD_REACTORS
330
9F9
102
}
330
9F9
100
AcDbVisualStyle
  2
X-Ray
 70
    25
177
     2
291
     0
 71
     2
176
     1
 72
     2
176
     1
 73
     1
176
     1
 90
        1
176
     1
 40
0.5
176
     1
 41
30.0
176
     1
 63
     7
421
 16777215
176
     1
 74
     1
176
     1
 91
        0
176
     1
 64
     7
176
     1
 65
   257
176
     1
 75
     1
176
     1
175
     1
176
     1
 42
1.0
176
     1
 92
        8
176
     1
 66
     7
176
     1
 43
1.0
176
     1
 76
     1
176
     1
 77
     6
176
     1
 78
     2
176
     1
 67
     7
176
     1
 79
     3
176
     1
170
     0
176
     1
171
     0
176
     1
290
     0
176
     1
 93
       13
176
     1
 44
0.0
176
     1
173
     0
176
     1
  0
DICTIONARYVAR
  5
B24
102
{ACAD_REACTORS
330
9C7
102
}
330
9C7
100
DictionaryVariables
280
     0
  1
1:1
  0
DICTIONARYVAR
  5
B22
102
{ACAD_REACTORS
330
9C7
102
}
330
9C7
100
DictionaryVariables
280
     0
  1
STANDARD
  0
DICTIONARYVAR
  5
9C8
102
{ACAD_REACTORS
330
9C7
102
}
330
9C7
100
DictionaryVariables
280
     0
  1
STANDARD
  0
DICTIONARYVAR
  5
9DE
102
{ACAD_REACTORS
330
9C7
102
}
330
9C7
100
DictionaryVariables
280
     0
  1
1
  0
DICTIONARYVAR
  5
B26
102
{ACAD_REACTORS
330
9C7
102
}
330
9C7
100
DictionaryVariables
280
     0
  1
1
  0
DICTIONARYVAR
  5
B27
102
{ACAD_REACTORS
330
9C7
102
}
330
9C7
100
DictionaryVariables
280
     0
  1
15
  0
DICTIONARYVAR
  5
B25
102
{ACAD_REACTORS
330
9C7
102
}
330
9C7
100
DictionaryVariables
280
     0
  1
0
  0
DICTIONARYVAR
  5
B23
102
{ACAD_REACTORS
330
9C7
102
}
330
9C7
100
DictionaryVariables
280
     0
  1
0
  0
DICTIONARYVAR
  5
9DF
102
{ACAD_REACTORS
330
9C7
102
}
330
9C7
100
DictionaryVariables
280
     0
  1

  0
DICTIONARY
  5
B1E
330
9C1
100
AcDbDictionary
280
     1
281
     1
  3
ADSK_XREC_LAYOUTTHUMBNAIL
360
B1F
  0
DICTIONARY
  5
9EA
330
9E9
100
AcDbDictionary
280
     1
281
     1
  3
BUMPTILE
360
9EC
  3
DIFFUSETILE
360
9EB
  3
OPACITYTILE
360
9EF
  3
REFLECTIONTILE
360
9EE
  3
REFRACTIONTILE
360
9F0
  3
SPECULARTILE
360
9ED
  0
DICTIONARY
  5
9E2
330
9E1
100
AcDbDictionary
280
     1
281
     1
  3
BUMPTILE
360
9E4
  3
DIFFUSETILE
360
9E3
  3
OPACITYTILE
360
9E7
  3
REFLECTIONTILE
360
9E6
  3
REFRACTIONTILE
360
9E8
  3
SPECULARTILE
360
9E5
  0
DICTIONARY
  5
9F2
330
9F1
100
AcDbDictionary
280
     1
281
     1
  3
BUMPTILE
360
9F4
  3
DIFFUSETILE
360
9F3
  3
OPACITYTILE
360
9F7
  3
REFLECTIONTILE
360
9F6
  3
REFRACTIONTILE
360
9F8
  3
SPECULARTILE
360
9F5
  0
DICTIONARY
  5
194C
330
A25
100
AcDbDictionary
280
     1
281
     1
  3
ACAD_XREC_ROUNDTRIP
360
194D
  0
DICTIONARY
  5
194A
330
9BE
100
AcDbDictionary
280
     1
281
     1
  3
ACAD_ROUNDTRIP_2008_TABLESTYLE_CELLSTYLEMAP
360
194B
  0
XRECORD
  5
B1F
102
{ACAD_REACTORS
330
B1E
102
}
330
B1E
100
AcDbXrecord
280
     1
310
280000000001000088000000010008000000000000880000000000000000000000010000000000000000000000000000C8C8C8000000000000000000000000000000000000000000000000000000000000000000330000006600000099000000CC000000FF00000000330000333300006633000099330000CC330000FF3300
310
0000660000336600006666000099660000CC660000FF66000000990000339900006699000099990000CC990000FF99000000CC000033CC000066CC000099CC0000CCCC0000FFCC000000FF000033FF000066FF000099FF0000CCFF0000FFFF000000003300330033006600330099003300CC003300FF003300003333003333
310
33006633330099333300CC333300FF33330000663300336633006666330099663300CC663300FF66330000993300339933006699330099993300CC993300FF99330000CC330033CC330066CC330099CC3300CCCC3300FFCC330000FF330033FF330066FF330099FF3300CCFF3300FFFF330000006600330066006600660099
310
006600CC006600FF00660000336600333366006633660099336600CC336600FF33660000666600336666006666660099666600CC666600FF66660000996600339966006699660099996600CC996600FF99660000CC660033CC660066CC660099CC6600CCCC6600FFCC660000FF660033FF660066FF660099FF6600CCFF6600
310
FFFF660000009900330099006600990099009900CC009900FF00990000339900333399006633990099339900CC339900FF33990000669900336699006666990099669900CC669900FF66990000999900339999006699990099999900CC999900FF99990000CC990033CC990066CC990099CC9900CCCC9900FFCC990000FF99
310
0033FF990066FF990099FF9900CCFF9900FFFF99000000CC003300CC006600CC009900CC00CC00CC00FF00CC000033CC003333CC006633CC009933CC00CC33CC00FF33CC000066CC003366CC006666CC009966CC00CC66CC00FF66CC000099CC003399CC006699CC009999CC00CC99CC00FF99CC0000CCCC0033CCCC0066CC
310
CC0099CCCC00CCCCCC00FFCCCC0000FFCC0033FFCC0066FFCC0099FFCC00CCFFCC00FFFFCC000000FF003300FF006600FF009900FF00CC00FF00FF00FF000033FF003333FF006633FF009933FF00CC33FF00FF33FF000066FF003366FF006666FF009966FF00CC66FF00FF66FF000099FF003399FF006699FF009999FF00CC
310
99FF00FF99FF0000CCFF0033CCFF0066CCFF0099CCFF00CCCCFF00FFCCFF0000FFFF0033FFFF0066FFFF0099FFFF00CCFFFF00FFFFFF00000000000D0D0D001A1A1A00282828003535350043434300505050005D5D5D006B6B6B00787878008686860093939300A1A1A100AEAEAE00BBBBBB00C9C9C900D6D6D600E4E4E400
310
F1F1F100FFFFFF000000000000000000000000000000000000000000000000000000000000000000000000000000000000000000000000000000000000000000000000000000000000000000000000000000000000000000000000000000000000000000000000000000000000000000000000000000000000000000000000
310
00000000000000000000000000000000000000000000000000000000000000000000000000000000000000000000000000000000000000000000000000000000000000000000000000000000000000000000000000000000000000000000000000000000000000000000000000000000000000000000000000000000000000
310
00000000000000000000000000000000000000000000000000000000000000000000000000000000000000000000000000000000000000000000000000000000000000000000000000000000000000000000000000000000000000000000000000000000000000000000000000000000000000000000000000000000000000
310
00000000000000000000000000000000000000282828282828282828282828282828282828282828282828282828282828282828282828282828282828282828282828282828282828282828282828282828280000000000000000000000000000000000000000000000000000000000000000000000000000000000000000
310
00000000000000000000000000000000000000000000000000000000000000000000000000000000000000000000000000000000000000000000000000000000000000000000000000000000000000000000000000000000000000000000000000000000000000000000000000000000000000000000000000000000000000
310
00000000000000000000000000000000000000000028002828282828282828282828282828282828282828282828282828282828282828282828282828282828282828282828282828282828282828282828280028000000000000000000000000000000000000000000000000000000000000000000000000000000000000
310
00000000000000000000000000000000000000000000000000000000000000000000000000000000000000000000000000000000000000000000000000000000000000000000000000000000000000000000000000000000000000000000000000000000000000000000000000000000000000000000000000000000000000
310
000000000000000000000000000000000000000000000028002800000000000000000000000000000000000000000000000000000000000000000000000000000000000000280000F5F50000280000F5F5F5000028002800000000000000000000000000000000000000000000000000000000000000000000000000000000
310
00000000000000000000000000000000000000000000000000000000000000000000000000000000000000000000000000000000000000000000000000000000000000000000000000000000000000000000000000000000000000000000000000000000000000000000000000000000000000000000000000000000000000
310
0000000000000000000000000000000000000000000000000028002800000000000000000000000000000000ECECECECECECECECECECECECECEC00000000000000000000000000280000F5F50000280000F5F5F500002800280000000000000000000000000000000000000000000000000000000000000000000000000000
310
00000000000000000000000000000000000000000000000000000000000000000000000000000000000000000000000000000000000000000000000000000000000000000000000000000000000000000000000000000000000000000000000000000000000000000000000000000000000000000000000000000000000000
310
00000000000000000000000000000000000000000000000000000028002800000000000000000000000000000000ECECECECECECECECECECECECECEC00000000000000000000000000282828282828282828282828282828280028000000000000000000000000000000000000000000000000000000000000000000000000
310
00000000000000000000000000000000000000000000000000000000000000000000000000000000000000000000000000000000000000000000000000000000000000000000000000000000000000000000000000000000000000000000000000000000000000000000000000000000000000000000000000000000000000
310
00000000000000000000000000000000000000000000000000000000002800280000000000000000C3C3C3C3C3C3C3C3C3C3C3C3C3C3C3C3C3C3C3C3C3C3C3C3C3C3C3C3C3C3C3C30000002800F5F5F5F500282828282828282828002800000000000000000000000000000000000000000000000000000000000000000000
310
00000000000000000000000000000000000000000000000000000000000000000000000000000000000000000000000000000000000000000000000000000000000000000000000000000000000000000000000000000000000000000000000000000000000000000000000000000000000000000000000000000000000000
310
000000000000000000000000000000000000000000000000000000000000002800280000000000000000C3C3C3C3C300C3C3C300C3C3C300C3C3C300C3C3C300C3C3C300C3C3C300C3C30000002800F5F5F5F50028282828282828282800280000000000000000000000000000000000000000000000000000000000000000
310
00000000000000000000000000000000000000000000000000000000000000000000000000000000000000000000000000000000000000000000000000000000000000000000000000000000000000000000000000000000000000000000000000000000000000000000000000000000000000000000000000000000000000
310
000000000000000000000000000000000000000000000000000000000000000000280028000000000000000000C3C3000000C3000000C3000000C3000000C3000000C3000000C3000000C3C300000028282828282828282828F5F5F5F5F5F50028000000000000000000000000000000000000000000000000000000000000
310
00000000000000000000000000000000000000000000000000000000000000000000000000000000000000000000000000000000000000000000000000000000000000000000000000000000000000000000000000000000000000000000000000000000000000000000000000000000000000000000000000000000000000
310
000000000000000000000000000000000000000000000000000000000000000000000028002800000000BEC3C3C300C3C3F5F5F5C3F5F5F5C3F5F5F5C3F5F5F5C3F5F5F5C3F5F5F5C3F5F5F5C3C3C3C300280000000000F5F5F5F5000000000028002800000000000000000000000000000000000000000000000000000000
310
00000000000000000000000000000000000000000000000000000000000000000000000000000000000000000000000000000000000000000000000000000000000000000000000000000000000000000000000000000000000000000000000000000000000000000000000000000000000000000000000000000000000000
310
0000000000000000000000000000000000000000000000000000000000000000000000000028002800000000BEBEC3C300F5F5F5F5F5F5F5F5F5F5F5F5F5F5F5F5F5F5F5F5F5F5F5F5F5F5F5F5F5F5F5C3C300280000000000F5F5F5F500000000002800280000000000000000000000000000000000000000000000000000
310
00000000000000000000000000000000000000000000000000000000000000000000000000000000000000000000000000000000000000000000000000000000000000000000000000000000000000000000000000000000000000000000000000000000000000000000000000000000000000000000000000000000000000
310
0000000000000000000000000000000000000000000000000000000000000000000000000000002800280000C3C3C3C3C3C300F5F5F5F5F5F5F5F5F5F5F5F5F5F5F5F5F5F5F5F5F5F5F5F5F5F5F5F5F5C3C3C3C300282828282828282828282828282828280028000000000000000000000000000000000000000000000000
310
00000000000000000000000000000000000000000000000000000000000000000000000000000000000000000000000000000000000000000000000000000000000000000000000000000000000000000000000000000000000000000000000000000000000000000000000000000000000000000000000000000000000000
310
00000000000000000000000000000000000000000000000000000000000000000000000000000000002800280000C3C3C30000C300F5F5F5F5F5F5F5F5F5F5F5F5F5F5F5F5F5F5F5F5F5F5F5F5F5F5F5F5F5F5F500000028ECECECECECECECECECECECEC000028002800000000000000000000000000000000000000000000
310
00000000000000000000000000000000000000000000000000000000000000000000000000000000000000000000000000000000000000000000000000000000000000000000000000000000000000000000000000000000000000000000000000000000000000000000000000000000000000000000000000000000000000
310
0000000000000000000000000000000000000000000000000000000000000000000000000000000000000028002800BEC3C3C3C3C3C300C3F5F5F5F5F5F5F5F5F5F5F5F5F5F5F5F5F5F5F5F5F5F5F5F5F5F5F5F5F5C30000002800000000000000000000000000002800280000000000000000000000000000000000000000
310
00000000000000000000000000000000000000000000000000000000000000000000000000000000000000000000000000000000000000000000000000000000000000000000000000000000000000000000000000000000000000000000000000000000000000000000000000000000000000000000000000000000000000
310
000000000000000000000000000000000000000000000000000000000000000000000000000000000000000000280028000000000000000000C3C3C3C3C3C3C3C3C3C3C3C3C3C3C3C3C3C3C3C3C3C3C3C3C3C3C3C3C3C3C3000000280000000000000000000000000000280028000000000000000000000000000000000000
310
00000000000000000000000000000000000000000000000000000000000000000000000000000000000000000000000000000000000000000000000000000000000000000000000000000000000000000000000000000000000000000000000000000000000000000000000000000000000000000000000000000000000000
310
0000000000000000000000000000000000000000000000000000000000000000000000000000000000000000000000280028000000000000000000C300000000000000000000000000C3C3C300000000000000000000000000C300000028000000000000000000000000000028002800000000000000000000000000000000
310
00000000000000000000000000000000000000000000000000000000000000000000000000000000000000000000000000000000000000000000000000000000000000000000000000000000000000000000000000000000000000000000000000000000000000000000000000000000000000000000000000000000000000
310
00000000000000000000000000000000000000000000000000000000000000000000000000000000000000000000000000280028000000000000000000C3C3C3C3C3C3C3C3C3C3C3C3C3C3C3C3C3C3C3C3C3C3C3C3C3C3C3C3C3C3C30000002800000000000000000000000000002800280000000000000000000000000000
310
00000000000000000000000000000000000000000000000000000000000000000000000000000000000000000000000000000000000000000000000000000000000000000000000000000000000000000000000000000000000000000000000000000000000000000000000000000000000000000000000000000000000000
310
00000000000000000000000000000000000000000000000000000000000000000000000000000000000000000000000000000028002800BEC3C3C3C3C3C300C3F5F5F5F5F5F5F5F5F5F5F5F5F5F5F5F5F5F5F5F5F5F5F5F5F5F5F5F5F5C3000000280000000000000000000000000000280028000000000000000000000000
310
00000000000000000000000000000000000000000000000000000000000000000000000000000000000000000000000000000000000000000000000000000000000000000000000000000000000000000000000000000000000000000000000000000000000000000000000000000000000000000000000000000000000000
310
00000000000000000000000000000000000000000000000000000000000000000000000000000000000000000000000000000000002800280000BEC3C30000C300F5F5F5F5F5F5F5F5F5F5F5F5F5F5F5F5F5F5F5F5F5F5F5F5F5F5F5F5F5F5F500000028000000000000000000000000000028002800000000000000000000
310
00000000000000000000000000000000000000000000000000000000000000000000000000000000000000000000000000000000000000000000000000000000000000000000000000000000000000000000000000000000000000000000000000000000000000000000000000000000000000000000000000000000000000
310
000000000000000000000000000000000000000000000000000000000000000000000000000000000000000000000000000000000000002800280000C3C3BE00C3C300F500BE000000BE000000BE000000BE000000BE000000BE000000BE000000BE00C3002800000000000000000000000000002800280000000000000000
310
00000000000000000000000000000000000000000000000000000000000000000000000000000000000000000000000000000000000000000000000000000000000000000000000000000000000000000000000000000000000000000000000000000000000000000000000000000000000000000000000000000000000000
310
00000000000000000000000000000000000000000000000000000000000000000000000000000000000000000000000000000000000000000028002800000000C3C3C3C300F5F5F5F5F5BEF5F5F5F5F5F5F5F5F5F5F5F5F5F5F5F5F5F5F5F5F5F5F5F5C3C3C300280000000000000000000000000000280028000000000000
310
00000000000000000000000000000000000000000000000000000000000000000000000000000000000000000000000000000000000000000000000000000000000000000000000000000000000000000000000000000000000000000000000000000000000000000000000000000000000000000000000000000000000000
310
000000000000000000000000000000000000000000000000000000000000000000000000000000000000000000000000000000000000000000000028002800000000BEC3C3C300C3F5C3F5F5F5C3F5F5F5C3F5F5F5C3F5F5F5C3F5F5F5C3F5F5F5C3F5F5F5C3C3C30028000000000000000000000000000028002800000000
310
00000000000000000000000000000000000000000000000000000000000000000000000000000000000000000000000000000000000000000000000000000000000000000000000000000000000000000000000000000000000000000000000000000000000000000000000000000000000000000000000000000000000000
310
00000000000000000000000000000000000000000000000000000000000000000000000000000000000000000000000000000000000000000000000000280028000000000000000000C300C3000000C3000000C3000000C3000000C3000000C3000000C3000000C30000002800000000000000000000000000002800280000
310
00000000000000000000000000000000000000000000000000000000000000000000000000000000000000000000000000000000000000000000000000000000000000000000000000000000000000000000000000000000000000000000000000000000000000000000000000000000000000000000000000000000000000
310
000000000000000000000000000000000000000000000000000000000000000000000000000000000000000000000000000000000000000000000000000000280028000000000000000000C300C3000000C3000000C3000000C3000000C3000000C3000000C3000000C30000002800ECECECEC000000000000000000280028
310
00000000000000000000000000000000000000000000000000000000000000000000000000000000000000000000000000000000000000000000000000000000000000000000000000000000000000000000000000000000000000000000000000000000000000000000000000000000000000000000000000000000000000
310
0000000000000000000000000000000000000000000000000000000000000000000000000000000000000000000000000000000000000000000000000000000000280028000000000000000000C3C3C3C3C3C3C3C3C3C3C3C3C3C3C3C3C3C3C3C3C3C3C3C3C3C3C3C3C3C3C3C3000028ECECECECECEC000000000000000028
310
00280000000000000000000000000000000000000000000000000000000000000000000000000000000000000000000000000000000000000000000000000000000000000000000000000000000000000000000000000000000000000000000000000000000000000000000000000000000000000000000000000000000000
310
000000000000000000000000000000000000000000000000000000000000000000000000000000000000000000000000000000000000000000000000000000000000002800280000000000000000000000000000000000000000000000000000000000000000000000000000000000000028ECECECECECECEC000000000000
310
00280028000000000000000000000000000000000000000000000000000000000000000000000000000000000000000000000000000000000000000000000000000000000000000000000000000000000000000000000000000000000000000000000000000000000000000000000000000000000000000000000000000000
310
00000000000000000000000000000000000000000000000000000000000000000000000000000000000000000000000000000000000000000000000000000000000000000028002800000000000000000000000000000000000000000000000000000000000000000000000000000000000000280000ECECECECECEC000000
310
00000028002800000000000000000000000000000000000000000000000000000000000000000000000000000000000000000000000000000000000000000000000000000000000000000000000000000000000000000000000000000000000000000000000000000000000000000000000000000000000000000000000000
310
000000000000000000000000000000000000000000000000000000000000000000000000000000000000000000000000000000000000000000000000000000000000000000000028002800000000000000ECECECECEC00000000000000000000000000000000ECECECECEC00000000000000000000280000ECECECECEC0000
310
ECEC0000002800280000000000000000000000000000000000000000000000000000000000000000000000000000000000000000000000000000000000000000000000000000000000000000000000000000000000000000000000000000000000000000000000000000000000000000000000000000000000000000000000
310
000000000000000000000000000000000000000000000000000000000000000000000000000000000000000000000000000000000000000000000000000000000000000000000000002800280000000000ECECECECECECECEC0000000000000000000000000000ECECECECECECECEC0000000000000000280000ECECECECEC
310
EC00ECEC000000280028000000000000000000000000000000000000000000000000000000000000000000000000000000000000000000000000000000000000000000000000000000000000000000000000000000000000000000000000000000000000000000000000000000000000000000000000000000000000000000
310
000000000000000000000000000000000000000000000000000000000000000000000000000000000000000000000000000000000000000000000000000000000000000000000000000000280028000000000000000000000000000000000000000000000000000000000000000000000000000000000000002800ECECECEC
310
ECECECEC000000000028002800000000000000000000000000000000000000000000000000000000000000000000000000000000000000000000000000000000000000000000000000000000000000000000000000000000000000000000000000000000000000000000000000000000000000000000000000000000000000
310
00000000000000000000000000000000000000000000000000000000000000000000000000000000000000000000000000000000000000000000000000000000000000000000000000000000002800280000000000000000000000000000000000000000000000C3C3C3C300000000000000000000000000000000280000EC
310
ECEC0000000000000000002800280000000000000000000000000000000000000000000000000000000000000000000000000000000000000000000000000000000000000000000000000000000000000000000000000000000000000000000000000000000000000000000000000000000000000000000000000000000000
310
000000000000000000000000000000000000000000000000000000000000000000000000000000000000000000000000000000000000000000000000000000000000000000000000000000000000002800280000000000000000000000000000000000000000000000C3C3C3C300000000C3C30000000000000000000028EC
310
ECECECECEC0000000000000000280028000000000000000000000000000000000000000000000000000000000000000000000000000000000000000000000000000000000000000000000000000000000000000000000000000000000000000000000000000000000000000000000000000000000000000000000000000000
310
0000000000000000000000000000000000000000000000000000000000000000000000000000000000000000000000000000000000000000000000000000000000000000000000000000000000000000002800280000000000000000000000000000000000000000000000C3C300C300000000C3C300000000000000000000
310
28ECECECECECEC000000000000000028002800000000000000000000000000000000000000000000000000000000000000000000000000000000000000000000000000000000000000000000000000000000000000000000000000000000000000000000000000000000000000000000000000000000000000000000000000
310
00000000000000000000000000000000000000000000000000000000000000000000000000000000000000000000000000000000000000000000000000000000000000000000000000000000000000000000002800280000C3C300000000000000000000C3C3C30000000000C3C3C300C3000000C3C3C30000000000000000
310
00002828282828282828282828282828282800280000000000000000000000000000000000000000000000000000000000000000000000000000000000000000000000000000000000000000000000000000000000000000000000000000000000000000000000000000000000000000000000000000000000000000000000
310
000000000000000000000000000000000000000000000000000000000000000000000000000000000000000000000000000000000000000000000000000000000000000000000000000000000000000000000000002800280000C3C3C300000000C3000000C3C3C3000000000000C3282800C3000000C3282800000000C300
310
0000000028000000ECECECECECECEC00000000280028000000000000000000000000000000000000000000000000000000000000000000000000000000000000000000000000000000000000000000000000000000000000000000000000000000000000000000000000000000000000000000000000000000000000000000
310
000000000000000000000000000000000000000000000000000000000000000000000000000000000000000000000000000000000000000000000000000000000000000000000000000000000000000000000000000000280028000000C328BE000000C30000BE28C300000000000000C3282828C3000000C32828000000C3
310
00000000000028280000ECECECECECECEC0000000028002800000000000000000000000000000000000000000000000000000000000000000000000000000000000000000000000000000000000000000000000000000000000000000000000000000000000000000000000000000000000000000000000000000000000000
310
00000000000000000000000000000000000000000000000000000000000000000000000000000000000000000000000000000000000000000000000000000000000000000000000000000000000000000000000000000000002800280000C30000BEBE0000C300BE282800C30000000000C3C3282828280000C3C328280000
310
C3000000000000002828282828282828282828282828282800280000000000000000000000000000000000000000000000000000000000000000000000000000000000000000000000000000000000000000000000000000000000000000000000000000000000000000000000000000000000000000000000000000000000
310
00000000000000000000000000000000000000000000000000000000000000000000000000000000000000000000000000000000000000000000000000000000000000000000000000000000000000000000000000000000000000280028000000C3000028BE00C3BE282800C3000000000000C3C3282828280000C3C32828
310
00C3C3000000000000002800ECECECECECECECECECECEC0000280028000000000000000000000000000000000000000000000000000000000000000000000000000000000000000000000000000000000000000000000000000000000000000000000000000000000000000000000000000000000000000000000000000000
310
00000000000000000000000000000000000000000000000000000000000000000000000000000000000000000000000000000000000000000000000000000000000000000000000000000000000000000000000000000000000000000028002800000000C3000028BEC3280000C30000000000000000C328280000000000C3
310
2828C300000000000000000028280000000000000000000000000028002800000000000000000000000000000000000000000000000000000000000000000000000000000000000000000000000000000000000000000000000000000000000000000000000000000000000000000000000000000000000000000000000000
310
000000000000000000000000000000000000000000000000000000000000000000000000000000000000000000000000000000000000000000000000000000000000000000000000000000000000000000000000000000000000000000000028002800000000C3C3000028C30000C3C30000000000000000C3282828280000
310
00C3C3C3C328282828C3C3C300002828282828282828282828282828282800280000000000000000000000000000000000000000000000000000000000000000000000000000000000000000000000000000000000000000000000000000000000000000000000000000000000000000000000000000000000000000000000
310
00000000000000000000000000000000000000000000000000000000000000000000000000000000000000000000000000000000000000000000000000000000000000000000000000000000000000000000000000000000000000000000000000280028000000000000C300C3C300C300000000000000000000C3C3C32828
310
000000C3C3C32828282828C3C3C30000280028282828282828282828282828280028000000000000000000000000000000000000000000000000000000000000000000000000000000000000000000000000000000000000000000000000000000000000000000000000000000000000000000000000000000000000000000
310
00000000000000000000000000000000000000000000000000000000000000000000000000000000000000000000000000000000000000000000000000000000000000000000000000000000000000000000000000000000000000000000000000000028002800000000000000C3C3C3C30000000000000000000000000000
310
0000000000C3C3C3C3C3C3C3C3C3C300000028282828282828282828282828282828002800000000000000000000000000000000000000000000000000000000000000000000000000000000000000000000000000000000000000000000000000000000000000000000000000000000000000000000000000000000000000
310
00000000000000000000000000000000000000000000000000000000000000000000000000000000000000000000000000000000000000000000000000000000000000000000000000000000000000000000000000000000000000000000000000000000002800280000000000000000000000000000000000000000000000
310
0000000000000000C30000C3C3000000C30000002800282828282828282828282800002800280000000000000000000000000000000000000000000000000000000000000000000000000000000000000000000000000000000000000000000000000000000000000000000000000000000000000000000000000000000000
310
00000000000000000000000000000000000000000000000000000000000000000000000000000000000000000000000000000000000000000000000000000000000000000000000000000000000000000000000000000000000000000000000000000000000000280028282828282828282828282828282828282828282828
310
28282828282828282828282828282828282828282828282828282828282828282828282828280028000000000000000000000000000000000000000000000000000000000000000000000000000000000000000000000000000000000000000000000000000000000000000000000000000000000000000000000000000000
310
00000000000000000000000000000000000000000000000000000000000000000000000000000000000000000000000000000000000000000000000000000000000000000000000000000000000000000000000000000000000000000000000000000000000000000028000000000000000000000000000000000000000000
310
00000000000000000000000000000000000000000000000000000000000000000000000000000000002800000000000000000000000000000000000000000000000000000000000000000000000000000000000000000000000000000000000000000000000000000000000000000000000000000000000000000000000000
310
00000000000000000000000000000000000000000000000000000000000000000000000000000000000000000000000000000000000000000000000000000000000000000000000000000000000000000000000000000000000000000000000000000000000000000000002828282828282828282828282828282828282828
310
28282828282828282828282828282828282828282828282828282828282828282828282828282828282828280000000000000000000000000000000000000000000000000000000000000000000000000000000000000000000000000000000000000000000000000000000000000000000000000000000000000000000000
310
00000000000000000000000000000000000000000000000000000000000000000000000000000000000000000000000000000000000000000000000000000000000000000000000000000000000000000000000000000000000000000000000000000000000000000000000000280000000000000000000000000000000000
310
00000000000000000000000000000000000000000000000000000000000000000000000000000000000000000028000000000000000000000000000000000000000000000000000000000000000000000000000000000000000000000000000000000000000000000000000000000000000000000000000000000000000000
310
00000000000000000000000000000000000000000000000000000000000000000000000000000000000000000000000000000000000000000000000000000000000000000000000000000000000000000000000000000000000000000000000000000000000000000000000000000028002828282828282828282828282828
310
28282828282828282828282828282828282828282828282828282828282828282828282828282828282828282828002800000000000000000000000000000000000000000000000000000000000000000000000000000000000000000000000000000000000000000000000000000000000000000000000000000000000000
310
00000000000000000000000000000000000000000000000000000000000000000000000000000000000000000000000000000000000000000000000000000000000000000000000000000000000000000000000000000000000000000000000000000000000000000000000000000000002800280000000000000000000000
310
00000000ECECECECECECECECECECECECECECECEC000000000000000000000000280000F5F50000280000F5F5F500002800280000000000000000000000000000000000000000000000000000000000000000000000000000000000000000000000000000000000000000000000000000000000000000000000000000000000
310
000000000000000000000000000000000000000000000000000000000000000000000000000000000000000000000000000000000000000000000000000000000000000000000000000000000000000000000000000000000000000000000000000000000000000000000000000000000000002800280000000000000000C3
310
C3C3C3C3C3C3C3C3C3C3C3C3C3C3C3C3C3C3C3C3C3C3C3C3C3C3C3C3C3C3C3000000282828000000002828282800000000280028000000000000000000000000000000000000000000000000000000000000000000000000000000000000000000000000000000000000000000000000000000000000000000000000000000
310
00000000000000000000000000000000000000000000000000000000000000000000000000000000000000000000000000000000000000000000000000000000000000000000000000000000000000000000000000000000000000000000000000000000000000000000000000000000000000000028002800000000000000
310
00C3C3C3C3C300C3C3C300C3C3C300C3C3C300C3C3C300C3C3C300C3C3C300C3C300000028282828282828282828282828282828002800000000000000000000000000000000000000000000000000000000000000000000000000000000000000000000000000000000000000000000000000000000000000000000000000
310
0000000000000000000000000000000000000000000000000000000000000000000000000000000000000000000000000000000000000000000000000000000000000000000000000000000000000000000000000000000000000000000000000000000000000000000000000000000000000000000000280028000000C3C3
310
C3C30000C3C3F5F5F5C3F5F5F5C3F5F5F5C3F5F5F5C3F5F5F5C3F5F5F5C3F5F5F5C3C3C3C3002800F5F5F5F50028282828282828282800280000000000000000000000000000000000000000000000000000000000000000000000000000000000000000000000000000000000000000000000000000000000000000000000
310
000000000000000000000000000000000000000000000000000000000000000000000000000000000000000000000000000000000000000000000000000000000000000000000000000000000000000000000000000000000000000000000000000000000000000000000000000000000000000000000000002800280000BE
310
BEC3C3C30000F5F5F5F5F5F5F5F5F5F5F5F5F5F5F5F5F5F5F5F5F5F5F5F5F5F5F5F5F5F5F5C3C30028280000000000282828F5F5F5F5F5F50028000000000000000000000000000000000000000000000000000000000000000000000000000000000000000000000000000000000000000000000000000000000000000000
310
00000000000000000000000000000000000000000000000000000000000000000000000000000000000000000000000000000000000000000000000000000000000000000000000000000000000000000000000000000000000000000000000000000000000000000000000000000000000000000000000000000028002800
310
00C3C3C3C3C30000F5F5F5F5F5F5F5F5F5F5F5F5F5F5F5F5F5F5F5F5F5F5F5F5F5F5F5F5F5F5C3C3C30028282828282828282828F5F5F5F5F5F5002800000000000000000000000000000000000000000000000000000000000000000000000000000000000000000000000000000000000000000000000000000000000000
310
00000000000000000000000000000000000000000000000000000000000000000000000000000000000000000000000000000000000000000000000000000000000000000000000000000000000000000000000000000000000000000000000000000000000000000000000000000000000000000000000000000000002800
310
280000C3BE00C3C30000F50000000000000000000000000000000000000000000000000000000000F5000000280000000000F5F5F5F500000000002800280000000000000000000000000000000000000000000000000000000000000000000000000000000000000000000000000000000000000000000000000000000000
310
00000000000000000000000000000000000000000000000000000000000000000000000000000000000000000000000000000000000000000000000000000000000000000000000000000000000000000000000000000000000000000000000000000000000000000000000000000000000000000000000000000000000000
310
28002800C3C3C3C3C3C30000F5F5F5F5F5F5F5F5F5F5F5F5F5F5F5F5F5F5F5F5F5F5F5F5F5F5F5F5F5F5F5000000282828000000000000000000000000280028000000000000000000000000000000000000000000000000000000000000000000000000000000000000000000000000000000000000000000000000000000
310
00000000000000000000000000000000000000000000000000000000000000000000000000000000000000000000000000000000000000000000000000000000000000000000000000000000000000000000000000000000000000000000000000000000000000000000000000000000000000000000000000000000000000
310
000028002800C3C3000000000000F5F5F5F5F5F5F5F5F5F5F5F5F5F5F5F5F5F5F5F5F5F5F5F5F5F5F5F5F5F5F500000028ECECECECECECECECECECECEC282828002800000000000000000000000000000000000000000000000000000000000000000000000000000000000000000000000000000000000000000000000000
310
00000000000000000000000000000000000000000000000000000000000000000000000000000000000000000000000000000000000000000000000000000000000000000000000000000000000000000000000000000000000000000000000000000000000000000000000000000000000000000000000000000000000000
310
00000000280028BEC300000000000000F5F5BEF5F5F5BEF5F5F5BEF5F5F5BEF5F5F5BEF5F5F5BEF5F5F5BEF5F5F5F500000028ECECECECECECECECECECECEC00002800280000000000000000000000000000000000000000000000000000000000000000000000000000000000000000000000000000000000000000000000
310
00000000000000000000000000000000000000000000000000000000000000000000000000000000000000000000000000000000000000000000000000000000000000000000000000000000000000000000000000000000000000000000000000000000000000000000000000000000000000000000000000000000000000
310
000000000000280028BE0000000000000000C3C3C3C3C3C3C3C3C3C3C3C3C3C3C3C3C3C3C3C3C3C3C3C3C3C3C3C3C3C3C3000000280000000000000000000000000000280028000000000000000000000000000000000000000000000000000000000000000000000000000000000000000000000000000000000000000000
310
00000000000000000000000000000000000000000000000000000000000000000000000000000000000000000000000000000000000000000000000000000000000000000000000000000000000000000000000000000000000000000000000000000000000000000000000000000000000000000000000000000000000000
310
00000000000000002800280000000000000000000000000000000000000000000000C3C3C3000000000000000000000000000000000028000000000000000000000000000028002800000000000000000000000000000000000000000000000000000000000000000000000000000000000000000000000000000000000000
310
00000000000000000000000000000000000000000000000000000000000000000000000000000000000000000000000000000000000000000000000000000000000000000000000000000000000000000000000000000000000000000000000000000000000000000000000000000000000000000000000000000000000000
310
00000000000000000000280028000000000000000000C3C3C3C3C3C3C3C3C3C3C3C3C3C3C3C3C3C3C3C3C3C3C3C3C3C3C3C3C3C3C30000002800000000000000000000000000002800280000000000000000000000000000000000000000000000000000000000000000000000000000000000000000000000000000000000
310
00000000000000000000000000000000000000000000000000000000000000000000000000000000000000000000000000000000000000000000000000000000000000000000000000000000000000000000000000000000000000000000000000000000000000000000000000000000000000000000000000000000000000
310
000000000000000000000000280028BE0000000000000000C3F5F5F5F5F5F5F5F5F5F5F5F5F5F5F5F5F5F5F5F5F5F5F5F5F5F5F5F5F5C3000000280000000000000000000000000000280028000000000000000000000000000000000000000000000000000000000000000000000000000000000000000000000000000000
310
00000000000000000000000000000000000000000000000000000000000000000000000000000000000000000000000000000000000000000000000000000000000000000000000000000000000000000000000000000000000000000000000000000000000000000000000000000000000000000000000000000000000000
310
0000000000000000000000000000280028BEC300000000000000F5F5F5F5F5F5F5F5F5F5F5F5F5F5F5F5F5F5F5F5F5F5F5F5F5F5F5F5F5F5F500000028000000000000000000000000000028002800000000000000000000000000000000000000000000000000000000000000000000000000000000000000000000000000
310
00000000000000000000000000000000000000000000000000000000000000000000000000000000000000000000000000000000000000000000000000000000000000000000000000000000000000000000000000000000000000000000000000000000000000000000000000000000000000000000000000000000000000
310
0000000000000000000000000000000028002800C3C300C300000000F5BE000000BE000000BE000000BE000000BE000000BE000000BE000000BEF50000002800000000000000000000000000002800280000000000000000000000000000000000000000000000000000000000000000000000000000000000000000000000
310
00000000000000000000000000000000000000000000000000000000000000000000000000000000000000000000000000000000000000000000000000000000000000000000000000000000000000000000000000000000000000000000000000000000000000000000000000000000000000000000000000000000000000
310
00000000000000000000000000000000000028002800C3C3C3C3C3C30000F5F5F5F5F5F5F5F5F5F5F5F5F5F5F5F5F5F5F5F5F5F5F5F5F5F5F5F5F5F5F5000000280000000000000000000000000000280028000000000000000000000000000000000000000000000000000000000000000000000000000000000000000000
310
00000000000000000000000000000000000000000000000000000000000000000000000000000000000000000000000000000000000000000000000000000000000000000000000000000000000000000000000000000000000000000000000000000000000000000000000000000000000000000000000000000000000000
310
000000000000000000000000000000000000000028002800C3C3BE00C3C30000F50000000000000000000000000000000000000000000000000000000000F500000028000000000000000000000000000028002800000000000000000000000000000000000000000000000000000000000000000000000000000000000000
310
00000000000000000000000000000000000000000000000000000000000000000000000000000000000000000000000000000000000000000000000000000000000000000000000000000000000000000000000000000000000000000000000000000000000000000000000000000000000000000000000000000000000000
310
000000000000000000000000000000000000000000002800280000C3C3C3C3C30000F5F5F5F5F5F5F5F5F5F5F5F5F5F5F5F5F5F5F5F5F5F5F5F5F5F5F5F5F5F5C3C3C3002800000000000000000000000000002800280000000000000000000000000000000000000000000000000000000000000000000000000000000000
310
00000000000000000000000000000000000000000000000000000000000000000000000000000000000000000000000000000000000000000000000000000000000000000000000000000000000000000000000000000000000000000000000000000000000000000000000000000000000000000000000000000000000000
310
0000000000000000000000000000000000000000000000002800280000BEC3C3C3C30000F5F5F5F5F5F5F5F5F5F5F5F5F5F5F5F5F5F5F5F5F5F5F5F5F5F5F5F5F5F5C3C3C300280000000000000000000000000000280028000000000000000000000000000000000000000000000000000000000000000000000000000000
310
00000000000000000000000000000000000000000000000000000000000000000000000000000000000000000000000000000000000000000000000000000000000000000000000000000000000000000000000000000000000000000000000000000000000000000000000000000000000000000000000000000000000000
310
0000000000000000000000000000000000000000000000000000280028000000000000000000C300C3000000C3000000C3000000C3000000C3000000C3000000C3000000C30000002800ECECECECECEC0000000000000028002800000000000000000000000000000000000000000000000000000000000000000000000000
310
00000000000000000000000000000000000000000000000000000000000000000000000000000000000000000000000000000000000000000000000000000000000000000000000000000000000000000000000000000000000000000000000000000000000000000000000000000000000000000000000000000000000000
310
00000000000000000000000000000000000000000000000000000000280028000000000000000000C3C3C3C3C3C3C3C3C3C3C3C3C3C3C3C3C3C3C3C3C3C3C3C3C3C3C3C3C3C3C3C3000028ECECECECECEC00000000000000002800280000000000000000000000000000000000000000000000000000000000000000000000
310
00000000000000000000000000000000000000000000000000000000000000000000000000000000000000000000000000000000000000000000000000000000000000000000000000000000000000000000000000000000000000000000000000000000000000000000000000000000000000000000000000000000000000
310
000000000000000000000000000000000000000000000000000000000000280028000000000000000000C3C300C3C30000C3C30000C3C30000C3C30000C3C3ECECC3C30000C3C30000C30000280000000000000000000000000000280028000000000000000000000000000000000000000000000000000000000000000000
310
00000000000000000000000000000000000000000000000000000000000000000000000000000000000000000000000000000000000000000000000000000000000000000000000000000000000000000000000000000000000000000000000000000000000000000000000000000000000000000000000000000000000000
310
00000000000000000000000000000000000000000000000000000000000000002800280000000000000000000000000000000000000000000000000000ECECECECECECECECEC0000000000000000280000ECECECECECEC00000000000028002800000000000000000000000000000000000000000000000000000000000000
310
00000000000000000000000000000000000000000000000000000000000000000000000000000000000000000000000000000000000000000000000000000000000000000000000000000000000000000000000000000000000000000000000000000000000000000000000000000000000000000000000000000000000000
310
0000000000000000000000000000000000000000000000000000000000000000000028002800000000000000000000000000000000000000000000C3C3C3C3C3ECECECECC3C3ECEC0000000000000000280000ECECECECECEC00ECEC0000002800280000000000000000000000000000000000000000000000000000000000
310
00000000000000000000000000000000000000000000000000000000000000000000000000000000000000000000000000000000000000000000000000000000000000000000000000000000000000000000000000000000000000000000000000000000000000000000000000000000000000000000000000000000000000
310
00000000000000000000000000000000000000000000000000000000000000000000000028002800000000000000000000000000000000000000000000C3C3C3C3C300000000C3C30000C300000000000000280000ECECECECECEC00ECEC000000280028000000000000000000000000000000000000000000000000000000
310
00000000000000000000000000000000000000000000000000000000000000000000000000000000000000000000000000000000000000000000000000000000000000000000000000000000000000000000000000000000000000000000000000000000000000000000000000000000000000000000000000000000000000
310
000000000000000000000000000000000000000000000000000000000000000000000000000028002800000000000000000000000000000000000000000000C3C3C3C3C300000000C3C3C3C3C3000000000000002800ECECECECECECECEC000000000028002800000000000000000000000000000000000000000000000000
310
00000000000000000000000000000000000000000000000000000000000000000000000000000000000000000000000000000000000000000000000000000000000000000000000000000000000000000000000000000000000000000000000000000000000000000000000000000000000000000000000000000000000000
310
0000000000000000000000000000000000000000000000000000000000000000000000000000000028002800000000000000000000000000000000000000000000C3282800C300000000C3C3000000C30000000000002800ECECECECEC00000000000000002800280000000000000000000000000000000000000000000000
310
00000000000000000000000000000000000000000000000000000000000000000000000000000000000000000000000000000000000000000000000000000000000000000000000000000000000000000000000000000000000000000000000000000000000000000000000000000000000000000000000000000000000000
310
0000000000000000000000000000000000000000000000000000000000000000000000000000000000002800280000000000000000000000000000000000000000000028002800C3000000002828000000C300000000000028ECECECECECECEC00000000000000280028000000000000000000000000000000000000000000
310
00000000000000000000000000000000000000000000000000000000000000000000000000000000000000000000000000000000000000000000000000000000000000000000000000000000000000000000000000000000000000000000000000000000000000000000000000000000000000000000000000000000000000
310
00000000000000000000000000000000000000000000000000000000000000000000000000000000000000002800280000000000000000000000000000000000000000000028002828C30000000028C3C3C30000C3000000000028280000000000000000000000000028002800000000000000000000000000000000000000
310
00000000000000000000000000000000000000000000000000000000000000000000000000000000000000000000000000000000000000000000000000000000000000000000000000000000000000000000000000000000000000000000000000000000000000000000000000000000000000000000000000000000000000
310
000000000000000000000000000000000000000000000000000000000000000000000000000000000000000000002800280000000000000000000000000000000000000000000028002828280000000028280000C300C300000000002828282828282828282828282828282800280000000000000000000000000000000000
310
00000000000000000000000000000000000000000000000000000000000000000000000000000000000000000000000000000000000000000000000000000000000000000000000000000000000000000000000000000000000000000000000000000000000000000000000000000000000000000000000000000000000000
310
00000000000000000000000000000000000000000000000000000000000000000000000000000000000000000000000028002800000000000000ECECECEC00000000000000000000002800282828000000002828000000C3C3C300000000280000ECECECECECECECECEC000000280028000000000000000000000000000000
310
00000000000000000000000000000000000000000000000000000000000000000000000000000000000000000000000000000000000000000000000000000000000000000000000000000000000000000000000000000000000000000000000000000000000000000000000000000000000000000000000000000000000000
310
00000000000000000000000000000000000000000000000000000000000000000000000000000000000000000000000000002800280000000000ECECECECECECECEC00000000000000000028002800000000000028280000C3C3C3C30000000028280000000000000000000000000028002800000000000000000000000000
310
00000000000000000000000000000000000000000000000000000000000000000000000000000000000000000000000000000000000000000000000000000000000000000000000000000000000000000000000000000000000000000000000000000000000000000000000000000000000000000000000000000000000000
310
0000000000000000000000000000000000000000000000000000000000000000000000000000000000000000000000000000000028002800C300000000000000000000000000C30000000000002800282828000000002828C3C3C3C3C300C30000002828ECECECECECECECECECECEC28282800280000000000000000000000
310
00000000000000000000000000000000000000000000000000000000000000000000000000000000000000000000000000000000000000000000000000000000000000000000000000000000000000000000000000000000000000000000000000000000000000000000000000000000000000000000000000000000000000
310
000000000000000000000000000000000000000000000000000000000000000000000000000000000000000000000000000000000000280028C3C3C300BE000000C3C3000000BE28C3C300000000002800280028000000C3C3C3C3000000C300C30000002800ECECECECECECECECECECEC0000280028000000000000000000
310
00000000000000000000000000000000000000000000000000000000000000000000000000000000000000000000000000000000000000000000000000000000000000000000000000000000000000000000000000000000000000000000000000000000000000000000000000000000000000000000000000000000000000
310
000000000000000000000000000000000000000000000000000000000000000000000000000000000000000000000000000000000000000028002800C3C328BEBEBEC3C3C3C3BEBE2828C3000000000000280028282800000000282828000000C30000C3000028280000000000000000000000000028002800000000000000
310
00000000000000000000000000000000000000000000000000000000000000000000000000000000000000000000000000000000000000000000000000000000000000000000000000000000000000000000000000000000000000000000000000000000000000000000000000000000000000000000000000000000000000
310
0000000000000000000000000000000000000000000000000000000000000000000000000000000000000000000000000000000000000000000028002800C300C3C32828BEC3BEBE2828C3C3C30000000000002800282828000000000028282800C3000000C300002828282828282828282828282828282800280000000000
310
00000000000000000000000000000000000000000000000000000000000000000000000000000000000000000000000000000000000000000000000000000000000000000000000000000000000000000000000000000000000000000000000000000000000000000000000000000000000000000000000000000000000000
310
00000000000000000000000000000000000000000000000000000000000000000000000000000000000000000000000000000000000000000000000028002800000000C3C3C328C32828C3C300000000000000000028002828280000000000002828C30000000000C300280028282828282828282828282828280028000000
310
00000000000000000000000000000000000000000000000000000000000000000000000000000000000000000000000000000000000000000000000000000000000000000000000000000000000000000000000000000000000000000000000000000000000000000000000000000000000000000000000000000000000000
310
000000000000000000000000000000000000000000000000000000000000000000000000000000000000000000000000000000000000000000000000000028002800000000000000C3C3C3C300000000000000000000002800282828000000000000000028280000C3C3C30028282828282828282828282828282828002800
310
00000000000000000000000000000000000000000000000000000000000000000000000000000000000000000000000000000000000000000000000000000000000000000000000000000000000000000000000000000000000000000000000000000000000000000000000000000000000000000000000000000000000000
310
000000000000000000000000000000000000000000000000000000000000000000000000000000000000000000000000000000000000000000000000000000002800280000000000000000C3000000000000000000000000002828280000000000000000000000C3C3C3000000002800282828282828282828282800002800
310
28000000000000000000000000000000000000000000000000000000000000000000000000000000000000000000000000000000000000000000000000000000000000000000000000000000000000000000000000000000000000000000000000000000000000000000000000000000000000000000000000000000000000
310
00000000000000000000000000000000000000000000000000000000000000000000000000000000000000000000000000000000000000000000000000000000000028002828282828282828282828282828282828282828282828282828282828282828282828282828282828282828282828282828282828282828282828
310
28002800000000000000000000000000000000000000000000000000000000000000000000000000000000000000000000000000000000000000000000000000000000000000000000000000000000000000000000000000000000000000000000000000000000000000000000000000000000000000000000000000000000
310
00000000000000000000000000000000000000000000000000000000000000000000000000000000000000000000000000000000000000000000000000000000000000002800000000000000000000000000000000000000000000000000000000000000000000000000000000000000000000000000000000000000000000
310
00000000280000000000000000000000000000000000000000000000000000000000000000000000000000000000000000000000000000000000000000000000000000000000000000000000000000000000000000000000000000000000000000000000000000000000000000000000000000000000000000000000000000
310
00000000000000000000000000000000000000000000000000000000000000000000000000000000000000000000000000000000000000000000000000000000000000000000282828282828282828282828282828282828282828282828282828282828282828282828282828282828282828282828282828282828282828
310
28282828282828000000000000000000000000000000000000000000000000000000000000000000000000000000000000000000000000000000000000000000000000000000000000000000000000000000000000000000000000000000000000000000000000000000000000000000000000000000000000000000000000
310
00000000000000000000000000000000000000000000000000000000000000000000000000000000000000000000000000000000000000000000000000000000000000000000000028000000000000000000000000000000000000000000000000000000000000000000000000000000000000000000000000000000000000
310
00000000000000002800000000000000000000000000000000000000000000000000000000000000000000000000000000000000000000000000000000000000000000000000000000000000000000000000000000000000000000000000000000000000000000000000000000000000000000000000000000000000000000
310
00000000000000000000000000000000000000000000000000000000000000000000000000000000000000000000000000000000000000000000000000000000000000000000000000002800282828282828282828282828282828282828282828282828282828282828282828282828282828282828282828282828282828
310
282828F5F5F528282800280000000000000000000000000000000000000000000000000000000000000000000000000000000000000000000000000000000000000000000000000000000000000000000000000000000000000000000000000000000000000000000000000000000000000000000000000000000000000000
310
000000000000000000000000000000000000000000000000000000000000000000000000000000000000000000000000000000000000000000000000000000000000000000000000000000002800280000000000000000000000000000000000ECECECECECECECECECECECEC0000000000000000000000000000280000F5F5
310
0000280000F5F5F50000280028000000000000000000000000000000000000000000000000000000000000000000000000000000000000000000000000000000000000000000000000000000000000000000000000000000000000000000000000000000000000000000000000000000000000000000000000000000000000
310
00000000000000000000000000000000000000000000000000000000000000000000000000000000000000000000000000000000000000000000000000000000000000000000000000000000000028002800000000000000000000C3000000C3000000C3000000C3000000C3000000C3000000C3000000C300C30000282828
310
00000000282828280000000028002800000000000000000000000000000000000000000000000000000000000000000000000000000000000000000000000000000000000000000000000000000000000000000000000000000000000000000000000000000000000000000000000000000000000000000000000000000000
310
0000000000000000000000000000000000000000000000000000000000000000000000000000000000000000000000000000000000000000000000000000000000000000000000000000000000000000280028000000000000000000C3C3C3C3C3C3C3C3C3C3C3C3C3C3C3C3C3C3C3C3C3C3C3C3C3C3C3C3C3C3C3C3000028
310
28F5F5F5F52828282828282828282800280000000000000000000000000000000000000000000000000000000000000000000000000000000000000000000000000000000000000000000000000000000000000000000000000000000000000000000000000000000000000000000000000000000000000000000000000000
310
0000000000000000000000000000000000000000000000000000000000000000000000000000000000000000000000000000000000000000000000000000000000000000000000000000000000000000000028002800000000000000000000C3000000C3000000C3000000C3000000C3000000C3000000C3000000C300C300
310
002800F5F5F5F5002828282828282828280028000000000000000000000000000000000000000000000000000000000000000000000000000000000000000000000000000000000000000000000000000000000000000000000000000000000000000000000000000000000000000000000000000000000000000000000000
310
0000000000000000000000000000000000000000000000000000000000000000000000000000000000000000000000000000000000000000000000000000000000000000000000000000000000000000000000002800280000000000BEC3C3C300F5F5F5F5F5F5F5F5F5F5F5F5F5F5F5F5F5F5F5F5F5F5F5F5F5F5F5F5F5F5
310
C3C30028280000000000282828F5F5F5F5F5F5002800000000000000000000000000000000000000000000000000000000000000000000000000000000000000000000000000000000000000000000000000000000000000000000000000000000000000000000000000000000000000000000000000000000000000000000
310
00000000000000000000000000000000000000000000000000000000000000000000000000000000000000000000000000000000000000000000000000000000000000000000000000000000000000000000000000002800280000C30000C3C3C3C300F5F5F5F5F5F5F5F5F5F5F5F5F5F5F5F5F5F5F5F5F5F5F5F5F5F5F5F5
310
F5F5C3C300282828282828F5F5F5F528282828282800280000000000000000000000000000000000000000000000000000000000000000000000000000000000000000000000000000000000000000000000000000000000000000000000000000000000000000000000000000000000000000000000000000000000000000
310
000000000000000000000000000000000000000000000000000000000000000000000000000000000000000000000000000000000000000000000000000000000000000000000000000000000000000000000000000000002800280000C3C300BE00C3C300BE000000BE000000BE000000BE000000BE000000BE000000BE00
310
0000BE00F5C300280000000000F5F5F5F50000000000280028000000000000000000000000000000000000000000000000000000000000000000000000000000000000000000000000000000000000000000000000000000000000000000000000000000000000000000000000000000000000000000000000000000000000
310
000000000000000000000000000000000000000000000000000000000000000000000000000000000000000000000000000000000000000000000000000000000000000000000000000000000000000000000000000000000000280028000000C3C3BE00C3C300F50000000000000000000000000000000000000000000000
310
000000000000F5000028282800000000000000000000000028002800000000000000000000000000000000000000000000000000000000000000000000000000000000000000000000000000000000000000000000000000000000000000000000000000000000000000000000000000000000000000000000000000000000
310
00000000000000000000000000000000000000000000000000000000000000000000000000000000000000000000000000000000000000000000000000000000000000000000000000000000000000000000000000000000000000002800280000C300C3C30000C300F5000000000000000000000000000000000000000000
310
0000000000000000F5000028ECECECECECECECECECECECEC28282800280000000000000000000000000000000000000000000000000000000000000000000000000000000000000000000000000000000000000000000000000000000000000000000000000000000000000000000000000000000000000000000000000000
310
00000000000000000000000000000000000000000000000000000000000000000000000000000000000000000000000000000000000000000000000000000000000000000000000000000000000000000000000000000000000000000000280028BEBEC3BEBEC3C3C3C300C3F5F5F5F5F5F5F5F5F5F5F5F5F5F5F5F5F5F5F5
310
F5F5F5F5F5F5F5F5F5F5C30000280000000000000000000000000000280028000000000000000000000000000000000000000000000000000000000000000000000000000000000000000000000000000000000000000000000000000000000000000000000000000000000000000000000000000000000000000000000000
310
0000000000000000000000000000000000000000000000000000000000000000000000000000000000000000000000000000000000000000000000000000000000000000000000000000000000000000000000000000000000000000000000002800280000C3000000C3000000C3C3C3C3C3C3C3C3C3C3C3C3C3C3C3C3C3C3
310
C3C3C3C3C3C3C3C3C3C3C3C3C3000028000000000000000000000000000028002800000000000000000000000000000000000000000000000000000000000000000000000000000000000000000000000000000000000000000000000000000000000000000000000000000000000000000000000000000000000000000000
310
00000000000000000000000000000000000000000000000000000000000000000000000000000000000000000000000000000000000000000000000000000000000000000000000000000000000000000000000000000000000000000000000000002800280000000000000000000000000000000000000000000000000000
310
00000000000000000000000000000000002800000000000000000000000000002800280000000000000000000000000000000000000000000000000000000000000000000000000000000000000000000000000000000000000000000000000000000000000000000000000000000000000000000000000000000000000000
310
0000000000000000000000000000000000000000000000000000000000000000000000000000000000000000000000000000000000000000000000000000000000000000000000000000000000000000000000000000000000000000000000000000000028002800000000000000000000C3C3C3C3C3C3C3C3C3C3C3C3C3C3
310
C3C3C3C3C3C3C3C3C3C3C3C3C3C3C3C3C30000280000000000000000000000000000280028000000000000000000000000000000000000000000000000000000000000000000000000000000000000000000000000000000000000000000000000000000000000000000000000000000000000000000000000000000000000
310
000000000000000000000000000000000000000000000000000000000000000000000000000000000000000000000000000000000000000000000000000000000000000000000000000000000000000000000000000000000000000000000000000000000000280028BEBEC3BEBEC3C3C3C300C3F5F5F5F5F5F5F5F5F5F5F5
310
F5F5C3C3C3F5F5F5F5F5F5F5F5F5F5F5F5F5C3000028000000000000000000000000000028002800000000000000000000000000000000000000000000000000000000000000000000000000000000000000000000000000000000000000000000000000000000000000000000000000000000000000000000000000000000
310
000000000000000000000000000000000000000000000000000000000000000000000000000000000000000000000000000000000000000000000000000000000000000000000000000000000000000000000000000000000000000000000000000000000000000028002800BEC3BEC3C30000C300F5000000000000000000
310
0000000000000000000000000000000000000000F500002800000000000000000000000000002800280000000000000000000000000000000000000000000000000000000000000000000000000000000000000000000000000000000000000000000000000000000000000000000000000000000000000000000000000000
310
00000000000000000000000000000000000000000000000000000000000000000000000000000000000000000000000000000000000000000000000000000000000000000000000000000000000000000000000000000000000000000000000000000000000000000000280028000000C3C3BE00C3C300F500000000000000
310
00000000000000000000000000000000000000000000F50000280000000000000000000000000000280028000000000000000000000000000000000000000000000000000000000000000000000000000000000000000000000000000000000000000000000000000000000000000000000000000000000000000000000000
310
0000000000000000000000000000000000000000000000000000000000000000000000000000000000000000000000000000000000000000000000000000000000000000000000000000000000000000000000000000000000000000000000000000000000000000000000002800280000C3C300BE00C3C300F50000000000
310
000000000000000000000000000000000000000000000000F5000028000000000000000000000000000028002800000000000000000000000000000000000000000000000000000000000000000000000000000000000000000000000000000000000000000000000000000000000000000000000000000000000000000000
310
00000000000000000000000000000000000000000000000000000000000000000000000000000000000000000000000000000000000000000000000000000000000000000000000000000000000000000000000000000000000000000000000000000000000000000000000000002800280000C30000C3C3C3C300F5F5F5F5
310
F5F5F5F5F5F5F5F5F5F5F5F5F5F5F5F5F5F5F5F5F5F5F5F5F5F5C3C3002800000000000000000000000000002800280000000000000000000000000000000000000000000000000000000000000000000000000000000000000000000000000000000000000000000000000000000000000000000000000000000000000000
310
00000000000000000000000000000000000000000000000000000000000000000000000000000000000000000000000000000000000000000000000000000000000000000000000000000000000000000000000000000000000000000000000000000000000000000000000000000000280028000000000000C3C3C300F5F5
310
F5F5F5F5F5F5F5F5F5F5F5F5F5F5F5F5F5F5F5F5F5F5F5F5F5F5F5F5F5C300280000000000000000000000000000280028000000000000000000000000000000000000000000000000000000000000000000000000000000000000000000000000000000000000000000000000000000000000000000000000000000000000
310
0000000000000000000000000000000000000000000000000000000000000000000000000000000000000000000000000000000000000000000000000000000000000000000000000000000000000000000000000000000000000000000000000000000000000000000000000000000000002800280000000000BEC3C3C300
310
C3C3F5F5F5C3F5F5F5C3F5F5F5C3F5F5F5C3F5F5F5C3F5F5F5C3F5F5F5C3C3C3002800ECECECEC00000000000000000028002800000000000000000000000000000000000000000000000000000000000000000000000000000000000000000000000000000000000000000000000000000000000000000000000000000000
310
00000000000000000000000000000000000000000000000000000000000000000000000000000000000000000000000000000000000000000000000000000000000000000000000000000000000000000000000000000000000000000000000000000000000000000000000000000000000000002800280000000000000000
310
0000C3C3C3C3C3C3C3C3C3C3C3C3C3C3C3C3C3C3C3C3C3C3C3C3C3C3C3C3C3C3C3C30028ECECECECECEC00000000000000002800280000000000000000000000000000000000000000000000000000000000000000000000000000000000000000000000000000000000000000000000000000000000000000000000000000
310
00000000000000000000000000000000000000000000000000000000000000000000000000000000000000000000000000000000000000000000000000000000000000000000000000000000000000000000000000000000000000000000000000000000000000000000000000000000000000000000280028000000000000
310
00000000C3C300C3C3C300C3C3C300C3C3C300C3C3C300C3C3C300C3C3C300C3C3C3C3C30028ECECECECECEC0000000000000000280028000000000000000000000000000000000000000000000000000000000000000000000000000000000000000000000000000000000000000000000000000000000000000000000000
310
00000000000000000000000000000000000000000000000000000000000000000000000000000000000000000000000000000000000000000000000000000000000000000000000000000000000000000000000000000000000000000000000000000000000000000000000000000000000000000000000028002800000000
310
000000000000000000000000000000000000000000000000000000000000000000000000000000280000ECECECECECEC00000000000028002800000000000000000000000000000000000000000000000000000000000000000000000000000000000000000000000000000000000000000000000000000000000000000000
310
00000000000000000000000000000000000000000000000000000000000000000000000000000000000000000000000000000000000000000000000000000000000000000000000000000000000000000000000000000000000000000000000000000000000000000000000000000000000000000000000000002800280000
310
0000000000ECECECEC000000000000000000000000000000000000ECECECEC00000000000000000000280000ECECECECECEC00ECEC0000002800280000000000000000000000000000000000000000000000000000000000000000000000000000000000000000000000000000000000000000000000000000000000000000
310
00000000000000000000000000000000000000000000000000000000000000000000000000000000000000000000000000000000000000000000000000000000000000000000000000000000000000000000000000000000000000000000000000000000000000000000000000000000000000000000000000000000280028
310
000000000000ECECECECECEC000000000000000000000000000000ECECECECECECECEC000000C3C3000000280000ECECECECECEC00ECEC000000280028000000000000000000000000000000000000000000000000000000000000000000000000000000000000000000000000000000000000000000000000000000000000
310
00000000000000000000000000000000000000000000000000000000000000000000000000000000000000000000000000000000000000000000000000000000000000000000000000000000000000000000000000000000000000000000000000000000000000000000000000000000000000000000000000000000000028
310
0028000000000000ECECECECECEC000000000000000000000000000000ECECECECECECECEC000000C3C30000002800ECECECECECECECEC000000000028002800000000000000000000000000000000000000000000000000000000000000000000000000000000000000000000000000000000000000000000000000000000
310
00000000000000000000000000000000000000000000000000000000000000000000000000000000000000000000000000000000000000000000000000000000000000000000000000000000000000000000000000000000000000000000000000000000000000000000000000000000000000000000000000000000000000
310
0028002800C300000000000000C300000000000000C30000282828000000000000000000000000000000C3C3C3C3002800ECECECECECECECEC00000000002800280000000000000000000000000000000000000000000000000000000000000000000000000000000000000000000000000000000000000000000000000000
310
00000000000000000000000000000000000000000000000000000000000000000000000000000000000000000000000000000000000000000000000000000000000000000000000000000000000000000000000000000000000000000000000000000000000000000000000000000000000000000000000000000000000000
310
000000280028C3C3C3000000000000C3000000000000C3C3C3002828280000000000000000000000000000002828C300002800ECECECECEC0000000000000000280028000000000000000000000000000000000000000000000000000000000000000000000000000000000000000000000000000000000000000000000000
310
00000000000000000000000000000000000000000000000000000000000000000000000000000000000000000000000000000000000000000000000000000000000000000000000000000000000000000000000000000000000000000000000000000000000000000000000000000000000000000000000000000000000000
310
000000000028002800C328000000000000C300000000000028C300002800280000000000000000000000000000002828C3000028ECECECEC0000000000000000000028002800000000000000000000000000000000000000000000000000000000000000000000000000000000000000000000000000000000000000000000
310
00000000000000000000000000000000000000000000000000000000000000000000000000000000000000000000000000000000000000000000000000000000000000000000000000000000000000000000000000000000000000000000000000000000000000000000000000000000000000000000000000000000000000
310
00000000000000280028C3002828BE00000000C300000000BE282800C3002800282828280000000000000000000000002828C300002828282828282828282828282828282800280000000000000000000000000000000000000000000000000000000000000000000000000000000000000000000000000000000000000000
310
00000000000000000000000000000000000000000000000000000000000000000000000000000000000000000000000000000000000000000000000000000000000000000000000000000000000000000000000000000000000000000000000000000000000000000000000000000000000000000000000000000000000000
310
00000000000000000028002800C3002828BE000000C3000000BE282800C300002800280000280000000000000000000000002828C300002800000000ECECECECEC0000000000280028000000000000000000000000000000000000000000000000000000000000000000000000000000000000000000000000000000000000
310
00000000000000000000000000000000000000000000000000000000000000000000000000000000000000000000000000000000000000000000000000000000000000000000000000000000000000000000000000000000000000000000000000000000000000000000000000000000000000000000000000000000000000
310
00000000000000000000002800280000C3002828BE0000C30000BE282800C30000002800282828280000000000000000000000002828C300002800000000ECECECECEC000000000028002800000000000000000000000000000000000000000000000000000000000000000000000000000000000000000000000000000000
310
00000000000000000000000000000000000000000000000000000000000000000000000000000000000000000000000000000000000000000000000000000000000000000000000000000000000000000000000000000000000000000000000000000000000000000000000000000000000000000000000000000000000000
310
00000000000000000000000000280028000000C30028BEBE00C300BEBE2800C3000000002800282828280000000000000000000000002828C300002828282828282828282828282828282800280000000000000000000000000000000000000000000000000000000000000000000000000000000000000000000000000000
310
00000000000000000000000000000000000000000000000000000000000000000000000000000000000000000000000000000000000000000000000000000000000000000000000000000000000000000000000000000000000000000000000000000000000000000000000000000000000000000000000000000000000000
310
00000000000000000000000000000028002800000000C3002800BEC3BE002800C300000000002800280000280000000000000000000000002828C300002800ECECECECECECECECECECEC0000280028000000000000000000000000000000000000000000000000000000000000000000000000000000000000000000000000
310
00000000000000000000000000000000000000000000000000000000000000000000000000000000000000000000000000000000000000000000000000000000000000000000000000000000000000000000000000000000000000000000000000000000000000000000000000000000000000000000000000000000000000
310
00000000000000000000000000000000002800280000000000C3002800C3002800C30000000000002800282828280000000000000000000000002828C3000028000000ECEC000000ECECECEC000028002800000000000000000000000000000000000000000000000000000000000000000000000000000000000000000000
310
00000000000000000000000000000000000000000000000000000000000000000000000000000000000000000000000000000000000000000000000000000000000000000000000000000000000000000000000000000000000000000000000000000000000000000000000000000000000000000000000000000000000000
310
00000000000000000000000000000000000000280028000000000000C30028282800C3000000000000002800280000000000000000000000000000002828C300002828282828282828282828282828282800280000000000000000000000000000000000000000000000000000000000000000000000000000000000000000
310
00000000000000000000000000000000000000000000000000000000000000000000000000000000000000000000000000000000000000000000000000000000000000000000000000000000000000000000000000000000000000000000000000000000000000000000000000000000000000000000000000000000000000
310
00000000000000000000000000000000000000000028002800000000000000C300C300C30000000000000000282828282828C3C3C32828282828282828282828C30000280028282828282828282828282828280028000000000000000000000000000000000000000000000000000000000000000000000000000000000000
310
00000000000000000000000000000000000000000000000000000000000000000000000000000000000000000000000000000000000000000000000000000000000000000000000000000000000000000000000000000000000000000000000000000000000000000000000000000000000000000000000000000000000000
310
00000000000000000000000000000000000000000000002800280000000000000000C3C3C3000000000000000000282828282828C3C3C328282828282828282828C3C3C30028282828282828282828282828282828002800000000000000000000000000000000000000000000000000000000000000000000000000000000
310
00000000000000000000000000000000000000000000000000000000000000000000000000000000000000000000000000000000000000000000000000000000000000000000000000000000000000000000000000000000000000000000000000000000000000000000000000000000000000000000000000000000000000
310
00000000000000000000000000000000000000000000000000280028000000000000000000C3000000000000000000000000000000000000C300000000000000000000C30000002800282828282828282828282828282800280000000000000000000000000000000000000000000000000000000000000000000000000000
310
00000000000000000000000000000000000000000000000000000000000000000000000000000000000000000000000000000000000000000000000000000000000000000000000000000000000000000000000000000000000000000000000000000000000000000000000000000000000000000000000000000000000000
310
000000000000000000000000000000000000000000000000000000280028000000000000000000000000000000000000000000000000000000C3C3C3C3C3C3C3C3C3C3C3C3C3000000280028282800000000000000000000280028000000000000000000000000000000000000000000000000000000000000000000000000
310
00000000000000000000000000000000000000000000000000000000000000000000000000000000000000000000000000000000000000000000000000000000000000000000000000000000000000000000000000000000000000000000000000000000000000000000000000000000000000000000000000000000000000
310
00000000000000000000000000000000000000000000000000000000002800282828282828282828282828282828282828282828282828282828282828282828282828282828282828282828282828282828282828282828282828002800000000000000000000000000000000000000000000000000000000000000000000
310
00000000000000000000000000000000000000000000000000000000000000000000000000000000000000000000000000000000000000000000000000000000000000000000000000000000000000000000000000000000000000000000000000000000000000000000000000000000000000000000000000000000000000
310
00000000000000000000000000000000000000000000000000000000000000282828282828282828282828282828282828282828282828282828282828282828282828282828282828282828282828282828282828282828282828282828280000000000000000000000000000000000000000000000000000000000000000
310
00000000000000000000000000000000000000000000000000000000000000000000000000000000000000000000000000000000000000000000000000000000000000000000000000000000000000000000000000000000000000000000000000000000000000000000000000000000000000000000000000000000000000
310
00000000000000000000000000000000000000000000000000000000000000000000000000000000000000000000000000000000000000000000000000000000000000000000000000000000000000000000000000000000000000000000000000000000000000000000000000000000000000000000000000000000000000
310
000000000000000000000000000000000000000000000000000000000000000000000000000000000000000000000000000000000000000000000000000000000000
  0
XRECORD
  5
9EC
102
{ACAD_REACTORS
330
9EA
102
}
330
9EA
100
AcDbXrecord
280
     1
270
     1
271
     1
  0
XRECORD
  5
9EB
102
{ACAD_REACTORS
330
9EA
102
}
330
9EA
100
AcDbXrecord
280
     1
270
     1
271
     1
  0
XRECORD
  5
9EF
102
{ACAD_REACTORS
330
9EA
102
}
330
9EA
100
AcDbXrecord
280
     1
270
     1
271
     1
  0
XRECORD
  5
9EE
102
{ACAD_REACTORS
330
9EA
102
}
330
9EA
100
AcDbXrecord
280
     1
270
     1
271
     1
  0
XRECORD
  5
9F0
102
{ACAD_REACTORS
330
9EA
102
}
330
9EA
100
AcDbXrecord
280
     1
270
     1
271
     1
  0
XRECORD
  5
9ED
102
{ACAD_REACTORS
330
9EA
102
}
330
9EA
100
AcDbXrecord
280
     1
270
     1
271
     1
  0
XRECORD
  5
9E4
102
{ACAD_REACTORS
330
9E2
102
}
330
9E2
100
AcDbXrecord
280
     1
270
     1
271
     1
  0
XRECORD
  5
9E3
102
{ACAD_REACTORS
330
9E2
102
}
330
9E2
100
AcDbXrecord
280
     1
270
     1
271
     1
  0
XRECORD
  5
9E7
102
{ACAD_REACTORS
330
9E2
102
}
330
9E2
100
AcDbXrecord
280
     1
270
     1
271
     1
  0
XRECORD
  5
9E6
102
{ACAD_REACTORS
330
9E2
102
}
330
9E2
100
AcDbXrecord
280
     1
270
     1
271
     1
  0
XRECORD
  5
9E8
102
{ACAD_REACTORS
330
9E2
102
}
330
9E2
100
AcDbXrecord
280
     1
270
     1
271
     1
  0
XRECORD
  5
9E5
102
{ACAD_REACTORS
330
9E2
102
}
330
9E2
100
AcDbXrecord
280
     1
270
     1
271
     1
  0
XRECORD
  5
9F4
102
{ACAD_REACTORS
330
9F2
102
}
330
9F2
100
AcDbXrecord
280
     1
270
     1
271
     1
  0
XRECORD
  5
9F3
102
{ACAD_REACTORS
330
9F2
102
}
330
9F2
100
AcDbXrecord
280
     1
270
     1
271
     1
  0
XRECORD
  5
9F7
102
{ACAD_REACTORS
330
9F2
102
}
330
9F2
100
AcDbXrecord
280
     1
270
     1
271
     1
  0
XRECORD
  5
9F6
102
{ACAD_REACTORS
330
9F2
102
}
330
9F2
100
AcDbXrecord
280
     1
270
     1
271
     1
  0
XRECORD
  5
9F8
102
{ACAD_REACTORS
330
9F2
102
}
330
9F2
100
AcDbXrecord
280
     1
270
     1
271
     1
  0
XRECORD
  5
9F5
102
{ACAD_REACTORS
330
9F2
102
}
330
9F2
100
AcDbXrecord
280
     1
270
     1
271
     1
  0
XRECORD
  5
194D
102
{ACAD_REACTORS
330
194C
102
}
330
194C
100
AcDbXrecord
280
     1
102
ACAD_ROUNDTRIP_2012_MLEADER_STYLE
298
     1
  0
CELLSTYLEMAP
  5
194B
102
{ACAD_REACTORS
330
194A
102
}
330
194A
100
AcDbCellStyleMap
 90
        3
300
CELLSTYLE
  1
TABLEFORMAT_BEGIN
 90
        5
170
     1
 91
        0
 92
    32768
 62
   257
 93
        1
300
CONTENTFORMAT
  1
CONTENTFORMAT_BEGIN
 90
        0
 91
        0
 92
        4
 93
        0
300

 40
0.0
140
1.0
 94
        5
 62
     0
340
7
144
0.25
309
CONTENTFORMAT_END
171
     0
 94
        6
 95
        1
302
GRIDFORMAT
  1
GRIDFORMAT_BEGIN
 90
        0
 91
        1
 62
     0
 92
       -2
340
0
 93
        0
 40
0.045
309
GRIDFORMAT_END
 95
        2
302
GRIDFORMAT
  1
GRIDFORMAT_BEGIN
 90
        0
 91
        1
 62
     0
 92
       -2
340
0
 93
        0
 40
0.045
309
GRIDFORMAT_END
 95
        4
302
GRIDFORMAT
  1
GRIDFORMAT_BEGIN
 90
        0
 91
        1
 62
     0
 92
       -2
340
0
 93
        0
 40
0.045
309
GRIDFORMAT_END
 95
        8
302
GRIDFORMAT
  1
GRIDFORMAT_BEGIN
 90
        0
 91
        1
 62
     0
 92
       -2
340
0
 93
        0
 40
0.045
309
GRIDFORMAT_END
 95
       16
302
GRIDFORMAT
  1
GRIDFORMAT_BEGIN
 90
        0
 91
        1
 62
     0
 92
       -2
340
0
 93
        0
 40
0.045
309
GRIDFORMAT_END
 95
       32
302
GRIDFORMAT
  1
GRIDFORMAT_BEGIN
 90
        0
 91
        1
 62
     0
 92
       -2
340
0
 93
        0
 40
0.045
309
GRIDFORMAT_END
309
TABLEFORMAT_END
  1
CELLSTYLE_BEGIN
 90
        1
 91
        1
300
_TITLE
309
CELLSTYLE_END
300
CELLSTYLE
  1
TABLEFORMAT_BEGIN
 90
        5
170
     1
 91
        0
 92
        0
 62
   257
 93
        1
300
CONTENTFORMAT
  1
CONTENTFORMAT_BEGIN
 90
        0
 91
        0
 92
        4
 93
        0
300

 40
0.0
140
1.0
 94
        5
 62
     0
340
7
144
0.18
309
CONTENTFORMAT_END
171
     0
 94
        6
 95
        1
302
GRIDFORMAT
  1
GRIDFORMAT_BEGIN
 90
        0
 91
        1
 62
     0
 92
       -2
340
0
 93
        0
 40
0.045
309
GRIDFORMAT_END
 95
        2
302
GRIDFORMAT
  1
GRIDFORMAT_BEGIN
 90
        0
 91
        1
 62
     0
 92
       -2
340
0
 93
        0
 40
0.045
309
GRIDFORMAT_END
 95
        4
302
GRIDFORMAT
  1
GRIDFORMAT_BEGIN
 90
        0
 91
        1
 62
     0
 92
       -2
340
0
 93
        0
 40
0.045
309
GRIDFORMAT_END
 95
        8
302
GRIDFORMAT
  1
GRIDFORMAT_BEGIN
 90
        0
 91
        1
 62
     0
 92
       -2
340
0
 93
        0
 40
0.045
309
GRIDFORMAT_END
 95
       16
302
GRIDFORMAT
  1
GRIDFORMAT_BEGIN
 90
        0
 91
        1
 62
     0
 92
       -2
340
0
 93
        0
 40
0.045
309
GRIDFORMAT_END
 95
       32
302
GRIDFORMAT
  1
GRIDFORMAT_BEGIN
 90
        0
 91
        1
 62
     0
 92
       -2
340
0
 93
        0
 40
0.045
309
GRIDFORMAT_END
309
TABLEFORMAT_END
  1
CELLSTYLE_BEGIN
 90
        2
 91
        1
300
_HEADER
309
CELLSTYLE_END
300
CELLSTYLE
  1
TABLEFORMAT_BEGIN
 90
        5
170
     1
 91
        0
 92
        0
 62
   257
 93
        1
300
CONTENTFORMAT
  1
CONTENTFORMAT_BEGIN
 90
        0
 91
        0
 92
        4
 93
        0
300

 40
0.0
140
1.0
 94
        2
 62
     0
340
7
144
0.18
309
CONTENTFORMAT_END
171
     0
 94
        6
 95
        1
302
GRIDFORMAT
  1
GRIDFORMAT_BEGIN
 90
        0
 91
        1
 62
     0
 92
       -2
340
0
 93
        0
 40
0.045
309
GRIDFORMAT_END
 95
        2
302
GRIDFORMAT
  1
GRIDFORMAT_BEGIN
 90
        0
 91
        1
 62
     0
 92
       -2
340
0
 93
        0
 40
0.045
309
GRIDFORMAT_END
 95
        4
302
GRIDFORMAT
  1
GRIDFORMAT_BEGIN
 90
        0
 91
        1
 62
     0
 92
       -2
340
0
 93
        0
 40
0.045
309
GRIDFORMAT_END
 95
        8
302
GRIDFORMAT
  1
GRIDFORMAT_BEGIN
 90
        0
 91
        1
 62
     0
 92
       -2
340
0
 93
        0
 40
0.045
309
GRIDFORMAT_END
 95
       16
302
GRIDFORMAT
  1
GRIDFORMAT_BEGIN
 90
        0
 91
        1
 62
     0
 92
       -2
340
0
 93
        0
 40
0.045
309
GRIDFORMAT_END
 95
       32
302
GRIDFORMAT
  1
GRIDFORMAT_BEGIN
 90
        0
 91
        1
 62
     0
 92
       -2
340
0
 93
        0
 40
0.045
309
GRIDFORMAT_END
309
TABLEFORMAT_END
  1
CELLSTYLE_BEGIN
 90
        3
 91
        2
300
_DATA
309
CELLSTYLE_END
  0
ENDSEC
  0
EOF
