   0
SECTION
   2
HEADER
   9
$ACADVER
   1
AC1015
   9
$DWGCODEPAGE
   3
ANSI_932
   9
$LIMMIN
  10
0.0
  20
0.0
   9
$LIMMAX
  10
 420.00000000000
  20
 297.00000000000
   9
$EXTMIN
  10
0.0
  20
0.0
  30
0.0
   9
$EXTMAX
  10
 420.00000000000
  20
 297.00000000000
  30
0.0
   9
$LTSCALE
  40
 8.4000000000000
   9
$HANDSEED
   5
446
   0
ENDSEC
   0
SECTION
   2
TABLES
  0
TABLE
  2
VPORT
  5
8
100
AcDbSymbolTable
 70
     1
  0
VPORT
  5
445
100
AcDbSymbolTableRecord
100
AcDbViewportTableRecord
  2
*ACTIVE
 70
     0
 10
0.0
 20
0.0
 11
1.0
 21
1.0
  12
 210.00000000000
  22
 148.50000000000
 13
0.0
 23
0.0
 14
1.0
 24
1.0
 15
0.0
 25
0.0
 16
0.0
 26
0.0
 36
1.0
 17
0.0
 27
0.0
 37
0.0
  40
 420.00000000000
  41
 1.4787878787879
 42
50.0
 43
0.0
 44
0.0
 50
0.0
 51
0.0
 71
     0
 72
   100
 73
     1
 74
     1
 75
     0
 76
     0
 77
     0
 78
     0
  0
ENDTAB
  0
TABLE
  2
LTYPE
  5
5
100
AcDbSymbolTable
 70
    25
  0
LTYPE
  5
12
100
AcDbSymbolTableRecord
100
AcDbLinetypeTableRecord
  2
BYBLOCK
 70
     0
  3

 72
    65
 73
     0
 40
0.0
  0
LTYPE
  5
13
100
AcDbSymbolTableRecord
100
AcDbLinetypeTableRecord
  2
BYLAYER
 70
     0
  3

 72
    65
 73
     0
 40
0.0
  0
LTYPE
  5
14
100
AcDbSymbolTableRecord
100
AcDbLinetypeTableRecord
  2
CONTINUOUS
 70
     0
  3
Solid line
 72
    65
 73
     0
 40
0.0
  0
LTYPE
  5
20
100
AcDbSymbolTableRecord
100
AcDbLinetypeTableRecord
  2
BORDER
 70
     0
  3
__ __ . __ __ . __ __ . __ __ . __ __ . __ __ .
 72
    65
 73
     6
 40
1.75
 49
0.5
 74
     0
 49
-0.25
 74
     0
 49
0.5
 74
     0
 49
-0.25
 74
     0
 49
0.0
 74
     0
 49
-0.25
 74
     0
  0
LTYPE
  5
21
100
AcDbSymbolTableRecord
100
AcDbLinetypeTableRecord
  2
BORDER2
 70
     0
  3
__.__.__.__.__.__.__.__.__.__.__.__.__.__.__.__
 72
    65
 73
     6
 40
0.875
 49
0.25
 74
     0
 49
-0.125
 74
     0
 49
0.25
 74
     0
 49
-0.125
 74
     0
 49
0.0
 74
     0
 49
-0.125
 74
     0
  0
LTYPE
  5
22
100
AcDbSymbolTableRecord
100
AcDbLinetypeTableRecord
  2
BORDERX2
 70
     0
  3
____  ____  .  ____  ____  .  ____  ____  .  __
 72
    65
 73
     6
 40
3.5
 49
1.0
 74
     0
 49
-0.5
 74
     0
 49
1.0
 74
     0
 49
-0.5
 74
     0
 49
0.0
 74
     0
 49
-0.5
 74
     0
  0
LTYPE
  5
23
100
AcDbSymbolTableRecord
100
AcDbLinetypeTableRecord
  2
CENTER
 70
     0
  3
____ _ ____ _ ____ _ ____ _ ____ _ ____ _ ____ 
 72
    65
 73
     4
 40
2.0
 49
1.25
 74
     0
 49
-0.25
 74
     0
 49
0.25
 74
     0
 49
-0.25
 74
     0
  0
LTYPE
  5
24
100
AcDbSymbolTableRecord
100
AcDbLinetypeTableRecord
  2
CENTER2
 70
     0
  3
___ _ ___ _ ___ _ ___ _ ___ _ ___ _ ___ _ ___ _
 72
    65
 73
     4
 40
1.125
 49
0.75
 74
     0
 49
-0.125
 74
     0
 49
0.125
 74
     0
 49
-0.125
 74
     0
  0
LTYPE
  5
25
100
AcDbSymbolTableRecord
100
AcDbLinetypeTableRecord
  2
CENTERX2
 70
     0
  3
________  __  ________  __  ________  __  _____
 72
    65
 73
     4
 40
4.0
 49
2.5
 74
     0
 49
-0.5
 74
     0
 49
0.5
 74
     0
 49
-0.5
 74
     0
  0
LTYPE
  5
26
100
AcDbSymbolTableRecord
100
AcDbLinetypeTableRecord
  2
DASHDOT
 70
     0
  3
__ . __ . __ . __ . __ . __ . __ . __ . __ . __
 72
    65
 73
     4
 40
1.0
 49
0.5
 74
     0
 49
-0.25
 74
     0
 49
0.0
 74
     0
 49
-0.25
 74
     0
  0
LTYPE
  5
27
100
AcDbSymbolTableRecord
100
AcDbLinetypeTableRecord
  2
DASHDOT2
 70
     0
  3
_._._._._._._._._._._._._._._._._._._._._._._._
 72
    65
 73
     4
 40
0.5
 49
0.25
 74
     0
 49
-0.125
 74
     0
 49
0.0
 74
     0
 49
-0.125
 74
     0
  0
LTYPE
  5
28
100
AcDbSymbolTableRecord
100
AcDbLinetypeTableRecord
  2
DASHDOTX2
 70
     0
  3
____  .  ____  .  ____  .  ____  .  ____  .  __
 72
    65
 73
     4
 40
2.0
 49
1.0
 74
     0
 49
-0.5
 74
     0
 49
0.0
 74
     0
 49
-0.5
 74
     0
  0
LTYPE
  5
29
100
AcDbSymbolTableRecord
100
AcDbLinetypeTableRecord
  2
DASHED
 70
     0
  3
__ __ __ __ __ __ __ __ __ __ __ __ __ __ __ __
 72
    65
 73
     2
 40
0.75
 49
0.5
 74
     0
 49
-0.25
 74
     0
  0
LTYPE
  5
2A
100
AcDbSymbolTableRecord
100
AcDbLinetypeTableRecord
  2
DASHED2
 70
     0
  3
_ _ _ _ _ _ _ _ _ _ _ _ _ _ _ _ _ _ _ _ _ _ _ _
 72
    65
 73
     2
 40
0.375
 49
0.25
 74
     0
 49
-0.125
 74
     0
  0
LTYPE
  5
2B
100
AcDbSymbolTableRecord
100
AcDbLinetypeTableRecord
  2
DASHEDX2
 70
     0
  3
____  ____  ____  ____  ____  ____  ____  ____ 
 72
    65
 73
     2
 40
1.5
 49
1.0
 74
     0
 49
-0.5
 74
     0
  0
LTYPE
  5
2C
100
AcDbSymbolTableRecord
100
AcDbLinetypeTableRecord
  2
DIVIDE
 70
     0
  3
____ . . ____ . . ____ . . ____ . . ____ . . __
 72
    65
 73
     6
 40
1.25
 49
0.5
 74
     0
 49
-0.25
 74
     0
 49
0.0
 74
     0
 49
-0.25
 74
     0
 49
0.0
 74
     0
 49
-0.25
 74
     0
  0
LTYPE
  5
2D
100
AcDbSymbolTableRecord
100
AcDbLinetypeTableRecord
  2
DIVIDE2
 70
     0
  3
__..__..__..__..__..__..__..__..__..__..__..__.
 72
    65
 73
     6
 40
0.625
 49
0.25
 74
     0
 49
-0.125
 74
     0
 49
0.0
 74
     0
 49
-0.125
 74
     0
 49
0.0
 74
     0
 49
-0.125
 74
     0
  0
LTYPE
  5
2E
100
AcDbSymbolTableRecord
100
AcDbLinetypeTableRecord
  2
DIVIDEX2
 70
     0
  3
________  .  .  ________  .  .  ________  .  . 
 72
    65
 73
     6
 40
2.5
 49
1.0
 74
     0
 49
-0.5
 74
     0
 49
0.0
 74
     0
 49
-0.5
 74
     0
 49
0.0
 74
     0
 49
-0.5
 74
     0
  0
LTYPE
  5
2F
100
AcDbSymbolTableRecord
100
AcDbLinetypeTableRecord
  2
DOT
 70
     0
  3
. . . . . . . . . . . . . . . . . . . . . . . .
 72
    65
 73
     2
 40
0.25
 49
0.0
 74
     0
 49
-0.25
 74
     0
  0
LTYPE
  5
30
100
AcDbSymbolTableRecord
100
AcDbLinetypeTableRecord
  2
DOT2
 70
     0
  3
...............................................
 72
    65
 73
     2
 40
0.125
 49
0.0
 74
     0
 49
-0.125
 74
     0
  0
LTYPE
  5
31
100
AcDbSymbolTableRecord
100
AcDbLinetypeTableRecord
  2
DOTX2
 70
     0
  3
.  .  .  .  .  .  .  .  .  .  .  .  .  .  .  . 
 72
    65
 73
     2
 40
0.5
 49
0.0
 74
     0
 49
-0.5
 74
     0
  0
LTYPE
  5
32
100
AcDbSymbolTableRecord
100
AcDbLinetypeTableRecord
  2
HIDDEN
 70
     0
  3
__ __ __ __ __ __ __ __ __ __ __ __ __ __ __ __
 72
    65
 73
     2
 40
0.375
 49
0.25
 74
     0
 49
-0.125
 74
     0
  0
LTYPE
  5
33
100
AcDbSymbolTableRecord
100
AcDbLinetypeTableRecord
  2
HIDDEN2
 70
     0
  3
_ _ _ _ _ _ _ _ _ _ _ _ _ _ _ _ _ _ _ _ _ _ _ _
 72
    65
 73
     2
 40
0.1875
 49
0.125
 74
     0
 49
-0.0625
 74
     0
  0
LTYPE
  5
34
100
AcDbSymbolTableRecord
100
AcDbLinetypeTableRecord
  2
HIDDENX2
 70
     0
  3
____ ____ ____ ____ ____ ____ ____ ____ ____ __
 72
    65
 73
     2
 40
0.75
 49
0.5
 74
     0
 49
-0.25
 74
     0
  0
LTYPE
  5
35
100
AcDbSymbolTableRecord
100
AcDbLinetypeTableRecord
  2
PHANTOM
 70
     0
  3
______  __  __  ______  __  __  ______  __  __ 
 72
    65
 73
     6
 40
2.5
 49
1.25
 74
     0
 49
-0.25
 74
     0
 49
0.25
 74
     0
 49
-0.25
 74
     0
 49
0.25
 74
     0
 49
-0.25
 74
     0
  0
LTYPE
  5
36
100
AcDbSymbolTableRecord
100
AcDbLinetypeTableRecord
  2
PHANTOM2
 70
     0
  3
___ _ _ ___ _ _ ___ _ _ ___ _ _ ___ _ _ ___ _ _
 72
    65
 73
     6
 40
1.25
 49
0.625
 74
     0
 49
-0.125
 74
     0
 49
0.125
 74
     0
 49
-0.125
 74
     0
 49
0.125
 74
     0
 49
-0.125
 74
     0
  0
LTYPE
  5
37
100
AcDbSymbolTableRecord
100
AcDbLinetypeTableRecord
  2
PHANTOMX2
 70
     0
  3
____________    ____    ____    ____________   
 72
    65
 73
     6
 40
5.0
 49
2.5
 74
     0
 49
-0.5
 74
     0
 49
0.5
 74
     0
 49
-0.5
 74
     0
 49
0.5
 74
     0
 49
-0.5
 74
     0
  0
ENDTAB
   0
TABLE
   2
LAYER
   5
2
 100
AcDbSymbolTable
  70
4
   0
LAYER
   5
E
 100
AcDbSymbolTableRecord
 100
AcDbLayerTableRecord
   2
0
  70
0
  62
7
   6
CONTINUOUS
 390
30
   0
LAYER
   5
39
 100
AcDbSymbolTableRecord
 100
AcDbLayerTableRecord
   2
LEVEL001
  70
0
  62
7
   6
CONTINUOUS
 390
30
   0
LAYER
   5
3A
 100
AcDbSymbolTableRecord
 100
AcDbLayerTableRecord
   2
LEVEL002
  70
0
  62
7
   6
CONTINUOUS
 390
30
   0
LAYER
   5
3B
 100
AcDbSymbolTableRecord
 100
AcDbLayerTableRecord
   2
LEVEL004
  70
0
  62
7
   6
CONTINUOUS
 390
30
   0
ENDTAB
  0
TABLE
  2
STYLE
  5
3
100
AcDbSymbolTable
  70
6
  0
STYLE
  5
F
100
AcDbSymbolTableRecord
100
AcDbTextStyleTableRecord
  2
STANDARD
 70
     0
 40
0.0
 41
1.0
 50
0.0
 71
     0
 42
0.2
  3
TXT
  4
BIGFONT
  0
STYLE
  5
38
100
AcDbSymbolTableRecord
100
AcDbTextStyleTableRecord
  2
STANDARD1
 70
     4
 40
0.0
 41
1.0
 50
0.0
 71
     0
 42
0.2
  3
TXT
  4
BIGFONT
   0
STYLE
   5
3C
 100
AcDbSymbolTableRecord
 100
AcDbTextStyleTableRecord
   2
GMM001
  70
0
  40
0.0
  41
 0.80000000000000
  50
0.0
  71
     0
  42
1.0
   3
txt.shx
   4
bigfont.shx
   0
STYLE
   5
3D
 100
AcDbSymbolTableRecord
 100
AcDbTextStyleTableRecord
   2
GMM002
  70
0
  40
0.0
  41
 1.0000000000000
  50
0.0
  71
     0
  42
1.0
   3
txt.shx
   4
bigfont.shx
   0
STYLE
   5
3E
 100
AcDbSymbolTableRecord
 100
AcDbTextStyleTableRecord
   2
GMM003
  70
0
  40
0.0
  41
 1.0714285714286
  50
0.0
  71
     0
  42
1.0
   3
txt.shx
   4
bigfont.shx
   0
STYLE
   5
3F
 100
AcDbSymbolTableRecord
 100
AcDbTextStyleTableRecord
   2
GMM004
  70
0
  40
0.0
  41
 0.88888888888889
  50
0.0
  71
     0
  42
1.0
   3
txt.shx
   4
bigfont.shx
   0
ENDTAB
  0
TABLE
  2
VIEW
  5
6
100
AcDbSymbolTable
 70
     0
  0
ENDTAB
  0
TABLE
  2
UCS
  5
7
100
AcDbSymbolTable
 70
     0
  0
ENDTAB
  0
TABLE
  2
APPID
  5
9
100
AcDbSymbolTable
 70
     1
  0
APPID
  5
10
100
AcDbSymbolTableRecord
100
AcDbRegAppTableRecord
  2
ACAD
 70
     0
  0
ENDTAB
   0
TABLE
   2
DIMSTYLE
   5
A
 100
AcDbSymbolTable
  70
16
 100
AcDbDimStyleTable
  0
DIMSTYLE
105
1D
100
AcDbSymbolTableRecord
100
AcDbDimStyleTableRecord
  2
STANDARD
 70
     0
  3

  4

  5

  6

  7

 40
1.0
 41
0.18
 42
0.0625
 43
0.38
 44
0.18
 45
0.0
 46
0.0
 47
0.0
 48
0.0
140
0.18
141
0.09
142
0.0
143
25.4
144
1.0
145
0.0
146
1.0
147
0.09
 71
     0
 72
     0
 73
     1
 74
     1
 75
     0
 76
     0
 77
     0
 78
     0
170
     0
171
     2
172
     0
173
     0
174
     0
175
     0
176
     0
177
     0
178
     0
270
     2
271
     4
272
     4
273
     2
274
     2
340
F
275
     0
280
     0
281
     0
282
     0
283
     1
284
     0
285
     0
286
     0
287
     3
288
     0
   0
DIMSTYLE
 105
40
 100
AcDbSymbolTableRecord
 100
AcDbDimStyleTableRecord
   2
GMM001
  70
0
   3

   4

   5

   6

   7

  40
 1.0000000000000
  41
 2.0000000000000
  42
 1.0000000000000
  43
 8.0000000000000
  44
 1.0000000000000
  45
0.0
  46
0.0
  47
0.0
  48
0.0
 140
 2.5000000000000
 141
 1.0000000000000
 142
0.0
 143
 0.39400000000000E-1
 144
 1.0000000000000
 145
0.0
 146
 1.0000000000000
 147
 1.0000000000000
  71
0
  72
0
  73
0
  74
0
  75
0
  76
0
  77
3
  78
8
 170
0
 171
2
 172
1
 173
1
 174
0
 175
0
 176
8
 177
8
 178
8
 270
2
 271
6
 272
0
 273
2
 274
2
 340
3D
 275
0
 280
0
 281
0
 282
0
 283
1
 284
0
 285
0
 286
0
 287
3
 288
0
   0
DIMSTYLE
 105
41
 100
AcDbSymbolTableRecord
 100
AcDbDimStyleTableRecord
   2
GMM002
  70
0
   3

   4

   5

   6
_NONE
   7

  40
 1.0000000000000
  41
 2.0000000000000
  42
 1.0000000000000
  43
 8.0000000000000
  44
 1.0000000000000
  45
0.0
  46
0.0
  47
0.0
  48
0.0
 140
 2.5000000000000
 141
 1.0000000000000
 142
0.0
 143
 0.39400000000000E-1
 144
 1.0000000000000
 145
0.0
 146
 1.0000000000000
 147
 1.1317769068837
  71
0
  72
0
  73
0
  74
0
  75
0
  76
0
  77
3
  78
8
 170
0
 171
2
 172
1
 173
1
 174
0
 175
0
 176
8
 177
8
 178
8
 270
2
 271
6
 272
0
 273
2
 274
2
 340
3D
 275
0
 280
0
 281
0
 282
0
 283
1
 284
0
 285
0
 286
0
 287
3
 288
1
   0
DIMSTYLE
 105
42
 100
AcDbSymbolTableRecord
 100
AcDbDimStyleTableRecord
   2
GMM003
  70
0
   3

   4

   5

   6

   7
_NONE
  40
 1.0000000000000
  41
 2.0000000000000
  42
 1.0000000000000
  43
 8.0000000000000
  44
 1.0000000000000
  45
0.0
  46
0.0
  47
0.0
  48
0.0
 140
 2.5000000000000
 141
 1.0000000000000
 142
0.0
 143
 0.39400000000000E-1
 144
 1.0000000000000
 145
0.0
 146
 1.0000000000000
 147
 1.0000000000000
  71
0
  72
0
  73
0
  74
0
  75
0
  76
0
  77
3
  78
8
 170
0
 171
2
 172
1
 173
1
 174
0
 175
0
 176
8
 177
8
 178
8
 270
2
 271
6
 272
0
 273
2
 274
2
 340
3D
 275
0
 280
0
 281
0
 282
0
 283
1
 284
0
 285
0
 286
0
 287
3
 288
0
   0
DIMSTYLE
 105
43
 100
AcDbSymbolTableRecord
 100
AcDbDimStyleTableRecord
   2
GMM004
  70
0
   3

   4

   5

   6
_DOT
   7

  40
 1.0000000000000
  41
 2.0000000000000
  42
 1.0000000000000
  43
 8.0000000000000
  44
 1.0000000000000
  45
0.0
  46
0.0
  47
0.0
  48
0.0
 140
 2.5000000000000
 141
 1.0000000000000
 142
0.0
 143
 0.39400000000000E-1
 144
 1.0000000000000
 145
0.0
 146
 1.0000000000000
 147
 1.0511027641236
  71
0
  72
0
  73
0
  74
0
  75
0
  76
0
  77
3
  78
8
 170
0
 171
2
 172
1
 173
1
 174
0
 175
0
 176
8
 177
8
 178
8
 270
2
 271
6
 272
0
 273
2
 274
2
 340
3D
 275
0
 280
0
 281
0
 282
0
 283
1
 284
0
 285
0
 286
0
 287
3
 288
1
   0
DIMSTYLE
 105
44
 100
AcDbSymbolTableRecord
 100
AcDbDimStyleTableRecord
   2
GMM005
  70
0
   3

   4

   5

   6
_NONE
   7

  40
 1.0000000000000
  41
 2.0000000000000
  42
 1.0000000000000
  43
 8.0000000000000
  44
 1.0000000000000
  45
0.0
  46
0.0
  47
0.0
  48
0.0
 140
 2.5000000000000
 141
 1.0000000000000
 142
0.0
 143
 0.39400000000000E-1
 144
 1.0000000000000
 145
0.0
 146
 1.0000000000000
 147
 1.0704790221502
  71
0
  72
0
  73
0
  74
0
  75
0
  76
0
  77
3
  78
8
 170
0
 171
2
 172
1
 173
1
 174
0
 175
0
 176
8
 177
8
 178
8
 270
2
 271
6
 272
0
 273
2
 274
2
 340
3D
 275
0
 280
0
 281
0
 282
0
 283
1
 284
0
 285
0
 286
0
 287
3
 288
1
   0
DIMSTYLE
 105
45
 100
AcDbSymbolTableRecord
 100
AcDbDimStyleTableRecord
   2
GMM006
  70
0
   3

   4

   5

   6

   7

  40
 1.0000000000000
  41
 2.0000000000000
  42
 1.0000000000000
  43
 8.0000000000000
  44
 1.0000000000000
  45
0.0
  46
0.0
  47
0.0
  48
0.0
 140
 2.5000000000000
 141
 1.0000000000000
 142
0.0
 143
 0.39400000000000E-1
 144
 1.0000000000000
 145
0.0
 146
 1.0000000000000
 147
 0.85099997124510
  71
0
  72
0
  73
0
  74
0
  75
0
  76
0
  77
3
  78
8
 170
0
 171
2
 172
1
 173
1
 174
0
 175
0
 176
8
 177
8
 178
8
 270
2
 271
6
 272
0
 273
2
 274
2
 340
3D
 275
0
 280
0
 281
0
 282
0
 283
1
 284
0
 285
0
 286
0
 287
3
 288
1
   0
DIMSTYLE
 105
46
 100
AcDbSymbolTableRecord
 100
AcDbDimStyleTableRecord
   2
GMM007
  70
0
   3

   4

   5

   6

   7

  40
 1.0000000000000
  41
 2.0000000000000
  42
 1.0000000000000
  43
 8.0000000000000
  44
 1.0000000000000
  45
0.0
  46
0.0
  47
0.0
  48
0.0
 140
 2.5000000000000
 141
 1.0000000000000
 142
0.0
 143
 0.39400000000000E-1
 144
 1.0000000000000
 145
0.0
 146
 1.0000000000000
 147
 1.0000000000000
  71
0
  72
0
  73
0
  74
0
  75
0
  76
0
  77
3
  78
0
 170
0
 171
2
 172
1
 173
1
 174
0
 175
0
 176
8
 177
8
 178
8
 270
2
 271
0
 272
0
 273
2
 274
2
 340
3D
 275
0
 280
0
 281
0
 282
0
 283
1
 284
0
 285
0
 286
0
 287
3
 288
0
   0
DIMSTYLE
 105
47
 100
AcDbSymbolTableRecord
 100
AcDbDimStyleTableRecord
   2
GMM008
  70
0
   3

   4

   5

   6

   7

  40
 1.0000000000000
  41
 2.0000000000000
  42
 1.0000000000000
  43
 8.0000000000000
  44
 1.0000000000000
  45
0.0
  46
0.0
  47
0.0
  48
0.0
 140
 2.5000000000000
 141
 1.0000000000000
 142
0.0
 143
 0.39400000000000E-1
 144
 1.0000000000000
 145
0.0
 146
 1.0000000000000
 147
 1.0180908868834
  71
0
  72
0
  73
0
  74
0
  75
0
  76
0
  77
3
  78
8
 170
0
 171
2
 172
1
 173
1
 174
0
 175
0
 176
8
 177
8
 178
8
 270
2
 271
6
 272
0
 273
2
 274
2
 340
3D
 275
0
 280
0
 281
0
 282
0
 283
1
 284
0
 285
0
 286
0
 287
3
 288
1
   0
DIMSTYLE
 105
48
 100
AcDbSymbolTableRecord
 100
AcDbDimStyleTableRecord
   2
GMM009
  70
0
   3

   4

   5

   6

   7

  40
 1.0000000000000
  41
 2.0000000000000
  42
 1.0000000000000
  43
 8.0000000000000
  44
 1.0000000000000
  45
0.0
  46
0.0
  47
0.0
  48
0.0
 140
 2.5000000000000
 141
 1.0000000000000
 142
0.0
 143
 0.39400000000000E-1
 144
 1.0000000000000
 145
0.0
 146
 1.0000000000000
 147
 0.99455547506091
  71
0
  72
0
  73
0
  74
0
  75
0
  76
0
  77
3
  78
8
 170
0
 171
2
 172
1
 173
1
 174
0
 175
0
 176
8
 177
8
 178
8
 270
2
 271
6
 272
0
 273
2
 274
2
 340
3D
 275
0
 280
0
 281
0
 282
0
 283
1
 284
0
 285
0
 286
0
 287
3
 288
1
   0
DIMSTYLE
 105
49
 100
AcDbSymbolTableRecord
 100
AcDbDimStyleTableRecord
   2
GMM010
  70
0
   3

   4

   5

   6

   7

  40
 1.0000000000000
  41
 2.0000000000000
  42
 1.0000000000000
  43
 8.0000000000000
  44
 1.0000000000000
  45
0.0
  46
0.0
  47
0.0
  48
0.0
 140
 2.5000000000000
 141
 1.0000000000000
 142
0.0
 143
 0.39400000000000E-1
 144
 1.0000000000000
 145
0.0
 146
 1.0000000000000
 147
 1.0000000000000
  71
0
  72
0
  73
0
  74
0
  75
0
  76
0
  77
3
  78
8
 170
0
 171
2
 172
1
 173
1
 174
0
 175
0
 176
8
 177
8
 178
8
 270
2
 271
6
 272
0
 273
2
 274
2
 340
3D
 275
0
 280
0
 281
0
 282
0
 283
1
 284
0
 285
0
 286
0
 287
3
 288
0
   0
DIMSTYLE
 105
4A
 100
AcDbSymbolTableRecord
 100
AcDbDimStyleTableRecord
   2
GMM011
  70
0
   3

   4

   5

   6

   7
_NONE
  40
 1.0000000000000
  41
 2.0000000000000
  42
 1.0000000000000
  43
 8.0000000000000
  44
 1.0000000000000
  45
0.0
  46
0.0
  47
0.0
  48
0.0
 140
 2.5000000000000
 141
 1.0000000000000
 142
0.0
 143
 0.39400000000000E-1
 144
 1.0000000000000
 145
0.0
 146
 1.0000000000000
 147
 0.61115016062027
  71
0
  72
0
  73
0
  74
0
  75
0
  76
0
  77
3
  78
8
 170
0
 171
2
 172
1
 173
1
 174
0
 175
0
 176
8
 177
8
 178
8
 270
2
 271
6
 272
0
 273
2
 274
2
 340
3D
 275
0
 280
0
 281
0
 282
0
 283
1
 284
0
 285
0
 286
0
 287
3
 288
1
   0
DIMSTYLE
 105
4B
 100
AcDbSymbolTableRecord
 100
AcDbDimStyleTableRecord
   2
GMM012
  70
0
   3

   4

   5

   6
_DOT
   7

  40
 1.0000000000000
  41
 2.0000000000000
  42
 1.0000000000000
  43
 8.0000000000000
  44
 1.0000000000000
  45
0.0
  46
0.0
  47
0.0
  48
0.0
 140
 2.5000000000000
 141
 1.0000000000000
 142
0.0
 143
 0.39400000000000E-1
 144
 1.0000000000000
 145
0.0
 146
 1.0000000000000
 147
 1.0704790221502
  71
0
  72
0
  73
0
  74
0
  75
0
  76
0
  77
3
  78
8
 170
0
 171
2
 172
1
 173
1
 174
0
 175
0
 176
8
 177
8
 178
8
 270
2
 271
6
 272
0
 273
2
 274
2
 340
3D
 275
0
 280
0
 281
0
 282
0
 283
1
 284
0
 285
0
 286
0
 287
3
 288
1
   0
DIMSTYLE
 105
4C
 100
AcDbSymbolTableRecord
 100
AcDbDimStyleTableRecord
   2
GMM013
  70
0
   3

   4

   5

   6

   7

  40
 1.0000000000000
  41
 2.0000000000000
  42
 1.0000000000000
  43
 8.0000000000000
  44
 1.0000000000000
  45
0.0
  46
0.0
  47
0.0
  48
0.0
 140
 2.5000000000000
 141
 1.0000000000000
 142
0.0
 143
 0.39400000000000E-1
 144
 1.0000000000000
 145
0.0
 146
 1.0000000000000
 147
 0.52652936914990
  71
0
  72
0
  73
0
  74
0
  75
0
  76
0
  77
3
  78
8
 170
0
 171
2
 172
1
 173
1
 174
0
 175
0
 176
8
 177
8
 178
8
 270
2
 271
6
 272
0
 273
2
 274
2
 340
3D
 275
0
 280
0
 281
0
 282
0
 283
1
 284
0
 285
0
 286
0
 287
3
 288
1
   0
DIMSTYLE
 105
4D
 100
AcDbSymbolTableRecord
 100
AcDbDimStyleTableRecord
   2
GMM014
  70
0
   3

   4

   5

   6

   7

  40
 1.0000000000000
  41
 2.0000000000000
  42
 1.0000000000000
  43
 8.0000000000000
  44
 1.0000000000000
  45
0.0
  46
0.0
  47
0.0
  48
0.0
 140
 2.5000000000000
 141
 1.0000000000000
 142
0.0
 143
 0.39400000000000E-1
 144
 1.0000000000000
 145
0.0
 146
 1.0000000000000
 147
 0.71692853005702
  71
0
  72
0
  73
0
  74
0
  75
0
  76
0
  77
3
  78
8
 170
0
 171
2
 172
1
 173
1
 174
0
 175
0
 176
8
 177
8
 178
8
 270
2
 271
6
 272
0
 273
2
 274
2
 340
3D
 275
0
 280
0
 281
0
 282
0
 283
1
 284
0
 285
0
 286
0
 287
3
 288
1
   0
ENDTAB
  0
TABLE
  2
BLOCK_RECORD
  5
1
100
AcDbSymbolTable
 70
     0
  0
BLOCK_RECORD
  5
18
100
AcDbSymbolTableRecord
100
AcDbBlockTableRecord
  2
*MODEL_SPACE
  0
BLOCK_RECORD
  5
15
100
AcDbSymbolTableRecord
100
AcDbBlockTableRecord
  2
*PAPER_SPACE
   0
BLOCK_RECORD
   5
4E
 100
AcDbSymbolTableRecord
 100
AcDbBlockTableRecord
   2
*D1
   0
BLOCK_RECORD
   5
4F
 100
AcDbSymbolTableRecord
 100
AcDbBlockTableRecord
   2
*D2
   0
BLOCK_RECORD
   5
50
 100
AcDbSymbolTableRecord
 100
AcDbBlockTableRecord
   2
*D3
   0
BLOCK_RECORD
   5
51
 100
AcDbSymbolTableRecord
 100
AcDbBlockTableRecord
   2
*D4
   0
BLOCK_RECORD
   5
52
 100
AcDbSymbolTableRecord
 100
AcDbBlockTableRecord
   2
*D5
   0
BLOCK_RECORD
   5
53
 100
AcDbSymbolTableRecord
 100
AcDbBlockTableRecord
   2
*D6
   0
BLOCK_RECORD
   5
54
 100
AcDbSymbolTableRecord
 100
AcDbBlockTableRecord
   2
*D7
   0
BLOCK_RECORD
   5
55
 100
AcDbSymbolTableRecord
 100
AcDbBlockTableRecord
   2
*D8
   0
BLOCK_RECORD
   5
56
 100
AcDbSymbolTableRecord
 100
AcDbBlockTableRecord
   2
*D9
   0
BLOCK_RECORD
   5
57
 100
AcDbSymbolTableRecord
 100
AcDbBlockTableRecord
   2
*D10
   0
BLOCK_RECORD
   5
58
 100
AcDbSymbolTableRecord
 100
AcDbBlockTableRecord
   2
*D11
   0
BLOCK_RECORD
   5
59
 100
AcDbSymbolTableRecord
 100
AcDbBlockTableRecord
   2
*D12
   0
BLOCK_RECORD
   5
5A
 100
AcDbSymbolTableRecord
 100
AcDbBlockTableRecord
   2
*D13
   0
BLOCK_RECORD
   5
5B
 100
AcDbSymbolTableRecord
 100
AcDbBlockTableRecord
   2
*D14
   0
BLOCK_RECORD
   5
5C
 100
AcDbSymbolTableRecord
 100
AcDbBlockTableRecord
   2
*D15
   0
BLOCK_RECORD
   5
5D
 100
AcDbSymbolTableRecord
 100
AcDbBlockTableRecord
   2
*D16
   0
BLOCK_RECORD
   5
5E
 100
AcDbSymbolTableRecord
 100
AcDbBlockTableRecord
   2
*D17
   0
BLOCK_RECORD
   5
5F
 100
AcDbSymbolTableRecord
 100
AcDbBlockTableRecord
   2
*D18
   0
BLOCK_RECORD
   5
60
 100
AcDbSymbolTableRecord
 100
AcDbBlockTableRecord
   2
*D19
   0
BLOCK_RECORD
   5
61
 100
AcDbSymbolTableRecord
 100
AcDbBlockTableRecord
   2
*D20
   0
BLOCK_RECORD
   5
62
 100
AcDbSymbolTableRecord
 100
AcDbBlockTableRecord
   2
*D21
   0
BLOCK_RECORD
   5
63
 100
AcDbSymbolTableRecord
 100
AcDbBlockTableRecord
   2
*D22
   0
BLOCK_RECORD
   5
64
 100
AcDbSymbolTableRecord
 100
AcDbBlockTableRecord
   2
*D23
   0
BLOCK_RECORD
   5
65
 100
AcDbSymbolTableRecord
 100
AcDbBlockTableRecord
   2
*D24
   0
BLOCK_RECORD
   5
66
 100
AcDbSymbolTableRecord
 100
AcDbBlockTableRecord
   2
*D25
   0
BLOCK_RECORD
   5
67
 100
AcDbSymbolTableRecord
 100
AcDbBlockTableRecord
   2
*D26
   0
BLOCK_RECORD
   5
68
 100
AcDbSymbolTableRecord
 100
AcDbBlockTableRecord
   2
*D27
   0
BLOCK_RECORD
   5
69
 100
AcDbSymbolTableRecord
 100
AcDbBlockTableRecord
   2
*D28
   0
BLOCK_RECORD
   5
6A
 100
AcDbSymbolTableRecord
 100
AcDbBlockTableRecord
   2
*D29
   0
BLOCK_RECORD
   5
6B
 100
AcDbSymbolTableRecord
 100
AcDbBlockTableRecord
   2
*D30
   0
BLOCK_RECORD
   5
6C
 100
AcDbSymbolTableRecord
 100
AcDbBlockTableRecord
   2
*D31
   0
BLOCK_RECORD
   5
6D
 100
AcDbSymbolTableRecord
 100
AcDbBlockTableRecord
   2
*D32
   0
BLOCK_RECORD
   5
6E
 100
AcDbSymbolTableRecord
 100
AcDbBlockTableRecord
   2
*D33
   0
BLOCK_RECORD
   5
6F
 100
AcDbSymbolTableRecord
 100
AcDbBlockTableRecord
   2
*D34
   0
BLOCK_RECORD
   5
70
 100
AcDbSymbolTableRecord
 100
AcDbBlockTableRecord
   2
*D35
   0
BLOCK_RECORD
   5
71
 100
AcDbSymbolTableRecord
 100
AcDbBlockTableRecord
   2
*D36
   0
BLOCK_RECORD
   5
72
 100
AcDbSymbolTableRecord
 100
AcDbBlockTableRecord
   2
*D37
   0
BLOCK_RECORD
   5
73
 100
AcDbSymbolTableRecord
 100
AcDbBlockTableRecord
   2
*D38
   0
BLOCK_RECORD
   5
74
 100
AcDbSymbolTableRecord
 100
AcDbBlockTableRecord
   2
*D39
   0
BLOCK_RECORD
   5
75
 100
AcDbSymbolTableRecord
 100
AcDbBlockTableRecord
   2
*D40
   0
BLOCK_RECORD
   5
76
 100
AcDbSymbolTableRecord
 100
AcDbBlockTableRecord
   2
*D41
   0
BLOCK_RECORD
   5
77
 100
AcDbSymbolTableRecord
 100
AcDbBlockTableRecord
   2
*D42
   0
BLOCK_RECORD
   5
78
 100
AcDbSymbolTableRecord
 100
AcDbBlockTableRecord
   2
*D43
   0
BLOCK_RECORD
   5
79
 100
AcDbSymbolTableRecord
 100
AcDbBlockTableRecord
   2
*D44
   0
BLOCK_RECORD
   5
7A
 100
AcDbSymbolTableRecord
 100
AcDbBlockTableRecord
   2
*D45
   0
BLOCK_RECORD
   5
7B
 100
AcDbSymbolTableRecord
 100
AcDbBlockTableRecord
   2
*D46
   0
BLOCK_RECORD
   5
7C
 100
AcDbSymbolTableRecord
 100
AcDbBlockTableRecord
   2
*D47
   0
BLOCK_RECORD
   5
7D
 100
AcDbSymbolTableRecord
 100
AcDbBlockTableRecord
   2
_ARCHTICK
   0
BLOCK_RECORD
   5
7E
 100
AcDbSymbolTableRecord
 100
AcDbBlockTableRecord
   2
_BOXBLANK
   0
BLOCK_RECORD
   5
7F
 100
AcDbSymbolTableRecord
 100
AcDbBlockTableRecord
   2
_BOXFILLED
   0
BLOCK_RECORD
   5
80
 100
AcDbSymbolTableRecord
 100
AcDbBlockTableRecord
   2
_CLOSED
   0
BLOCK_RECORD
   5
81
 100
AcDbSymbolTableRecord
 100
AcDbBlockTableRecord
   2
_CLOSEDBLANK
   0
BLOCK_RECORD
   5
82
 100
AcDbSymbolTableRecord
 100
AcDbBlockTableRecord
   2
_DATUMBLANK
   0
BLOCK_RECORD
   5
83
 100
AcDbSymbolTableRecord
 100
AcDbBlockTableRecord
   2
_DATUMFILLED
   0
BLOCK_RECORD
   5
84
 100
AcDbSymbolTableRecord
 100
AcDbBlockTableRecord
   2
_DOT
   0
BLOCK_RECORD
   5
85
 100
AcDbSymbolTableRecord
 100
AcDbBlockTableRecord
   2
_DOTBLANK
   0
BLOCK_RECORD
   5
86
 100
AcDbSymbolTableRecord
 100
AcDbBlockTableRecord
   2
_DOTSMALL
   0
BLOCK_RECORD
   5
87
 100
AcDbSymbolTableRecord
 100
AcDbBlockTableRecord
   2
_INTEGRAL
   0
BLOCK_RECORD
   5
88
 100
AcDbSymbolTableRecord
 100
AcDbBlockTableRecord
   2
_NONE
   0
BLOCK_RECORD
   5
89
 100
AcDbSymbolTableRecord
 100
AcDbBlockTableRecord
   2
_OBLIQUE
   0
BLOCK_RECORD
   5
8A
 100
AcDbSymbolTableRecord
 100
AcDbBlockTableRecord
   2
_OPEN
   0
BLOCK_RECORD
   5
8B
 100
AcDbSymbolTableRecord
 100
AcDbBlockTableRecord
   2
_OPEN30
   0
BLOCK_RECORD
   5
8C
 100
AcDbSymbolTableRecord
 100
AcDbBlockTableRecord
   2
_OPEN90
   0
BLOCK_RECORD
   5
8D
 100
AcDbSymbolTableRecord
 100
AcDbBlockTableRecord
   2
_ORIGIN
   0
ENDTAB
   0
ENDSEC
  0
SECTION
  2
BLOCKS
  0
BLOCK
  5
19
100
AcDbEntity
  8
0
100
AcDbBlockBegin
  2
*MODEL_SPACE
 70
     0
 10
0.0
 20
0.0
 30
0.0
  3
*MODEL_SPACE
  1

  0
ENDBLK
  5
1A
100
AcDbEntity
  8
0
100
AcDbBlockEnd
  0
BLOCK
  5
16
100
AcDbEntity
 67
     1
  8
0
100
AcDbBlockBegin
  2
*PAPER_SPACE
 70
     0
 10
0.0
 20
0.0
 30
0.0
  3
*PAPER_SPACE
  1

  0
ENDBLK
  5
17
100
AcDbEntity
 67
     1
  8
0
100
AcDbBlockEnd
   0
BLOCK
   5
8E
 100
AcDbEntity
   8
0
 100
AcDbBlockBegin
   2
_ARCHTICK
  70
0
  10
0.0
  20
0.0
  30
0.0
   3
_ARCHTICK
   0
POLYLINE
   5
8F
 100
AcDbEntity
   8
0
 370
-2
   6
BYBLOCK
  62
0
 100
AcDb2dPolyline
  66
1
  10
0.0
  20
0.0
  30
0.0
  70
1
  40
 0.15000000000000
  41
 0.15000000000000
   0
VERTEX
   5
90
 100
AcDbEntity
   8
0
   6
BYBLOCK
  62
0
 100
AcDbVertex
 100
AcDb2dVertex
  10
-0.50000000000000
  20
-0.50000000000000
  30
0.0
  40
 0.15000000000000
  41
 0.15000000000000
   0
VERTEX
   5
91
 100
AcDbEntity
   8
0
   6
BYBLOCK
  62
0
 100
AcDbVertex
 100
AcDb2dVertex
  10
 0.50000000000000
  20
 0.50000000000000
  30
0.0
  40
 0.15000000000000
  41
 0.15000000000000
   0
SEQEND
   5
92
 100
AcDbEntity
   8
0
   6
BYBLOCK
  62
0
   0
ENDBLK
   5
93
 100
AcDbEntity
   8
0
 100
AcDbBlockEnd
   0
BLOCK
   5
94
 100
AcDbEntity
   8
0
 100
AcDbBlockBegin
   2
_OBLIQUE
  70
0
  10
0.0
  20
0.0
  30
0.0
   3
_OBLIQUE
   0
LINE
   5
95
 100
AcDbEntity
   8
0
 370
-2
 100
AcDbLine
   6
BYBLOCK
  62
0
  10
-0.50000000000000
  20
-0.50000000000000
  30
0.0
  11
 0.50000000000000
  21
 0.50000000000000
  31
0.0
   0
ENDBLK
   5
96
 100
AcDbEntity
   8
0
 100
AcDbBlockEnd
   0
BLOCK
   5
97
 100
AcDbEntity
   8
0
 100
AcDbBlockBegin
   2
_BOXBLANK
  70
0
  10
0.0
  20
0.0
  30
0.0
   3
_BOXBLANK
   0
LINE
   5
98
 100
AcDbEntity
   8
0
 370
-2
 100
AcDbLine
   6
BYBLOCK
  62
0
  10
-0.50000000000000
  20
-0.50000000000000
  30
0.0
  11
 0.50000000000000
  21
-0.50000000000000
  31
0.0
   0
LINE
   5
99
 100
AcDbEntity
   8
0
 370
-2
 100
AcDbLine
   6
BYBLOCK
  62
0
  10
 0.50000000000000
  20
-0.50000000000000
  30
0.0
  11
 0.50000000000000
  21
 0.50000000000000
  31
0.0
   0
LINE
   5
9A
 100
AcDbEntity
   8
0
 370
-2
 100
AcDbLine
   6
BYBLOCK
  62
0
  10
 0.50000000000000
  20
 0.50000000000000
  30
0.0
  11
-0.50000000000000
  21
 0.50000000000000
  31
0.0
   0
LINE
   5
9B
 100
AcDbEntity
   8
0
 370
-2
 100
AcDbLine
   6
BYBLOCK
  62
0
  10
-0.50000000000000
  20
 0.50000000000000
  30
0.0
  11
-0.50000000000000
  21
-0.50000000000000
  31
0.0
   0
LINE
   5
9C
 100
AcDbEntity
   8
0
 370
-2
 100
AcDbLine
   6
BYBLOCK
  62
0
  10
-0.50000000000000
  20
0.0
  30
0.0
  11
-1.0000000000000
  21
0.0
  31
0.0
   0
ENDBLK
   5
9D
 100
AcDbEntity
   8
0
 100
AcDbBlockEnd
   0
BLOCK
   5
9E
 100
AcDbEntity
   8
0
 100
AcDbBlockBegin
   2
_BOXFILLED
  70
0
  10
0.0
  20
0.0
  30
0.0
   3
_BOXFILLED
   0
SOLID
   5
9F
 100
AcDbEntity
   8
0
 100
AcDbTrace
   6
BYBLOCK
  62
0
  10
-0.50000000000000
  20
 0.50000000000000
  30
0.0
  11
 0.50000000000000
  21
 0.50000000000000
  31
0.0
  12
-0.50000000000000
  22
-0.50000000000000
  32
0.0
  13
 0.50000000000000
  23
-0.50000000000000
  33
0.0
   0
LINE
   5
A0
 100
AcDbEntity
   8
0
 370
-2
 100
AcDbLine
   6
BYBLOCK
  62
0
  10
-0.50000000000000
  20
0.0
  30
0.0
  11
-1.0000000000000
  21
0.0
  31
0.0
   0
ENDBLK
   5
A1
 100
AcDbEntity
   8
0
 100
AcDbBlockEnd
   0
BLOCK
   5
A2
 100
AcDbEntity
   8
0
 100
AcDbBlockBegin
   2
_CLOSED
  70
0
  10
0.0
  20
0.0
  30
0.0
   3
_CLOSED
   0
LINE
   5
A3
 100
AcDbEntity
   8
0
 370
-2
 100
AcDbLine
   6
BYBLOCK
  62
0
  10
-1.0000000000000
  20
 0.16666666666667
  30
0.0
  11
0.0
  21
0.0
  31
0.0
   0
LINE
   5
A4
 100
AcDbEntity
   8
0
 370
-2
 100
AcDbLine
   6
BYBLOCK
  62
0
  10
0.0
  20
0.0
  30
0.0
  11
-1.0000000000000
  21
-0.16666666666667
  31
0.0
   0
LINE
   5
A5
 100
AcDbEntity
   8
0
 370
-2
 100
AcDbLine
   6
BYBLOCK
  62
0
  10
-1.0000000000000
  20
 0.16666666666667
  30
0.0
  11
-1.0000000000000
  21
-0.16666666666667
  31
0.0
   0
LINE
   5
A6
 100
AcDbEntity
   8
0
 370
-2
 100
AcDbLine
   6
BYBLOCK
  62
0
  10
0.0
  20
0.0
  30
0.0
  11
-1.0000000000000
  21
0.0
  31
0.0
   0
ENDBLK
   5
A7
 100
AcDbEntity
   8
0
 100
AcDbBlockEnd
   0
BLOCK
   5
A8
 100
AcDbEntity
   8
0
 100
AcDbBlockBegin
   2
_OPEN
  70
0
  10
0.0
  20
0.0
  30
0.0
   3
_OPEN
   0
LINE
   5
A9
 100
AcDbEntity
   8
0
 370
-2
 100
AcDbLine
   6
BYBLOCK
  62
0
  10
-1.0000000000000
  20
 0.16666666666667
  30
0.0
  11
0.0
  21
0.0
  31
0.0
   0
LINE
   5
AA
 100
AcDbEntity
   8
0
 370
-2
 100
AcDbLine
   6
BYBLOCK
  62
0
  10
0.0
  20
0.0
  30
0.0
  11
-1.0000000000000
  21
-0.16666666666667
  31
0.0
   0
LINE
   5
AB
 100
AcDbEntity
   8
0
 370
-2
 100
AcDbLine
   6
BYBLOCK
  62
0
  10
0.0
  20
0.0
  30
0.0
  11
-1.0000000000000
  21
0.0
  31
0.0
   0
ENDBLK
   5
AC
 100
AcDbEntity
   8
0
 100
AcDbBlockEnd
   0
BLOCK
   5
AD
 100
AcDbEntity
   8
0
 100
AcDbBlockBegin
   2
_OPEN30
  70
0
  10
0.0
  20
0.0
  30
0.0
   3
_OPEN30
   0
LINE
   5
AE
 100
AcDbEntity
   8
0
 370
-2
 100
AcDbLine
   6
BYBLOCK
  62
0
  10
-1.0000000000000
  20
 0.26794919243110
  30
0.0
  11
0.0
  21
0.0
  31
0.0
   0
LINE
   5
AF
 100
AcDbEntity
   8
0
 370
-2
 100
AcDbLine
   6
BYBLOCK
  62
0
  10
0.0
  20
0.0
  30
0.0
  11
-1.0000000000000
  21
-0.26794919243110
  31
0.0
   0
LINE
   5
B0
 100
AcDbEntity
   8
0
 370
-2
 100
AcDbLine
   6
BYBLOCK
  62
0
  10
0.0
  20
0.0
  30
0.0
  11
-1.0000000000000
  21
0.0
  31
0.0
   0
ENDBLK
   5
B1
 100
AcDbEntity
   8
0
 100
AcDbBlockEnd
   0
BLOCK
   5
B2
 100
AcDbEntity
   8
0
 100
AcDbBlockBegin
   2
_OPEN90
  70
0
  10
0.0
  20
0.0
  30
0.0
   3
_OPEN90
   0
LINE
   5
B3
 100
AcDbEntity
   8
0
 370
-2
 100
AcDbLine
   6
BYBLOCK
  62
0
  10
-0.50000000000000
  20
 0.50000000000000
  30
0.0
  11
0.0
  21
0.0
  31
0.0
   0
LINE
   5
B4
 100
AcDbEntity
   8
0
 370
-2
 100
AcDbLine
   6
BYBLOCK
  62
0
  10
0.0
  20
0.0
  30
0.0
  11
-0.50000000000000
  21
-0.50000000000000
  31
0.0
   0
LINE
   5
B5
 100
AcDbEntity
   8
0
 370
-2
 100
AcDbLine
   6
BYBLOCK
  62
0
  10
0.0
  20
0.0
  30
0.0
  11
-1.0000000000000
  21
0.0
  31
0.0
   0
ENDBLK
   5
B6
 100
AcDbEntity
   8
0
 100
AcDbBlockEnd
   0
BLOCK
   5
B7
 100
AcDbEntity
   8
0
 100
AcDbBlockBegin
   2
_CLOSEDBLANK
  70
0
  10
0.0
  20
0.0
  30
0.0
   3
_CLOSEDBLANK
   0
LINE
   5
B8
 100
AcDbEntity
   8
0
 370
-2
 100
AcDbLine
   6
BYBLOCK
  62
0
  10
-1.0000000000000
  20
 0.16666666666667
  30
0.0
  11
0.0
  21
0.0
  31
0.0
   0
LINE
   5
B9
 100
AcDbEntity
   8
0
 370
-2
 100
AcDbLine
   6
BYBLOCK
  62
0
  10
0.0
  20
0.0
  30
0.0
  11
-1.0000000000000
  21
-0.16666666666667
  31
0.0
   0
LINE
   5
BA
 100
AcDbEntity
   8
0
 370
-2
 100
AcDbLine
   6
BYBLOCK
  62
0
  10
-1.0000000000000
  20
 0.16666666666667
  30
0.0
  11
-1.0000000000000
  21
-0.16666666666667
  31
0.0
   0
ENDBLK
   5
BB
 100
AcDbEntity
   8
0
 100
AcDbBlockEnd
   0
BLOCK
   5
BC
 100
AcDbEntity
   8
0
 100
AcDbBlockBegin
   2
_DOT
  70
0
  10
0.0
  20
0.0
  30
0.0
   3
_DOT
   0
POLYLINE
   5
BD
 100
AcDbEntity
   8
0
 370
-2
   6
BYBLOCK
  62
0
 100
AcDb2dPolyline
  66
1
  10
0.0
  20
0.0
  30
0.0
  70
1
  40
 0.50000000000000
  41
 0.50000000000000
   0
VERTEX
   5
BE
 100
AcDbEntity
   8
0
   6
BYBLOCK
  62
0
 100
AcDbVertex
 100
AcDb2dVertex
  10
-0.25000000000000
  20
0.0
  30
0.0
  42
 1.0000000000000
  40
 0.50000000000000
  41
 0.50000000000000
   0
VERTEX
   5
BF
 100
AcDbEntity
   8
0
   6
BYBLOCK
  62
0
 100
AcDbVertex
 100
AcDb2dVertex
  10
 0.25000000000000
  20
0.0
  30
0.0
  42
 1.0000000000000
  40
 0.50000000000000
  41
 0.50000000000000
   0
SEQEND
   5
C0
 100
AcDbEntity
   8
0
   6
BYBLOCK
  62
0
   0
LINE
   5
C1
 100
AcDbEntity
   8
0
 370
-2
 100
AcDbLine
   6
BYBLOCK
  62
0
  10
-0.50000000000000
  20
0.0
  30
0.0
  11
-1.0000000000000
  21
0.0
  31
0.0
   0
ENDBLK
   5
C2
 100
AcDbEntity
   8
0
 100
AcDbBlockEnd
   0
BLOCK
   5
C3
 100
AcDbEntity
   8
0
 100
AcDbBlockBegin
   2
_DOTSMALL
  70
0
  10
0.0
  20
0.0
  30
0.0
   3
_DOTSMALL
   0
POLYLINE
   5
C4
 100
AcDbEntity
   8
0
 370
-2
   6
BYBLOCK
  62
0
 100
AcDb2dPolyline
  66
1
  10
0.0
  20
0.0
  30
0.0
  70
1
  40
 0.50000000000000
  41
 0.50000000000000
   0
VERTEX
   5
C5
 100
AcDbEntity
   8
0
   6
BYBLOCK
  62
0
 100
AcDbVertex
 100
AcDb2dVertex
  10
-0.62500000000000E-1
  20
0.0
  30
0.0
  42
 1.0000000000000
  40
 0.50000000000000
  41
 0.50000000000000
   0
VERTEX
   5
C6
 100
AcDbEntity
   8
0
   6
BYBLOCK
  62
0
 100
AcDbVertex
 100
AcDb2dVertex
  10
 0.62500000000000E-1
  20
0.0
  30
0.0
  42
 1.0000000000000
  40
 0.50000000000000
  41
 0.50000000000000
   0
SEQEND
   5
C7
 100
AcDbEntity
   8
0
   6
BYBLOCK
  62
0
   0
ENDBLK
   5
C8
 100
AcDbEntity
   8
0
 100
AcDbBlockEnd
   0
BLOCK
   5
C9
 100
AcDbEntity
   8
0
 100
AcDbBlockBegin
   2
_DATUMBLANK
  70
0
  10
0.0
  20
0.0
  30
0.0
   3
_DATUMBLANK
   0
LINE
   5
CA
 100
AcDbEntity
   8
0
 370
-2
 100
AcDbLine
   6
BYBLOCK
  62
0
  10
0.0
  20
 0.57735027000000
  30
0.0
  11
-1.0000000000000
  21
0.0
  31
0.0
   0
LINE
   5
CB
 100
AcDbEntity
   8
0
 370
-2
 100
AcDbLine
   6
BYBLOCK
  62
0
  10
-1.0000000000000
  20
0.0
  30
0.0
  11
0.0
  21
-0.57735027000000
  31
0.0
   0
LINE
   5
CC
 100
AcDbEntity
   8
0
 370
-2
 100
AcDbLine
   6
BYBLOCK
  62
0
  10
0.0
  20
-0.57735027000000
  30
0.0
  11
0.0
  21
 0.57735027000000
  31
0.0
   0
ENDBLK
   5
CD
 100
AcDbEntity
   8
0
 100
AcDbBlockEnd
   0
BLOCK
   5
CE
 100
AcDbEntity
   8
0
 100
AcDbBlockBegin
   2
_DATUMFILLED
  70
0
  10
0.0
  20
0.0
  30
0.0
   3
_DATUMFILLED
   0
SOLID
   5
CF
 100
AcDbEntity
   8
0
 100
AcDbTrace
   6
BYBLOCK
  62
0
  10
0.0
  20
 0.57735027000000
  30
0.0
  11
-1.0000000000000
  21
0.0
  31
0.0
  12
0.0
  22
-0.57735027000000
  32
0.0
  13
0.0
  23
-0.57735027000000
  33
0.0
   0
ENDBLK
   5
D0
 100
AcDbEntity
   8
0
 100
AcDbBlockEnd
   0
BLOCK
   5
D1
 100
AcDbEntity
   8
0
 100
AcDbBlockBegin
   2
_ORIGIN
  70
0
  10
0.0
  20
0.0
  30
0.0
   3
_ORIGIN
   0
CIRCLE
   5
D2
 100
AcDbEntity
   8
0
 370
-2
 100
AcDbCircle
   6
BYBLOCK
  62
0
  10
0.0
  20
0.0
  30
0.0
  40
 0.50000000000000
   0
LINE
   5
D3
 100
AcDbEntity
   8
0
 370
-2
 100
AcDbLine
   6
BYBLOCK
  62
0
  10
0.0
  20
0.0
  30
0.0
  11
-1.0000000000000
  21
0.0
  31
0.0
   0
ENDBLK
   5
D4
 100
AcDbEntity
   8
0
 100
AcDbBlockEnd
   0
BLOCK
   5
D5
 100
AcDbEntity
   8
0
 100
AcDbBlockBegin
   2
_NONE
  70
0
  10
0.0
  20
0.0
  30
0.0
   3
_NONE
   0
CIRCLE
   5
D6
 100
AcDbEntity
   8
0
 370
-2
 100
AcDbCircle
   6
BYBLOCK
  62
0
  10
0.0
  20
0.0
  30
0.0
  40
 0.25000000000000
   0
ENDBLK
   5
D7
 100
AcDbEntity
   8
0
 100
AcDbBlockEnd
   0
BLOCK
   5
D8
 100
AcDbEntity
   8
0
 100
AcDbBlockBegin
   2
_DOTBLANK
  70
0
  10
0.0
  20
0.0
  30
0.0
   3
_DOTBLANK
   0
CIRCLE
   5
D9
 100
AcDbEntity
   8
0
 370
-2
 100
AcDbCircle
   6
BYBLOCK
  62
0
  10
0.0
  20
0.0
  30
0.0
  40
 0.50000000000000
   0
LINE
   5
DA
 100
AcDbEntity
   8
0
 370
-2
 100
AcDbLine
   6
BYBLOCK
  62
0
  10
-0.50000000000000
  20
0.0
  30
0.0
  11
-1.0000000000000
  21
0.0
  31
0.0
   0
ENDBLK
   5
DB
 100
AcDbEntity
   8
0
 100
AcDbBlockEnd
   0
BLOCK
   5
DC
 100
AcDbEntity
   8
0
 100
AcDbBlockBegin
   2
_INTEGRAL
  70
0
  10
0.0
  20
0.0
  30
0.0
   3
_INTEGRAL
   0
ARC
   5
DD
 100
AcDbEntity
   8
0
 370
-2
   6
BYBLOCK
  62
0
 100
AcDbCircle
  10
 0.44488800000000
  20
-0.91335000000000E-1
  30
0.0
  40
 0.45416700000000
 100
AcDbArc
  50
 102.00000000000
  51
 168.00000000000
   0
ARC
   5
DE
 100
AcDbEntity
   8
0
 370
-2
   6
BYBLOCK
  62
0
 100
AcDbCircle
  10
-0.44488800000000
  20
 0.91335000000000E-1
  30
0.0
  40
 0.45416700000000
 100
AcDbArc
  50
 282.00000000000
  51
 348.00000000000
   0
ENDBLK
   5
DF
 100
AcDbEntity
   8
0
 100
AcDbBlockEnd
   0
BLOCK
   5
E0
 100
AcDbEntity
   8
0
 100
AcDbBlockBegin
   2
*D1
  70
65
  10
0.0
  20
0.0
  30
0.0
   3
*D1
   0
LINE
   5
E1
 100
AcDbEntity
   8
LEVEL001
 370
15
 100
AcDbLine
   6
CONTINUOUS
  62
8
  10
 47.889689007534
  20
 230.08922177159
  30
0.0
  11
 47.889689007534
  21
 237.12431767563
  31
0.0
   0
LINE
   5
E2
 100
AcDbEntity
   8
LEVEL001
 370
15
 100
AcDbLine
   6
CONTINUOUS
  62
8
  10
 70.889689007534
  20
 230.12431767563
  30
0.0
  11
 70.889689007534
  21
 237.12431767563
  31
0.0
   0
LINE
   5
E3
 100
AcDbEntity
   8
LEVEL001
 370
15
 100
AcDbLine
   6
CONTINUOUS
  62
8
  10
 47.889689007534
  20
 236.12431767563
  30
0.0
  11
 59.389689007534
  21
 236.12431767563
  31
0.0
   0
LINE
   5
E4
 100
AcDbEntity
   8
LEVEL001
 370
15
 100
AcDbLine
   6
CONTINUOUS
  62
8
  10
 70.889689007534
  20
 236.12431767563
  30
0.0
  11
 59.389689007534
  21
 236.12431767563
  31
0.0
   0
SOLID
   5
E5
 100
AcDbEntity
   8
LEVEL001
 100
AcDbTrace
   6
CONTINUOUS
  62
8
  10
 47.889689007534
  20
 236.12431767563
  30
0.0
  11
 49.889689007534
  21
 235.77166371421
  31
0.0
  12
 49.889689007534
  22
 236.47697163705
  32
0.0
  13
 49.889689007534
  23
 236.47697163705
  33
0.0
   0
SOLID
   5
E6
 100
AcDbEntity
   8
LEVEL001
 100
AcDbTrace
   6
CONTINUOUS
  62
8
  10
 70.889689007534
  20
 236.12431767563
  30
0.0
  11
 68.889689007534
  21
 236.47697163705
  31
0.0
  12
 68.889689007534
  22
 235.77166371421
  32
0.0
  13
 68.889689007534
  23
 235.77166371421
  33
0.0
   0
MTEXT
   5
E7
 100
AcDbEntity
   8
LEVEL001
 370
15
  62
8
 100
AcDbMText
  10
 59.389689007534
  20
 237.12431767563
  30
0.0
  40
 2.5000000000000
  41
0.0
  71
8
  72
1
   1
\A1;23
   7
GMM002
   0
ENDBLK
   5
E8
 100
AcDbEntity
   8
0
 100
AcDbBlockEnd
   0
BLOCK
   5
E9
 100
AcDbEntity
   8
0
 100
AcDbBlockBegin
   2
*D2
  70
65
  10
0.0
  20
0.0
  30
0.0
   3
*D2
   0
LINE
   5
EA
 100
AcDbEntity
   8
LEVEL001
 370
15
 100
AcDbLine
   6
CONTINUOUS
  62
8
  10
 35.889689007534
  20
 224.01001228170
  30
0.0
  11
 35.889689007534
  21
 244.12431767563
  31
0.0
   0
LINE
   5
EB
 100
AcDbEntity
   8
LEVEL001
 370
15
 100
AcDbLine
   6
CONTINUOUS
  62
8
  10
 70.889689007534
  20
 237.12431767563
  30
0.0
  11
 70.889689007534
  21
 244.12431767563
  31
0.0
   0
LINE
   5
EC
 100
AcDbEntity
   8
LEVEL001
 370
15
 100
AcDbLine
   6
CONTINUOUS
  62
8
  10
 35.889689007534
  20
 243.12431767563
  30
0.0
  11
 53.389689007534
  21
 243.12431767563
  31
0.0
   0
LINE
   5
ED
 100
AcDbEntity
   8
LEVEL001
 370
15
 100
AcDbLine
   6
CONTINUOUS
  62
8
  10
 70.889689007534
  20
 243.12431767563
  30
0.0
  11
 53.389689007534
  21
 243.12431767563
  31
0.0
   0
SOLID
   5
EE
 100
AcDbEntity
   8
LEVEL001
 100
AcDbTrace
   6
CONTINUOUS
  62
8
  10
 35.889689007534
  20
 243.12431767563
  30
0.0
  11
 37.889689007534
  21
 242.77166371421
  31
0.0
  12
 37.889689007534
  22
 243.47697163705
  32
0.0
  13
 37.889689007534
  23
 243.47697163705
  33
0.0
   0
SOLID
   5
EF
 100
AcDbEntity
   8
LEVEL001
 100
AcDbTrace
   6
CONTINUOUS
  62
8
  10
 70.889689007534
  20
 243.12431767563
  30
0.0
  11
 68.889689007534
  21
 243.47697163705
  31
0.0
  12
 68.889689007534
  22
 242.77166371421
  32
0.0
  13
 68.889689007534
  23
 242.77166371421
  33
0.0
   0
MTEXT
   5
F0
 100
AcDbEntity
   8
LEVEL001
 370
15
  62
8
 100
AcDbMText
  10
 53.389689007534
  20
 244.12431767563
  30
0.0
  40
 2.5000000000000
  41
0.0
  71
8
  72
1
   1
\A1;35
   7
GMM002
   0
ENDBLK
   5
F1
 100
AcDbEntity
   8
0
 100
AcDbBlockEnd
   0
BLOCK
   5
F2
 100
AcDbEntity
   8
0
 100
AcDbBlockBegin
   2
*D3
  70
65
  10
0.0
  20
0.0
  30
0.0
   3
*D3
   0
LINE
   5
F3
 100
AcDbEntity
   8
LEVEL001
 370
15
 100
AcDbLine
   6
CONTINUOUS
  62
8
  10
 34.889689007534
  20
 221.94080445267
  30
0.0
  11
 27.889689007534
  21
 221.94080445267
  31
0.0
   0
LINE
   5
F4
 100
AcDbEntity
   8
LEVEL001
 370
15
 100
AcDbLine
   6
CONTINUOUS
  62
8
  10
 47.177783518430
  20
 229.12431767563
  30
0.0
  11
 27.889689007534
  21
 229.12431767563
  31
0.0
   0
LINE
   5
F5
 100
AcDbEntity
   8
LEVEL001
 370
15
 100
AcDbLine
   6
CONTINUOUS
  62
8
  10
 28.889689007534
  20
 221.94080445267
  30
0.0
  11
 28.889689007534
  21
 225.53256106415
  31
0.0
   0
LINE
   5
F6
 100
AcDbEntity
   8
LEVEL001
 370
15
 100
AcDbLine
   6
CONTINUOUS
  62
8
  10
 28.889689007534
  20
 229.12431767563
  30
0.0
  11
 28.889689007534
  21
 225.53256106415
  31
0.0
   0
SOLID
   5
F7
 100
AcDbEntity
   8
LEVEL001
 100
AcDbTrace
   6
CONTINUOUS
  62
8
  10
 28.889689007534
  20
 221.94080445267
  30
0.0
  11
 29.242342968951
  21
 223.94080445267
  31
0.0
  12
 28.537035046117
  22
 223.94080445267
  32
0.0
  13
 28.537035046117
  23
 223.94080445267
  33
0.0
   0
SOLID
   5
F8
 100
AcDbEntity
   8
LEVEL001
 100
AcDbTrace
   6
CONTINUOUS
  62
8
  10
 28.889689007534
  20
 229.12431767563
  30
0.0
  11
 28.537035046117
  21
 227.12431767563
  31
0.0
  12
 29.242342968951
  22
 227.12431767563
  32
0.0
  13
 29.242342968951
  23
 227.12431767563
  33
0.0
   0
MTEXT
   5
F9
 100
AcDbEntity
   8
LEVEL001
 370
15
  62
8
 100
AcDbMText
  10
 27.889689007534
  20
 225.53256106415
  30
0.0
  40
 2.5000000000000
  41
0.0
  71
8
  72
1
   1
\A1;7
   7
GMM002
  11
0.0
  21
 1.0000000000000
  31
0.0
   0
ENDBLK
   5
FA
 100
AcDbEntity
   8
0
 100
AcDbBlockEnd
   0
BLOCK
   5
FB
 100
AcDbEntity
   8
0
 100
AcDbBlockBegin
   2
*D4
  70
65
  10
0.0
  20
0.0
  30
0.0
   3
*D4
   0
LINE
   5
FC
 100
AcDbEntity
   8
LEVEL001
 370
15
 100
AcDbLine
   6
CONTINUOUS
  62
8
  10
 37.434477607221
  20
 221.94080445267
  30
0.0
  11
 78.889689007534
  21
 221.94080445267
  31
0.0
   0
LINE
   5
FD
 100
AcDbEntity
   8
LEVEL001
 370
15
 100
AcDbLine
   6
CONTINUOUS
  62
8
  10
 77.889689007534
  20
 221.94080445267
  30
0.0
  11
 77.889689007534
  21
 224.93256106415
  31
0.0
   0
LINE
   5
FE
 100
AcDbEntity
   8
LEVEL001
 370
15
 100
AcDbLine
   6
CONTINUOUS
  62
8
  10
 77.889689007534
  20
 227.92431767563
  30
0.0
  11
 77.889689007534
  21
 224.93256106415
  31
0.0
   0
SOLID
   5
FF
 100
AcDbEntity
   8
LEVEL001
 100
AcDbTrace
   6
CONTINUOUS
  62
8
  10
 77.889689007534
  20
 221.94080445267
  30
0.0
  11
 78.242342968951
  21
 223.94080445267
  31
0.0
  12
 77.537035046117
  22
 223.94080445267
  32
0.0
  13
 77.537035046117
  23
 223.94080445267
  33
0.0
   0
SOLID
   5
100
 100
AcDbEntity
   8
LEVEL001
 100
AcDbTrace
   6
CONTINUOUS
  62
8
  10
 77.889689007534
  20
 227.92431767563
  30
0.0
  11
 77.537035046117
  21
 225.92431767563
  31
0.0
  12
 78.242342968951
  22
 225.92431767563
  32
0.0
  13
 78.242342968951
  23
 225.92431767563
  33
0.0
   0
MTEXT
   5
101
 100
AcDbEntity
   8
LEVEL001
 370
15
  62
8
 100
AcDbMText
  10
 76.889689007534
  20
 224.93256106415
  30
0.0
  40
 2.5000000000000
  41
0.0
  71
8
  72
1
   1
\A1;5.8
   7
GMM002
  11
0.0
  21
 1.0000000000000
  31
0.0
   0
ENDBLK
   5
102
 100
AcDbEntity
   8
0
 100
AcDbBlockEnd
   0
BLOCK
   5
103
 100
AcDbEntity
   8
0
 100
AcDbBlockBegin
   2
*D5
  70
65
  10
0.0
  20
0.0
  30
0.0
   3
*D5
   0
LINE
   5
104
 100
AcDbEntity
   8
LEVEL001
 370
15
 100
AcDbLine
   6
CONTINUOUS
  62
8
  10
 71.889689007534
  20
 227.92431767563
  30
0.0
  11
 78.889689007534
  21
 227.92431767563
  31
0.0
   0
LINE
   5
105
 100
AcDbEntity
   8
LEVEL001
 370
15
 100
AcDbLine
   6
CONTINUOUS
  62
8
  10
 71.889689007534
  20
 229.12431767563
  30
0.0
  11
 78.889689007534
  21
 229.12431767563
  31
0.0
   0
LINE
   5
106
 100
AcDbEntity
   8
LEVEL001
 370
15
 100
AcDbLine
   6
CONTINUOUS
  62
8
  10
 77.889689007534
  20
 227.92431767563
  30
0.0
  11
 77.889689007534
  21
 228.52431767563
  31
0.0
   0
LINE
   5
107
 100
AcDbEntity
   8
LEVEL001
 370
15
 100
AcDbLine
   6
CONTINUOUS
  62
8
  10
 77.889689007534
  20
 236.23981580402
  30
0.0
  11
 77.889689007534
  21
 228.52431767563
  31
0.0
   0
SOLID
   5
108
 100
AcDbEntity
   8
LEVEL001
 100
AcDbTrace
   6
CONTINUOUS
  62
8
  10
 77.889689007534
  20
 229.12431767563
  30
0.0
  11
 78.242342968951
  21
 231.12431767563
  31
0.0
  12
 77.537035046117
  22
 231.12431767563
  32
0.0
  13
 77.537035046117
  23
 231.12431767563
  33
0.0
   0
MTEXT
   5
109
 100
AcDbEntity
   8
LEVEL001
 370
15
  62
8
 100
AcDbMText
  10
 76.757912100650
  20
 230.73981580402
  30
0.0
  40
 2.5000000000000
  41
0.0
  71
7
  72
1
   1
\A1;1.2
   7
GMM002
  11
0.0
  21
 1.0000000000000
  31
0.0
   0
ENDBLK
   5
10A
 100
AcDbEntity
   8
0
 100
AcDbBlockEnd
   0
BLOCK
   5
10B
 100
AcDbEntity
   8
0
 100
AcDbBlockBegin
   2
*D6
  70
65
  10
0.0
  20
0.0
  30
0.0
   3
*D6
   0
LINE
   5
10C
 100
AcDbEntity
   8
LEVEL001
 370
15
 100
AcDbLine
   6
CONTINUOUS
  62
8
  10
 120.13968900753
  20
 230.08922177159
  30
0.0
  11
 120.13968900753
  21
 237.12431767563
  31
0.0
   0
LINE
   5
10D
 100
AcDbEntity
   8
LEVEL001
 370
15
 100
AcDbLine
   6
CONTINUOUS
  62
8
  10
 143.13968900753
  20
 230.12431767563
  30
0.0
  11
 143.13968900753
  21
 237.12431767563
  31
0.0
   0
LINE
   5
10E
 100
AcDbEntity
   8
LEVEL001
 370
15
 100
AcDbLine
   6
CONTINUOUS
  62
8
  10
 120.13968900753
  20
 236.12431767563
  30
0.0
  11
 131.63968900753
  21
 236.12431767563
  31
0.0
   0
LINE
   5
10F
 100
AcDbEntity
   8
LEVEL001
 370
15
 100
AcDbLine
   6
CONTINUOUS
  62
8
  10
 143.13968900753
  20
 236.12431767563
  30
0.0
  11
 131.63968900753
  21
 236.12431767563
  31
0.0
   0
SOLID
   5
110
 100
AcDbEntity
   8
LEVEL001
 100
AcDbTrace
   6
CONTINUOUS
  62
8
  10
 120.13968900753
  20
 236.12431767563
  30
0.0
  11
 122.13968900753
  21
 235.77166371421
  31
0.0
  12
 122.13968900753
  22
 236.47697163705
  32
0.0
  13
 122.13968900753
  23
 236.47697163705
  33
0.0
   0
SOLID
   5
111
 100
AcDbEntity
   8
LEVEL001
 100
AcDbTrace
   6
CONTINUOUS
  62
8
  10
 143.13968900753
  20
 236.12431767563
  30
0.0
  11
 141.13968900753
  21
 236.47697163705
  31
0.0
  12
 141.13968900753
  22
 235.77166371421
  32
0.0
  13
 141.13968900753
  23
 235.77166371421
  33
0.0
   0
MTEXT
   5
112
 100
AcDbEntity
   8
LEVEL001
 370
15
  62
8
 100
AcDbMText
  10
 131.63968900753
  20
 237.12431767563
  30
0.0
  40
 2.5000000000000
  41
0.0
  71
8
  72
1
   1
\A1;23
   7
GMM002
   0
ENDBLK
   5
113
 100
AcDbEntity
   8
0
 100
AcDbBlockEnd
   0
BLOCK
   5
114
 100
AcDbEntity
   8
0
 100
AcDbBlockBegin
   2
*D7
  70
65
  10
0.0
  20
0.0
  30
0.0
   3
*D7
   0
LINE
   5
115
 100
AcDbEntity
   8
LEVEL001
 370
15
 100
AcDbLine
   6
CONTINUOUS
  62
8
  10
 108.13968900753
  20
 224.01001228170
  30
0.0
  11
 108.13968900753
  21
 244.12431767563
  31
0.0
   0
LINE
   5
116
 100
AcDbEntity
   8
LEVEL001
 370
15
 100
AcDbLine
   6
CONTINUOUS
  62
8
  10
 143.13968900753
  20
 237.12431767563
  30
0.0
  11
 143.13968900753
  21
 244.12431767563
  31
0.0
   0
LINE
   5
117
 100
AcDbEntity
   8
LEVEL001
 370
15
 100
AcDbLine
   6
CONTINUOUS
  62
8
  10
 108.13968900753
  20
 243.12431767563
  30
0.0
  11
 125.63968900753
  21
 243.12431767563
  31
0.0
   0
LINE
   5
118
 100
AcDbEntity
   8
LEVEL001
 370
15
 100
AcDbLine
   6
CONTINUOUS
  62
8
  10
 143.13968900753
  20
 243.12431767563
  30
0.0
  11
 125.63968900753
  21
 243.12431767563
  31
0.0
   0
SOLID
   5
119
 100
AcDbEntity
   8
LEVEL001
 100
AcDbTrace
   6
CONTINUOUS
  62
8
  10
 108.13968900753
  20
 243.12431767563
  30
0.0
  11
 110.13968900753
  21
 242.77166371421
  31
0.0
  12
 110.13968900753
  22
 243.47697163705
  32
0.0
  13
 110.13968900753
  23
 243.47697163705
  33
0.0
   0
SOLID
   5
11A
 100
AcDbEntity
   8
LEVEL001
 100
AcDbTrace
   6
CONTINUOUS
  62
8
  10
 143.13968900753
  20
 243.12431767563
  30
0.0
  11
 141.13968900753
  21
 243.47697163705
  31
0.0
  12
 141.13968900753
  22
 242.77166371421
  32
0.0
  13
 141.13968900753
  23
 242.77166371421
  33
0.0
   0
MTEXT
   5
11B
 100
AcDbEntity
   8
LEVEL001
 370
15
  62
8
 100
AcDbMText
  10
 125.63968900753
  20
 244.12431767563
  30
0.0
  40
 2.5000000000000
  41
0.0
  71
8
  72
1
   1
\A1;35
   7
GMM002
   0
ENDBLK
   5
11C
 100
AcDbEntity
   8
0
 100
AcDbBlockEnd
   0
BLOCK
   5
11D
 100
AcDbEntity
   8
0
 100
AcDbBlockBegin
   2
*D8
  70
65
  10
0.0
  20
0.0
  30
0.0
   3
*D8
   0
LINE
   5
11E
 100
AcDbEntity
   8
LEVEL001
 370
15
 100
AcDbLine
   6
CONTINUOUS
  62
8
  10
 107.13968900753
  20
 221.94080445267
  30
0.0
  11
 100.13968900753
  21
 221.94080445267
  31
0.0
   0
LINE
   5
11F
 100
AcDbEntity
   8
LEVEL001
 370
15
 100
AcDbLine
   6
CONTINUOUS
  62
8
  10
 119.42778351843
  20
 229.12431767563
  30
0.0
  11
 100.13968900753
  21
 229.12431767563
  31
0.0
   0
LINE
   5
120
 100
AcDbEntity
   8
LEVEL001
 370
15
 100
AcDbLine
   6
CONTINUOUS
  62
8
  10
 101.13968900753
  20
 221.94080445267
  30
0.0
  11
 101.13968900753
  21
 225.53256106415
  31
0.0
   0
LINE
   5
121
 100
AcDbEntity
   8
LEVEL001
 370
15
 100
AcDbLine
   6
CONTINUOUS
  62
8
  10
 101.13968900753
  20
 229.12431767563
  30
0.0
  11
 101.13968900753
  21
 225.53256106415
  31
0.0
   0
SOLID
   5
122
 100
AcDbEntity
   8
LEVEL001
 100
AcDbTrace
   6
CONTINUOUS
  62
8
  10
 101.13968900753
  20
 221.94080445267
  30
0.0
  11
 101.49234296895
  21
 223.94080445267
  31
0.0
  12
 100.78703504612
  22
 223.94080445267
  32
0.0
  13
 100.78703504612
  23
 223.94080445267
  33
0.0
   0
SOLID
   5
123
 100
AcDbEntity
   8
LEVEL001
 100
AcDbTrace
   6
CONTINUOUS
  62
8
  10
 101.13968900753
  20
 229.12431767563
  30
0.0
  11
 100.78703504612
  21
 227.12431767563
  31
0.0
  12
 101.49234296895
  22
 227.12431767563
  32
0.0
  13
 101.49234296895
  23
 227.12431767563
  33
0.0
   0
MTEXT
   5
124
 100
AcDbEntity
   8
LEVEL001
 370
15
  62
8
 100
AcDbMText
  10
 100.13968900753
  20
 225.53256106415
  30
0.0
  40
 2.5000000000000
  41
0.0
  71
8
  72
1
   1
\A1;7
   7
GMM002
  11
0.0
  21
 1.0000000000000
  31
0.0
   0
ENDBLK
   5
125
 100
AcDbEntity
   8
0
 100
AcDbBlockEnd
   0
BLOCK
   5
126
 100
AcDbEntity
   8
0
 100
AcDbBlockBegin
   2
*D9
  70
65
  10
0.0
  20
0.0
  30
0.0
   3
*D9
   0
LINE
   5
127
 100
AcDbEntity
   8
LEVEL001
 370
15
 100
AcDbLine
   6
CONTINUOUS
  62
8
  10
 109.68447760722
  20
 221.94080445267
  30
0.0
  11
 151.13968900753
  21
 221.94080445267
  31
0.0
   0
LINE
   5
128
 100
AcDbEntity
   8
LEVEL001
 370
15
 100
AcDbLine
   6
CONTINUOUS
  62
8
  10
 150.13968900753
  20
 221.94080445267
  30
0.0
  11
 150.13968900753
  21
 224.93256106415
  31
0.0
   0
LINE
   5
129
 100
AcDbEntity
   8
LEVEL001
 370
15
 100
AcDbLine
   6
CONTINUOUS
  62
8
  10
 150.13968900753
  20
 227.92431767563
  30
0.0
  11
 150.13968900753
  21
 224.93256106415
  31
0.0
   0
SOLID
   5
12A
 100
AcDbEntity
   8
LEVEL001
 100
AcDbTrace
   6
CONTINUOUS
  62
8
  10
 150.13968900753
  20
 221.94080445267
  30
0.0
  11
 150.49234296895
  21
 223.94080445267
  31
0.0
  12
 149.78703504612
  22
 223.94080445267
  32
0.0
  13
 149.78703504612
  23
 223.94080445267
  33
0.0
   0
SOLID
   5
12B
 100
AcDbEntity
   8
LEVEL001
 100
AcDbTrace
   6
CONTINUOUS
  62
8
  10
 150.13968900753
  20
 227.92431767563
  30
0.0
  11
 149.78703504612
  21
 225.92431767563
  31
0.0
  12
 150.49234296895
  22
 225.92431767563
  32
0.0
  13
 150.49234296895
  23
 225.92431767563
  33
0.0
   0
MTEXT
   5
12C
 100
AcDbEntity
   8
LEVEL001
 370
15
  62
8
 100
AcDbMText
  10
 149.13968900753
  20
 224.93256106415
  30
0.0
  40
 2.5000000000000
  41
0.0
  71
8
  72
1
   1
\A1;5.8
   7
GMM002
  11
0.0
  21
 1.0000000000000
  31
0.0
   0
ENDBLK
   5
12D
 100
AcDbEntity
   8
0
 100
AcDbBlockEnd
   0
BLOCK
   5
12E
 100
AcDbEntity
   8
0
 100
AcDbBlockBegin
   2
*D10
  70
65
  10
0.0
  20
0.0
  30
0.0
   3
*D10
   0
LINE
   5
12F
 100
AcDbEntity
   8
LEVEL001
 370
15
 100
AcDbLine
   6
CONTINUOUS
  62
8
  10
 144.13968900753
  20
 227.92431767563
  30
0.0
  11
 151.13968900753
  21
 227.92431767563
  31
0.0
   0
LINE
   5
130
 100
AcDbEntity
   8
LEVEL001
 370
15
 100
AcDbLine
   6
CONTINUOUS
  62
8
  10
 144.13968900753
  20
 229.12431767563
  30
0.0
  11
 151.13968900753
  21
 229.12431767563
  31
0.0
   0
LINE
   5
131
 100
AcDbEntity
   8
LEVEL001
 370
15
 100
AcDbLine
   6
CONTINUOUS
  62
8
  10
 150.13968900753
  20
 227.92431767563
  30
0.0
  11
 150.13968900753
  21
 228.52431767563
  31
0.0
   0
LINE
   5
132
 100
AcDbEntity
   8
LEVEL001
 370
15
 100
AcDbLine
   6
CONTINUOUS
  62
8
  10
 150.13968900753
  20
 236.23981580402
  30
0.0
  11
 150.13968900753
  21
 228.52431767563
  31
0.0
   0
SOLID
   5
133
 100
AcDbEntity
   8
LEVEL001
 100
AcDbTrace
   6
CONTINUOUS
  62
8
  10
 150.13968900753
  20
 229.12431767563
  30
0.0
  11
 150.49234296895
  21
 231.12431767563
  31
0.0
  12
 149.78703504612
  22
 231.12431767563
  32
0.0
  13
 149.78703504612
  23
 231.12431767563
  33
0.0
   0
MTEXT
   5
134
 100
AcDbEntity
   8
LEVEL001
 370
15
  62
8
 100
AcDbMText
  10
 149.00791210065
  20
 230.73981580402
  30
0.0
  40
 2.5000000000000
  41
0.0
  71
7
  72
1
   1
\A1;1.2
   7
GMM002
  11
0.0
  21
 1.0000000000000
  31
0.0
   0
ENDBLK
   5
135
 100
AcDbEntity
   8
0
 100
AcDbBlockEnd
   0
BLOCK
   5
136
 100
AcDbEntity
   8
0
 100
AcDbBlockBegin
   2
*D11
  70
65
  10
0.0
  20
0.0
  30
0.0
   3
*D11
   0
LINE
   5
137
 100
AcDbEntity
   8
LEVEL001
 370
15
 100
AcDbLine
   6
CONTINUOUS
  62
8
  10
 34.330817780656
  20
 154.22821734828
  30
0.0
  11
 78.889689007534
  21
 154.22821734828
  31
0.0
   0
LINE
   5
138
 100
AcDbEntity
   8
LEVEL001
 370
15
 100
AcDbLine
   6
CONTINUOUS
  62
8
  10
 77.889689007534
  20
 151.72821734828
  30
0.0
  11
 77.889689007534
  21
 156.19505160482
  31
0.0
   0
LINE
   5
139
 100
AcDbEntity
   8
LEVEL001
 370
15
 100
AcDbLine
   6
CONTINUOUS
  62
8
  10
 77.889689007534
  20
 158.16188586136
  30
0.0
  11
 77.889689007534
  21
 156.19505160482
  31
0.0
   0
SOLID
   5
13A
 100
AcDbEntity
   8
LEVEL001
 100
AcDbTrace
   6
CONTINUOUS
  62
8
  10
 77.889689007534
  20
 154.22821734828
  30
0.0
  11
 77.537035046117
  21
 152.22821734828
  31
0.0
  12
 78.242342968951
  22
 152.22821734828
  32
0.0
  13
 78.242342968951
  23
 152.22821734828
  33
0.0
   0
MTEXT
   5
13B
 100
AcDbEntity
   8
LEVEL001
 370
15
  62
8
 100
AcDbMText
  10
 76.889689007534
  20
 156.19505160482
  30
0.0
  40
 2.5000000000000
  41
0.0
  71
8
  72
1
   1
\A1;4
   7
GMM002
  11
0.0
  21
 1.0000000000000
  31
0.0
   0
ENDBLK
   5
13C
 100
AcDbEntity
   8
0
 100
AcDbBlockEnd
   0
BLOCK
   5
13D
 100
AcDbEntity
   8
0
 100
AcDbBlockBegin
   2
*D12
  70
65
  10
0.0
  20
0.0
  30
0.0
   3
*D12
   0
LINE
   5
13E
 100
AcDbEntity
   8
LEVEL001
 370
15
 100
AcDbLine
   6
CONTINUOUS
  62
8
  10
 71.889689007534
  20
 158.16188586136
  30
0.0
  11
 78.889689007534
  21
 158.16188586136
  31
0.0
   0
LINE
   5
13F
 100
AcDbEntity
   8
LEVEL001
 370
15
 100
AcDbLine
   6
CONTINUOUS
  62
8
  10
 71.889689007534
  20
 159.66188586136
  30
0.0
  11
 78.889689007534
  21
 159.66188586136
  31
0.0
   0
LINE
   5
140
 100
AcDbEntity
   8
LEVEL001
 370
15
 100
AcDbLine
   6
CONTINUOUS
  62
8
  10
 77.889689007534
  20
 158.16188586136
  30
0.0
  11
 77.889689007534
  21
 158.91188586136
  31
0.0
   0
LINE
   5
141
 100
AcDbEntity
   8
LEVEL001
 370
15
 100
AcDbLine
   6
CONTINUOUS
  62
8
  10
 77.889689007534
  20
 167.30037846635
  30
0.0
  11
 77.889689007534
  21
 158.91188586136
  31
0.0
   0
INSERT
   5
142
 100
AcDbEntity
   8
LEVEL001
   6
CONTINUOUS
  62
8
 100
AcDbBlockReference
   2
_DOT
  10
 77.889689007534
  20
 158.16188586136
  30
0.0
  41
 0.40000000000000
  42
 0.40000000000000
  43
 0.40000000000000
  50
 270.00000000000
   0
SOLID
   5
143
 100
AcDbEntity
   8
LEVEL001
 100
AcDbTrace
   6
CONTINUOUS
  62
8
  10
 77.889689007534
  20
 159.66188586136
  30
0.0
  11
 78.242342968951
  21
 161.66188586136
  31
0.0
  12
 77.537035046117
  22
 161.66188586136
  32
0.0
  13
 77.537035046117
  23
 161.66188586136
  33
0.0
   0
MTEXT
   5
144
 100
AcDbEntity
   8
LEVEL001
 370
15
  62
8
 100
AcDbMText
  10
 76.838586243410
  20
 161.80037846635
  30
0.0
  40
 2.5000000000000
  41
0.0
  71
7
  72
1
   1
\A1;1.5
   7
GMM002
  11
0.0
  21
 1.0000000000000
  31
0.0
   0
ENDBLK
   5
145
 100
AcDbEntity
   8
0
 100
AcDbBlockEnd
   0
BLOCK
   5
146
 100
AcDbEntity
   8
0
 100
AcDbBlockBegin
   2
*D13
  70
65
  10
0.0
  20
0.0
  30
0.0
   3
*D13
   0
LINE
   5
147
 100
AcDbEntity
   8
LEVEL001
 370
15
 100
AcDbLine
   6
CONTINUOUS
  62
8
  10
 45.889689007534
  20
 160.66188586136
  30
0.0
  11
 45.889689007534
  21
 167.66188586136
  31
0.0
   0
LINE
   5
148
 100
AcDbEntity
   8
LEVEL001
 370
15
 100
AcDbLine
   6
CONTINUOUS
  62
8
  10
 70.889689007534
  20
 160.66188586136
  30
0.0
  11
 70.889689007534
  21
 167.66188586136
  31
0.0
   0
LINE
   5
149
 100
AcDbEntity
   8
LEVEL001
 370
15
 100
AcDbLine
   6
CONTINUOUS
  62
8
  10
 45.889689007534
  20
 166.66188586136
  30
0.0
  11
 58.389689007534
  21
 166.66188586136
  31
0.0
   0
LINE
   5
14A
 100
AcDbEntity
   8
LEVEL001
 370
15
 100
AcDbLine
   6
CONTINUOUS
  62
8
  10
 70.889689007534
  20
 166.66188586136
  30
0.0
  11
 58.389689007534
  21
 166.66188586136
  31
0.0
   0
SOLID
   5
14B
 100
AcDbEntity
   8
LEVEL001
 100
AcDbTrace
   6
CONTINUOUS
  62
8
  10
 45.889689007534
  20
 166.66188586136
  30
0.0
  11
 47.889689007534
  21
 166.30923189995
  31
0.0
  12
 47.889689007534
  22
 167.01453982278
  32
0.0
  13
 47.889689007534
  23
 167.01453982278
  33
0.0
   0
SOLID
   5
14C
 100
AcDbEntity
   8
LEVEL001
 100
AcDbTrace
   6
CONTINUOUS
  62
8
  10
 70.889689007534
  20
 166.66188586136
  30
0.0
  11
 68.889689007534
  21
 167.01453982278
  31
0.0
  12
 68.889689007534
  22
 166.30923189995
  32
0.0
  13
 68.889689007534
  23
 166.30923189995
  33
0.0
   0
MTEXT
   5
14D
 100
AcDbEntity
   8
LEVEL001
 370
15
  62
8
 100
AcDbMText
  10
 58.389689007534
  20
 167.66188586136
  30
0.0
  40
 2.5000000000000
  41
0.0
  71
8
  72
1
   1
\A1;25
   7
GMM002
   0
ENDBLK
   5
14E
 100
AcDbEntity
   8
0
 100
AcDbBlockEnd
   0
BLOCK
   5
14F
 100
AcDbEntity
   8
0
 100
AcDbBlockBegin
   2
*D14
  70
65
  10
0.0
  20
0.0
  30
0.0
   3
*D14
   0
LINE
   5
150
 100
AcDbEntity
   8
LEVEL001
 370
15
 100
AcDbLine
   6
CONTINUOUS
  62
8
  10
 32.889689007404
  20
 156.66188586136
  30
0.0
  11
 32.889689007404
  21
 174.66188586136
  31
0.0
   0
LINE
   5
151
 100
AcDbEntity
   8
LEVEL001
 370
15
 100
AcDbLine
   6
CONTINUOUS
  62
8
  10
 70.889689007534
  20
 167.66188586136
  30
0.0
  11
 70.889689007534
  21
 174.66188586136
  31
0.0
   0
LINE
   5
152
 100
AcDbEntity
   8
LEVEL001
 370
15
 100
AcDbLine
   6
CONTINUOUS
  62
8
  10
 32.889689007404
  20
 173.66188586136
  30
0.0
  11
 51.889689007469
  21
 173.66188586136
  31
0.0
   0
LINE
   5
153
 100
AcDbEntity
   8
LEVEL001
 370
15
 100
AcDbLine
   6
CONTINUOUS
  62
8
  10
 70.889689007534
  20
 173.66188586136
  30
0.0
  11
 51.889689007469
  21
 173.66188586136
  31
0.0
   0
SOLID
   5
154
 100
AcDbEntity
   8
LEVEL001
 100
AcDbTrace
   6
CONTINUOUS
  62
8
  10
 32.889689007404
  20
 173.66188586136
  30
0.0
  11
 34.889689007404
  21
 173.30923189995
  31
0.0
  12
 34.889689007404
  22
 174.01453982278
  32
0.0
  13
 34.889689007404
  23
 174.01453982278
  33
0.0
   0
SOLID
   5
155
 100
AcDbEntity
   8
LEVEL001
 100
AcDbTrace
   6
CONTINUOUS
  62
8
  10
 70.889689007534
  20
 173.66188586136
  30
0.0
  11
 68.889689007534
  21
 174.01453982278
  31
0.0
  12
 68.889689007534
  22
 173.30923189995
  32
0.0
  13
 68.889689007534
  23
 173.30923189995
  33
0.0
   0
MTEXT
   5
156
 100
AcDbEntity
   8
LEVEL001
 370
15
  62
8
 100
AcDbMText
  10
 51.889689007469
  20
 174.66188586136
  30
0.0
  40
 2.5000000000000
  41
0.0
  71
8
  72
1
   1
\A1;38
   7
GMM002
   0
ENDBLK
   5
157
 100
AcDbEntity
   8
0
 100
AcDbBlockEnd
   0
BLOCK
   5
158
 100
AcDbEntity
   8
0
 100
AcDbBlockBegin
   2
*D15
  70
65
  10
0.0
  20
0.0
  30
0.0
   3
*D15
   0
LINE
   5
159
 100
AcDbEntity
   8
LEVEL001
 370
15
 100
AcDbLine
   6
CONTINUOUS
  62
8
  10
 32.330817780656
  20
 154.22821734828
  30
0.0
  11
 26.889689007404
  21
 154.22821734828
  31
0.0
   0
LINE
   5
15A
 100
AcDbEntity
   8
LEVEL001
 370
15
 100
AcDbLine
   6
CONTINUOUS
  62
8
  10
 44.889689007534
  20
 159.66188586136
  30
0.0
  11
 26.889689007404
  21
 159.66188586136
  31
0.0
   0
LINE
   5
15B
 100
AcDbEntity
   8
LEVEL001
 370
15
 100
AcDbLine
   6
CONTINUOUS
  62
8
  10
 27.889689007404
  20
 154.22821734828
  30
0.0
  11
 27.889689007404
  21
 156.94505160482
  31
0.0
   0
LINE
   5
15C
 100
AcDbEntity
   8
LEVEL001
 370
15
 100
AcDbLine
   6
CONTINUOUS
  62
8
  10
 27.889689007404
  20
 159.66188586136
  30
0.0
  11
 27.889689007404
  21
 156.94505160482
  31
0.0
   0
SOLID
   5
15D
 100
AcDbEntity
   8
LEVEL001
 100
AcDbTrace
   6
CONTINUOUS
  62
8
  10
 27.889689007404
  20
 154.22821734828
  30
0.0
  11
 28.242342968821
  21
 156.22821734828
  31
0.0
  12
 27.537035045987
  22
 156.22821734828
  32
0.0
  13
 27.537035045987
  23
 156.22821734828
  33
0.0
   0
SOLID
   5
15E
 100
AcDbEntity
   8
LEVEL001
 100
AcDbTrace
   6
CONTINUOUS
  62
8
  10
 27.889689007404
  20
 159.66188586136
  30
0.0
  11
 27.537035045987
  21
 157.66188586136
  31
0.0
  12
 28.242342968821
  22
 157.66188586136
  32
0.0
  13
 28.242342968821
  23
 157.66188586136
  33
0.0
   0
MTEXT
   5
15F
 100
AcDbEntity
   8
LEVEL001
 370
15
  62
8
 100
AcDbMText
  10
 26.889689007404
  20
 156.94505160482
  30
0.0
  40
 2.5000000000000
  41
0.0
  71
8
  72
1
   1
\A1;5.5
   7
GMM002
  11
0.0
  21
 1.0000000000000
  31
0.0
   0
ENDBLK
   5
160
 100
AcDbEntity
   8
0
 100
AcDbBlockEnd
   0
BLOCK
   5
161
 100
AcDbEntity
   8
0
 100
AcDbBlockBegin
   2
*D16
  70
65
  10
0.0
  20
0.0
  30
0.0
   3
*D16
   0
LINE
   5
162
 100
AcDbEntity
   8
LEVEL001
 370
15
 100
AcDbLine
   6
CONTINUOUS
  62
8
  10
 97.022497174608
  20
 154.22821734828
  30
0.0
  11
 92.464218672481
  21
 154.22821734828
  31
0.0
   0
LINE
   5
163
 100
AcDbEntity
   8
LEVEL001
 370
15
 100
AcDbLine
   6
CONTINUOUS
  62
8
  10
 110.18014350253
  20
 161.12441741193
  30
0.0
  11
 92.464218672481
  21
 161.12441741193
  31
0.0
   0
LINE
   5
164
 100
AcDbEntity
   8
LEVEL001
 370
15
 100
AcDbLine
   6
CONTINUOUS
  62
8
  10
 93.464218672481
  20
 154.22821734828
  30
0.0
  11
 93.464218672481
  21
 157.67631738010
  31
0.0
   0
LINE
   5
165
 100
AcDbEntity
   8
LEVEL001
 370
15
 100
AcDbLine
   6
CONTINUOUS
  62
8
  10
 93.464218672481
  20
 161.12441741193
  30
0.0
  11
 93.464218672481
  21
 157.67631738010
  31
0.0
   0
SOLID
   5
166
 100
AcDbEntity
   8
LEVEL001
 100
AcDbTrace
   6
CONTINUOUS
  62
8
  10
 93.464218672481
  20
 154.22821734828
  30
0.0
  11
 93.816872633898
  21
 156.22821734828
  31
0.0
  12
 93.111564711064
  22
 156.22821734828
  32
0.0
  13
 93.111564711064
  23
 156.22821734828
  33
0.0
   0
SOLID
   5
167
 100
AcDbEntity
   8
LEVEL001
 100
AcDbTrace
   6
CONTINUOUS
  62
8
  10
 93.464218672481
  20
 161.12441741193
  30
0.0
  11
 93.111564711064
  21
 159.12441741193
  31
0.0
  12
 93.816872633898
  22
 159.12441741193
  32
0.0
  13
 93.816872633898
  23
 159.12441741193
  33
0.0
   0
MTEXT
   5
168
 100
AcDbEntity
   8
LEVEL001
 370
15
  62
8
 100
AcDbMText
  10
 92.464218672481
  20
 157.67631738010
  30
0.0
  40
 2.5000000000000
  41
0.0
  71
8
  72
1
   1
\A1;7
   7
GMM002
  11
0.0
  21
 1.0000000000000
  31
0.0
   0
ENDBLK
   5
169
 100
AcDbEntity
   8
0
 100
AcDbBlockEnd
   0
BLOCK
   5
16A
 100
AcDbEntity
   8
0
 100
AcDbBlockBegin
   2
*D17
  70
65
  10
0.0
  20
0.0
  30
0.0
   3
*D17
   0
LINE
   5
16B
 100
AcDbEntity
   8
LEVEL001
 370
15
 100
AcDbLine
   6
CONTINUOUS
  62
8
  10
 97.464218672517
  20
 156.62441741194
  30
0.0
  11
 97.464218672517
  21
 176.12441741193
  31
0.0
   0
LINE
   5
16C
 100
AcDbEntity
   8
LEVEL001
 370
15
 100
AcDbLine
   6
CONTINUOUS
  62
8
  10
 147.46421867248
  20
 169.12441741193
  30
0.0
  11
 147.46421867248
  21
 176.12441741193
  31
0.0
   0
LINE
   5
16D
 100
AcDbEntity
   8
LEVEL001
 370
15
 100
AcDbLine
   6
CONTINUOUS
  62
8
  10
 97.464218672517
  20
 175.12441741193
  30
0.0
  11
 122.46421867250
  21
 175.12441741193
  31
0.0
   0
LINE
   5
16E
 100
AcDbEntity
   8
LEVEL001
 370
15
 100
AcDbLine
   6
CONTINUOUS
  62
8
  10
 147.46421867248
  20
 175.12441741193
  30
0.0
  11
 122.46421867250
  21
 175.12441741193
  31
0.0
   0
SOLID
   5
16F
 100
AcDbEntity
   8
LEVEL001
 100
AcDbTrace
   6
CONTINUOUS
  62
8
  10
 97.464218672517
  20
 175.12441741193
  30
0.0
  11
 99.464218672517
  21
 174.77176345051
  31
0.0
  12
 99.464218672517
  22
 175.47707137334
  32
0.0
  13
 99.464218672517
  23
 175.47707137334
  33
0.0
   0
SOLID
   5
170
 100
AcDbEntity
   8
LEVEL001
 100
AcDbTrace
   6
CONTINUOUS
  62
8
  10
 147.46421867248
  20
 175.12441741193
  30
0.0
  11
 145.46421867248
  21
 175.47707137334
  31
0.0
  12
 145.46421867248
  22
 174.77176345051
  32
0.0
  13
 145.46421867248
  23
 174.77176345051
  33
0.0
   0
MTEXT
   5
171
 100
AcDbEntity
   8
LEVEL001
 370
15
  62
8
 100
AcDbMText
  10
 122.46421867250
  20
 176.12441741193
  30
0.0
  40
 2.5000000000000
  41
0.0
  71
8
  72
1
   1
\A1;50
   7
GMM002
   0
ENDBLK
   5
172
 100
AcDbEntity
   8
0
 100
AcDbBlockEnd
   0
BLOCK
   5
173
 100
AcDbEntity
   8
0
 100
AcDbBlockBegin
   2
*D18
  70
65
  10
0.0
  20
0.0
  30
0.0
   3
*D18
   0
LINE
   5
174
 100
AcDbEntity
   8
LEVEL001
 370
15
 100
AcDbLine
   6
CONTINUOUS
  62
8
  10
 111.46421867248
  20
 162.12441741193
  30
0.0
  11
 111.46421867248
  21
 169.12441741193
  31
0.0
   0
LINE
   5
175
 100
AcDbEntity
   8
LEVEL001
 370
15
 100
AcDbLine
   6
CONTINUOUS
  62
8
  10
 147.46421867248
  20
 162.12441741193
  30
0.0
  11
 147.46421867248
  21
 169.12441741193
  31
0.0
   0
LINE
   5
176
 100
AcDbEntity
   8
LEVEL001
 370
15
 100
AcDbLine
   6
CONTINUOUS
  62
8
  10
 111.46421867248
  20
 168.12441741193
  30
0.0
  11
 129.46421867248
  21
 168.12441741193
  31
0.0
   0
LINE
   5
177
 100
AcDbEntity
   8
LEVEL001
 370
15
 100
AcDbLine
   6
CONTINUOUS
  62
8
  10
 147.46421867248
  20
 168.12441741193
  30
0.0
  11
 129.46421867248
  21
 168.12441741193
  31
0.0
   0
SOLID
   5
178
 100
AcDbEntity
   8
LEVEL001
 100
AcDbTrace
   6
CONTINUOUS
  62
8
  10
 111.46421867248
  20
 168.12441741193
  30
0.0
  11
 113.46421867248
  21
 167.77176345051
  31
0.0
  12
 113.46421867248
  22
 168.47707137334
  32
0.0
  13
 113.46421867248
  23
 168.47707137334
  33
0.0
   0
SOLID
   5
179
 100
AcDbEntity
   8
LEVEL001
 100
AcDbTrace
   6
CONTINUOUS
  62
8
  10
 147.46421867248
  20
 168.12441741193
  30
0.0
  11
 145.46421867248
  21
 168.47707137334
  31
0.0
  12
 145.46421867248
  22
 167.77176345051
  32
0.0
  13
 145.46421867248
  23
 167.77176345051
  33
0.0
   0
MTEXT
   5
17A
 100
AcDbEntity
   8
LEVEL001
 370
15
  62
8
 100
AcDbMText
  10
 129.46421867248
  20
 169.12441741193
  30
0.0
  40
 2.5000000000000
  41
0.0
  71
8
  72
1
   1
\A1;36
   7
GMM002
   0
ENDBLK
   5
17B
 100
AcDbEntity
   8
0
 100
AcDbBlockEnd
   0
BLOCK
   5
17C
 100
AcDbEntity
   8
0
 100
AcDbBlockBegin
   2
*D19
  70
65
  10
0.0
  20
0.0
  30
0.0
   3
*D19
   0
LINE
   5
17D
 100
AcDbEntity
   8
LEVEL001
 370
15
 100
AcDbLine
   6
CONTINUOUS
  62
8
  10
 99.022497174608
  20
 154.22821734828
  30
0.0
  11
 153.45924080956
  21
 154.22821734828
  31
0.0
   0
LINE
   5
17E
 100
AcDbEntity
   8
LEVEL001
 370
15
 100
AcDbLine
   6
CONTINUOUS
  62
8
  10
 152.45924080956
  20
 154.22821734828
  30
0.0
  11
 152.45924080956
  21
 156.92631738010
  31
0.0
   0
LINE
   5
17F
 100
AcDbEntity
   8
LEVEL001
 370
15
 100
AcDbLine
   6
CONTINUOUS
  62
8
  10
 152.45924080956
  20
 159.62441741193
  30
0.0
  11
 152.45924080956
  21
 156.92631738010
  31
0.0
   0
SOLID
   5
180
 100
AcDbEntity
   8
LEVEL001
 100
AcDbTrace
   6
CONTINUOUS
  62
8
  10
 152.45924080956
  20
 154.22821734828
  30
0.0
  11
 152.81189477098
  21
 156.22821734828
  31
0.0
  12
 152.10658684814
  22
 156.22821734828
  32
0.0
  13
 152.10658684814
  23
 156.22821734828
  33
0.0
   0
SOLID
   5
181
 100
AcDbEntity
   8
LEVEL001
 100
AcDbTrace
   6
CONTINUOUS
  62
8
  10
 152.45924080956
  20
 159.62441741193
  30
0.0
  11
 152.10658684814
  21
 157.62441741193
  31
0.0
  12
 152.81189477098
  22
 157.62441741193
  32
0.0
  13
 152.81189477098
  23
 157.62441741193
  33
0.0
   0
MTEXT
   5
182
 100
AcDbEntity
   8
LEVEL001
 370
15
  62
8
 100
AcDbMText
  10
 151.45924080956
  20
 156.92631738010
  30
0.0
  40
 2.5000000000000
  41
0.0
  71
8
  72
1
   1
\A1;5.5
   7
GMM002
  11
0.0
  21
 1.0000000000000
  31
0.0
   0
ENDBLK
   5
183
 100
AcDbEntity
   8
0
 100
AcDbBlockEnd
   0
BLOCK
   5
184
 100
AcDbEntity
   8
0
 100
AcDbBlockBegin
   2
*D20
  70
65
  10
0.0
  20
0.0
  30
0.0
   3
*D20
   0
LINE
   5
185
 100
AcDbEntity
   8
LEVEL001
 370
15
 100
AcDbLine
   6
CONTINUOUS
  62
8
  10
 148.46421867248
  20
 159.62441741193
  30
0.0
  11
 153.45924080956
  21
 159.62441741193
  31
0.0
   0
LINE
   5
186
 100
AcDbEntity
   8
LEVEL001
 370
15
 100
AcDbLine
   6
CONTINUOUS
  62
8
  10
 148.46421867248
  20
 161.12441741193
  30
0.0
  11
 153.45924080956
  21
 161.12441741193
  31
0.0
   0
LINE
   5
187
 100
AcDbEntity
   8
LEVEL001
 370
15
 100
AcDbLine
   6
CONTINUOUS
  62
8
  10
 152.45924080956
  20
 159.62441741193
  30
0.0
  11
 152.45924080956
  21
 160.37441741193
  31
0.0
   0
LINE
   5
188
 100
AcDbEntity
   8
LEVEL001
 370
15
 100
AcDbLine
   6
CONTINUOUS
  62
8
  10
 152.45924080956
  20
 167.65275653425
  30
0.0
  11
 152.45924080956
  21
 160.37441741193
  31
0.0
   0
SOLID
   5
189
 100
AcDbEntity
   8
LEVEL001
 100
AcDbTrace
   6
CONTINUOUS
  62
8
  10
 152.45924080956
  20
 161.12441741193
  30
0.0
  11
 152.81189477098
  21
 163.12441741193
  31
0.0
  12
 152.10658684814
  22
 163.12441741193
  32
0.0
  13
 152.10658684814
  23
 163.12441741193
  33
0.0
   0
MTEXT
   5
18A
 100
AcDbEntity
   8
LEVEL001
 370
15
  62
8
 100
AcDbMText
  10
 151.38876178741
  20
 162.15275653425
  30
0.0
  40
 2.5000000000000
  41
0.0
  71
7
  72
1
   1
\A1;1.5
   7
GMM002
  11
0.0
  21
 1.0000000000000
  31
0.0
   0
ENDBLK
   5
18B
 100
AcDbEntity
   8
0
 100
AcDbBlockEnd
   0
BLOCK
   5
18C
 100
AcDbEntity
   8
0
 100
AcDbBlockBegin
   2
*D21
  70
65
  10
0.0
  20
0.0
  30
0.0
   3
*D21
   0
LINE
   5
18D
 100
AcDbEntity
   8
LEVEL001
 370
15
 100
AcDbLine
   6
CONTINUOUS
  62
8
  10
 34.124999999950
  20
 94.558281952318
  30
0.0
  11
 34.124999999950
  21
 106.22494861898
  31
0.0
   0
LINE
   5
18E
 100
AcDbEntity
   8
LEVEL001
 370
15
 100
AcDbLine
   6
CONTINUOUS
  62
8
  10
 69.124999999950
  20
 94.224948618983
  30
0.0
  11
 69.124999999950
  21
 106.22494861898
  31
0.0
   0
LINE
   5
18F
 100
AcDbEntity
   8
LEVEL001
 370
15
 100
AcDbLine
   6
CONTINUOUS
  62
8
  10
 34.124999999950
  20
 105.22494861898
  30
0.0
  11
 51.624999999950
  21
 105.22494861898
  31
0.0
   0
LINE
   5
190
 100
AcDbEntity
   8
LEVEL001
 370
15
 100
AcDbLine
   6
CONTINUOUS
  62
8
  10
 69.124999999950
  20
 105.22494861898
  30
0.0
  11
 51.624999999950
  21
 105.22494861898
  31
0.0
   0
SOLID
   5
191
 100
AcDbEntity
   8
LEVEL001
 100
AcDbTrace
   6
CONTINUOUS
  62
8
  10
 34.124999999950
  20
 105.22494861898
  30
0.0
  11
 36.124999999950
  21
 104.87229465757
  31
0.0
  12
 36.124999999950
  22
 105.57760258040
  32
0.0
  13
 36.124999999950
  23
 105.57760258040
  33
0.0
   0
SOLID
   5
192
 100
AcDbEntity
   8
LEVEL001
 100
AcDbTrace
   6
CONTINUOUS
  62
8
  10
 69.124999999950
  20
 105.22494861898
  30
0.0
  11
 67.124999999950
  21
 105.57760258040
  31
0.0
  12
 67.124999999950
  22
 104.87229465757
  32
0.0
  13
 67.124999999950
  23
 104.87229465757
  33
0.0
   0
MTEXT
   5
193
 100
AcDbEntity
   8
LEVEL001
 370
15
  62
8
 100
AcDbMText
  10
 51.624999999950
  20
 106.22494861898
  30
0.0
  40
 2.5000000000000
  41
0.0
  71
8
  72
1
   1
\A1;35
   7
GMM002
   0
ENDBLK
   5
194
 100
AcDbEntity
   8
0
 100
AcDbBlockEnd
   0
BLOCK
   5
195
 100
AcDbEntity
   8
0
 100
AcDbBlockBegin
   2
*D22
  70
65
  10
0.0
  20
0.0
  30
0.0
   3
*D22
   0
LINE
   5
196
 100
AcDbEntity
   8
LEVEL001
 370
15
 100
AcDbLine
   6
CONTINUOUS
  62
8
  10
 70.124999999950
  20
 93.224948618983
  30
0.0
  11
 76.194684694639
  21
 93.224948618983
  31
0.0
   0
LINE
   5
197
 100
AcDbEntity
   8
LEVEL001
 370
15
 100
AcDbLine
   6
CONTINUOUS
  62
8
  10
 65.296572875204
  20
 97.224948618983
  30
0.0
  11
 76.194684694639
  21
 97.224948618983
  31
0.0
   0
LINE
   5
198
 100
AcDbEntity
   8
LEVEL001
 370
15
 100
AcDbLine
   6
CONTINUOUS
  62
8
  10
 75.194684694639
  20
 90.724948618983
  30
0.0
  11
 75.194684694639
  21
 95.224948618983
  31
0.0
   0
LINE
   5
199
 100
AcDbEntity
   8
LEVEL001
 370
15
 100
AcDbLine
   6
CONTINUOUS
  62
8
  10
 75.194684694639
  20
 99.724948618983
  30
0.0
  11
 75.194684694639
  21
 95.224948618983
  31
0.0
   0
SOLID
   5
19A
 100
AcDbEntity
   8
LEVEL001
 100
AcDbTrace
   6
CONTINUOUS
  62
8
  10
 75.194684694639
  20
 93.224948618983
  30
0.0
  11
 74.842030733222
  21
 91.224948618983
  31
0.0
  12
 75.547338656056
  22
 91.224948618983
  32
0.0
  13
 75.547338656056
  23
 91.224948618983
  33
0.0
   0
SOLID
   5
19B
 100
AcDbEntity
   8
LEVEL001
 100
AcDbTrace
   6
CONTINUOUS
  62
8
  10
 75.194684694639
  20
 97.224948618983
  30
0.0
  11
 75.547338656056
  21
 99.224948618983
  31
0.0
  12
 74.842030733222
  22
 99.224948618983
  32
0.0
  13
 74.842030733222
  23
 99.224948618983
  33
0.0
   0
MTEXT
   5
19C
 100
AcDbEntity
   8
LEVEL001
 370
15
  62
8
 100
AcDbMText
  10
 74.194684694639
  20
 95.224948618983
  30
0.0
  40
 2.5000000000000
  41
0.0
  71
8
  72
1
   1
\A1;4
   7
GMM002
  11
0.0
  21
 1.0000000000000
  31
0.0
   0
ENDBLK
   5
19D
 100
AcDbEntity
   8
0
 100
AcDbBlockEnd
   0
BLOCK
   5
19E
 100
AcDbEntity
   8
0
 100
AcDbBlockBegin
   2
*D23
  70
65
  10
0.0
  20
0.0
  30
0.0
   3
*D23
   0
LINE
   5
19F
 100
AcDbEntity
   8
LEVEL001
 370
15
 100
AcDbLine
   6
CONTINUOUS
  62
8
  10
 33.417893218763
  20
 92.517841837797
  30
0.0
  11
 30.187762581698
  21
 89.287711200731
  31
0.0
   0
LINE
   5
1A0
 100
AcDbEntity
   8
LEVEL001
 370
15
 100
AcDbLine
   6
CONTINUOUS
  62
8
  10
 34.478553390543
  20
 91.457181666017
  30
0.0
  11
 31.248422753478
  21
 88.227051028951
  31
0.0
   0
LINE
   5
1A1
 100
AcDbEntity
   8
LEVEL001
 370
15
 100
AcDbLine
   6
CONTINUOUS
  62
8
  10
 25.735734139546
  20
 95.153953205256
  30
0.0
  11
 31.425199448774
  21
 89.464487896028
  31
0.0
   0
LINE
   5
1A2
 100
AcDbEntity
   8
LEVEL001
 370
15
 100
AcDbLine
   6
CONTINUOUS
  62
8
  10
 33.723296487631
  20
 87.166390857171
  30
0.0
  11
 31.425199448774
  21
 89.464487896028
  31
0.0
   0
SOLID
   5
1A3
 100
AcDbEntity
   8
LEVEL001
 100
AcDbTrace
   6
CONTINUOUS
  62
8
  10
 30.894869362884
  20
 89.994817981918
  30
0.0
  11
 29.730019808042
  21
 91.658395551821
  31
0.0
  12
 29.231291792981
  22
 91.159667536761
  32
0.0
  13
 29.231291792981
  23
 91.159667536761
  33
0.0
   0
SOLID
   5
1A4
 100
AcDbEntity
   8
LEVEL001
 100
AcDbTrace
   6
CONTINUOUS
  62
8
  10
 31.955529534664
  20
 88.934157810138
  30
0.0
  11
 33.120379089507
  21
 87.270580240234
  31
0.0
  12
 33.619107104568
  22
 87.769308255295
  32
0.0
  13
 33.619107104568
  23
 87.769308255295
  33
0.0
   0
MTEXT
   5
1A5
 100
AcDbEntity
   8
LEVEL001
 370
15
  62
8
 100
AcDbMText
  10
 30.226569286529
  20
 91.866613759187
  30
0.0
  40
 2.5000000000000
  41
0.0
  71
9
  72
1
   1
\A1;1.5
   7
GMM002
  11
 0.70710678118654
  21
-0.70710678118655
  31
0.0
   0
ENDBLK
   5
1A6
 100
AcDbEntity
   8
0
 100
AcDbBlockEnd
   0
BLOCK
   5
1A7
 100
AcDbEntity
   8
0
 100
AcDbBlockBegin
   2
*D24
  70
65
  10
0.0
  20
0.0
  30
0.0
   3
*D24
   0
LINE
   5
1A8
 100
AcDbEntity
   8
LEVEL001
 370
15
 100
AcDbLine
   6
CONTINUOUS
  62
8
  10
 98.834699999950
  20
 93.337975556708
  30
0.0
  11
 98.834699999950
  21
 105.95180891289
  31
0.0
   0
LINE
   5
1A9
 100
AcDbEntity
   8
LEVEL001
 370
15
 100
AcDbLine
   6
CONTINUOUS
  62
8
  10
 148.75279999995
  20
 93.337975556708
  30
0.0
  11
 148.75279999995
  21
 105.95180891289
  31
0.0
   0
LINE
   5
1AA
 100
AcDbEntity
   8
LEVEL001
 370
15
 100
AcDbLine
   6
CONTINUOUS
  62
8
  10
 98.834699999950
  20
 104.95180891289
  30
0.0
  11
 123.79374999995
  21
 104.95180891289
  31
0.0
   0
LINE
   5
1AB
 100
AcDbEntity
   8
LEVEL001
 370
15
 100
AcDbLine
   6
CONTINUOUS
  62
8
  10
 148.75279999995
  20
 104.95180891289
  30
0.0
  11
 123.79374999995
  21
 104.95180891289
  31
0.0
   0
SOLID
   5
1AC
 100
AcDbEntity
   8
LEVEL001
 100
AcDbTrace
   6
CONTINUOUS
  62
8
  10
 98.834699999950
  20
 104.95180891289
  30
0.0
  11
 100.83469999995
  21
 104.59915495147
  31
0.0
  12
 100.83469999995
  22
 105.30446287431
  32
0.0
  13
 100.83469999995
  23
 105.30446287431
  33
0.0
   0
SOLID
   5
1AD
 100
AcDbEntity
   8
LEVEL001
 100
AcDbTrace
   6
CONTINUOUS
  62
8
  10
 148.75279999995
  20
 104.95180891289
  30
0.0
  11
 146.75279999995
  21
 105.30446287431
  31
0.0
  12
 146.75279999995
  22
 104.59915495147
  32
0.0
  13
 146.75279999995
  23
 104.59915495147
  33
0.0
   0
MTEXT
   5
1AE
 100
AcDbEntity
   8
LEVEL001
 370
15
  62
8
 100
AcDbMText
  10
 123.79374999995
  20
 105.95180891289
  30
0.0
  40
 2.5000000000000
  41
0.0
  71
8
  72
1
   1
\A1;50
   7
GMM002
   0
ENDBLK
   5
1AF
 100
AcDbEntity
   8
0
 100
AcDbBlockEnd
   0
BLOCK
   5
1B0
 100
AcDbEntity
   8
0
 100
AcDbBlockBegin
   2
*D25
  70
65
  10
0.0
  20
0.0
  30
0.0
   3
*D25
   0
LINE
   5
1B1
 100
AcDbEntity
   8
LEVEL001
 370
15
 100
AcDbLine
   6
CONTINUOUS
  62
8
  10
 149.22703393434
  20
 91.373375556708
  30
0.0
  11
 155.52929999995
  21
 91.373375556708
  31
0.0
   0
LINE
   5
1B2
 100
AcDbEntity
   8
LEVEL001
 370
15
 100
AcDbLine
   6
CONTINUOUS
  62
8
  10
 146.21829468206
  20
 97.304475556708
  30
0.0
  11
 155.52929999995
  21
 97.304475556708
  31
0.0
   0
LINE
   5
1B3
 100
AcDbEntity
   8
LEVEL001
 370
15
 100
AcDbLine
   6
CONTINUOUS
  62
8
  10
 154.52929999995
  20
 91.373375556708
  30
0.0
  11
 154.52929999995
  21
 94.338925556708
  31
0.0
   0
LINE
   5
1B4
 100
AcDbEntity
   8
LEVEL001
 370
15
 100
AcDbLine
   6
CONTINUOUS
  62
8
  10
 154.52929999995
  20
 97.304475556708
  30
0.0
  11
 154.52929999995
  21
 94.338925556708
  31
0.0
   0
SOLID
   5
1B5
 100
AcDbEntity
   8
LEVEL001
 100
AcDbTrace
   6
CONTINUOUS
  62
8
  10
 154.52929999995
  20
 91.373375556708
  30
0.0
  11
 154.88195396137
  21
 93.373375556708
  31
0.0
  12
 154.17664603853
  22
 93.373375556708
  32
0.0
  13
 154.17664603853
  23
 93.373375556708
  33
0.0
   0
SOLID
   5
1B6
 100
AcDbEntity
   8
LEVEL001
 100
AcDbTrace
   6
CONTINUOUS
  62
8
  10
 154.52929999995
  20
 97.304475556708
  30
0.0
  11
 154.17664603853
  21
 95.304475556708
  31
0.0
  12
 154.88195396137
  22
 95.304475556708
  32
0.0
  13
 154.88195396137
  23
 95.304475556708
  33
0.0
   0
MTEXT
   5
1B7
 100
AcDbEntity
   8
LEVEL001
 370
15
  62
8
 100
AcDbMText
  10
 153.52929999995
  20
 94.338925556708
  30
0.0
  40
 2.5000000000000
  41
0.0
  71
8
  72
1
   1
\A1;6
   7
GMM002
  11
0.0
  21
 1.0000000000000
  31
0.0
   0
ENDBLK
   5
1B8
 100
AcDbEntity
   8
0
 100
AcDbBlockEnd
   0
BLOCK
   5
1B9
 100
AcDbEntity
   8
0
 100
AcDbBlockBegin
   2
*D26
  70
65
  10
0.0
  20
0.0
  30
0.0
   3
*D26
   0
LINE
   5
1BA
 100
AcDbEntity
   8
LEVEL001
 370
15
 100
AcDbLine
   6
CONTINUOUS
  62
8
  10
 98.082463221382
  20
 91.676600113476
  30
0.0
  11
 94.276736512216
  21
 87.923779411656
  31
0.0
   0
LINE
   5
1BB
 100
AcDbEntity
   8
LEVEL001
 370
15
 100
AcDbLine
   6
CONTINUOUS
  62
8
  10
 99.179673963712
  20
 90.403327011637
  30
0.0
  11
 95.454236512216
  21
 86.729679411656
  31
0.0
   0
LINE
   5
1BC
 100
AcDbEntity
   8
LEVEL001
 370
15
 100
AcDbLine
   6
CONTINUOUS
  62
8
  10
 93.233424761450
  20
 90.406016425060
  30
0.0
  11
 95.577525240871
  21
 88.028869603425
  31
0.0
   0
LINE
   5
1BD
 100
AcDbEntity
   8
LEVEL001
 370
15
 100
AcDbLine
   6
CONTINUOUS
  62
8
  10
 100.94069568390
  20
 82.590090982597
  30
0.0
  11
 95.577525240871
  21
 88.028869603425
  31
0.0
   0
SOLID
   5
1BE
 100
AcDbEntity
   8
LEVEL001
 100
AcDbTrace
   6
CONTINUOUS
  62
8
  10
 94.988775240871
  20
 88.625919603425
  30
0.0
  11
 93.835598135676
  21
 90.297609580830
  31
0.0
  12
 93.333391578992
  22
 89.802384540636
  32
0.0
  13
 93.333391578992
  23
 89.802384540636
  33
0.0
   0
SOLID
   5
1BF
 100
AcDbEntity
   8
LEVEL001
 100
AcDbTrace
   6
CONTINUOUS
  62
8
  10
 96.166275240871
  20
 87.431819603425
  30
0.0
  11
 97.319452346065
  21
 85.760129626019
  31
0.0
  12
 97.821658902749
  22
 86.255354666213
  32
0.0
  13
 97.821658902749
  23
 86.255354666213
  33
0.0
   0
MTEXT
   5
1C0
 100
AcDbEntity
   8
LEVEL001
 370
15
  62
8
 100
AcDbMText
  10
 97.803844769929
  20
 87.221146520749
  30
0.0
  40
 2.5000000000000
  41
0.0
  71
7
  72
1
   1
\A1;1.5
   7
GMM002
  11
 0.70214019176824
  21
-0.71203872865432
  31
0.0
   0
ENDBLK
   5
1C1
 100
AcDbEntity
   8
0
 100
AcDbBlockEnd
   0
BLOCK
   5
1C2
 100
AcDbEntity
   8
0
 100
AcDbBlockBegin
   2
*D27
  70
65
  10
0.0
  20
0.0
  30
0.0
   3
*D27
   0
LINE
   5
1C3
 100
AcDbEntity
   8
LEVEL001
 370
15
 100
AcDbLine
   6
CONTINUOUS
  62
8
  10
 289.87499999995
  20
 21.698445030146
  30
0.0
  11
 295.54618435429
  21
 21.698445030146
  31
0.0
   0
LINE
   5
1C4
 100
AcDbEntity
   8
LEVEL001
 370
15
 100
AcDbLine
   6
CONTINUOUS
  62
8
  10
 287.62499999995
  20
 41.698445030146
  30
0.0
  11
 295.54618435429
  21
 41.698445030146
  31
0.0
   0
LINE
   5
1C5
 100
AcDbEntity
   8
LEVEL001
 370
15
 100
AcDbLine
   6
CONTINUOUS
  62
8
  10
 294.54618435429
  20
 21.698445030146
  30
0.0
  11
 294.54618435429
  21
 31.698445030146
  31
0.0
   0
LINE
   5
1C6
 100
AcDbEntity
   8
LEVEL001
 370
15
 100
AcDbLine
   6
CONTINUOUS
  62
8
  10
 294.54618435429
  20
 41.698445030146
  30
0.0
  11
 294.54618435429
  21
 31.698445030146
  31
0.0
   0
SOLID
   5
1C7
 100
AcDbEntity
   8
LEVEL001
 100
AcDbTrace
   6
CONTINUOUS
  62
8
  10
 294.54618435429
  20
 21.698445030146
  30
0.0
  11
 294.89883831570
  21
 23.698445030146
  31
0.0
  12
 294.19353039287
  22
 23.698445030146
  32
0.0
  13
 294.19353039287
  23
 23.698445030146
  33
0.0
   0
SOLID
   5
1C8
 100
AcDbEntity
   8
LEVEL001
 100
AcDbTrace
   6
CONTINUOUS
  62
8
  10
 294.54618435429
  20
 41.698445030146
  30
0.0
  11
 294.19353039287
  21
 39.698445030146
  31
0.0
  12
 294.89883831570
  22
 39.698445030146
  32
0.0
  13
 294.89883831570
  23
 39.698445030146
  33
0.0
   0
MTEXT
   5
1C9
 100
AcDbEntity
   8
LEVEL001
 370
15
  62
8
 100
AcDbMText
  10
 293.54618435429
  20
 31.698445030146
  30
0.0
  40
 2.5000000000000
  41
0.0
  71
8
  72
1
   1
\A1;20
   7
GMM002
  11
0.0
  21
 1.0000000000000
  31
0.0
   0
ENDBLK
   5
1CA
 100
AcDbEntity
   8
0
 100
AcDbBlockEnd
   0
BLOCK
   5
1CB
 100
AcDbEntity
   8
0
 100
AcDbBlockBegin
   2
*D28
  70
65
  10
0.0
  20
0.0
  30
0.0
   3
*D28
   0
LINE
   5
1CC
 100
AcDbEntity
   8
LEVEL001
 370
15
 100
AcDbLine
   6
CONTINUOUS
  62
8
  10
 286.87499999995
  20
 20.698445030146
  30
0.0
  11
 286.87499999995
  21
 15.294993194406
  31
0.0
   0
LINE
   5
1CD
 100
AcDbEntity
   8
LEVEL001
 370
15
 100
AcDbLine
   6
CONTINUOUS
  62
8
  10
 288.37499999995
  20
 20.698445030146
  30
0.0
  11
 288.37499999995
  21
 15.294993194406
  31
0.0
   0
LINE
   5
1CE
 100
AcDbEntity
   8
LEVEL001
 370
15
 100
AcDbLine
   6
CONTINUOUS
  62
8
  10
 284.37499999995
  20
 16.294993194406
  30
0.0
  11
 287.62499999995
  21
 16.294993194406
  31
0.0
   0
LINE
   5
1CF
 100
AcDbEntity
   8
LEVEL001
 370
15
 100
AcDbLine
   6
CONTINUOUS
  62
8
  10
 295.92785134186
  20
 16.294993194406
  30
0.0
  11
 287.62499999995
  21
 16.294993194406
  31
0.0
   0
SOLID
   5
1D0
 100
AcDbEntity
   8
LEVEL001
 100
AcDbTrace
   6
CONTINUOUS
  62
8
  10
 286.87499999995
  20
 16.294993194406
  30
0.0
  11
 284.87499999995
  21
 16.647647155823
  31
0.0
  12
 284.87499999995
  22
 15.942339232989
  32
0.0
  13
 284.87499999995
  23
 15.942339232989
  33
0.0
   0
SOLID
   5
1D1
 100
AcDbEntity
   8
LEVEL001
 100
AcDbTrace
   6
CONTINUOUS
  62
8
  10
 288.37499999995
  20
 16.294993194406
  30
0.0
  11
 290.37499999995
  21
 15.942339232989
  31
0.0
  12
 290.37499999995
  22
 16.647647155823
  32
0.0
  13
 290.37499999995
  23
 16.647647155823
  33
0.0
   0
MTEXT
   5
1D2
 100
AcDbEntity
   8
LEVEL001
 370
15
  62
8
 100
AcDbMText
  10
 290.42785134186
  20
 17.289548669467
  30
0.0
  40
 2.5000000000000
  41
0.0
  71
7
  72
1
   1
\A1;1.5
   7
GMM002
   0
ENDBLK
   5
1D3
 100
AcDbEntity
   8
0
 100
AcDbBlockEnd
   0
BLOCK
   5
1D4
 100
AcDbEntity
   8
0
 100
AcDbBlockBegin
   2
*D29
  70
65
  10
0.0
  20
0.0
  30
0.0
   3
*D29
   0
LINE
   5
1D5
 100
AcDbEntity
   8
LEVEL001
 370
15
 100
AcDbLine
   6
CONTINUOUS
  62
8
  10
 248.37499999995
  20
 28.477401430723
  30
0.0
  11
 248.37499999995
  21
 49.628493145178
  31
0.0
   0
LINE
   5
1D6
 100
AcDbEntity
   8
LEVEL001
 370
15
 100
AcDbLine
   6
CONTINUOUS
  62
8
  10
 288.37499999995
  20
 40.448445030146
  30
0.0
  11
 288.37499999995
  21
 49.628493145178
  31
0.0
   0
LINE
   5
1D7
 100
AcDbEntity
   8
LEVEL001
 370
15
 100
AcDbLine
   6
CONTINUOUS
  62
8
  10
 248.37499999995
  20
 48.628493145178
  30
0.0
  11
 268.37499999995
  21
 48.628493145178
  31
0.0
   0
LINE
   5
1D8
 100
AcDbEntity
   8
LEVEL001
 370
15
 100
AcDbLine
   6
CONTINUOUS
  62
8
  10
 288.37499999995
  20
 48.628493145178
  30
0.0
  11
 268.37499999995
  21
 48.628493145178
  31
0.0
   0
SOLID
   5
1D9
 100
AcDbEntity
   8
LEVEL001
 100
AcDbTrace
   6
CONTINUOUS
  62
8
  10
 248.37499999995
  20
 48.628493145178
  30
0.0
  11
 250.37499999995
  21
 48.275839183761
  31
0.0
  12
 250.37499999995
  22
 48.981147106595
  32
0.0
  13
 250.37499999995
  23
 48.981147106595
  33
0.0
   0
SOLID
   5
1DA
 100
AcDbEntity
   8
LEVEL001
 100
AcDbTrace
   6
CONTINUOUS
  62
8
  10
 288.37499999995
  20
 48.628493145178
  30
0.0
  11
 286.37499999995
  21
 48.981147106595
  31
0.0
  12
 286.37499999995
  22
 48.275839183761
  32
0.0
  13
 286.37499999995
  23
 48.275839183761
  33
0.0
   0
MTEXT
   5
1DB
 100
AcDbEntity
   8
LEVEL001
 370
15
  62
8
 100
AcDbMText
  10
 268.37499999995
  20
 49.628493145178
  30
0.0
  40
 2.5000000000000
  41
0.0
  71
8
  72
1
   1
\A1;40
   7
GMM002
   0
ENDBLK
   5
1DC
 100
AcDbEntity
   8
0
 100
AcDbBlockEnd
   0
BLOCK
   5
1DD
 100
AcDbEntity
   8
0
 100
AcDbBlockBegin
   2
*D30
  70
65
  10
0.0
  20
0.0
  30
0.0
   3
*D30
   0
LINE
   5
1DE
 100
AcDbEntity
   8
LEVEL001
 370
15
 100
AcDbLine
   6
CONTINUOUS
  62
8
  10
 247.37499999995
  20
 21.698445030146
  30
0.0
  11
 243.62981391602
  21
 21.698445030146
  31
0.0
   0
LINE
   5
1DF
 100
AcDbEntity
   8
LEVEL001
 370
15
 100
AcDbLine
   6
CONTINUOUS
  62
8
  10
 247.73514483928
  20
 28.698445030146
  30
0.0
  11
 243.62981391602
  21
 28.698445030146
  31
0.0
   0
LINE
   5
1E0
 100
AcDbEntity
   8
LEVEL001
 370
15
 100
AcDbLine
   6
CONTINUOUS
  62
8
  10
 244.62981391602
  20
 21.698445030146
  30
0.0
  11
 244.62981391602
  21
 25.198445030146
  31
0.0
   0
LINE
   5
1E1
 100
AcDbEntity
   8
LEVEL001
 370
15
 100
AcDbLine
   6
CONTINUOUS
  62
8
  10
 244.62981391602
  20
 28.698445030146
  30
0.0
  11
 244.62981391602
  21
 25.198445030146
  31
0.0
   0
SOLID
   5
1E2
 100
AcDbEntity
   8
LEVEL001
 100
AcDbTrace
   6
CONTINUOUS
  62
8
  10
 244.62981391602
  20
 21.698445030146
  30
0.0
  11
 244.98246787743
  21
 23.698445030146
  31
0.0
  12
 244.27715995460
  22
 23.698445030146
  32
0.0
  13
 244.27715995460
  23
 23.698445030146
  33
0.0
   0
SOLID
   5
1E3
 100
AcDbEntity
   8
LEVEL001
 100
AcDbTrace
   6
CONTINUOUS
  62
8
  10
 244.62981391602
  20
 28.698445030146
  30
0.0
  11
 244.27715995460
  21
 26.698445030146
  31
0.0
  12
 244.98246787743
  22
 26.698445030146
  32
0.0
  13
 244.98246787743
  23
 26.698445030146
  33
0.0
   0
MTEXT
   5
1E4
 100
AcDbEntity
   8
LEVEL001
 370
15
  62
8
 100
AcDbMText
  10
 243.62981391602
  20
 25.198445030146
  30
0.0
  40
 2.5000000000000
  41
0.0
  71
8
  72
1
   1
\A1;7
   7
GMM002
  11
0.0
  21
 1.0000000000000
  31
0.0
   0
ENDBLK
   5
1E5
 100
AcDbEntity
   8
0
 100
AcDbBlockEnd
   0
BLOCK
   5
1E6
 100
AcDbEntity
   8
0
 100
AcDbBlockBegin
   2
*D31
  70
65
  10
0.0
  20
0.0
  30
0.0
   3
*D31
   0
LINE
   5
1E7
 100
AcDbEntity
   8
LEVEL001
 370
15
 100
AcDbLine
   6
CONTINUOUS
  62
8
  10
 217.62499999995
  20
 21.698445030146
  30
0.0
  11
 223.29618435429
  21
 21.698445030146
  31
0.0
   0
LINE
   5
1E8
 100
AcDbEntity
   8
LEVEL001
 370
15
 100
AcDbLine
   6
CONTINUOUS
  62
8
  10
 215.37499999995
  20
 41.698445030146
  30
0.0
  11
 223.29618435429
  21
 41.698445030146
  31
0.0
   0
LINE
   5
1E9
 100
AcDbEntity
   8
LEVEL001
 370
15
 100
AcDbLine
   6
CONTINUOUS
  62
8
  10
 222.29618435429
  20
 21.698445030146
  30
0.0
  11
 222.29618435429
  21
 31.698445030146
  31
0.0
   0
LINE
   5
1EA
 100
AcDbEntity
   8
LEVEL001
 370
15
 100
AcDbLine
   6
CONTINUOUS
  62
8
  10
 222.29618435429
  20
 41.698445030146
  30
0.0
  11
 222.29618435429
  21
 31.698445030146
  31
0.0
   0
SOLID
   5
1EB
 100
AcDbEntity
   8
LEVEL001
 100
AcDbTrace
   6
CONTINUOUS
  62
8
  10
 222.29618435429
  20
 21.698445030146
  30
0.0
  11
 222.64883831570
  21
 23.698445030146
  31
0.0
  12
 221.94353039287
  22
 23.698445030146
  32
0.0
  13
 221.94353039287
  23
 23.698445030146
  33
0.0
   0
SOLID
   5
1EC
 100
AcDbEntity
   8
LEVEL001
 100
AcDbTrace
   6
CONTINUOUS
  62
8
  10
 222.29618435429
  20
 41.698445030146
  30
0.0
  11
 221.94353039287
  21
 39.698445030146
  31
0.0
  12
 222.64883831570
  22
 39.698445030146
  32
0.0
  13
 222.64883831570
  23
 39.698445030146
  33
0.0
   0
MTEXT
   5
1ED
 100
AcDbEntity
   8
LEVEL001
 370
15
  62
8
 100
AcDbMText
  10
 221.29618435429
  20
 31.698445030146
  30
0.0
  40
 2.5000000000000
  41
0.0
  71
8
  72
1
   1
\A1;20
   7
GMM002
  11
0.0
  21
 1.0000000000000
  31
0.0
   0
ENDBLK
   5
1EE
 100
AcDbEntity
   8
0
 100
AcDbBlockEnd
   0
BLOCK
   5
1EF
 100
AcDbEntity
   8
0
 100
AcDbBlockBegin
   2
*D32
  70
65
  10
0.0
  20
0.0
  30
0.0
   3
*D32
   0
LINE
   5
1F0
 100
AcDbEntity
   8
LEVEL001
 370
15
 100
AcDbLine
   6
CONTINUOUS
  62
8
  10
 176.12499999995
  20
 40.448445030146
  30
0.0
  11
 176.12499999995
  21
 49.628493145178
  31
0.0
   0
LINE
   5
1F1
 100
AcDbEntity
   8
LEVEL001
 370
15
 100
AcDbLine
   6
CONTINUOUS
  62
8
  10
 216.12499999995
  20
 40.448445030146
  30
0.0
  11
 216.12499999995
  21
 49.628493145178
  31
0.0
   0
LINE
   5
1F2
 100
AcDbEntity
   8
LEVEL001
 370
15
 100
AcDbLine
   6
CONTINUOUS
  62
8
  10
 176.12499999995
  20
 48.628493145178
  30
0.0
  11
 196.12499999995
  21
 48.628493145178
  31
0.0
   0
LINE
   5
1F3
 100
AcDbEntity
   8
LEVEL001
 370
15
 100
AcDbLine
   6
CONTINUOUS
  62
8
  10
 216.12499999995
  20
 48.628493145178
  30
0.0
  11
 196.12499999995
  21
 48.628493145178
  31
0.0
   0
SOLID
   5
1F4
 100
AcDbEntity
   8
LEVEL001
 100
AcDbTrace
   6
CONTINUOUS
  62
8
  10
 176.12499999995
  20
 48.628493145178
  30
0.0
  11
 178.12499999995
  21
 48.275839183761
  31
0.0
  12
 178.12499999995
  22
 48.981147106595
  32
0.0
  13
 178.12499999995
  23
 48.981147106595
  33
0.0
   0
SOLID
   5
1F5
 100
AcDbEntity
   8
LEVEL001
 100
AcDbTrace
   6
CONTINUOUS
  62
8
  10
 216.12499999995
  20
 48.628493145178
  30
0.0
  11
 214.12499999995
  21
 48.981147106595
  31
0.0
  12
 214.12499999995
  22
 48.275839183761
  32
0.0
  13
 214.12499999995
  23
 48.275839183761
  33
0.0
   0
MTEXT
   5
1F6
 100
AcDbEntity
   8
LEVEL001
 370
15
  62
8
 100
AcDbMText
  10
 196.12499999995
  20
 49.628493145178
  30
0.0
  40
 2.5000000000000
  41
0.0
  71
8
  72
1
   1
\A1;40
   7
GMM002
   0
ENDBLK
   5
1F7
 100
AcDbEntity
   8
0
 100
AcDbBlockEnd
   0
BLOCK
   5
1F8
 100
AcDbEntity
   8
0
 100
AcDbBlockBegin
   2
*D33
  70
65
  10
0.0
  20
0.0
  30
0.0
   3
*D33
   0
LINE
   5
1F9
 100
AcDbEntity
   8
LEVEL001
 370
15
 100
AcDbLine
   6
CONTINUOUS
  62
8
  10
 214.62499999995
  20
 20.698445030146
  30
0.0
  11
 214.62499999995
  21
 15.294993194406
  31
0.0
   0
LINE
   5
1FA
 100
AcDbEntity
   8
LEVEL001
 370
15
 100
AcDbLine
   6
CONTINUOUS
  62
8
  10
 216.12499999995
  20
 20.698445030146
  30
0.0
  11
 216.12499999995
  21
 15.294993194406
  31
0.0
   0
LINE
   5
1FB
 100
AcDbEntity
   8
LEVEL001
 370
15
 100
AcDbLine
   6
CONTINUOUS
  62
8
  10
 212.12499999995
  20
 16.294993194406
  30
0.0
  11
 215.37499999995
  21
 16.294993194406
  31
0.0
   0
LINE
   5
1FC
 100
AcDbEntity
   8
LEVEL001
 370
15
 100
AcDbLine
   6
CONTINUOUS
  62
8
  10
 223.67785134186
  20
 16.294993194406
  30
0.0
  11
 215.37499999995
  21
 16.294993194406
  31
0.0
   0
SOLID
   5
1FD
 100
AcDbEntity
   8
LEVEL001
 100
AcDbTrace
   6
CONTINUOUS
  62
8
  10
 214.62499999995
  20
 16.294993194406
  30
0.0
  11
 212.62499999995
  21
 16.647647155823
  31
0.0
  12
 212.62499999995
  22
 15.942339232989
  32
0.0
  13
 212.62499999995
  23
 15.942339232989
  33
0.0
   0
SOLID
   5
1FE
 100
AcDbEntity
   8
LEVEL001
 100
AcDbTrace
   6
CONTINUOUS
  62
8
  10
 216.12499999995
  20
 16.294993194406
  30
0.0
  11
 218.12499999995
  21
 15.942339232989
  31
0.0
  12
 218.12499999995
  22
 16.647647155823
  32
0.0
  13
 218.12499999995
  23
 16.647647155823
  33
0.0
   0
MTEXT
   5
1FF
 100
AcDbEntity
   8
LEVEL001
 370
15
  62
8
 100
AcDbMText
  10
 218.17785134186
  20
 17.289548669467
  30
0.0
  40
 2.5000000000000
  41
0.0
  71
7
  72
1
   1
\A1;1.5
   7
GMM002
   0
ENDBLK
   5
200
 100
AcDbEntity
   8
0
 100
AcDbBlockEnd
   0
BLOCK
   5
201
 100
AcDbEntity
   8
0
 100
AcDbBlockBegin
   2
*D34
  70
65
  10
0.0
  20
0.0
  30
0.0
   3
*D34
   0
LINE
   5
202
 100
AcDbEntity
   8
LEVEL001
 370
15
 100
AcDbLine
   6
CONTINUOUS
  62
8
  10
 137.37499999995
  20
 20.698445030146
  30
0.0
  11
 137.37499999995
  21
 15.294993194406
  31
0.0
   0
LINE
   5
203
 100
AcDbEntity
   8
LEVEL001
 370
15
 100
AcDbLine
   6
CONTINUOUS
  62
8
  10
 138.87499999995
  20
 20.698445030146
  30
0.0
  11
 138.87499999995
  21
 15.294993194406
  31
0.0
   0
LINE
   5
204
 100
AcDbEntity
   8
LEVEL001
 370
15
 100
AcDbLine
   6
CONTINUOUS
  62
8
  10
 134.87499999995
  20
 16.294993194406
  30
0.0
  11
 138.12499999995
  21
 16.294993194406
  31
0.0
   0
LINE
   5
205
 100
AcDbEntity
   8
LEVEL001
 370
15
 100
AcDbLine
   6
CONTINUOUS
  62
8
  10
 146.42785134186
  20
 16.294993194406
  30
0.0
  11
 138.12499999995
  21
 16.294993194406
  31
0.0
   0
SOLID
   5
206
 100
AcDbEntity
   8
LEVEL001
 100
AcDbTrace
   6
CONTINUOUS
  62
8
  10
 137.37499999995
  20
 16.294993194406
  30
0.0
  11
 135.37499999995
  21
 16.647647155823
  31
0.0
  12
 135.37499999995
  22
 15.942339232989
  32
0.0
  13
 135.37499999995
  23
 15.942339232989
  33
0.0
   0
SOLID
   5
207
 100
AcDbEntity
   8
LEVEL001
 100
AcDbTrace
   6
CONTINUOUS
  62
8
  10
 138.87499999995
  20
 16.294993194406
  30
0.0
  11
 140.87499999995
  21
 15.942339232989
  31
0.0
  12
 140.87499999995
  22
 16.647647155823
  32
0.0
  13
 140.87499999995
  23
 16.647647155823
  33
0.0
   0
MTEXT
   5
208
 100
AcDbEntity
   8
LEVEL001
 370
15
  62
8
 100
AcDbMText
  10
 140.92785134186
  20
 17.289548669467
  30
0.0
  40
 2.5000000000000
  41
0.0
  71
7
  72
1
   1
\A1;1.5
   7
GMM002
   0
ENDBLK
   5
209
 100
AcDbEntity
   8
0
 100
AcDbBlockEnd
   0
BLOCK
   5
20A
 100
AcDbEntity
   8
0
 100
AcDbBlockBegin
   2
*D35
  70
65
  10
0.0
  20
0.0
  30
0.0
   3
*D35
   0
LINE
   5
20B
 100
AcDbEntity
   8
LEVEL001
 370
15
 100
AcDbLine
   6
CONTINUOUS
  62
8
  10
 139.87499999995
  20
 21.698445030146
  30
0.0
  11
 145.54618435429
  21
 21.698445030146
  31
0.0
   0
LINE
   5
20C
 100
AcDbEntity
   8
LEVEL001
 370
15
 100
AcDbLine
   6
CONTINUOUS
  62
8
  10
 137.62499999995
  20
 31.698445030146
  30
0.0
  11
 145.54618435429
  21
 31.698445030146
  31
0.0
   0
LINE
   5
20D
 100
AcDbEntity
   8
LEVEL001
 370
15
 100
AcDbLine
   6
CONTINUOUS
  62
8
  10
 144.54618435429
  20
 21.698445030146
  30
0.0
  11
 144.54618435429
  21
 26.698445030146
  31
0.0
   0
LINE
   5
20E
 100
AcDbEntity
   8
LEVEL001
 370
15
 100
AcDbLine
   6
CONTINUOUS
  62
8
  10
 144.54618435429
  20
 31.698445030146
  30
0.0
  11
 144.54618435429
  21
 26.698445030146
  31
0.0
   0
SOLID
   5
20F
 100
AcDbEntity
   8
LEVEL001
 100
AcDbTrace
   6
CONTINUOUS
  62
8
  10
 144.54618435429
  20
 21.698445030146
  30
0.0
  11
 144.89883831570
  21
 23.698445030146
  31
0.0
  12
 144.19353039287
  22
 23.698445030146
  32
0.0
  13
 144.19353039287
  23
 23.698445030146
  33
0.0
   0
SOLID
   5
210
 100
AcDbEntity
   8
LEVEL001
 100
AcDbTrace
   6
CONTINUOUS
  62
8
  10
 144.54618435429
  20
 31.698445030146
  30
0.0
  11
 144.19353039287
  21
 29.698445030146
  31
0.0
  12
 144.89883831570
  22
 29.698445030146
  32
0.0
  13
 144.89883831570
  23
 29.698445030146
  33
0.0
   0
MTEXT
   5
211
 100
AcDbEntity
   8
LEVEL001
 370
15
  62
8
 100
AcDbMText
  10
 143.54618435429
  20
 26.698445030146
  30
0.0
  40
 2.5000000000000
  41
0.0
  71
8
  72
1
   1
\A1;10
   7
GMM002
  11
0.0
  21
 1.0000000000000
  31
0.0
   0
ENDBLK
   5
212
 100
AcDbEntity
   8
0
 100
AcDbBlockEnd
   0
BLOCK
   5
213
 100
AcDbEntity
   8
0
 100
AcDbBlockBegin
   2
*D36
  70
65
  10
0.0
  20
0.0
  30
0.0
   3
*D36
   0
LINE
   5
214
 100
AcDbEntity
   8
LEVEL001
 370
15
 100
AcDbLine
   6
CONTINUOUS
  62
8
  10
 108.87499999995
  20
 30.781778363479
  30
0.0
  11
 108.87499999995
  21
 38.280949479095
  31
0.0
   0
LINE
   5
215
 100
AcDbEntity
   8
LEVEL001
 370
15
 100
AcDbLine
   6
CONTINUOUS
  62
8
  10
 138.87499999995
  20
 30.781778363479
  30
0.0
  11
 138.87499999995
  21
 38.280949479095
  31
0.0
   0
LINE
   5
216
 100
AcDbEntity
   8
LEVEL001
 370
15
 100
AcDbLine
   6
CONTINUOUS
  62
8
  10
 108.87499999995
  20
 37.280949479095
  30
0.0
  11
 123.87499999995
  21
 37.280949479095
  31
0.0
   0
LINE
   5
217
 100
AcDbEntity
   8
LEVEL001
 370
15
 100
AcDbLine
   6
CONTINUOUS
  62
8
  10
 138.87499999995
  20
 37.280949479095
  30
0.0
  11
 123.87499999995
  21
 37.280949479095
  31
0.0
   0
SOLID
   5
218
 100
AcDbEntity
   8
LEVEL001
 100
AcDbTrace
   6
CONTINUOUS
  62
8
  10
 108.87499999995
  20
 37.280949479095
  30
0.0
  11
 110.87499999995
  21
 36.928295517678
  31
0.0
  12
 110.87499999995
  22
 37.633603440512
  32
0.0
  13
 110.87499999995
  23
 37.633603440512
  33
0.0
   0
SOLID
   5
219
 100
AcDbEntity
   8
LEVEL001
 100
AcDbTrace
   6
CONTINUOUS
  62
8
  10
 138.87499999995
  20
 37.280949479095
  30
0.0
  11
 136.87499999995
  21
 37.633603440512
  31
0.0
  12
 136.87499999995
  22
 36.928295517678
  32
0.0
  13
 136.87499999995
  23
 36.928295517678
  33
0.0
   0
MTEXT
   5
21A
 100
AcDbEntity
   8
LEVEL001
 370
15
  62
8
 100
AcDbMText
  10
 123.87499999995
  20
 38.280949479095
  30
0.0
  40
 2.5000000000000
  41
0.0
  71
8
  72
1
   1
\A1;30
   7
GMM002
   0
ENDBLK
   5
21B
 100
AcDbEntity
   8
0
 100
AcDbBlockEnd
   0
BLOCK
   5
21C
 100
AcDbEntity
   8
0
 100
AcDbBlockBegin
   2
*D37
  70
65
  10
0.0
  20
0.0
  30
0.0
   3
*D37
   0
LINE
   5
21D
 100
AcDbEntity
   8
LEVEL001
 370
15
 100
AcDbLine
   6
CONTINUOUS
  62
8
  10
 39.124999999950
  20
 30.448445030146
  30
0.0
  11
 39.124999999950
  21
 38.280949479095
  31
0.0
   0
LINE
   5
21E
 100
AcDbEntity
   8
LEVEL001
 370
15
 100
AcDbLine
   6
CONTINUOUS
  62
8
  10
 64.124999999950
  20
 30.448445030146
  30
0.0
  11
 64.124999999950
  21
 38.280949479095
  31
0.0
   0
LINE
   5
21F
 100
AcDbEntity
   8
LEVEL001
 370
15
 100
AcDbLine
   6
CONTINUOUS
  62
8
  10
 39.124999999950
  20
 37.280949479095
  30
0.0
  11
 51.624999999950
  21
 37.280949479095
  31
0.0
   0
LINE
   5
220
 100
AcDbEntity
   8
LEVEL001
 370
15
 100
AcDbLine
   6
CONTINUOUS
  62
8
  10
 64.124999999950
  20
 37.280949479095
  30
0.0
  11
 51.624999999950
  21
 37.280949479095
  31
0.0
   0
SOLID
   5
221
 100
AcDbEntity
   8
LEVEL001
 100
AcDbTrace
   6
CONTINUOUS
  62
8
  10
 39.124999999950
  20
 37.280949479095
  30
0.0
  11
 41.124999999950
  21
 36.928295517678
  31
0.0
  12
 41.124999999950
  22
 37.633603440512
  32
0.0
  13
 41.124999999950
  23
 37.633603440512
  33
0.0
   0
SOLID
   5
222
 100
AcDbEntity
   8
LEVEL001
 100
AcDbTrace
   6
CONTINUOUS
  62
8
  10
 64.124999999950
  20
 37.280949479095
  30
0.0
  11
 62.124999999950
  21
 37.633603440512
  31
0.0
  12
 62.124999999950
  22
 36.928295517678
  32
0.0
  13
 62.124999999950
  23
 36.928295517678
  33
0.0
   0
MTEXT
   5
223
 100
AcDbEntity
   8
LEVEL001
 370
15
  62
8
 100
AcDbMText
  10
 51.624999999950
  20
 38.280949479095
  30
0.0
  40
 2.5000000000000
  41
0.0
  71
8
  72
1
   1
\A1;25
   7
GMM002
   0
ENDBLK
   5
224
 100
AcDbEntity
   8
0
 100
AcDbBlockEnd
   0
BLOCK
   5
225
 100
AcDbEntity
   8
0
 100
AcDbBlockBegin
   2
*D38
  70
65
  10
0.0
  20
0.0
  30
0.0
   3
*D38
   0
LINE
   5
226
 100
AcDbEntity
   8
LEVEL001
 370
15
 100
AcDbLine
   6
CONTINUOUS
  62
8
  10
 62.624999999950
  20
 20.698445030146
  30
0.0
  11
 62.624999999950
  21
 15.294993194406
  31
0.0
   0
LINE
   5
227
 100
AcDbEntity
   8
LEVEL001
 370
15
 100
AcDbLine
   6
CONTINUOUS
  62
8
  10
 64.124999999950
  20
 20.698445030146
  30
0.0
  11
 64.124999999950
  21
 15.294993194406
  31
0.0
   0
LINE
   5
228
 100
AcDbEntity
   8
LEVEL001
 370
15
 100
AcDbLine
   6
CONTINUOUS
  62
8
  10
 60.124999999950
  20
 16.294993194406
  30
0.0
  11
 63.374999999950
  21
 16.294993194406
  31
0.0
   0
LINE
   5
229
 100
AcDbEntity
   8
LEVEL001
 370
15
 100
AcDbLine
   6
CONTINUOUS
  62
8
  10
 71.677851341857
  20
 16.294993194406
  30
0.0
  11
 63.374999999950
  21
 16.294993194406
  31
0.0
   0
SOLID
   5
22A
 100
AcDbEntity
   8
LEVEL001
 100
AcDbTrace
   6
CONTINUOUS
  62
8
  10
 62.624999999950
  20
 16.294993194406
  30
0.0
  11
 60.624999999950
  21
 16.647647155823
  31
0.0
  12
 60.624999999950
  22
 15.942339232989
  32
0.0
  13
 60.624999999950
  23
 15.942339232989
  33
0.0
   0
SOLID
   5
22B
 100
AcDbEntity
   8
LEVEL001
 100
AcDbTrace
   6
CONTINUOUS
  62
8
  10
 64.124999999950
  20
 16.294993194406
  30
0.0
  11
 66.124999999950
  21
 15.942339232989
  31
0.0
  12
 66.124999999950
  22
 16.647647155823
  32
0.0
  13
 66.124999999950
  23
 16.647647155823
  33
0.0
   0
MTEXT
   5
22C
 100
AcDbEntity
   8
LEVEL001
 370
15
  62
8
 100
AcDbMText
  10
 66.177851341857
  20
 17.289548669467
  30
0.0
  40
 2.5000000000000
  41
0.0
  71
7
  72
1
   1
\A1;1.5
   7
GMM002
   0
ENDBLK
   5
22D
 100
AcDbEntity
   8
0
 100
AcDbBlockEnd
   0
BLOCK
   5
22E
 100
AcDbEntity
   8
0
 100
AcDbBlockBegin
   2
*D39
  70
65
  10
0.0
  20
0.0
  30
0.0
   3
*D39
   0
LINE
   5
22F
 100
AcDbEntity
   8
LEVEL001
 370
15
 100
AcDbLine
   6
CONTINUOUS
  62
8
  10
 65.124999999950
  20
 21.698445030146
  30
0.0
  11
 70.796184354287
  21
 21.698445030146
  31
0.0
   0
LINE
   5
230
 100
AcDbEntity
   8
LEVEL001
 370
15
 100
AcDbLine
   6
CONTINUOUS
  62
8
  10
 62.874999999950
  20
 31.698445030146
  30
0.0
  11
 70.796184354287
  21
 31.698445030146
  31
0.0
   0
LINE
   5
231
 100
AcDbEntity
   8
LEVEL001
 370
15
 100
AcDbLine
   6
CONTINUOUS
  62
8
  10
 69.796184354287
  20
 21.698445030146
  30
0.0
  11
 69.796184354287
  21
 26.698445030146
  31
0.0
   0
LINE
   5
232
 100
AcDbEntity
   8
LEVEL001
 370
15
 100
AcDbLine
   6
CONTINUOUS
  62
8
  10
 69.796184354287
  20
 31.698445030146
  30
0.0
  11
 69.796184354287
  21
 26.698445030146
  31
0.0
   0
SOLID
   5
233
 100
AcDbEntity
   8
LEVEL001
 100
AcDbTrace
   6
CONTINUOUS
  62
8
  10
 69.796184354287
  20
 21.698445030146
  30
0.0
  11
 70.148838315704
  21
 23.698445030146
  31
0.0
  12
 69.443530392870
  22
 23.698445030146
  32
0.0
  13
 69.443530392870
  23
 23.698445030146
  33
0.0
   0
SOLID
   5
234
 100
AcDbEntity
   8
LEVEL001
 100
AcDbTrace
   6
CONTINUOUS
  62
8
  10
 69.796184354287
  20
 31.698445030146
  30
0.0
  11
 69.443530392870
  21
 29.698445030146
  31
0.0
  12
 70.148838315704
  22
 29.698445030146
  32
0.0
  13
 70.148838315704
  23
 29.698445030146
  33
0.0
   0
MTEXT
   5
235
 100
AcDbEntity
   8
LEVEL001
 370
15
  62
8
 100
AcDbMText
  10
 68.796184354287
  20
 26.698445030146
  30
0.0
  40
 2.5000000000000
  41
0.0
  71
8
  72
1
   1
\A1;10
   7
GMM002
  11
0.0
  21
 1.0000000000000
  31
0.0
   0
ENDBLK
   5
236
 100
AcDbEntity
   8
0
 100
AcDbBlockEnd
   0
BLOCK
   5
237
 100
AcDbEntity
   8
0
 100
AcDbBlockBegin
   2
*D40
  70
65
  10
0.0
  20
0.0
  30
0.0
   3
*D40
   0
LINE
   5
238
 100
AcDbEntity
   8
LEVEL001
 370
15
 100
AcDbLine
   6
CONTINUOUS
  62
8
  10
 186.65190939962
  20
 162.44326495876
  30
0.0
  11
 186.65190939962
  21
 169.44326495876
  31
0.0
   0
LINE
   5
239
 100
AcDbEntity
   8
LEVEL001
 370
15
 100
AcDbLine
   6
CONTINUOUS
  62
8
  10
 221.65190939962
  20
 162.44326495876
  30
0.0
  11
 221.65190939962
  21
 169.44326495876
  31
0.0
   0
LINE
   5
23A
 100
AcDbEntity
   8
LEVEL001
 370
15
 100
AcDbLine
   6
CONTINUOUS
  62
8
  10
 186.65190939962
  20
 168.44326495876
  30
0.0
  11
 204.15190939962
  21
 168.44326495876
  31
0.0
   0
LINE
   5
23B
 100
AcDbEntity
   8
LEVEL001
 370
15
 100
AcDbLine
   6
CONTINUOUS
  62
8
  10
 221.65190939962
  20
 168.44326495876
  30
0.0
  11
 204.15190939962
  21
 168.44326495876
  31
0.0
   0
SOLID
   5
23C
 100
AcDbEntity
   8
LEVEL001
 100
AcDbTrace
   6
CONTINUOUS
  62
8
  10
 186.65190939962
  20
 168.44326495876
  30
0.0
  11
 188.65190939962
  21
 168.09061099734
  31
0.0
  12
 188.65190939962
  22
 168.79591892018
  32
0.0
  13
 188.65190939962
  23
 168.79591892018
  33
0.0
   0
SOLID
   5
23D
 100
AcDbEntity
   8
LEVEL001
 100
AcDbTrace
   6
CONTINUOUS
  62
8
  10
 221.65190939962
  20
 168.44326495876
  30
0.0
  11
 219.65190939962
  21
 168.79591892018
  31
0.0
  12
 219.65190939962
  22
 168.09061099734
  32
0.0
  13
 219.65190939962
  23
 168.09061099734
  33
0.0
   0
MTEXT
   5
23E
 100
AcDbEntity
   8
LEVEL001
 370
15
  62
8
 100
AcDbMText
  10
 204.15190939962
  20
 169.44326495876
  30
0.0
  40
 2.5000000000000
  41
0.0
  71
8
  72
1
   1
\A1;70
   7
GMM002
   0
ENDBLK
   5
23F
 100
AcDbEntity
   8
0
 100
AcDbBlockEnd
   0
BLOCK
   5
240
 100
AcDbEntity
   8
0
 100
AcDbBlockBegin
   2
*D41
  70
65
  10
0.0
  20
0.0
  30
0.0
   3
*D41
   0
LINE
   5
241
 100
AcDbEntity
   8
LEVEL001
 370
15
 100
AcDbLine
   6
CONTINUOUS
  62
8
  10
 170.81072440988
  20
 157.46027260374
  30
0.0
  11
 166.16833129804
  21
 157.46027260374
  31
0.0
   0
LINE
   5
242
 100
AcDbEntity
   8
LEVEL001
 370
15
 100
AcDbLine
   6
CONTINUOUS
  62
8
  10
 185.65190939962
  20
 161.44326495876
  30
0.0
  11
 166.16833129804
  21
 161.44326495876
  31
0.0
   0
LINE
   5
243
 100
AcDbEntity
   8
LEVEL001
 370
15
 100
AcDbLine
   6
CONTINUOUS
  62
8
  10
 167.16833129804
  20
 154.96027260374
  30
0.0
  11
 167.16833129804
  21
 159.45176878125
  31
0.0
   0
LINE
   5
244
 100
AcDbEntity
   8
LEVEL001
 370
15
 100
AcDbLine
   6
CONTINUOUS
  62
8
  10
 167.16833129804
  20
 163.94326495876
  30
0.0
  11
 167.16833129804
  21
 159.45176878125
  31
0.0
   0
SOLID
   5
245
 100
AcDbEntity
   8
LEVEL001
 100
AcDbTrace
   6
CONTINUOUS
  62
8
  10
 167.16833129804
  20
 157.46027260374
  30
0.0
  11
 166.81567733662
  21
 155.46027260374
  31
0.0
  12
 167.52098525945
  22
 155.46027260374
  32
0.0
  13
 167.52098525945
  23
 155.46027260374
  33
0.0
   0
SOLID
   5
246
 100
AcDbEntity
   8
LEVEL001
 100
AcDbTrace
   6
CONTINUOUS
  62
8
  10
 167.16833129804
  20
 161.44326495876
  30
0.0
  11
 167.52098525945
  21
 163.44326495876
  31
0.0
  12
 166.81567733662
  22
 163.44326495876
  32
0.0
  13
 166.81567733662
  23
 163.44326495876
  33
0.0
   0
MTEXT
   5
247
 100
AcDbEntity
   8
LEVEL001
 370
15
  62
8
 100
AcDbMText
  10
 166.16833129804
  20
 159.45176878125
  30
0.0
  40
 2.5000000000000
  41
0.0
  71
8
  72
1
   1
\A1;8
   7
GMM002
  11
0.0
  21
 1.0000000000000
  31
0.0
   0
ENDBLK
   5
248
 100
AcDbEntity
   8
0
 100
AcDbBlockEnd
   0
BLOCK
   5
249
 100
AcDbEntity
   8
0
 100
AcDbBlockBegin
   2
*D42
  70
65
  10
0.0
  20
0.0
  30
0.0
   3
*D42
   0
LINE
   5
24A
 100
AcDbEntity
   8
LEVEL001
 370
15
 100
AcDbLine
   6
CONTINUOUS
  62
8
  10
 171.65190939962
  20
 159.69326495877
  30
0.0
  11
 171.65190939962
  21
 175.67698723229
  31
0.0
   0
LINE
   5
24B
 100
AcDbEntity
   8
LEVEL001
 370
15
 100
AcDbLine
   6
CONTINUOUS
  62
8
  10
 221.65190939962
  20
 165.94326495876
  30
0.0
  11
 221.65190939962
  21
 175.67698723229
  31
0.0
   0
LINE
   5
24C
 100
AcDbEntity
   8
LEVEL001
 370
15
 100
AcDbLine
   6
CONTINUOUS
  62
8
  10
 171.65190939962
  20
 174.67698723229
  30
0.0
  11
 196.65190939962
  21
 174.67698723229
  31
0.0
   0
LINE
   5
24D
 100
AcDbEntity
   8
LEVEL001
 370
15
 100
AcDbLine
   6
CONTINUOUS
  62
8
  10
 221.65190939962
  20
 174.67698723229
  30
0.0
  11
 196.65190939962
  21
 174.67698723229
  31
0.0
   0
SOLID
   5
24E
 100
AcDbEntity
   8
LEVEL001
 100
AcDbTrace
   6
CONTINUOUS
  62
8
  10
 171.65190939962
  20
 174.67698723229
  30
0.0
  11
 173.65190939962
  21
 174.32433327087
  31
0.0
  12
 173.65190939962
  22
 175.02964119371
  32
0.0
  13
 173.65190939962
  23
 175.02964119371
  33
0.0
   0
SOLID
   5
24F
 100
AcDbEntity
   8
LEVEL001
 100
AcDbTrace
   6
CONTINUOUS
  62
8
  10
 221.65190939962
  20
 174.67698723229
  30
0.0
  11
 219.65190939962
  21
 175.02964119371
  31
0.0
  12
 219.65190939962
  22
 174.32433327087
  32
0.0
  13
 219.65190939962
  23
 174.32433327087
  33
0.0
   0
MTEXT
   5
250
 100
AcDbEntity
   8
LEVEL001
 370
15
  62
8
 100
AcDbMText
  10
 196.65190939962
  20
 175.67698723229
  30
0.0
  40
 2.5000000000000
  41
0.0
  71
8
  72
1
   1
\A1;100
   7
GMM002
   0
ENDBLK
   5
251
 100
AcDbEntity
   8
0
 100
AcDbBlockEnd
   0
BLOCK
   5
252
 100
AcDbEntity
   8
0
 100
AcDbBlockBegin
   2
*D43
  70
65
  10
0.0
  20
0.0
  30
0.0
   3
*D43
   0
LINE
   5
253
 100
AcDbEntity
   8
LEVEL001
 370
15
 100
AcDbLine
   6
CONTINUOUS
  62
8
  10
 173.93926033610
  20
 157.44326495876
  30
0.0
  11
 228.12686320997
  21
 157.44326495876
  31
0.0
   0
LINE
   5
254
 100
AcDbEntity
   8
LEVEL001
 370
15
 100
AcDbLine
   6
CONTINUOUS
  62
8
  10
 227.12686320997
  20
 150.12790684126
  30
0.0
  11
 227.12686320997
  21
 159.06826495876
  31
0.0
   0
LINE
   5
255
 100
AcDbEntity
   8
LEVEL001
 370
15
 100
AcDbLine
   6
CONTINUOUS
  62
8
  10
 227.12686320997
  20
 160.69326495876
  30
0.0
  11
 227.12686320997
  21
 159.06826495876
  31
0.0
   0
SOLID
   5
256
 100
AcDbEntity
   8
LEVEL001
 100
AcDbTrace
   6
CONTINUOUS
  62
8
  10
 227.12686320997
  20
 157.44326495876
  30
0.0
  11
 226.77420924856
  21
 155.44326495876
  31
0.0
  12
 227.47951717139
  22
 155.44326495876
  32
0.0
  13
 227.47951717139
  23
 155.44326495876
  33
0.0
   0
MTEXT
   5
257
 100
AcDbEntity
   8
LEVEL001
 370
15
  62
8
 100
AcDbMText
  10
 226.51571304935
  20
 155.62790684126
  30
0.0
  40
 2.5000000000000
  41
0.0
  71
9
  72
1
   1
\A1;6.5
   7
GMM002
  11
0.0
  21
 1.0000000000000
  31
0.0
   0
ENDBLK
   5
258
 100
AcDbEntity
   8
0
 100
AcDbBlockEnd
   0
BLOCK
   5
259
 100
AcDbEntity
   8
0
 100
AcDbBlockBegin
   2
*D44
  70
65
  10
0.0
  20
0.0
  30
0.0
   3
*D44
   0
LINE
   5
25A
 100
AcDbEntity
   8
LEVEL001
 370
15
 100
AcDbLine
   6
CONTINUOUS
  62
8
  10
 222.65190939962
  20
 160.69326495876
  30
0.0
  11
 228.12686320997
  21
 160.69326495876
  31
0.0
   0
LINE
   5
25B
 100
AcDbEntity
   8
LEVEL001
 370
15
 100
AcDbLine
   6
CONTINUOUS
  62
8
  10
 222.65190939962
  20
 161.44326495876
  30
0.0
  11
 228.12686320997
  21
 161.44326495876
  31
0.0
   0
LINE
   5
25C
 100
AcDbEntity
   8
LEVEL001
 370
15
 100
AcDbLine
   6
CONTINUOUS
  62
8
  10
 227.12686320997
  20
 160.69326495876
  30
0.0
  11
 227.12686320997
  21
 161.06826495876
  31
0.0
   0
LINE
   5
25D
 100
AcDbEntity
   8
LEVEL001
 370
15
 100
AcDbLine
   6
CONTINUOUS
  62
8
  10
 227.12686320997
  20
 167.97160408108
  30
0.0
  11
 227.12686320997
  21
 161.06826495876
  31
0.0
   0
INSERT
   5
25E
 100
AcDbEntity
   8
LEVEL001
   6
CONTINUOUS
  62
8
 100
AcDbBlockReference
   2
_DOT
  10
 227.12686320997
  20
 160.69326495876
  30
0.0
  41
 0.40000000000000
  42
 0.40000000000000
  43
 0.40000000000000
  50
 270.00000000000
   0
SOLID
   5
25F
 100
AcDbEntity
   8
LEVEL001
 100
AcDbTrace
   6
CONTINUOUS
  62
8
  10
 227.12686320997
  20
 161.44326495876
  30
0.0
  11
 227.47951717139
  21
 163.44326495876
  31
0.0
  12
 226.77420924856
  22
 163.44326495876
  32
0.0
  13
 226.77420924856
  23
 163.44326495876
  33
0.0
   0
MTEXT
   5
260
 100
AcDbEntity
   8
LEVEL001
 370
15
  62
8
 100
AcDbMText
  10
 226.05638418782
  20
 162.47160408108
  30
0.0
  40
 2.5000000000000
  41
0.0
  71
7
  72
1
   1
\A1;1.5
   7
GMM002
  11
0.0
  21
 1.0000000000000
  31
0.0
   0
ENDBLK
   5
261
 100
AcDbEntity
   8
0
 100
AcDbBlockEnd
   0
BLOCK
   5
262
 100
AcDbEntity
   8
0
 100
AcDbBlockBegin
   2
*D45
  70
65
  10
0.0
  20
0.0
  30
0.0
   3
*D45
   0
LINE
   5
263
 100
AcDbEntity
   8
LEVEL001
 370
15
 100
AcDbLine
   6
CONTINUOUS
  62
8
  10
 169.83264600399
  20
 95.201944283175
  30
0.0
  11
 169.83264600399
  21
 103.87584822004
  31
0.0
   0
LINE
   5
264
 100
AcDbEntity
   8
LEVEL001
 370
15
 100
AcDbLine
   6
CONTINUOUS
  62
8
  10
 220.44529600399
  20
 96.104566058861
  30
0.0
  11
 220.44529600399
  21
 103.87584822004
  31
0.0
   0
LINE
   5
265
 100
AcDbEntity
   8
LEVEL001
 370
15
 100
AcDbLine
   6
CONTINUOUS
  62
8
  10
 169.83264600399
  20
 102.87584822004
  30
0.0
  11
 195.13897100399
  21
 102.87584822004
  31
0.0
   0
LINE
   5
266
 100
AcDbEntity
   8
LEVEL001
 370
15
 100
AcDbLine
   6
CONTINUOUS
  62
8
  10
 220.44529600399
  20
 102.87584822004
  30
0.0
  11
 195.13897100399
  21
 102.87584822004
  31
0.0
   0
SOLID
   5
267
 100
AcDbEntity
   8
LEVEL001
 100
AcDbTrace
   6
CONTINUOUS
  62
8
  10
 169.83264600399
  20
 102.87584822004
  30
0.0
  11
 171.83264600399
  21
 102.52319425862
  31
0.0
  12
 171.83264600399
  22
 103.22850218145
  32
0.0
  13
 171.83264600399
  23
 103.22850218145
  33
0.0
   0
SOLID
   5
268
 100
AcDbEntity
   8
LEVEL001
 100
AcDbTrace
   6
CONTINUOUS
  62
8
  10
 220.44529600399
  20
 102.87584822004
  30
0.0
  11
 218.44529600399
  21
 103.22850218145
  31
0.0
  12
 218.44529600399
  22
 102.52319425862
  32
0.0
  13
 218.44529600399
  23
 102.52319425862
  33
0.0
   0
MTEXT
   5
269
 100
AcDbEntity
   8
LEVEL001
 370
15
  62
8
 100
AcDbMText
  10
 195.13897100399
  20
 103.87584822004
  30
0.0
  40
 2.5000000000000
  41
0.0
  71
8
  72
1
   1
\A1;100
   7
GMM002
   0
ENDBLK
   5
26A
 100
AcDbEntity
   8
0
 100
AcDbBlockEnd
   0
BLOCK
   5
26B
 100
AcDbEntity
   8
0
 100
AcDbBlockBegin
   2
*D46
  70
65
  10
0.0
  20
0.0
  30
0.0
   3
*D46
   0
LINE
   5
26C
 100
AcDbEntity
   8
LEVEL001
 370
15
 100
AcDbLine
   6
CONTINUOUS
  62
8
  10
 221.76287726428
  20
 93.439048220035
  30
0.0
  11
 226.12554918010
  21
 93.439048220035
  31
0.0
   0
LINE
   5
26D
 100
AcDbEntity
   8
LEVEL001
 370
15
 100
AcDbLine
   6
CONTINUOUS
  62
8
  10
 216.34714661017
  20
 97.473948220035
  30
0.0
  11
 226.12554918010
  21
 97.473948220035
  31
0.0
   0
LINE
   5
26E
 100
AcDbEntity
   8
LEVEL001
 370
15
 100
AcDbLine
   6
CONTINUOUS
  62
8
  10
 225.12554918010
  20
 89.332562122001
  30
0.0
  11
 225.12554918010
  21
 95.456498220035
  31
0.0
   0
LINE
   5
26F
 100
AcDbEntity
   8
LEVEL001
 370
15
 100
AcDbLine
   6
CONTINUOUS
  62
8
  10
 225.12554918010
  20
 99.973948220035
  30
0.0
  11
 225.12554918010
  21
 95.456498220035
  31
0.0
   0
SOLID
   5
270
 100
AcDbEntity
   8
LEVEL001
 100
AcDbTrace
   6
CONTINUOUS
  62
8
  10
 225.12554918010
  20
 93.439048220035
  30
0.0
  11
 224.77289521868
  21
 91.439048220035
  31
0.0
  12
 225.47820314151
  22
 91.439048220035
  32
0.0
  13
 225.47820314151
  23
 91.439048220035
  33
0.0
   0
SOLID
   5
271
 100
AcDbEntity
   8
LEVEL001
 100
AcDbTrace
   6
CONTINUOUS
  62
8
  10
 225.12554918010
  20
 97.473948220035
  30
0.0
  11
 225.47820314151
  21
 99.473948220035
  31
0.0
  12
 224.77289521868
  22
 99.473948220035
  32
0.0
  13
 224.77289521868
  23
 99.473948220035
  33
0.0
   0
MTEXT
   5
272
 100
AcDbEntity
   8
LEVEL001
 370
15
  62
8
 100
AcDbMText
  10
 224.59901981095
  20
 91.832562122001
  30
0.0
  40
 2.5000000000000
  41
0.0
  71
9
  72
1
   1
\A1;8
   7
GMM002
  11
0.0
  21
 1.0000000000000
  31
0.0
   0
ENDBLK
   5
273
 100
AcDbEntity
   8
0
 100
AcDbBlockEnd
   0
BLOCK
   5
274
 100
AcDbEntity
   8
0
 100
AcDbBlockBegin
   2
*D47
  70
65
  10
0.0
  20
0.0
  30
0.0
   3
*D47
   0
LINE
   5
275
 100
AcDbEntity
   8
LEVEL001
 370
15
 100
AcDbLine
   6
CONTINUOUS
  62
8
  10
 168.95676275408
  20
 93.588556432994
  30
0.0
  11
 165.64836170892
  21
 92.080324515188
  31
0.0
   0
LINE
   5
276
 100
AcDbEntity
   8
LEVEL001
 370
15
 100
AcDbLine
   6
CONTINUOUS
  62
8
  10
 169.29392126670
  20
 92.836813268435
  30
0.0
  11
 165.99011170892
  21
 91.330674515188
  31
0.0
   0
LINE
   5
277
 100
AcDbEntity
   8
LEVEL001
 370
15
 100
AcDbLine
   6
CONTINUOUS
  62
8
  10
 165.52124880803
  20
 94.769904837548
  30
0.0
  11
 166.72914538547
  21
 92.120308146165
  31
0.0
   0
LINE
   5
278
 100
AcDbEntity
   8
LEVEL001
 370
15
 100
AcDbLine
   6
CONTINUOUS
  62
8
  10
 169.73765539486
  20
 85.520953271144
  30
0.0
  11
 166.72914538547
  21
 92.120308146165
  31
0.0
   0
SOLID
   5
279
 100
AcDbEntity
   8
LEVEL001
 100
AcDbTrace
   6
CONTINUOUS
  62
8
  10
 166.55827038547
  20
 92.495133146165
  30
0.0
  11
 166.04953602283
  21
 94.461234406216
  31
0.0
  12
 165.40777022421
  22
 94.168666592328
  32
0.0
  13
 165.40777022421
  23
 94.168666592328
  33
0.0
   0
SOLID
   5
27A
 100
AcDbEntity
   8
LEVEL001
 100
AcDbTrace
   6
CONTINUOUS
  62
8
  10
 166.90002038547
  20
 91.745483146165
  30
0.0
  11
 167.40875474811
  21
 89.779381886115
  31
0.0
  12
 168.05052054674
  22
 90.071949700003
  32
0.0
  13
 168.05052054674
  23
 90.071949700003
  33
0.0
   0
MTEXT
   5
27B
 100
AcDbEntity
   8
LEVEL001
 370
15
  62
8
 100
AcDbMText
  10
 168.10854741446
  20
 90.822839134248
  30
0.0
  40
 2.5000000000000
  41
0.0
  71
7
  72
1
   1
\A1;1.5
   7
GMM002
  11
 0.41480863097716
  21
-0.90990867655323
  31
0.0
   0
ENDBLK
   5
27C
 100
AcDbEntity
   8
0
 100
AcDbBlockEnd
   0
ENDSEC
   0
SECTION
   2
ENTITIES
   0
LINE
   5
27D
 100
AcDbEntity
   8
LEVEL002
 370
30
 100
AcDbLine
   6
CONTINUOUS
  62
7
  10
 344.15000000000
  20
 272.07500000000
  30
0.0
  11
 336.95000000000
  21
 272.07500000000
  31
0.0
   0
LINE
   5
27E
 100
AcDbEntity
   8
LEVEL002
 370
30
 100
AcDbLine
   6
CONTINUOUS
  62
7
  10
 336.95000000000
  20
 272.07500000000
  30
0.0
  11
 336.95000000000
  21
 261.27500000000
  31
0.0
   0
LINE
   5
27F
 100
AcDbEntity
   8
LEVEL002
 370
30
 100
AcDbLine
   6
CONTINUOUS
  62
7
  10
 336.95000000000
  20
 261.27500000000
  30
0.0
  11
 340.55000000000
  21
 261.27500000000
  31
0.0
   0
LINE
   5
280
 100
AcDbEntity
   8
LEVEL002
 370
30
 100
AcDbLine
   6
CONTINUOUS
  62
7
  10
 340.55000000000
  20
 261.27500000000
  30
0.0
  11
 340.55000000000
  21
 263.07500000000
  31
0.0
   0
LINE
   5
281
 100
AcDbEntity
   8
LEVEL002
 370
30
 100
AcDbLine
   6
CONTINUOUS
  62
7
  10
 340.55000000000
  20
 263.07500000000
  30
0.0
  11
 344.15000000000
  21
 263.07500000000
  31
0.0
   0
ARC
   5
282
 100
AcDbEntity
   8
LEVEL002
 370
30
   6
CONTINUOUS
  62
7
 100
AcDbCircle
  10
 344.15000000000
  20
 267.57500000000
  30
0.0
  40
 4.5000000000000
 100
AcDbArc
  50
 270.00000000000
  51
 90.000000000000
   0
LINE
   5
283
 100
AcDbEntity
   8
LEVEL002
 370
30
 100
AcDbLine
   6
CONTINUOUS
  62
7
  10
 340.55000000000
  20
 266.67500000000
  30
0.0
  11
 344.15000000000
  21
 266.67500000000
  31
0.0
   0
ARC
   5
284
 100
AcDbEntity
   8
LEVEL002
 370
30
   6
CONTINUOUS
  62
7
 100
AcDbCircle
  10
 344.15000000000
  20
 267.57500000000
  30
0.0
  40
 0.90000000000000
 100
AcDbArc
  50
 270.00000000000
  51
 90.000000000000
   0
LINE
   5
285
 100
AcDbEntity
   8
LEVEL002
 370
30
 100
AcDbLine
   6
CONTINUOUS
  62
7
  10
 344.15000000000
  20
 268.47500000000
  30
0.0
  11
 340.55000000000
  21
 268.47500000000
  31
0.0
   0
LINE
   5
286
 100
AcDbEntity
   8
LEVEL002
 370
30
 100
AcDbLine
   6
CONTINUOUS
  62
7
  10
 340.55000000000
  20
 268.47500000000
  30
0.0
  11
 340.55000000000
  21
 266.67500000000
  31
0.0
   0
LINE
   5
287
 100
AcDbEntity
   8
LEVEL002
 370
30
 100
AcDbLine
   6
CONTINUOUS
  62
7
  10
 345.95000000000
  20
 261.27500000000
  30
0.0
  11
 353.15000000000
  21
 272.07500000000
  31
0.0
   0
LINE
   5
288
 100
AcDbEntity
   8
LEVEL002
 370
30
 100
AcDbLine
   6
CONTINUOUS
  62
7
  10
 353.15000000000
  20
 272.07500000000
  30
0.0
  11
 362.15000000000
  21
 272.07500000000
  31
0.0
   0
LINE
   5
289
 100
AcDbEntity
   8
LEVEL002
 370
30
 100
AcDbLine
   6
CONTINUOUS
  62
7
  10
 362.15000000000
  20
 272.07500000000
  30
0.0
  11
 362.15000000000
  21
 264.87500000000
  31
0.0
   0
LINE
   5
28A
 100
AcDbEntity
   8
LEVEL002
 370
30
 100
AcDbLine
   6
CONTINUOUS
  62
7
  10
 362.15000000000
  20
 264.87500000000
  30
0.0
  11
 367.55000000000
  21
 264.87500000000
  31
0.0
   0
LINE
   5
28B
 100
AcDbEntity
   8
LEVEL002
 370
30
 100
AcDbLine
   6
CONTINUOUS
  62
7
  10
 367.55000000000
  20
 264.87500000000
  30
0.0
  11
 367.55000000000
  21
 268.47500000000
  31
0.0
   0
LINE
   5
28C
 100
AcDbEntity
   8
LEVEL002
 370
30
 100
AcDbLine
   6
CONTINUOUS
  62
7
  10
 367.55000000000
  20
 268.47500000000
  30
0.0
  11
 363.95000000000
  21
 268.47500000000
  31
0.0
   0
LINE
   5
28D
 100
AcDbEntity
   8
LEVEL002
 370
30
 100
AcDbLine
   6
CONTINUOUS
  62
7
  10
 363.95000000000
  20
 268.47500000000
  30
0.0
  11
 363.95000000000
  21
 272.07500000000
  31
0.0
   0
LINE
   5
28E
 100
AcDbEntity
   8
LEVEL002
 370
30
 100
AcDbLine
   6
CONTINUOUS
  62
7
  10
 363.95000000000
  20
 272.07500000000
  30
0.0
  11
 385.55000000000
  21
 272.07500000000
  31
0.0
   0
LINE
   5
28F
 100
AcDbEntity
   8
LEVEL002
 370
30
 100
AcDbLine
   6
CONTINUOUS
  62
7
  10
 385.55000000000
  20
 272.07500000000
  30
0.0
  11
 385.55000000000
  21
 268.47500000000
  31
0.0
   0
LINE
   5
290
 100
AcDbEntity
   8
LEVEL002
 370
30
 100
AcDbLine
   6
CONTINUOUS
  62
7
  10
 385.55000000000
  20
 268.47500000000
  30
0.0
  11
 378.35000000000
  21
 268.47500000000
  31
0.0
   0
LINE
   5
291
 100
AcDbEntity
   8
LEVEL002
 370
30
 100
AcDbLine
   6
CONTINUOUS
  62
7
  10
 378.35000000000
  20
 268.47500000000
  30
0.0
  11
 378.35000000000
  21
 267.57500000000
  31
0.0
   0
LINE
   5
292
 100
AcDbEntity
   8
LEVEL002
 370
30
 100
AcDbLine
   6
CONTINUOUS
  62
7
  10
 378.35000000000
  20
 267.57500000000
  30
0.0
  11
 384.65000000000
  21
 267.57500000000
  31
0.0
   0
LINE
   5
293
 100
AcDbEntity
   8
LEVEL002
 370
30
 100
AcDbLine
   6
CONTINUOUS
  62
7
  10
 384.65000000000
  20
 267.57500000000
  30
0.0
  11
 384.65000000000
  21
 265.77500000000
  31
0.0
   0
LINE
   5
294
 100
AcDbEntity
   8
LEVEL002
 370
30
 100
AcDbLine
   6
CONTINUOUS
  62
7
  10
 384.65000000000
  20
 265.77500000000
  30
0.0
  11
 378.35000000000
  21
 265.77500000000
  31
0.0
   0
LINE
   5
295
 100
AcDbEntity
   8
LEVEL002
 370
30
 100
AcDbLine
   6
CONTINUOUS
  62
7
  10
 378.35000000000
  20
 265.77500000000
  30
0.0
  11
 378.35000000000
  21
 264.87500000000
  31
0.0
   0
LINE
   5
296
 100
AcDbEntity
   8
LEVEL002
 370
30
 100
AcDbLine
   6
CONTINUOUS
  62
7
  10
 378.35000000000
  20
 264.87500000000
  30
0.0
  11
 385.55000000000
  21
 264.87500000000
  31
0.0
   0
LINE
   5
297
 100
AcDbEntity
   8
LEVEL002
 370
30
 100
AcDbLine
   6
CONTINUOUS
  62
7
  10
 385.55000000000
  20
 264.87500000000
  30
0.0
  11
 385.55000000000
  21
 261.27500000000
  31
0.0
   0
LINE
   5
298
 100
AcDbEntity
   8
LEVEL002
 370
30
 100
AcDbLine
   6
CONTINUOUS
  62
7
  10
 385.55000000000
  20
 261.27500000000
  30
0.0
  11
 374.75000000000
  21
 261.27500000000
  31
0.0
   0
LINE
   5
299
 100
AcDbEntity
   8
LEVEL002
 370
30
 100
AcDbLine
   6
CONTINUOUS
  62
7
  10
 374.75000000000
  20
 261.27500000000
  30
0.0
  11
 374.75000000000
  21
 268.47500000000
  31
0.0
   0
LINE
   5
29A
 100
AcDbEntity
   8
LEVEL002
 370
30
 100
AcDbLine
   6
CONTINUOUS
  62
7
  10
 374.75000000000
  20
 268.47500000000
  30
0.0
  11
 371.15000000000
  21
 268.47500000000
  31
0.0
   0
LINE
   5
29B
 100
AcDbEntity
   8
LEVEL002
 370
30
 100
AcDbLine
   6
CONTINUOUS
  62
7
  10
 371.15000000000
  20
 268.47500000000
  30
0.0
  11
 371.15000000000
  21
 261.27500000000
  31
0.0
   0
LINE
   5
29C
 100
AcDbEntity
   8
LEVEL002
 370
30
 100
AcDbLine
   6
CONTINUOUS
  62
7
  10
 371.15000000000
  20
 261.27500000000
  30
0.0
  11
 358.55000000000
  21
 261.27500000000
  31
0.0
   0
LINE
   5
29D
 100
AcDbEntity
   8
LEVEL002
 370
30
 100
AcDbLine
   6
CONTINUOUS
  62
7
  10
 358.55000000000
  20
 261.27500000000
  30
0.0
  11
 358.55000000000
  21
 272.07500000000
  31
0.0
   0
LINE
   5
29E
 100
AcDbEntity
   8
LEVEL002
 370
30
 100
AcDbLine
   6
CONTINUOUS
  62
7
  10
 358.55000000000
  20
 272.07500000000
  30
0.0
  11
 351.35000000000
  21
 261.27500000000
  31
0.0
   0
LINE
   5
29F
 100
AcDbEntity
   8
LEVEL002
 370
30
 100
AcDbLine
   6
CONTINUOUS
  62
7
  10
 351.35000000000
  20
 261.27500000000
  30
0.0
  11
 345.95000000000
  21
 261.27500000000
  31
0.0
   0
LINE
   5
2A0
 100
AcDbEntity
   8
LEVEL002
 370
30
 100
AcDbLine
   6
CONTINUOUS
  62
7
  10
 357.35000000000
  20
 268.11166923470
  30
0.0
  11
 352.79222051020
  21
 261.27500000000
  31
0.0
   0
LINE
   5
2A1
 100
AcDbEntity
   8
LEVEL002
 370
30
 100
AcDbLine
   6
CONTINUOUS
  62
7
  10
 352.79222051020
  20
 261.27500000000
  30
0.0
  11
 357.35000000000
  21
 261.27500000000
  31
0.0
   0
LINE
   5
2A2
 100
AcDbEntity
   8
LEVEL002
 370
30
 100
AcDbLine
   6
CONTINUOUS
  62
7
  10
 357.35000000000
  20
 261.27500000000
  30
0.0
  11
 357.35000000000
  21
 268.11166923470
  31
0.0
   0
ARC
   5
2A3
 100
AcDbEntity
   8
LEVEL002
 370
30
   6
CONTINUOUS
  62
7
 100
AcDbCircle
  10
 390.95000000000
  20
 266.67500000000
  30
0.0
  40
 5.4000000000000
 100
AcDbArc
  50
 90.000000000000
  51
 270.00000000000
   0
ARC
   5
2A4
 100
AcDbEntity
   8
LEVEL002
 370
30
   6
CONTINUOUS
  62
7
 100
AcDbCircle
  10
 390.95000000000
  20
 266.67500000000
  30
0.0
  40
 1.8000000000000
 100
AcDbArc
  50
 90.000000000000
  51
 270.00000000000
   0
LINE
   5
2A5
 100
AcDbEntity
   8
LEVEL002
 370
30
 100
AcDbLine
   6
CONTINUOUS
  62
7
  10
 390.95000000000
  20
 272.07500000000
  30
0.0
  11
 396.35000000000
  21
 272.07500000000
  31
0.0
   0
LINE
   5
2A6
 100
AcDbEntity
   8
LEVEL002
 370
30
 100
AcDbLine
   6
CONTINUOUS
  62
7
  10
 396.35000000000
  20
 272.07500000000
  30
0.0
  11
 396.35000000000
  21
 268.47500000000
  31
0.0
   0
LINE
   5
2A7
 100
AcDbEntity
   8
LEVEL002
 370
30
 100
AcDbLine
   6
CONTINUOUS
  62
7
  10
 396.35000000000
  20
 268.47500000000
  30
0.0
  11
 390.95000000000
  21
 268.47500000000
  31
0.0
   0
LINE
   5
2A8
 100
AcDbEntity
   8
LEVEL002
 370
30
 100
AcDbLine
   6
CONTINUOUS
  62
7
  10
 336.95000000000
  20
 272.07500000000
  30
0.0
  11
 336.95000000000
  21
 261.27500000000
  31
0.0
   0
LINE
   5
2A9
 100
AcDbEntity
   8
LEVEL002
 370
30
 100
AcDbLine
   6
CONTINUOUS
  62
7
  10
 336.95000000000
  20
 261.27500000000
  30
0.0
  11
 340.55000000000
  21
 261.27500000000
  31
0.0
   0
LINE
   5
2AA
 100
AcDbEntity
   8
LEVEL002
 370
30
 100
AcDbLine
   6
CONTINUOUS
  62
7
  10
 340.55000000000
  20
 261.27500000000
  30
0.0
  11
 340.55000000000
  21
 263.07500000000
  31
0.0
   0
LINE
   5
2AB
 100
AcDbEntity
   8
LEVEL002
 370
30
 100
AcDbLine
   6
CONTINUOUS
  62
7
  10
 340.55000000000
  20
 263.07500000000
  30
0.0
  11
 344.15000000000
  21
 263.07500000000
  31
0.0
   0
ARC
   5
2AC
 100
AcDbEntity
   8
LEVEL002
 370
30
   6
CONTINUOUS
  62
7
 100
AcDbCircle
  10
 344.15000000000
  20
 267.57500000000
  30
0.0
  40
 4.5000000000000
 100
AcDbArc
  50
 270.00000000000
  51
 90.000000000000
   0
LINE
   5
2AD
 100
AcDbEntity
   8
LEVEL002
 370
30
 100
AcDbLine
   6
CONTINUOUS
  62
7
  10
 344.15000000000
  20
 272.07500000000
  30
0.0
  11
 336.95000000000
  21
 272.07500000000
  31
0.0
   0
LINE
   5
2AE
 100
AcDbEntity
   8
LEVEL002
 370
30
 100
AcDbLine
   6
CONTINUOUS
  62
7
  10
 340.55000000000
  20
 268.47500000000
  30
0.0
  11
 340.55000000000
  21
 266.67500000000
  31
0.0
   0
LINE
   5
2AF
 100
AcDbEntity
   8
LEVEL002
 370
30
 100
AcDbLine
   6
CONTINUOUS
  62
7
  10
 340.55000000000
  20
 266.67500000000
  30
0.0
  11
 344.15000000000
  21
 266.67500000000
  31
0.0
   0
ARC
   5
2B0
 100
AcDbEntity
   8
LEVEL002
 370
30
   6
CONTINUOUS
  62
7
 100
AcDbCircle
  10
 344.15000000000
  20
 267.57500000000
  30
0.0
  40
 0.90000000000000
 100
AcDbArc
  50
 270.00000000000
  51
 90.000000000000
   0
LINE
   5
2B1
 100
AcDbEntity
   8
LEVEL002
 370
30
 100
AcDbLine
   6
CONTINUOUS
  62
7
  10
 344.15000000000
  20
 268.47500000000
  30
0.0
  11
 340.55000000000
  21
 268.47500000000
  31
0.0
   0
LINE
   5
2B2
 100
AcDbEntity
   8
LEVEL002
 370
30
 100
AcDbLine
   6
CONTINUOUS
  62
7
  10
 353.15000000000
  20
 272.07500000000
  30
0.0
  11
 345.95000000000
  21
 261.27500000000
  31
0.0
   0
LINE
   5
2B3
 100
AcDbEntity
   8
LEVEL002
 370
30
 100
AcDbLine
   6
CONTINUOUS
  62
7
  10
 345.95000000000
  20
 261.27500000000
  30
0.0
  11
 351.35000000000
  21
 261.27500000000
  31
0.0
   0
LINE
   5
2B4
 100
AcDbEntity
   8
LEVEL002
 370
30
 100
AcDbLine
   6
CONTINUOUS
  62
7
  10
 351.35000000000
  20
 261.27500000000
  30
0.0
  11
 358.55000000000
  21
 272.07500000000
  31
0.0
   0
LINE
   5
2B5
 100
AcDbEntity
   8
LEVEL002
 370
30
 100
AcDbLine
   6
CONTINUOUS
  62
7
  10
 358.55000000000
  20
 272.07500000000
  30
0.0
  11
 353.15000000000
  21
 272.07500000000
  31
0.0
   0
LINE
   5
2B6
 100
AcDbEntity
   8
LEVEL002
 370
30
 100
AcDbLine
   6
CONTINUOUS
  62
7
  10
 357.35000000000
  20
 261.27500000000
  30
0.0
  11
 357.35000000000
  21
 268.11166923470
  31
0.0
   0
LINE
   5
2B7
 100
AcDbEntity
   8
LEVEL002
 370
30
 100
AcDbLine
   6
CONTINUOUS
  62
7
  10
 357.35000000000
  20
 268.11166923470
  30
0.0
  11
 352.79222051020
  21
 261.27500000000
  31
0.0
   0
LINE
   5
2B8
 100
AcDbEntity
   8
LEVEL002
 370
30
 100
AcDbLine
   6
CONTINUOUS
  62
7
  10
 352.79222051020
  20
 261.27500000000
  30
0.0
  11
 357.35000000000
  21
 261.27500000000
  31
0.0
   0
LINE
   5
2B9
 100
AcDbEntity
   8
LEVEL002
 370
30
 100
AcDbLine
   6
CONTINUOUS
  62
7
  10
 358.55000000000
  20
 261.27500000000
  30
0.0
  11
 371.15000000000
  21
 261.27500000000
  31
0.0
   0
LINE
   5
2BA
 100
AcDbEntity
   8
LEVEL002
 370
30
 100
AcDbLine
   6
CONTINUOUS
  62
7
  10
 371.15000000000
  20
 261.27500000000
  30
0.0
  11
 371.15000000000
  21
 268.47500000000
  31
0.0
   0
LINE
   5
2BB
 100
AcDbEntity
   8
LEVEL002
 370
30
 100
AcDbLine
   6
CONTINUOUS
  62
7
  10
 371.15000000000
  20
 268.47500000000
  30
0.0
  11
 374.75000000000
  21
 268.47500000000
  31
0.0
   0
LINE
   5
2BC
 100
AcDbEntity
   8
LEVEL002
 370
30
 100
AcDbLine
   6
CONTINUOUS
  62
7
  10
 374.75000000000
  20
 268.47500000000
  30
0.0
  11
 374.75000000000
  21
 261.27500000000
  31
0.0
   0
LINE
   5
2BD
 100
AcDbEntity
   8
LEVEL002
 370
30
 100
AcDbLine
   6
CONTINUOUS
  62
7
  10
 374.75000000000
  20
 261.27500000000
  30
0.0
  11
 385.55000000000
  21
 261.27500000000
  31
0.0
   0
LINE
   5
2BE
 100
AcDbEntity
   8
LEVEL002
 370
30
 100
AcDbLine
   6
CONTINUOUS
  62
7
  10
 385.55000000000
  20
 261.27500000000
  30
0.0
  11
 385.55000000000
  21
 264.87500000000
  31
0.0
   0
LINE
   5
2BF
 100
AcDbEntity
   8
LEVEL002
 370
30
 100
AcDbLine
   6
CONTINUOUS
  62
7
  10
 385.55000000000
  20
 264.87500000000
  30
0.0
  11
 378.35000000000
  21
 264.87500000000
  31
0.0
   0
LINE
   5
2C0
 100
AcDbEntity
   8
LEVEL002
 370
30
 100
AcDbLine
   6
CONTINUOUS
  62
7
  10
 378.35000000000
  20
 264.87500000000
  30
0.0
  11
 378.35000000000
  21
 265.77500000000
  31
0.0
   0
LINE
   5
2C1
 100
AcDbEntity
   8
LEVEL002
 370
30
 100
AcDbLine
   6
CONTINUOUS
  62
7
  10
 378.35000000000
  20
 265.77500000000
  30
0.0
  11
 384.65000000000
  21
 265.77500000000
  31
0.0
   0
LINE
   5
2C2
 100
AcDbEntity
   8
LEVEL002
 370
30
 100
AcDbLine
   6
CONTINUOUS
  62
7
  10
 384.65000000000
  20
 265.77500000000
  30
0.0
  11
 384.65000000000
  21
 267.57500000000
  31
0.0
   0
LINE
   5
2C3
 100
AcDbEntity
   8
LEVEL002
 370
30
 100
AcDbLine
   6
CONTINUOUS
  62
7
  10
 384.65000000000
  20
 267.57500000000
  30
0.0
  11
 378.35000000000
  21
 267.57500000000
  31
0.0
   0
LINE
   5
2C4
 100
AcDbEntity
   8
LEVEL002
 370
30
 100
AcDbLine
   6
CONTINUOUS
  62
7
  10
 378.35000000000
  20
 267.57500000000
  30
0.0
  11
 378.35000000000
  21
 268.47500000000
  31
0.0
   0
LINE
   5
2C5
 100
AcDbEntity
   8
LEVEL002
 370
30
 100
AcDbLine
   6
CONTINUOUS
  62
7
  10
 378.35000000000
  20
 268.47500000000
  30
0.0
  11
 385.55000000000
  21
 268.47500000000
  31
0.0
   0
LINE
   5
2C6
 100
AcDbEntity
   8
LEVEL002
 370
30
 100
AcDbLine
   6
CONTINUOUS
  62
7
  10
 385.55000000000
  20
 268.47500000000
  30
0.0
  11
 385.55000000000
  21
 272.07500000000
  31
0.0
   0
LINE
   5
2C7
 100
AcDbEntity
   8
LEVEL002
 370
30
 100
AcDbLine
   6
CONTINUOUS
  62
7
  10
 385.55000000000
  20
 272.07500000000
  30
0.0
  11
 363.95000000000
  21
 272.07500000000
  31
0.0
   0
LINE
   5
2C8
 100
AcDbEntity
   8
LEVEL002
 370
30
 100
AcDbLine
   6
CONTINUOUS
  62
7
  10
 363.95000000000
  20
 272.07500000000
  30
0.0
  11
 363.95000000000
  21
 268.47500000000
  31
0.0
   0
LINE
   5
2C9
 100
AcDbEntity
   8
LEVEL002
 370
30
 100
AcDbLine
   6
CONTINUOUS
  62
7
  10
 363.95000000000
  20
 268.47500000000
  30
0.0
  11
 367.55000000000
  21
 268.47500000000
  31
0.0
   0
LINE
   5
2CA
 100
AcDbEntity
   8
LEVEL002
 370
30
 100
AcDbLine
   6
CONTINUOUS
  62
7
  10
 367.55000000000
  20
 268.47500000000
  30
0.0
  11
 367.55000000000
  21
 264.87500000000
  31
0.0
   0
LINE
   5
2CB
 100
AcDbEntity
   8
LEVEL002
 370
30
 100
AcDbLine
   6
CONTINUOUS
  62
7
  10
 367.55000000000
  20
 264.87500000000
  30
0.0
  11
 362.15000000000
  21
 264.87500000000
  31
0.0
   0
LINE
   5
2CC
 100
AcDbEntity
   8
LEVEL002
 370
30
 100
AcDbLine
   6
CONTINUOUS
  62
7
  10
 362.15000000000
  20
 264.87500000000
  30
0.0
  11
 362.15000000000
  21
 272.07500000000
  31
0.0
   0
LINE
   5
2CD
 100
AcDbEntity
   8
LEVEL002
 370
30
 100
AcDbLine
   6
CONTINUOUS
  62
7
  10
 362.15000000000
  20
 272.07500000000
  30
0.0
  11
 358.55000000000
  21
 272.07500000000
  31
0.0
   0
LINE
   5
2CE
 100
AcDbEntity
   8
LEVEL002
 370
30
 100
AcDbLine
   6
CONTINUOUS
  62
7
  10
 358.55000000000
  20
 272.07500000000
  30
0.0
  11
 358.55000000000
  21
 261.27500000000
  31
0.0
   0
LINE
   5
2CF
 100
AcDbEntity
   8
LEVEL002
 370
30
 100
AcDbLine
   6
CONTINUOUS
  62
7
  10
 390.95000000000
  20
 261.27500000000
  30
0.0
  11
 396.35000000000
  21
 261.27500000000
  31
0.0
   0
LINE
   5
2D0
 100
AcDbEntity
   8
LEVEL002
 370
30
 100
AcDbLine
   6
CONTINUOUS
  62
7
  10
 396.35000000000
  20
 261.27500000000
  30
0.0
  11
 396.35000000000
  21
 264.87500000000
  31
0.0
   0
LINE
   5
2D1
 100
AcDbEntity
   8
LEVEL002
 370
30
 100
AcDbLine
   6
CONTINUOUS
  62
7
  10
 396.35000000000
  20
 264.87500000000
  30
0.0
  11
 390.95000000000
  21
 264.87500000000
  31
0.0
   0
ARC
   5
2D2
 100
AcDbEntity
   8
LEVEL002
 370
30
   6
CONTINUOUS
  62
7
 100
AcDbCircle
  10
 390.95000000000
  20
 266.67500000000
  30
0.0
  40
 1.8000000000000
 100
AcDbArc
  50
 90.000000000000
  51
 270.00000000000
   0
LINE
   5
2D3
 100
AcDbEntity
   8
LEVEL002
 370
30
 100
AcDbLine
   6
CONTINUOUS
  62
7
  10
 390.95000000000
  20
 268.47500000000
  30
0.0
  11
 396.35000000000
  21
 268.47500000000
  31
0.0
   0
LINE
   5
2D4
 100
AcDbEntity
   8
LEVEL002
 370
30
 100
AcDbLine
   6
CONTINUOUS
  62
7
  10
 396.35000000000
  20
 268.47500000000
  30
0.0
  11
 396.35000000000
  21
 272.07500000000
  31
0.0
   0
LINE
   5
2D5
 100
AcDbEntity
   8
LEVEL002
 370
30
 100
AcDbLine
   6
CONTINUOUS
  62
7
  10
 396.35000000000
  20
 272.07500000000
  30
0.0
  11
 390.95000000000
  21
 272.07500000000
  31
0.0
   0
ARC
   5
2D6
 100
AcDbEntity
   8
LEVEL002
 370
30
   6
CONTINUOUS
  62
7
 100
AcDbCircle
  10
 390.95000000000
  20
 266.67500000000
  30
0.0
  40
 5.4000000000000
 100
AcDbArc
  50
 90.000000000000
  51
 270.00000000000
   0
MTEXT
   5
2D8
 100
AcDbEntity
   8
LEVEL002
 370
30
  62
7
 100
AcDbMText
  10
 336.95000000000
  20
 273.87500000000
  30
0.0
  40
 3.7500000000000
  41
0.0
  71
7
  72
1
   1
\T1.000000;ケージーパルテック株式会社
   7
GMM001
  44
 0.79999984000003
   0
LINE
   5
2D9
 100
AcDbEntity
   8
LEVEL002
 370
30
 100
AcDbLine
   6
CONTINUOUS
  62
7
  10
 333.35000000000
  20
 263.67500000000
  30
0.0
  11
 328.85000000000
  21
 270.87500000000
  31
0.0
   0
LINE
   5
2DA
 100
AcDbEntity
   8
LEVEL002
 370
30
 100
AcDbLine
   6
CONTINUOUS
  62
7
  10
 328.85000000000
  20
 270.87500000000
  30
0.0
  11
 333.35000000000
  21
 270.87500000000
  31
0.0
   0
LINE
   5
2DB
 100
AcDbEntity
   8
LEVEL002
 370
30
 100
AcDbLine
   6
CONTINUOUS
  62
7
  10
 333.35000000000
  20
 270.87500000000
  30
0.0
  11
 333.35000000000
  21
 263.67500000000
  31
0.0
   0
LINE
   5
2DC
 100
AcDbEntity
   8
LEVEL002
 370
30
 100
AcDbLine
   6
CONTINUOUS
  62
7
  10
 328.85000000000
  20
 270.87500000000
  30
0.0
  11
 333.35000000000
  21
 263.67500000000
  31
0.0
   0
LINE
   5
2DD
 100
AcDbEntity
   8
LEVEL002
 370
30
 100
AcDbLine
   6
CONTINUOUS
  62
7
  10
 333.35000000000
  20
 263.67500000000
  30
0.0
  11
 333.35000000000
  21
 270.87500000000
  31
0.0
   0
LINE
   5
2DE
 100
AcDbEntity
   8
LEVEL002
 370
30
 100
AcDbLine
   6
CONTINUOUS
  62
7
  10
 333.35000000000
  20
 270.87500000000
  30
0.0
  11
 328.85000000000
  21
 270.87500000000
  31
0.0
   0
LINE
   5
2DF
 100
AcDbEntity
   8
LEVEL002
 370
30
 100
AcDbLine
   6
CONTINUOUS
  62
7
  10
 319.05000000000
  20
 280.47500000000
  30
0.0
  11
 312.65000000000
  21
 270.87500000000
  31
0.0
   0
LINE
   5
2E0
 100
AcDbEntity
   8
LEVEL002
 370
30
 100
AcDbLine
   6
CONTINUOUS
  62
7
  10
 312.65000000000
  20
 270.87500000000
  30
0.0
  11
 319.05000000000
  21
 261.27500000000
  31
0.0
   0
LINE
   5
2E1
 100
AcDbEntity
   8
LEVEL002
 370
30
 100
AcDbLine
   6
CONTINUOUS
  62
7
  10
 324.45000000000
  20
 261.27500000000
  30
0.0
  11
 318.05000000000
  21
 270.87500000000
  31
0.0
   0
LINE
   5
2E2
 100
AcDbEntity
   8
LEVEL002
 370
30
 100
AcDbLine
   6
CONTINUOUS
  62
7
  10
 318.05000000000
  20
 270.87500000000
  30
0.0
  11
 324.45000000000
  21
 280.47500000000
  31
0.0
   0
LINE
   5
2E3
 100
AcDbEntity
   8
LEVEL002
 370
30
 100
AcDbLine
   6
CONTINUOUS
  62
7
  10
 327.15000000000
  20
 280.47500000000
  30
0.0
  11
 320.75000000000
  21
 270.87500000000
  31
0.0
   0
LINE
   5
2E4
 100
AcDbEntity
   8
LEVEL002
 370
30
 100
AcDbLine
   6
CONTINUOUS
  62
7
  10
 320.75000000000
  20
 270.87500000000
  30
0.0
  11
 327.15000000000
  21
 261.27500000000
  31
0.0
   0
LINE
   5
2E5
 100
AcDbEntity
   8
LEVEL002
 370
30
 100
AcDbLine
   6
CONTINUOUS
  62
7
  10
 332.55000000000
  20
 261.27500000000
  30
0.0
  11
 326.15000000000
  21
 270.87500000000
  31
0.0
   0
LINE
   5
2E6
 100
AcDbEntity
   8
LEVEL002
 370
30
 100
AcDbLine
   6
CONTINUOUS
  62
7
  10
 326.15000000000
  20
 270.87500000000
  30
0.0
  11
 332.55000000000
  21
 280.47500000000
  31
0.0
   0
LINE
   5
2E7
 100
AcDbEntity
   8
LEVEL002
 370
30
 100
AcDbLine
   6
CONTINUOUS
  62
7
  10
 319.05000000000
  20
 261.27500000000
  30
0.0
  11
 312.65000000000
  21
 270.87500000000
  31
0.0
   0
LINE
   5
2E8
 100
AcDbEntity
   8
LEVEL002
 370
30
 100
AcDbLine
   6
CONTINUOUS
  62
7
  10
 312.65000000000
  20
 270.87500000000
  30
0.0
  11
 319.05000000000
  21
 280.47500000000
  31
0.0
   0
LINE
   5
2E9
 100
AcDbEntity
   8
LEVEL002
 370
30
 100
AcDbLine
   6
CONTINUOUS
  62
7
  10
 319.05000000000
  20
 280.47500000000
  30
0.0
  11
 324.45000000000
  21
 280.47500000000
  31
0.0
   0
LINE
   5
2EA
 100
AcDbEntity
   8
LEVEL002
 370
30
 100
AcDbLine
   6
CONTINUOUS
  62
7
  10
 324.45000000000
  20
 280.47500000000
  30
0.0
  11
 318.05000000000
  21
 270.87500000000
  31
0.0
   0
LINE
   5
2EB
 100
AcDbEntity
   8
LEVEL002
 370
30
 100
AcDbLine
   6
CONTINUOUS
  62
7
  10
 318.05000000000
  20
 270.87500000000
  30
0.0
  11
 324.45000000000
  21
 261.27500000000
  31
0.0
   0
LINE
   5
2EC
 100
AcDbEntity
   8
LEVEL002
 370
30
 100
AcDbLine
   6
CONTINUOUS
  62
7
  10
 324.45000000000
  20
 261.27500000000
  30
0.0
  11
 319.05000000000
  21
 261.27500000000
  31
0.0
   0
LINE
   5
2ED
 100
AcDbEntity
   8
LEVEL002
 370
30
 100
AcDbLine
   6
CONTINUOUS
  62
7
  10
 327.15000000000
  20
 261.27500000000
  30
0.0
  11
 320.75000000000
  21
 270.87500000000
  31
0.0
   0
LINE
   5
2EE
 100
AcDbEntity
   8
LEVEL002
 370
30
 100
AcDbLine
   6
CONTINUOUS
  62
7
  10
 320.75000000000
  20
 270.87500000000
  30
0.0
  11
 327.15000000000
  21
 280.47500000000
  31
0.0
   0
LINE
   5
2EF
 100
AcDbEntity
   8
LEVEL002
 370
30
 100
AcDbLine
   6
CONTINUOUS
  62
7
  10
 327.15000000000
  20
 280.47500000000
  30
0.0
  11
 332.55000000000
  21
 280.47500000000
  31
0.0
   0
LINE
   5
2F0
 100
AcDbEntity
   8
LEVEL002
 370
30
 100
AcDbLine
   6
CONTINUOUS
  62
7
  10
 332.55000000000
  20
 280.47500000000
  30
0.0
  11
 326.15000000000
  21
 270.87500000000
  31
0.0
   0
LINE
   5
2F1
 100
AcDbEntity
   8
LEVEL002
 370
30
 100
AcDbLine
   6
CONTINUOUS
  62
7
  10
 326.15000000000
  20
 270.87500000000
  30
0.0
  11
 332.55000000000
  21
 261.27500000000
  31
0.0
   0
LINE
   5
2F2
 100
AcDbEntity
   8
LEVEL002
 370
30
 100
AcDbLine
   6
CONTINUOUS
  62
7
  10
 332.55000000000
  20
 261.27500000000
  30
0.0
  11
 327.15000000000
  21
 261.27500000000
  31
0.0
   0
LINE
   5
2F3
 100
AcDbEntity
   8
LEVEL001
 370
30
 100
AcDbLine
   6
DOT
  62
7
  10
0.0
  20
0.0
  30
0.0
  11
 420.00000000000
  21
0.0
  31
0.0
   0
LINE
   5
2F4
 100
AcDbEntity
   8
LEVEL001
 370
30
 100
AcDbLine
   6
DOT
  62
7
  10
 420.00000000000
  20
0.0
  30
0.0
  11
 420.00000000000
  21
 297.00000000000
  31
0.0
   0
LINE
   5
2F5
 100
AcDbEntity
   8
LEVEL001
 370
30
 100
AcDbLine
   6
DOT
  62
7
  10
 420.00000000000
  20
 297.00000000000
  30
0.0
  11
0.0
  21
 297.00000000000
  31
0.0
   0
LINE
   5
2F6
 100
AcDbEntity
   8
LEVEL001
 370
30
 100
AcDbLine
   6
DOT
  62
7
  10
0.0
  20
 297.00000000000
  30
0.0
  11
0.0
  21
0.0
  31
0.0
   0
LINE
   5
2F7
 100
AcDbEntity
   8
LEVEL002
 370
40
 100
AcDbLine
   6
CONTINUOUS
  62
3
  10
 15.499999999950
  20
 216.75000000000
  30
0.0
  11
 304.49999999995
  21
 216.75000000000
  31
0.0
   0
LINE
   5
2F8
 100
AcDbEntity
   8
LEVEL002
 370
40
 100
AcDbLine
   6
CONTINUOUS
  62
3
  10
 15.499999999950
  20
 275.00000000000
  30
0.0
  11
 304.49999999995
  21
 275.00000000000
  31
0.0
   0
LINE
   5
2F9
 100
AcDbEntity
   8
LEVEL002
 370
40
 100
AcDbLine
   6
CONTINUOUS
  62
3
  10
 15.499999999950
  20
 206.75000000000
  30
0.0
  11
 304.49999999995
  21
 206.75000000000
  31
0.0
   0
LINE
   5
2FA
 100
AcDbEntity
   8
LEVEL002
 370
40
 100
AcDbLine
   6
CONTINUOUS
  62
3
  10
 304.49999999995
  20
 256.75000000000
  30
0.0
  11
 404.49999999995
  21
 256.75000000000
  31
0.0
   0
LINE
   5
2FB
 100
AcDbEntity
   8
LEVEL002
 370
40
 100
AcDbLine
   6
CONTINUOUS
  62
3
  10
 304.49999999995
  20
 236.75000000000
  30
0.0
  11
 404.49999999995
  21
 236.75000000000
  31
0.0
   0
LINE
   5
2FC
 100
AcDbEntity
   8
LEVEL002
 370
40
 100
AcDbLine
   6
CONTINUOUS
  62
3
  10
 304.49999999995
  20
 216.75000000000
  30
0.0
  11
 404.49999999995
  21
 216.75000000000
  31
0.0
   0
LINE
   5
2FD
 100
AcDbEntity
   8
LEVEL002
 370
40
 100
AcDbLine
   6
CONTINUOUS
  62
3
  10
 232.24999999995
  20
 285.00000000000
  30
0.0
  11
 232.24999999995
  21
 12.000000000010
  31
0.0
   0
LINE
   5
2FE
 100
AcDbEntity
   8
LEVEL002
 370
40
 100
AcDbLine
   6
CONTINUOUS
  62
3
  10
 159.99999999995
  20
 285.00000000000
  30
0.0
  11
 159.99999999995
  21
 12.000000000010
  31
0.0
   0
LINE
   5
2FF
 100
AcDbEntity
   8
LEVEL002
 370
40
 100
AcDbLine
   6
CONTINUOUS
  62
3
  10
 87.749999999950
  20
 285.00000000000
  30
0.0
  11
 87.749999999950
  21
 12.000000000010
  31
0.0
   0
LINE
   5
300
 100
AcDbEntity
   8
LEVEL002
 370
40
 100
AcDbLine
   6
CONTINUOUS
  62
3
  10
 15.499999999950
  20
 148.50000000001
  30
0.0
  11
 304.49999999995
  21
 148.50000000001
  31
0.0
   0
LINE
   5
301
 100
AcDbEntity
   8
LEVEL002
 370
40
 100
AcDbLine
   6
CONTINUOUS
  62
3
  10
 15.499999999950
  20
 138.50000000001
  30
0.0
  11
 304.49999999995
  21
 138.50000000001
  31
0.0
   0
LINE
   5
302
 100
AcDbEntity
   8
LEVEL002
 370
40
 100
AcDbLine
   6
CONTINUOUS
  62
3
  10
 15.499999999950
  20
 80.250000000010
  30
0.0
  11
 304.49999999995
  21
 80.250000000010
  31
0.0
   0
LINE
   5
303
 100
AcDbEntity
   8
LEVEL002
 370
40
 100
AcDbLine
   6
CONTINUOUS
  62
3
  10
 15.499999999950
  20
 70.250000000010
  30
0.0
  11
 304.49999999995
  21
 70.250000000010
  31
0.0
   0
LINE
   5
304
 100
AcDbEntity
   8
LEVEL002
 370
40
 100
AcDbLine
   6
CONTINUOUS
  62
3
  10
 304.49999999995
  20
 72.000000000010
  30
0.0
  11
 404.49999999995
  21
 72.000000000010
  31
0.0
   0
LINE
   5
305
 100
AcDbEntity
   8
LEVEL002
 370
40
 100
AcDbLine
   6
CONTINUOUS
  62
3
  10
 304.49999999995
  20
 52.000000000010
  30
0.0
  11
 404.49999999995
  21
 52.000000000010
  31
0.0
   0
LINE
   5
306
 100
AcDbEntity
   8
LEVEL002
 370
40
 100
AcDbLine
   6
CONTINUOUS
  62
3
  10
 304.49999999995
  20
 32.000000000010
  30
0.0
  11
 404.49999999995
  21
 32.000000000010
  31
0.0
   0
LINE
   5
307
 100
AcDbEntity
   8
LEVEL002
 370
40
 100
AcDbLine
   6
CONTINUOUS
  62
3
  10
 354.49999999995
  20
 52.000000000010
  30
0.0
  11
 354.49999999995
  21
 12.000000000010
  31
0.0
   0
LINE
   5
308
 100
AcDbEntity
   8
LEVEL002
 370
40
 100
AcDbLine
   6
CONTINUOUS
  62
3
  10
 354.49999999995
  20
 38.666666666680
  30
0.0
  11
 404.49999999995
  21
 38.666666666680
  31
0.0
   0
LINE
   5
309
 100
AcDbEntity
   8
LEVEL002
 370
40
 100
AcDbLine
   6
CONTINUOUS
  62
3
  10
 354.49999999995
  20
 45.333333333345
  30
0.0
  11
 404.49999999995
  21
 45.333333333345
  31
0.0
   0
LINE
   5
30A
 100
AcDbEntity
   8
LEVEL002
 370
50
 100
AcDbLine
   6
CONTINUOUS
  62
4
  10
 404.49999999995
  20
 285.00000000000
  30
0.0
  11
 15.499999999950
  21
 285.00000000000
  31
0.0
   0
LINE
   5
30B
 100
AcDbEntity
   8
LEVEL002
 370
50
 100
AcDbLine
   6
CONTINUOUS
  62
4
  10
 304.49999999995
  20
 285.00000000000
  30
0.0
  11
 304.49999999995
  21
 12.000000000010
  31
0.0
   0
LINE
   5
30C
 100
AcDbEntity
   8
LEVEL002
 370
50
 100
AcDbLine
   6
CONTINUOUS
  62
4
  10
 404.49999999995
  20
 12.000000000010
  30
0.0
  11
 404.49999999995
  21
 285.00000000000
  31
0.0
   0
LINE
   5
30D
 100
AcDbEntity
   8
LEVEL002
 370
50
 100
AcDbLine
   6
CONTINUOUS
  62
4
  10
 15.499999999950
  20
 285.00000000000
  30
0.0
  11
 15.499999999950
  21
 12.000000000010
  31
0.0
   0
LINE
   5
30E
 100
AcDbEntity
   8
LEVEL002
 370
50
 100
AcDbLine
   6
CONTINUOUS
  62
4
  10
 15.499999999950
  20
 12.000000000010
  30
0.0
  11
 404.49999999995
  21
 12.000000000010
  31
0.0
   0
HATCH
   5
30F
 100
AcDbEntity
   8
LEVEL001
  62
1
 100
AcDbHatch
  10
0.0
  20
0.0
  30
0.0
 210
0.0
 220
0.0
 230
 1.0000000000000
   2
SOLID
  70
1
  71
1
  91
7
  92
1
  93
6
  72
1
  10
 324.45000000000
  20
 280.47500000000
  11
 318.05000000000
  21
 270.87500000000
  72
1
  10
 318.05000000000
  20
 270.87500000000
  11
 324.45000000000
  21
 261.27500000000
  72
1
  10
 324.45000000000
  20
 261.27500000000
  11
 319.05000000000
  21
 261.27500000000
  72
1
  10
 319.05000000000
  20
 261.27500000000
  11
 312.65000000000
  21
 270.87500000000
  72
1
  10
 312.65000000000
  20
 270.87500000000
  11
 319.05000000000
  21
 280.47500000000
  72
1
  10
 319.05000000000
  20
 280.47500000000
  11
 324.45000000000
  21
 280.47500000000
  97
1
 330

  92
16
  93
6
  72
1
  10
 327.15000000000
  20
 280.47500000000
  11
 332.55000000000
  21
 280.47500000000
  72
1
  10
 332.55000000000
  20
 280.47500000000
  11
 326.15000000000
  21
 270.87500000000
  72
1
  10
 326.15000000000
  20
 270.87500000000
  11
 332.55000000000
  21
 261.27500000000
  72
1
  10
 332.55000000000
  20
 261.27500000000
  11
 327.15000000000
  21
 261.27500000000
  72
1
  10
 327.15000000000
  20
 261.27500000000
  11
 320.75000000000
  21
 270.87500000000
  72
1
  10
 320.75000000000
  20
 270.87500000000
  11
 327.15000000000
  21
 280.47500000000
  97
1
 330

  92
16
  93
3
  72
1
  10
 333.35000000000
  20
 270.87500000000
  11
 328.85000000000
  21
 270.87500000000
  72
1
  10
 328.85000000000
  20
 270.87500000000
  11
 333.35000000000
  21
 263.67500000000
  72
1
  10
 333.35000000000
  20
 263.67500000000
  11
 333.35000000000
  21
 270.87500000000
  97
1
 330

  92
16
  93
6
  72
1
  10
 336.95000000000
  20
 272.07500000000
  11
 344.15000000000
  21
 272.07500000000
  72
2
  10
 344.15000000000
  20
 267.57500000000
  40
 4.5000000000000
  50
 270.00000000000
  51
 90.000000000000
  73
0
  72
1
  10
 344.15000000000
  20
 263.07500000000
  11
 340.55000000000
  21
 263.07500000000
  72
1
  10
 340.55000000000
  20
 263.07500000000
  11
 340.55000000000
  21
 261.27500000000
  72
1
  10
 340.55000000000
  20
 261.27500000000
  11
 336.95000000000
  21
 261.27500000000
  72
1
  10
 336.95000000000
  20
 261.27500000000
  11
 336.95000000000
  21
 272.07500000000
  97
1
 330

  92
16
  93
4
  72
1
  10
 344.15000000000
  20
 268.47500000000
  11
 340.55000000000
  21
 268.47500000000
  72
1
  10
 340.55000000000
  20
 268.47500000000
  11
 340.55000000000
  21
 266.67500000000
  72
1
  10
 340.55000000000
  20
 266.67500000000
  11
 344.15000000000
  21
 266.67500000000
  72
2
  10
 344.15000000000
  20
 267.57500000000
  40
 0.90000000000000
  50
 270.00000000000
  51
 90.000000000000
  73
1
  97
1
 330

  92
16
  93
4
  72
1
  10
 345.95000000000
  20
 261.27500000000
  11
 353.15000000000
  21
 272.07500000000
  72
1
  10
 353.15000000000
  20
 272.07500000000
  11
 358.55000000000
  21
 272.07500000000
  72
1
  10
 358.55000000000
  20
 272.07500000000
  11
 351.35000000000
  21
 261.27500000000
  72
1
  10
 351.35000000000
  20
 261.27500000000
  11
 345.95000000000
  21
 261.27500000000
  97
1
 330

  92
16
  93
3
  72
1
  10
 357.35000000000
  20
 268.11166923470
  11
 352.79222051020
  21
 261.27500000000
  72
1
  10
 352.79222051020
  20
 261.27500000000
  11
 357.35000000000
  21
 261.27500000000
  72
1
  10
 357.35000000000
  20
 261.27500000000
  11
 357.35000000000
  21
 268.11166923470
  97
1
 330

  75
0
  76
1
  98
1
  10
0.0
  20
0.0
   0
HATCH
   5
310
 100
AcDbEntity
   8
LEVEL001
  62
1
 100
AcDbHatch
  10
0.0
  20
0.0
  30
0.0
 210
0.0
 220
0.0
 230
 1.0000000000000
   2
SOLID
  70
1
  71
1
  91
1
  92
1
  93
22
  72
1
  10
 358.55000000000
  20
 272.07500000000
  11
 362.15000000000
  21
 272.07500000000
  72
1
  10
 362.15000000000
  20
 272.07500000000
  11
 362.15000000000
  21
 264.87500000000
  72
1
  10
 362.15000000000
  20
 264.87500000000
  11
 367.55000000000
  21
 264.87500000000
  72
1
  10
 367.55000000000
  20
 264.87500000000
  11
 367.55000000000
  21
 268.47500000000
  72
1
  10
 367.55000000000
  20
 268.47500000000
  11
 363.95000000000
  21
 268.47500000000
  72
1
  10
 363.95000000000
  20
 268.47500000000
  11
 363.95000000000
  21
 272.07500000000
  72
1
  10
 363.95000000000
  20
 272.07500000000
  11
 385.55000000000
  21
 272.07500000000
  72
1
  10
 385.55000000000
  20
 272.07500000000
  11
 385.55000000000
  21
 268.47500000000
  72
1
  10
 385.55000000000
  20
 268.47500000000
  11
 378.35000000000
  21
 268.47500000000
  72
1
  10
 378.35000000000
  20
 268.47500000000
  11
 378.35000000000
  21
 267.57500000000
  72
1
  10
 378.35000000000
  20
 267.57500000000
  11
 384.65000000000
  21
 267.57500000000
  72
1
  10
 384.65000000000
  20
 267.57500000000
  11
 384.65000000000
  21
 265.77500000000
  72
1
  10
 384.65000000000
  20
 265.77500000000
  11
 378.35000000000
  21
 265.77500000000
  72
1
  10
 378.35000000000
  20
 265.77500000000
  11
 378.35000000000
  21
 264.87500000000
  72
1
  10
 378.35000000000
  20
 264.87500000000
  11
 385.55000000000
  21
 264.87500000000
  72
1
  10
 385.55000000000
  20
 264.87500000000
  11
 385.55000000000
  21
 261.27500000000
  72
1
  10
 385.55000000000
  20
 261.27500000000
  11
 374.75000000000
  21
 261.27500000000
  72
1
  10
 374.75000000000
  20
 261.27500000000
  11
 374.75000000000
  21
 268.47500000000
  72
1
  10
 374.75000000000
  20
 268.47500000000
  11
 371.15000000000
  21
 268.47500000000
  72
1
  10
 371.15000000000
  20
 268.47500000000
  11
 371.15000000000
  21
 261.27500000000
  72
1
  10
 371.15000000000
  20
 261.27500000000
  11
 358.55000000000
  21
 261.27500000000
  72
1
  10
 358.55000000000
  20
 261.27500000000
  11
 358.55000000000
  21
 272.07500000000
  97
1
 330

  75
0
  76
1
  98
1
  10
0.0
  20
0.0
   0
HATCH
   5
311
 100
AcDbEntity
   8
LEVEL001
  62
1
 100
AcDbHatch
  10
0.0
  20
0.0
  30
0.0
 210
0.0
 220
0.0
 230
 1.0000000000000
   2
SOLID
  70
1
  71
1
  91
1
  92
1
  93
8
  72
1
  10
 396.35000000000
  20
 272.07500000000
  11
 390.95000000000
  21
 272.07500000000
  72
2
  10
 390.95000000000
  20
 266.67500000000
  40
 5.4000000000000
  50
 90.000000000000
  51
 270.00000000000
  73
1
  72
1
  10
 390.95000000000
  20
 261.27500000000
  11
 396.35000000000
  21
 261.27500000000
  72
1
  10
 396.35000000000
  20
 261.27500000000
  11
 396.35000000000
  21
 264.87500000000
  72
1
  10
 396.35000000000
  20
 264.87500000000
  11
 390.95000000000
  21
 264.87500000000
  72
2
  10
 390.95000000000
  20
 266.67500000000
  40
 1.8000000000000
  50
 90.000000000000
  51
 270.00000000000
  73
0
  72
1
  10
 390.95000000000
  20
 268.47500000000
  11
 396.35000000000
  21
 268.47500000000
  72
1
  10
 396.35000000000
  20
 268.47500000000
  11
 396.35000000000
  21
 272.07500000000
  97
1
 330

  75
0
  76
1
  98
1
  10
0.0
  20
0.0
   0
MTEXT
   5
313
 100
AcDbEntity
   8
LEVEL002
 370
15
  62
8
 100
AcDbMText
  10
 310.79999999995
  20
 28.250000000010
  30
0.0
  40
 3.0000000000000
  41
0.0
  71
5
  72
1
   1
\T1.000000;サイズ：
   7
GMM002
  44
 0.79999984000003
   0
MTEXT
   5
315
 100
AcDbEntity
   8
LEVEL002
 370
15
  62
8
 100
AcDbMText
  10
 309.29999999995
  20
 48.250000000010
  30
0.0
  40
 3.0000000000000
  41
0.0
  71
5
  72
1
   1
\T1.000000;縮尺：
   7
GMM002
  44
 0.79999984000003
   0
MTEXT
   5
317
 100
AcDbEntity
   8
LEVEL002
 370
15
  62
8
 100
AcDbMText
  10
 312.29999999995
  20
 68.250000000010
  30
0.0
  40
 3.0000000000000
  41
0.0
  71
5
  72
1
   1
\T1.000000;図面名称：
   7
GMM002
  44
 0.79999984000003
   0
MTEXT
   5
319
 100
AcDbEntity
   8
LEVEL002
 370
15
  62
8
 100
AcDbMText
  10
 363.79999999995
  20
 28.250000000010
  30
0.0
  40
 3.0000000000000
  41
0.0
  71
5
  72
1
   1
\T1.000000;ファイル名：
   7
GMM002
  44
 0.79999984000003
   0
MTEXT
   5
31B
 100
AcDbEntity
   8
LEVEL002
 370
15
  62
8
 100
AcDbMText
  10
 362.29999999995
  20
 48.666666666680
  30
0.0
  40
 2.8000000000000
  41
0.0
  71
5
  72
1
   1
\T1.000000;作成日付：
   7
GMM003
  44
 0.79999984000003
   0
MTEXT
   5
31D
 100
AcDbEntity
   8
LEVEL002
 370
15
  62
8
 100
AcDbMText
  10
 362.29999999995
  20
 42.000000000010
  30
0.0
  40
 2.8000000000000
  41
0.0
  71
5
  72
1
   1
\T1.000000;変更日付：
   7
GMM003
  44
 0.79999984000003
   0
MTEXT
   5
31F
 100
AcDbEntity
   8
LEVEL002
 370
15
  62
8
 100
AcDbMText
  10
 329.49999999995
  20
 18.250000000010
  30
0.0
  40
 3.7500000000000
  41
0.0
  71
5
  72
1
   1
\T1.000000;Ａ３
   7
GMM002
  44
 0.79999984000003
   0
MTEXT
   5
321
 100
AcDbEntity
   8
LEVEL002
 370
15
  62
8
 100
AcDbMText
  10
 309.29999999995
  20
 213.00000000000
  30
0.0
  40
 3.0000000000000
  41
0.0
  71
5
  72
1
   1
\T1.000000;仕様：
   7
GMM002
  44
 0.79999984000003
   0
MTEXT
   5
323
 100
AcDbEntity
   8
LEVEL002
 370
15
  62
8
 100
AcDbMText
  10
 309.29999999995
  20
 233.00000000000
  30
0.0
  40
 3.0000000000000
  41
0.0
  71
5
  72
1
   1
\T1.000000;形式：
   7
GMM002
  44
 0.79999984000003
   0
MTEXT
   5
325
 100
AcDbEntity
   8
LEVEL002
 370
15
  62
8
 100
AcDbMText
  10
 310.79999999995
  20
 253.00000000000
  30
0.0
  40
 3.0000000000000
  41
0.0
  71
5
  72
1
   1
\T1.000000;商品名：
   7
GMM002
  44
 0.79999984000003
   0
MTEXT
   5
327
 100
AcDbEntity
   8
LEVEL002
 370
15
  62
8
 100
AcDbMText
  10
 322.49999999995
  20
 244.50000000000
  30
0.0
  40
 4.5000000000000
  41
0.0
  71
7
  72
1
   1
\W0.888889;\T1.000000;　フロアー金具\W0.444444;\T1.000000;(\W0.888889;\T1.000000;ステンレスタイプ\W0.444444;\T1.000000;)
   7
GMM004
  44
 0.79999984000003
   0
MTEXT
   5
329
 100
AcDbEntity
   8
LEVEL002
 370
15
  62
8
 100
AcDbMText
  10
 346.89999999995
  20
 76.870803459012
  30
0.0
  40
 4.0000000000000
  41
0.0
  71
5
  72
1
   1
\T1.000000;　※本製品は予告無しに変更する事があります。
   7
GMM002
  44
 0.79999984000003
   0
MTEXT
   5
32B
 100
AcDbEntity
   8
LEVEL002
 370
15
  62
8
 100
AcDbMText
  10
 354.49999999995
  20
 58.250000000010
  30
0.0
  40
 3.7500000000000
  41
0.0
  71
5
  72
1
   1
\T1.000000;断面図
   7
GMM002
  44
 0.79999984000003
   0
MTEXT
   5
32D
 100
AcDbEntity
   8
LEVEL002
 370
15
  62
8
 100
AcDbMText
  10
 379.49999999995
  20
 20.083333333345
  30
0.0
  40
 2.5000000000000
  41
0.0
  71
5
  72
1
   1
\T1.000000;フロアー金具ステンレス－１
   7
GMM002
  44
 0.79999984000003
   0
MTEXT
   5
32F
 100
AcDbEntity
   8
LEVEL002
 370
15
  62
8
 100
AcDbMText
  10
 51.624999999950
  20
 280.00000000000
  30
0.0
  40
 3.0000000000000
  41
0.0
  71
5
  72
1
   1
\T1.000000;Ｓ３５１２
   7
GMM002
  44
 0.79999984000003
   0
MTEXT
   5
331
 100
AcDbEntity
   8
LEVEL002
 370
15
  62
8
 100
AcDbMText
  10
 123.87499999995
  20
 280.00000000000
  30
0.0
  40
 3.0000000000000
  41
0.0
  71
5
  72
1
   1
\T1.000000;Ｓ３５１２Ａ
   7
GMM002
  44
 0.79999984000003
   0
MTEXT
   5
333
 100
AcDbEntity
   8
LEVEL002
 370
15
  62
8
 100
AcDbMText
  10
 51.624999999950
  20
 211.75000000000
  30
0.0
  40
 3.0000000000000
  41
0.0
  71
5
  72
1
   1
\T1.000000;Ｓ３８１５Ａ
   7
GMM002
  44
 0.79999984000003
   0
MTEXT
   5
335
 100
AcDbEntity
   8
LEVEL002
 370
15
  62
8
 100
AcDbMText
  10
 123.87499999995
  20
 211.75000000000
  30
0.0
  40
 3.0000000000000
  41
0.0
  71
5
  72
1
   1
\T1.000000;Ｓ５０１５Ａ
   7
GMM002
  44
 0.79999984000003
   0
MTEXT
   5
337
 100
AcDbEntity
   8
LEVEL002
 370
15
  62
8
 100
AcDbMText
  10
 196.12499999995
  20
 211.75000000000
  30
0.0
  40
 3.0000000000000
  41
0.0
  71
5
  72
1
   1
\T1.000000;Ｓ１００１５Ａ
   7
GMM002
  44
 0.79999984000003
   0
MTEXT
   5
339
 100
AcDbEntity
   8
LEVEL002
 370
15
  62
8
 100
AcDbMText
  10
 329.49999999995
  20
 38.250000000010
  30
0.0
  40
 3.7500000000000
  41
0.0
  71
5
  72
1
   1
\T1.000000;Ｓ＝１：１
   7
GMM002
  44
 0.79999984000003
   0
LINE
   5
33A
 100
AcDbEntity
   8
LEVEL004
 370
30
 100
AcDbLine
   6
CONTINUOUS
  62
7
  10
 35.889689007534
  20
 223.01001228170
  30
0.0
  11
 36.434477607221
  21
 221.94080445267
  31
0.0
   0
LINE
   5
33B
 100
AcDbEntity
   8
LEVEL004
 370
30
 100
AcDbLine
   6
CONTINUOUS
  62
7
  10
 36.434477607221
  20
 221.94080445267
  30
0.0
  11
 48.177783518430
  21
 227.92431767563
  31
0.0
   0
LINE
   5
33C
 100
AcDbEntity
   8
LEVEL004
 370
30
 100
AcDbLine
   6
CONTINUOUS
  62
7
  10
 47.632994918743
  20
 228.99352550466
  30
0.0
  11
 35.889689007534
  21
 223.01001228170
  31
0.0
   0
LINE
   5
33D
 100
AcDbEntity
   8
LEVEL004
 370
30
 100
AcDbLine
   6
CONTINUOUS
  62
7
  10
 48.177783518430
  20
 227.92431767563
  30
0.0
  11
 70.889689007534
  21
 227.92431767563
  31
0.0
   0
LINE
   5
33E
 100
AcDbEntity
   8
LEVEL004
 370
30
 100
AcDbLine
   6
CONTINUOUS
  62
7
  10
 70.889689007534
  20
 227.92431767563
  30
0.0
  11
 70.889689007534
  21
 229.12431767563
  31
0.0
   0
LINE
   5
33F
 100
AcDbEntity
   8
LEVEL004
 370
30
 100
AcDbLine
   6
CONTINUOUS
  62
7
  10
 70.889689007534
  20
 229.12431767563
  30
0.0
  11
 48.177783518430
  21
 229.12431767563
  31
0.0
   0
ARC
   5
340
 100
AcDbEntity
   8
LEVEL004
 370
30
   6
CONTINUOUS
  62
7
 100
AcDbCircle
  10
 48.177783518430
  20
 227.92431767563
  30
0.0
  40
 1.2000000000000
 100
AcDbArc
  50
 89.999999999999
  51
 117.00000000000
   0
DIMENSION
   5
341
 100
AcDbEntity
   8
LEVEL001
 370
15
   6
CONTINUOUS
  62
8
 100
AcDbDimension
   2
*D1
  10
 70.889689007534
  20
 236.12431767563
  30
0.0
  11
 59.389689007534
  21
 236.12431767563
  31
0.0
  70
0
   3
GMM001
 100
AcDbAlignedDimension
  13
 47.889689007534
  23
 229.08922177159
  33
0.0
  14
 70.889689007534
  24
 229.12431767563
  34
0.0
 100
AcDbRotatedDimension
   0
DIMENSION
   5
342
 100
AcDbEntity
   8
LEVEL001
 370
15
   6
CONTINUOUS
  62
8
 100
AcDbDimension
   2
*D2
  10
 70.889689007534
  20
 243.12431767563
  30
0.0
  11
 53.389689007534
  21
 243.12431767563
  31
0.0
  70
0
   3
GMM001
 100
AcDbAlignedDimension
  13
 35.889689007534
  23
 223.01001228170
  33
0.0
  14
 70.889689007534
  24
 236.12431767563
  34
0.0
 100
AcDbRotatedDimension
   0
DIMENSION
   5
343
 100
AcDbEntity
   8
LEVEL001
 370
15
   6
CONTINUOUS
  62
8
 100
AcDbDimension
   2
*D3
  10
 28.889689007534
  20
 229.12431767563
  30
0.0
  11
 28.889689007534
  21
 225.53256106415
  31
0.0
  70
0
   1
\A1;7
   3
GMM001
 100
AcDbAlignedDimension
  13
 35.889689007534
  23
 221.94080445267
  33
0.0
  14
 48.177783518430
  24
 229.12431767563
  34
0.0
  50
 90.000000000000
 100
AcDbRotatedDimension
   0
DIMENSION
   5
344
 100
AcDbEntity
   8
LEVEL001
 370
15
   6
CONTINUOUS
  62
8
 100
AcDbDimension
   2
*D4
  10
 77.889689007534
  20
 227.92431767563
  30
0.0
  11
 77.889689007534
  21
 224.93256106415
  31
0.0
  70
0
   1
\A1;5.8
   3
GMM001
 100
AcDbAlignedDimension
  13
 36.434477607221
  23
 221.94080445267
  33
0.0
  14
 70.889689007534
  24
 227.92431767563
  34
0.0
  50
 90.000000000000
 100
AcDbRotatedDimension
   0
DIMENSION
   5
345
 100
AcDbEntity
   8
LEVEL001
 370
15
   6
CONTINUOUS
  62
8
 100
AcDbDimension
   2
*D5
  10
 77.889689007534
  20
 229.12431767563
  30
0.0
  11
 77.889689007534
  21
 230.73981580402
  31
0.0
  70
128
   3
GMM002
 100
AcDbAlignedDimension
  13
 70.889689007534
  23
 227.92431767563
  33
0.0
  14
 70.889689007534
  24
 229.12431767563
  34
0.0
  50
 90.000000000000
 100
AcDbRotatedDimension
   0
LINE
   5
346
 100
AcDbEntity
   8
LEVEL004
 370
30
 100
AcDbLine
   6
CONTINUOUS
  62
7
  10
 108.13968900753
  20
 223.01001228170
  30
0.0
  11
 108.68447760722
  21
 221.94080445267
  31
0.0
   0
LINE
   5
347
 100
AcDbEntity
   8
LEVEL004
 370
30
 100
AcDbLine
   6
CONTINUOUS
  62
7
  10
 108.68447760722
  20
 221.94080445267
  30
0.0
  11
 120.42778351843
  21
 227.92431767563
  31
0.0
   0
LINE
   5
348
 100
AcDbEntity
   8
LEVEL004
 370
30
 100
AcDbLine
   6
CONTINUOUS
  62
7
  10
 119.88299491874
  20
 228.99352550466
  30
0.0
  11
 108.13968900753
  21
 223.01001228170
  31
0.0
   0
LINE
   5
349
 100
AcDbEntity
   8
LEVEL004
 370
30
 100
AcDbLine
   6
CONTINUOUS
  62
7
  10
 120.42778351843
  20
 227.92431767563
  30
0.0
  11
 143.13968900753
  21
 227.92431767563
  31
0.0
   0
LINE
   5
34A
 100
AcDbEntity
   8
LEVEL004
 370
30
 100
AcDbLine
   6
CONTINUOUS
  62
7
  10
 143.13968900753
  20
 227.92431767563
  30
0.0
  11
 143.13968900753
  21
 229.12431767563
  31
0.0
   0
LINE
   5
34B
 100
AcDbEntity
   8
LEVEL004
 370
30
 100
AcDbLine
   6
CONTINUOUS
  62
7
  10
 143.13968900753
  20
 229.12431767563
  30
0.0
  11
 120.42778351843
  21
 229.12431767563
  31
0.0
   0
ARC
   5
34C
 100
AcDbEntity
   8
LEVEL004
 370
30
   6
CONTINUOUS
  62
7
 100
AcDbCircle
  10
 120.42778351843
  20
 227.92431767563
  30
0.0
  40
 1.2000000000000
 100
AcDbArc
  50
 89.999999999999
  51
 117.00000000000
   0
DIMENSION
   5
34D
 100
AcDbEntity
   8
LEVEL001
 370
15
   6
CONTINUOUS
  62
8
 100
AcDbDimension
   2
*D6
  10
 143.13968900753
  20
 236.12431767563
  30
0.0
  11
 131.63968900753
  21
 236.12431767563
  31
0.0
  70
0
   3
GMM001
 100
AcDbAlignedDimension
  13
 120.13968900753
  23
 229.08922177159
  33
0.0
  14
 143.13968900753
  24
 229.12431767563
  34
0.0
 100
AcDbRotatedDimension
   0
DIMENSION
   5
34E
 100
AcDbEntity
   8
LEVEL001
 370
15
   6
CONTINUOUS
  62
8
 100
AcDbDimension
   2
*D7
  10
 143.13968900753
  20
 243.12431767563
  30
0.0
  11
 125.63968900753
  21
 243.12431767563
  31
0.0
  70
0
   3
GMM001
 100
AcDbAlignedDimension
  13
 108.13968900753
  23
 223.01001228170
  33
0.0
  14
 143.13968900753
  24
 236.12431767563
  34
0.0
 100
AcDbRotatedDimension
   0
DIMENSION
   5
34F
 100
AcDbEntity
   8
LEVEL001
 370
15
   6
CONTINUOUS
  62
8
 100
AcDbDimension
   2
*D8
  10
 101.13968900753
  20
 229.12431767563
  30
0.0
  11
 101.13968900753
  21
 225.53256106415
  31
0.0
  70
0
   1
\A1;7
   3
GMM001
 100
AcDbAlignedDimension
  13
 108.13968900753
  23
 221.94080445267
  33
0.0
  14
 120.42778351843
  24
 229.12431767563
  34
0.0
  50
 90.000000000000
 100
AcDbRotatedDimension
   0
DIMENSION
   5
350
 100
AcDbEntity
   8
LEVEL001
 370
15
   6
CONTINUOUS
  62
8
 100
AcDbDimension
   2
*D9
  10
 150.13968900753
  20
 227.92431767563
  30
0.0
  11
 150.13968900753
  21
 224.93256106415
  31
0.0
  70
0
   1
\A1;5.8
   3
GMM001
 100
AcDbAlignedDimension
  13
 108.68447760722
  23
 221.94080445267
  33
0.0
  14
 143.13968900753
  24
 227.92431767563
  34
0.0
  50
 90.000000000000
 100
AcDbRotatedDimension
   0
DIMENSION
   5
351
 100
AcDbEntity
   8
LEVEL001
 370
15
   6
CONTINUOUS
  62
8
 100
AcDbDimension
   2
*D10
  10
 150.13968900753
  20
 229.12431767563
  30
0.0
  11
 150.13968900753
  21
 230.73981580402
  31
0.0
  70
128
   3
GMM002
 100
AcDbAlignedDimension
  13
 143.13968900753
  23
 227.92431767563
  33
0.0
  14
 143.13968900753
  24
 229.12431767563
  34
0.0
  50
 90.000000000000
 100
AcDbRotatedDimension
   0
LINE
   5
352
 100
AcDbEntity
   8
LEVEL001
 370
30
 100
AcDbLine
   6
CONTINUOUS
  62
7
  10
 32.889689007404
  20
 155.66188586136
  30
0.0
  11
 45.674111675055
  21
 159.59555437445
  31
0.0
   0
ARC
   5
353
 100
AcDbEntity
   8
LEVEL001
 370
30
   6
CONTINUOUS
  62
7
 100
AcDbCircle
  10
 46.115240448307
  20
 158.16188586136
  30
0.0
  40
 1.5000000000000
 100
AcDbArc
  50
 89.999999999999
  51
 107.10272896889
   0
POINT
   5
354
 100
AcDbEntity
   8
LEVEL001
 100
AcDbPoint
  62
7
  10
 45.889689007534
  20
 159.66188586136
  30
0.0
   0
LINE
   5
355
 100
AcDbEntity
   8
LEVEL001
 370
30
 100
AcDbLine
   6
CONTINUOUS
  62
7
  10
 32.889689007404
  20
 155.66188586136
  30
0.0
  11
 33.330817780656
  21
 154.22821734828
  31
0.0
   0
LINE
   5
356
 100
AcDbEntity
   8
LEVEL001
 370
30
 100
AcDbLine
   6
CONTINUOUS
  62
7
  10
 33.330817780656
  20
 154.22821734828
  30
0.0
  11
 46.115240448307
  21
 158.16188586136
  31
0.0
   0
LINE
   5
357
 100
AcDbEntity
   8
LEVEL002
 370
30
 100
AcDbLine
   6
CONTINUOUS
  62
7
  10
 70.689689007534
  20
 159.66188586136
  30
0.0
  11
 46.115240448307
  21
 159.66188586136
  31
0.0
   0
LINE
   5
358
 100
AcDbEntity
   8
LEVEL002
 370
30
 100
AcDbLine
   6
CONTINUOUS
  62
7
  10
 70.889689007534
  20
 158.16188586136
  30
0.0
  11
 46.115240448307
  21
 158.16188586136
  31
0.0
   0
LINE
   5
359
 100
AcDbEntity
   8
LEVEL002
 370
30
 100
AcDbLine
   6
CONTINUOUS
  62
7
  10
 70.889689007534
  20
 158.16188586136
  30
0.0
  11
 46.115240448307
  21
 158.16188586136
  31
0.0
   0
LINE
   5
35A
 100
AcDbEntity
   8
LEVEL002
 370
30
 100
AcDbLine
   6
CONTINUOUS
  62
7
  10
 70.889689007534
  20
 159.66188586136
  30
0.0
  11
 46.115240448307
  21
 159.66188586136
  31
0.0
   0
LINE
   5
35B
 100
AcDbEntity
   8
LEVEL002
 370
30
 100
AcDbLine
   6
CONTINUOUS
  62
7
  10
 70.889689007534
  20
 158.16188586136
  30
0.0
  11
 70.889689007534
  21
 159.46188586136
  31
0.0
   0
LINE
   5
35C
 100
AcDbEntity
   8
LEVEL002
 370
30
 100
AcDbLine
   6
CONTINUOUS
  62
7
  10
 70.889689007534
  20
 158.16188586136
  30
0.0
  11
 70.889689007534
  21
 159.66188586136
  31
0.0
   0
DIMENSION
   5
35D
 100
AcDbEntity
   8
LEVEL001
 370
15
   6
CONTINUOUS
  62
8
 100
AcDbDimension
   2
*D11
  10
 77.889689007534
  20
 158.16188586136
  30
0.0
  11
 77.889689007534
  21
 156.19505160482
  31
0.0
  70
0
   1
\A1;4
   3
GMM003
 100
AcDbAlignedDimension
  13
 33.330817780656
  23
 154.22821734828
  33
0.0
  14
 70.889689007534
  24
 158.16188586136
  34
0.0
  50
 90.000000000000
 100
AcDbRotatedDimension
   0
DIMENSION
   5
35E
 100
AcDbEntity
   8
LEVEL001
 370
15
   6
CONTINUOUS
  62
8
 100
AcDbDimension
   2
*D12
  10
 77.889689007534
  20
 159.66188586136
  30
0.0
  11
 77.889689007534
  21
 161.80037846635
  31
0.0
  70
128
   3
GMM004
 100
AcDbAlignedDimension
  13
 70.889689007534
  23
 158.16188586136
  33
0.0
  14
 70.889689007534
  24
 159.66188586136
  34
0.0
  50
 90.000000000000
 100
AcDbRotatedDimension
   0
DIMENSION
   5
35F
 100
AcDbEntity
   8
LEVEL001
 370
15
   6
CONTINUOUS
  62
8
 100
AcDbDimension
   2
*D13
  10
 70.889689007534
  20
 166.66188586136
  30
0.0
  11
 58.389689007534
  21
 166.66188586136
  31
0.0
  70
0
   3
GMM001
 100
AcDbAlignedDimension
  13
 45.889689007534
  23
 159.66188586136
  33
0.0
  14
 70.889689007534
  24
 159.66188586136
  34
0.0
 100
AcDbRotatedDimension
   0
DIMENSION
   5
360
 100
AcDbEntity
   8
LEVEL001
 370
15
   6
CONTINUOUS
  62
8
 100
AcDbDimension
   2
*D14
  10
 70.889689007534
  20
 173.66188586136
  30
0.0
  11
 51.889689007469
  21
 173.66188586136
  31
0.0
  70
0
   3
GMM001
 100
AcDbAlignedDimension
  13
 32.889689007404
  23
 155.66188586136
  33
0.0
  14
 70.889689007534
  24
 166.66188586136
  34
0.0
 100
AcDbRotatedDimension
   0
DIMENSION
   5
361
 100
AcDbEntity
   8
LEVEL001
 370
15
   6
CONTINUOUS
  62
8
 100
AcDbDimension
   2
*D15
  10
 27.889689007404
  20
 159.66188586136
  30
0.0
  11
 27.889689007404
  21
 156.94505160482
  31
0.0
  70
0
   1
\A1;5.5
   3
GMM001
 100
AcDbAlignedDimension
  13
 33.330817780656
  23
 154.22821734828
  33
0.0
  14
 45.889689007534
  24
 159.66188586136
  34
0.0
  50
 90.000000000000
 100
AcDbRotatedDimension
   0
LINE
   5
362
 100
AcDbEntity
   8
LEVEL001
 370
30
 100
AcDbLine
   6
CONTINUOUS
  62
7
  10
 97.464218672517
  20
 155.62441741194
  30
0.0
  11
 111.20536211664
  21
 161.02061747559
  31
0.0
   0
ARC
   5
363
 100
AcDbEntity
   8
LEVEL001
 370
30
   6
CONTINUOUS
  62
7
 100
AcDbCircle
  10
 111.75365527019
  20
 159.62441741193
  30
0.0
  40
 1.5000000000000
 100
AcDbArc
  50
 90.000000000000
  51
 111.44012767129
   0
POINT
   5
364
 100
AcDbEntity
   8
LEVEL001
 100
AcDbPoint
  62
7
  10
 111.46968326817
  20
 161.12441741193
  30
0.0
   0
LINE
   5
365
 100
AcDbEntity
   8
LEVEL001
 370
30
 100
AcDbLine
   6
CONTINUOUS
  62
7
  10
 98.012511826069
  20
 154.22821734828
  30
0.0
  11
 111.75365527019
  21
 159.62441741193
  31
0.0
   0
LINE
   5
366
 100
AcDbEntity
   8
LEVEL001
 370
30
 100
AcDbLine
   6
CONTINUOUS
  62
7
  10
 98.012511826069
  20
 154.22821734828
  30
0.0
  11
 97.464218672517
  21
 155.62441741194
  31
0.0
   0
DIMENSION
   5
367
 100
AcDbEntity
   8
LEVEL001
 370
15
   6
CONTINUOUS
  62
8
 100
AcDbDimension
   2
*D16
  10
 93.464218672481
  20
 161.12441741193
  30
0.0
  11
 93.464218672481
  21
 157.67631738010
  31
0.0
  70
0
   1
\A1;7
   3
GMM001
 100
AcDbAlignedDimension
  13
 98.022497174608
  23
 154.22821734828
  33
0.0
  14
 111.18014350253
  24
 161.12441741193
  34
0.0
  50
 90.000000000000
 100
AcDbRotatedDimension
   0
DIMENSION
   5
368
 100
AcDbEntity
   8
LEVEL001
 370
15
   6
CONTINUOUS
  62
8
 100
AcDbDimension
   2
*D17
  10
 147.46421867248
  20
 175.12441741193
  30
0.0
  11
 122.46421867250
  21
 175.12441741193
  31
0.0
  70
0
   3
GMM001
 100
AcDbAlignedDimension
  13
 97.464218672517
  23
 155.62441741194
  33
0.0
  14
 147.46421867248
  24
 168.12441741193
  34
0.0
 100
AcDbRotatedDimension
   0
DIMENSION
   5
369
 100
AcDbEntity
   8
LEVEL001
 370
15
   6
CONTINUOUS
  62
8
 100
AcDbDimension
   2
*D18
  10
 147.46421867248
  20
 168.12441741193
  30
0.0
  11
 129.46421867248
  21
 168.12441741193
  31
0.0
  70
0
   3
GMM001
 100
AcDbAlignedDimension
  13
 111.46421867248
  23
 161.12441741193
  33
0.0
  14
 147.46421867248
  24
 161.12441741193
  34
0.0
 100
AcDbRotatedDimension
   0
DIMENSION
   5
36A
 100
AcDbEntity
   8
LEVEL001
 370
15
   6
CONTINUOUS
  62
8
 100
AcDbDimension
   2
*D19
  10
 152.45924080956
  20
 159.62441741193
  30
0.0
  11
 152.45924080956
  21
 156.92631738010
  31
0.0
  70
0
   1
\A1;5.5
   3
GMM001
 100
AcDbAlignedDimension
  13
 98.022497174608
  23
 154.22821734828
  33
0.0
  14
 147.46421867248
  24
 159.62441741193
  34
0.0
  50
 90.000000000000
 100
AcDbRotatedDimension
   0
DIMENSION
   5
36B
 100
AcDbEntity
   8
LEVEL001
 370
15
   6
CONTINUOUS
  62
8
 100
AcDbDimension
   2
*D20
  10
 152.45924080956
  20
 161.12441741193
  30
0.0
  11
 152.45924080956
  21
 162.15275653425
  31
0.0
  70
128
   3
GMM005
 100
AcDbAlignedDimension
  13
 147.46421867248
  23
 159.62441741193
  33
0.0
  14
 147.46421867248
  24
 161.12441741193
  34
0.0
  50
 90.000000000000
 100
AcDbRotatedDimension
   0
LINE
   5
36C
 100
AcDbEntity
   8
LEVEL002
 370
30
 100
AcDbLine
   6
CONTINUOUS
  62
7
  10
 147.46421867248
  20
 159.62441741193
  30
0.0
  11
 147.46421867248
  21
 161.12441741193
  31
0.0
   0
LINE
   5
36D
 100
AcDbEntity
   8
LEVEL002
 370
30
 100
AcDbLine
   6
CONTINUOUS
  62
7
  10
 147.46421867248
  20
 161.12441741193
  30
0.0
  11
 111.75365527019
  21
 161.12441741193
  31
0.0
   0
MTEXT
   5
36F
 100
AcDbEntity
   8
LEVEL001
 370
15
  62
8
 100
AcDbMText
  10
 224.32499999995
  20
 211.75000000000
  30
0.0
  40
 3.0000000000000
  41
0.0
  71
5
  72
1
   1
\W0.500000;\T0.750000;(\W1.000000;\T0.833333;Ｓ＝１／２\W0.500000;\T0.750000;)
   7
GMM002
  44
 0.79999984000003
   0
LINE
   5
370
 100
AcDbEntity
   8
LEVEL002
 370
30
 100
AcDbLine
   6
CONTINUOUS
  62
7
  10
 147.46421867248
  20
 159.62441741193
  30
0.0
  11
 111.75365527019
  21
 159.62441741193
  31
0.0
   0
MTEXT
   5
372
 100
AcDbEntity
   8
LEVEL001
 370
15
  62
8
 100
AcDbMText
  10
 15.799999999950
  20
 280.00000000000
  30
0.0
  40
 3.0000000000000
  41
0.0
  71
4
  72
1
   1
\W0.500000;\T1.000000; \W1.000000;\T1.000000;床押え
   7
GMM002
  44
 0.79999984000003
   0
MTEXT
   5
374
 100
AcDbEntity
   8
LEVEL001
 370
15
  62
8
 100
AcDbMText
  10
 88.049999999950
  20
 280.00000000000
  30
0.0
  40
 3.0000000000000
  41
0.0
  71
4
  72
1
   1
\W0.500000;\T1.000000; \W1.000000;\T1.000000;床押え
   7
GMM002
  44
 0.79999984000003
   0
MTEXT
   5
376
 100
AcDbEntity
   8
LEVEL001
 370
15
  62
8
 100
AcDbMText
  10
 15.799999999950
  20
 211.75000000000
  30
0.0
  40
 3.0000000000000
  41
0.0
  71
4
  72
1
   1
\W0.500000;\T1.000000; \W1.000000;\T1.000000;床押え
   7
GMM002
  44
 0.79999984000003
   0
MTEXT
   5
378
 100
AcDbEntity
   8
LEVEL001
 370
15
  62
8
 100
AcDbMText
  10
 88.049999999950
  20
 211.75000000000
  30
0.0
  40
 3.0000000000000
  41
0.0
  71
4
  72
1
   1
\W0.500000;\T1.000000; \W1.000000;\T1.000000;床押え
   7
GMM002
  44
 0.79999984000003
   0
MTEXT
   5
37A
 100
AcDbEntity
   8
LEVEL001
 370
15
  62
8
 100
AcDbMText
  10
 160.29999999995
  20
 211.75000000000
  30
0.0
  40
 3.0000000000000
  41
0.0
  71
4
  72
1
   1
\W0.500000;\T1.000000; \W1.000000;\T1.000000;床押え
   7
GMM002
  44
 0.79999984000003
   0
MTEXT
   5
37C
 100
AcDbEntity
   8
LEVEL002
 370
15
  62
8
 100
AcDbMText
  10
 51.624999999950
  20
 143.50000000001
  30
0.0
  40
 3.0000000000000
  41
0.0
  71
5
  72
1
   1
\T1.000000;ＳＷ１５３５Ａ
   7
GMM002
  44
 0.79999984000003
   0
MTEXT
   5
37E
 100
AcDbEntity
   8
LEVEL002
 370
15
  62
8
 100
AcDbMText
  10
 123.87499999995
  20
 143.50000000001
  30
0.0
  40
 3.0000000000000
  41
0.0
  71
5
  72
1
   1
\T1.000000;ＳＷ１５５０Ａ
   7
GMM002
  44
 0.79999984000003
   0
MTEXT
   5
380
 100
AcDbEntity
   8
LEVEL002
 370
15
  62
8
 100
AcDbMText
  10
 196.12499999995
  20
 143.50000000001
  30
0.0
  40
 3.0000000000000
  41
0.0
  71
5
  72
1
   1
\T1.000000;ＳＷ１５１００Ａ
   7
GMM002
  44
 0.79999984000003
   0
MTEXT
   5
382
 100
AcDbEntity
   8
LEVEL001
 370
15
  62
8
 100
AcDbMText
  10
 15.799999999950
  20
 143.50000000001
  30
0.0
  40
 3.0000000000000
  41
0.0
  71
4
  72
1
   1
\W0.500000;\T1.000000; \W1.000000;\T1.000000;ハの字押え
   7
GMM002
  44
 0.79999984000003
   0
MTEXT
   5
384
 100
AcDbEntity
   8
LEVEL001
 370
15
  62
8
 100
AcDbMText
  10
 88.049999999950
  20
 143.50000000001
  30
0.0
  40
 3.0000000000000
  41
0.0
  71
4
  72
1
   1
\W0.500000;\T1.000000; \W1.000000;\T1.000000;ハの字押え
   7
GMM002
  44
 0.79999984000003
   0
MTEXT
   5
386
 100
AcDbEntity
   8
LEVEL001
 370
15
  62
8
 100
AcDbMText
  10
 160.29999999995
  20
 143.50000000001
  30
0.0
  40
 3.0000000000000
  41
0.0
  71
4
  72
1
   1
\W0.500000;\T1.000000; \W1.000000;\T1.000000;ハの字押え
   7
GMM002
  44
 0.79999984000003
   0
MTEXT
   5
388
 100
AcDbEntity
   8
LEVEL001
 370
15
  62
8
 100
AcDbMText
  10
 224.32499999995
  20
 143.50000000001
  30
0.0
  40
 3.0000000000000
  41
0.0
  71
5
  72
1
   1
\W0.500000;\T0.750000;(\W1.000000;\T0.833333;Ｓ＝１／２\W0.500000;\T0.750000;)
   7
GMM002
  44
 0.79999984000003
   0
LINE
   5
389
 100
AcDbEntity
   8
LEVEL002
 370
30
 100
AcDbLine
   6
CONTINUOUS
  62
7
  10
 34.124999999950
  20
 93.224948618983
  30
0.0
  11
 35.185660171730
  21
 92.164288447203
  31
0.0
   0
LINE
   5
38A
 100
AcDbEntity
   8
LEVEL002
 370
30
 100
AcDbLine
   6
CONTINUOUS
  62
7
  10
 68.064339828171
  20
 92.164288447203
  30
0.0
  11
 69.124999999950
  21
 93.224948618983
  31
0.0
   0
LINE
   5
38B
 100
AcDbEntity
   8
LEVEL002
 370
30
 100
AcDbLine
   6
CONTINUOUS
  62
7
  10
 65.710786437577
  20
 96.639162181356
  30
0.0
  11
 69.124999999950
  21
 93.224948618983
  31
0.0
   0
LINE
   5
38C
 100
AcDbEntity
   8
LEVEL002
 370
30
 100
AcDbLine
   6
CONTINUOUS
  62
7
  10
 35.185660171730
  20
 92.164288447203
  30
0.0
  11
 38.599873734103
  21
 95.578502009578
  31
0.0
   0
ARC
   5
38D
 100
AcDbEntity
   8
LEVEL002
 370
30
   6
CONTINUOUS
  62
7
 100
AcDbCircle
  10
 38.953427124697
  20
 95.224948618983
  30
0.0
  40
 0.50000000000000
 100
AcDbArc
  50
 89.999999999999
  51
 134.99999999999
   0
LINE
   5
38E
 100
AcDbEntity
   8
LEVEL002
 370
30
 100
AcDbLine
   6
CONTINUOUS
  62
7
  10
 38.953427124697
  20
 95.724948618983
  30
0.0
  11
 64.296572875204
  21
 95.724948618983
  31
0.0
   0
ARC
   5
38F
 100
AcDbEntity
   8
LEVEL002
 370
30
   6
CONTINUOUS
  62
7
 100
AcDbCircle
  10
 38.953427124697
  20
 95.224948618983
  30
0.0
  40
 2.0000000000000
 100
AcDbArc
  50
 90.000000000003
  51
 135.00000000000
   0
LINE
   5
390
 100
AcDbEntity
   8
LEVEL002
 370
30
 100
AcDbLine
   6
CONTINUOUS
  62
7
  10
 34.124999999950
  20
 93.224948618983
  30
0.0
  11
 37.539213562324
  21
 96.639162181356
  31
0.0
   0
LINE
   5
391
 100
AcDbEntity
   8
LEVEL002
 370
30
 100
AcDbLine
   6
CONTINUOUS
  62
7
  10
 38.953427124697
  20
 97.224948618983
  30
0.0
  11
 64.296572875204
  21
 97.224948618983
  31
0.0
   0
ARC
   5
392
 100
AcDbEntity
   8
LEVEL002
 370
30
   6
CONTINUOUS
  62
7
 100
AcDbCircle
  10
 64.296572875204
  20
 95.224948618983
  30
0.0
  40
 0.50000000000000
 100
AcDbArc
  50
 45.000000000009
  51
 90.000000000000
   0
LINE
   5
393
 100
AcDbEntity
   8
LEVEL002
 370
30
 100
AcDbLine
   6
CONTINUOUS
  62
7
  10
 64.650126265798
  20
 95.578502009578
  30
0.0
  11
 68.064339828171
  21
 92.164288447203
  31
0.0
   0
ARC
   5
394
 100
AcDbEntity
   8
LEVEL002
 370
30
   6
CONTINUOUS
  62
7
 100
AcDbCircle
  10
 64.296572875204
  20
 95.224948618983
  30
0.0
  40
 2.0000000000000
 100
AcDbArc
  50
 44.999999999996
  51
 89.999999999998
   0
LINE
   5
395
 100
AcDbEntity
   8
LEVEL002
 370
30
 100
AcDbLine
   6
CONTINUOUS
  62
7
  10
 99.806899999950
  20
 91.191475556708
  30
0.0
  11
 104.22969999995
  21
 95.623275556708
  31
0.0
   0
LINE
   5
396
 100
AcDbEntity
   8
LEVEL002
 370
30
 100
AcDbLine
   6
CONTINUOUS
  62
7
  10
 104.22969999995
  20
 95.623275556708
  30
0.0
  11
 125.13179999995
  21
 95.623275556708
  31
0.0
   0
LINE
   5
397
 100
AcDbEntity
   8
LEVEL002
 370
30
 100
AcDbLine
   6
CONTINUOUS
  62
7
  10
 125.13179999995
  20
 95.623275556708
  30
0.0
  11
 143.39559999995
  21
 95.623275556708
  31
0.0
   0
LINE
   5
398
 100
AcDbEntity
   8
LEVEL002
 370
30
 100
AcDbLine
   6
CONTINUOUS
  62
7
  10
 143.39559999995
  20
 95.623275556708
  30
0.0
  11
 147.77569999995
  21
 91.191475556708
  31
0.0
   0
LINE
   5
399
 100
AcDbEntity
   8
LEVEL002
 370
30
 100
AcDbLine
   6
CONTINUOUS
  62
7
  10
 147.77569999995
  20
 91.191475556708
  30
0.0
  11
 148.87819999995
  21
 92.337975556708
  31
0.0
   0
LINE
   5
39A
 100
AcDbEntity
   8
LEVEL002
 370
30
 100
AcDbLine
   6
CONTINUOUS
  62
7
  10
 148.87819999995
  20
 92.337975556708
  30
0.0
  11
 144.51249999995
  21
 96.747675556708
  31
0.0
   0
ARC
   5
39B
 100
AcDbEntity
   8
LEVEL002
 370
30
   6
CONTINUOUS
  62
7
 100
AcDbCircle
  10
 143.63473370051
  20
 96.211219801084
  30
0.0
  40
 1.0287168970036
 100
AcDbArc
  50
 31.431609987836
  51
 63.340874540504
   0
ARC
   5
39C
 100
AcDbEntity
   8
LEVEL002
 370
30
   6
CONTINUOUS
  62
7
 100
AcDbCircle
  10
 143.47664278034
  20
 95.938194151741
  30
0.0
  40
 1.3437814125528
 100
AcDbArc
  50
 62.539985384469
  51
 90.006087830867
   0
ARC
   5
39D
 100
AcDbEntity
   8
LEVEL002
 370
30
   6
CONTINUOUS
  62
7
 100
AcDbCircle
  10
 143.44010364586
  20
 95.626510980433
  30
0.0
  40
 1.6558646254727
 100
AcDbArc
  50
 88.740521779007
  51
 90.013966846714
   0
LINE
   5
39E
 100
AcDbEntity
   8
LEVEL002
 370
30
 100
AcDbLine
   6
CONTINUOUS
  62
7
  10
 143.43969999995
  20
 97.282375556708
  30
0.0
  11
 119.04639999995
  21
 97.210775556708
  31
0.0
   0
LINE
   5
39F
 100
AcDbEntity
   8
LEVEL002
 370
30
 100
AcDbLine
   6
CONTINUOUS
  62
7
  10
 119.04639999995
  20
 97.210775556708
  30
0.0
  11
 104.42819999995
  21
 97.210775556708
  31
0.0
   0
ARC
   5
3A0
 100
AcDbEntity
   8
LEVEL002
 370
30
   6
CONTINUOUS
  62
7
 100
AcDbCircle
  10
 104.23416676343
  20
 95.571131611214
  30
0.0
  40
 1.6510848448430
 100
AcDbArc
  50
 83.251082536949
  51
 108.92390289828
   0
ARC
   5
3A1
 100
AcDbEntity
   8
LEVEL002
 370
30
   6
CONTINUOUS
  62
7
 100
AcDbCircle
  10
 104.16583031651
  20
 95.767880902784
  30
0.0
  40
 1.4428077303732
 100
AcDbArc
  50
 108.89075589363
  51
 134.79320797199
   0
LINE
   5
3A2
 100
AcDbEntity
   8
LEVEL002
 370
30
 100
AcDbLine
   6
CONTINUOUS
  62
7
  10
 103.14929999995
  20
 96.791775556708
  30
0.0
  11
 98.673499999950
  21
 92.337975556708
  31
0.0
   0
LINE
   5
3A3
 100
AcDbEntity
   8
LEVEL002
 370
30
 100
AcDbLine
   6
CONTINUOUS
  62
7
  10
 98.673499999950
  20
 92.337975556708
  30
0.0
  11
 99.806899999950
  21
 91.191475556708
  31
0.0
   0
DIMENSION
   5
3A4
 100
AcDbEntity
   8
LEVEL001
 370
15
   6
CONTINUOUS
  62
8
 100
AcDbDimension
   2
*D21
  10
 69.124999999950
  20
 105.22494861898
  30
0.0
  11
 51.624999999950
  21
 105.22494861898
  31
0.0
  70
0
   3
GMM001
 100
AcDbAlignedDimension
  13
 34.124999999950
  23
 93.558281952318
  33
0.0
  14
 69.124999999950
  24
 93.224948618983
  34
0.0
 100
AcDbRotatedDimension
   0
DIMENSION
   5
3A5
 100
AcDbEntity
   8
LEVEL001
 370
15
   6
CONTINUOUS
  62
8
 100
AcDbDimension
   2
*D22
  10
 75.194684694639
  20
 97.224948618983
  30
0.0
  11
 75.194684694639
  21
 95.224948618983
  31
0.0
  70
0
   3
GMM001
 100
AcDbAlignedDimension
  13
 69.124999999950
  23
 93.224948618983
  33
0.0
  14
 64.296572875204
  24
 97.224948618983
  34
0.0
  50
 90.000000000000
 100
AcDbRotatedDimension
   0
DIMENSION
   5
3A6
 100
AcDbEntity
   8
LEVEL001
 370
15
   6
CONTINUOUS
  62
8
 100
AcDbDimension
   2
*D23
  10
 31.955529534664
  20
 88.934157810138
  30
0.0
  11
 29.624821436072
  21
 91.264865908730
  31
0.0
  70
128
   3
GMM006
 100
AcDbAlignedDimension
  13
 34.124999999950
  23
 93.224948618983
  33
0.0
  14
 35.185660171730
  24
 92.164288447203
  34
0.0
  50
 315.00000000000
 100
AcDbRotatedDimension
   0
DIMENSION
   5
3A7
 100
AcDbEntity
   8
LEVEL001
 370
15
   6
CONTINUOUS
  62
8
 100
AcDbDimension
   2
*D24
  10
 148.75279999995
  20
 104.95180891289
  30
0.0
  11
 123.79374999995
  21
 104.95180891289
  31
0.0
  70
0
   3
GMM007
 100
AcDbAlignedDimension
  13
 98.834699999950
  23
 92.337975556708
  33
0.0
  14
 148.75279999995
  24
 92.337975556708
  34
0.0
 100
AcDbRotatedDimension
   0
DIMENSION
   5
3A8
 100
AcDbEntity
   8
LEVEL001
 370
15
   6
CONTINUOUS
  62
8
 100
AcDbDimension
   2
*D25
  10
 154.52929999995
  20
 97.304475556708
  30
0.0
  11
 154.52929999995
  21
 94.338925556708
  31
0.0
  70
0
   3
GMM007
 100
AcDbAlignedDimension
  13
 148.22703393434
  23
 91.373375556708
  33
0.0
  14
 145.21829468206
  24
 97.304475556708
  34
0.0
  50
 90.000000000000
 100
AcDbRotatedDimension
   0
DIMENSION
   5
3A9
 100
AcDbEntity
   8
LEVEL001
 370
15
   6
CONTINUOUS
  62
8
 100
AcDbDimension
   2
*D26
  10
 96.166275240871
  20
 87.431819603425
  30
0.0
  11
 97.078924629178
  21
 86.506303990195
  31
0.0
  70
128
   1
\A1;1.5
   3
GMM008
 100
AcDbAlignedDimension
  13
 98.794501950037
  23
 92.378740305245
  33
0.0
  14
 99.891712692367
  24
 91.105467203405
  34
0.0
  50
 314.59896508356
 100
AcDbRotatedDimension
   0
LINE
   5
3AA
 100
AcDbEntity
   8
LEVEL002
 370
15
 100
AcDbLine
   6
DASHDOT
  62
8
  10
 51.624999999950
  20
 91.802058660415
  30
0.0
  11
 51.624999999950
  21
 98.647838577533
  31
0.0
   0
LINE
   5
3AB
 100
AcDbEntity
   8
LEVEL001
 370
15
 100
AcDbLine
   6
DASHDOT
  62
8
  10
 123.87499999995
  20
 92.014230128055
  30
0.0
  11
 123.87499999995
  21
 100.06260762792
  31
0.0
   0
MTEXT
   5
3AD
 100
AcDbEntity
   8
LEVEL002
 370
15
  62
8
 100
AcDbMText
  10
 387.21508456075
  20
 42.000000000010
  30
0.0
  40
 3.0000000000000
  41
0.0
  71
5
  72
1
   1
\T1.000000;令和　　年　　月　　日
   7
GMM002
  44
 0.79999984000003
   0
MTEXT
   5
3AF
 100
AcDbEntity
   8
LEVEL002
 370
15
  62
8
 100
AcDbMText
  10
 387.21508456075
  20
 35.333333333345
  30
0.0
  40
 3.0000000000000
  41
0.0
  71
5
  72
1
   1
\T1.000000;令和　　年　　月　　日
   7
GMM002
  44
 0.79999984000003
   0
MTEXT
   5
3B1
 100
AcDbEntity
   8
LEVEL002
 370
15
  62
8
 100
AcDbMText
  10
 387.21508456075
  20
 48.666666666680
  30
0.0
  40
 3.0000000000000
  41
0.0
  71
5
  72
1
   1
\T1.000000;令和０５年０３月３０日
   7
GMM002
  44
 0.79999984000003
   0
MTEXT
   5
3B3
 100
AcDbEntity
   8
LEVEL002
 370
15
  62
8
 100
AcDbMText
  10
 51.624999999950
  20
 75.250000000000
  30
0.0
  40
 3.0000000000000
  41
0.0
  71
5
  72
1
   1
\T1.000000;ＳＦＭ２５
   7
GMM002
  44
 0.79999984000003
   0
MTEXT
   5
3B5
 100
AcDbEntity
   8
LEVEL002
 370
15
  62
8
 100
AcDbMText
  10
 123.87499999995
  20
 75.250000000000
  30
0.0
  40
 3.0000000000000
  41
0.0
  71
5
  72
1
   1
\T1.000000;ＳＦＭ３０
   7
GMM002
  44
 0.79999984000003
   0
MTEXT
   5
3B7
 100
AcDbEntity
   8
LEVEL002
 370
15
  62
8
 100
AcDbMText
  10
 196.12499999995
  20
 75.250000000000
  30
0.0
  40
 3.0000000000000
  41
0.0
  71
5
  72
1
   1
\T1.000000;ＳＦＭ４０
   7
GMM002
  44
 0.79999984000003
   0
MTEXT
   5
3B9
 100
AcDbEntity
   8
LEVEL002
 370
15
  62
8
 100
AcDbMText
  10
 268.37499999995
  20
 75.250000000000
  30
0.0
  40
 3.0000000000000
  41
0.0
  71
5
  72
1
   1
\T1.000000;ＳＧＭ４０
   7
GMM002
  44
 0.79999984000003
   0
MTEXT
   5
3BB
 100
AcDbEntity
   8
LEVEL001
 370
15
  62
8
 100
AcDbMText
  10
 15.799999999950
  20
 75.250000000000
  30
0.0
  40
 3.0000000000000
  41
0.0
  71
4
  72
1
   1
\W0.500000;\T1.000000; \W1.000000;\T1.000000;床見切
   7
GMM002
  44
 0.79999984000003
   0
MTEXT
   5
3BD
 100
AcDbEntity
   8
LEVEL001
 370
15
  62
8
 100
AcDbMText
  10
 88.049999999950
  20
 75.250000000000
  30
0.0
  40
 3.0000000000000
  41
0.0
  71
4
  72
1
   1
\W0.500000;\T1.000000; \W1.000000;\T1.000000;床見切
   7
GMM002
  44
 0.79999984000003
   0
MTEXT
   5
3BF
 100
AcDbEntity
   8
LEVEL001
 370
15
  62
8
 100
AcDbMText
  10
 160.29999999995
  20
 75.250000000000
  30
0.0
  40
 3.0000000000000
  41
0.0
  71
4
  72
1
   1
\W0.500000;\T1.000000; \W1.000000;\T1.000000;床見切
   7
GMM002
  44
 0.79999984000003
   0
MTEXT
   5
3C1
 100
AcDbEntity
   8
LEVEL001
 370
15
  62
8
 100
AcDbMText
  10
 232.54999999995
  20
 75.250000000000
  30
0.0
  40
 3.0000000000000
  41
0.0
  71
4
  72
1
   1
\W0.500000;\T1.000000; \W1.000000;\T1.000000;床見切
   7
GMM002
  44
 0.79999984000003
   0
MTEXT
   5
3C3
 100
AcDbEntity
   8
LEVEL002
 370
15
  62
8
 100
AcDbMText
  10
 17.999999999950
  20
 68.416666666700
  30
0.0
  40
 2.0000000000000
  41
0.0
  71
1
  72
1
   3
{\W0.500000;\T1.000000;･\W1.000000;\T1.000000;定尺：４０００\W0.500000;\T1.000000;m/m}\P{\W0.500000;\T1.000000;･\W1.000000;\T1.000000;材質：ＳＵＳ３０４　ｔ＝１\W0.500000;\T1.000000;.\W1.000000;\T1.000000;５}\P{\W0.500000;\T1.000000;･\W1.000000;\T1.0
   1
00000;仕上：ＨＬ（穴なし）}\P\P{\W0.500000;\T1.000000;･\W1.000000;\T1.000000;長尺シート／コンクリート}\P{\W0.500000;\T1.000000; \W1.000000;\T1.000000;石／木製用}
   7
GMM002
  44
 0.79999984000003
   0
MTEXT
   5
3C5
 100
AcDbEntity
   8
LEVEL002
 370
15
  62
8
 100
AcDbMText
  10
 90.249999999950
  20
 68.416666666700
  30
0.0
  40
 2.0000000000000
  41
0.0
  71
1
  72
1
   3
{\W0.500000;\T1.000000;･\W1.000000;\T1.000000;定尺：４０００\W0.500000;\T1.000000;m/m}\P{\W0.500000;\T1.000000;･\W1.000000;\T1.000000;材質：ＳＵＳ３０４　ｔ＝１\W0.500000;\T1.000000;.\W1.000000;\T1.000000;５}\P{\W0.500000;\T1.000000;･\W1.000000;\T1.0
   1
00000;仕上：ＨＬ（穴なし）}\P\P{\W0.500000;\T1.000000;･\W1.000000;\T1.000000;長尺シート／コンクリート}\P{\W0.500000;\T1.000000; \W1.000000;\T1.000000;石／木製用}
   7
GMM002
  44
 0.79999984000003
   0
MTEXT
   5
3C7
 100
AcDbEntity
   8
LEVEL002
 370
15
  62
8
 100
AcDbMText
  10
 162.49999999995
  20
 68.416666666700
  30
0.0
  40
 2.0000000000000
  41
0.0
  71
1
  72
1
   3
{\W0.500000;\T1.000000;･\W1.000000;\T1.000000;定尺：４０００\W0.500000;\T1.000000;m/m}\P{\W0.500000;\T1.000000;･\W1.000000;\T1.000000;材質：ＳＵＳ３０４　ｔ＝１\W0.500000;\T1.000000;.\W1.000000;\T1.000000;５}\P{\W0.500000;\T1.000000;･\W1.000000;\T1.0
   1
00000;仕上：ＨＬ（穴なし）}\P\P{\W0.500000;\T1.000000;･\W1.000000;\T1.000000;長尺シート／コンクリート}\P{\W0.500000;\T1.000000; \W1.000000;\T1.000000;石／木製用}
   7
GMM002
  44
 0.79999984000003
   0
MTEXT
   5
3C9
 100
AcDbEntity
   8
LEVEL002
 370
15
  62
8
 100
AcDbMText
  10
 234.74999999995
  20
 68.416666666700
  30
0.0
  40
 2.0000000000000
  41
0.0
  71
1
  72
1
   3
{\W0.500000;\T1.000000;･\W1.000000;\T1.000000;定尺：４０００\W0.500000;\T1.000000;m/m}\P{\W0.500000;\T1.000000;･\W1.000000;\T1.000000;材質：ＳＵＳ３０４　ｔ＝１\W0.500000;\T1.000000;.\W1.000000;\T1.000000;５}\P{\W0.500000;\T1.000000;･\W1.000000;\T1.0
   1
00000;仕上：ＨＬ（穴なし）}\P\P{\W0.500000;\T1.000000;･\W1.000000;\T1.000000;長尺シート／コンクリート}\P{\W0.500000;\T1.000000; \W1.000000;\T1.000000;石／木製用}
   7
GMM002
  44
 0.79999984000003
   0
ARC
   5
3CA
 100
AcDbEntity
   8
LEVEL001
 370
30
   6
CONTINUOUS
  62
7
 100
AcDbCircle
  10
 61.874999999950
  20
 29.448445030146
  30
0.0
  40
 2.2500000000000
 100
AcDbArc
  50
0.0
  51
 90.000000000000
   0
ARC
   5
3CB
 100
AcDbEntity
   8
LEVEL001
 370
30
   6
CONTINUOUS
  62
7
 100
AcDbCircle
  10
 61.874999999950
  20
 29.448445030146
  30
0.0
  40
 0.75000000000000
 100
AcDbArc
  50
0.0
  51
 90.000000000000
   0
ARC
   5
3CC
 100
AcDbEntity
   8
LEVEL001
 370
30
   6
CONTINUOUS
  62
7
 100
AcDbCircle
  10
 41.374999999950
  20
 29.448445030146
  30
0.0
  40
 2.2500000000000
 100
AcDbArc
  50
 90.000000000000
  51
 180.00000000000
   0
ARC
   5
3CD
 100
AcDbEntity
   8
LEVEL001
 370
30
   6
CONTINUOUS
  62
7
 100
AcDbCircle
  10
 41.374999999950
  20
 29.448445030146
  30
0.0
  40
 0.75000000000000
 100
AcDbArc
  50
 90.000000000000
  51
 180.00000000000
   0
LINE
   5
3CE
 100
AcDbEntity
   8
LEVEL001
 370
30
 100
AcDbLine
   6
CONTINUOUS
  62
7
  10
 41.374999999950
  20
 31.698445030146
  30
0.0
  11
 61.874999999950
  21
 31.698445030146
  31
0.0
   0
LINE
   5
3CF
 100
AcDbEntity
   8
LEVEL001
 370
30
 100
AcDbLine
   6
CONTINUOUS
  62
7
  10
 41.374999999950
  20
 30.198445030146
  30
0.0
  11
 61.874999999950
  21
 30.198445030146
  31
0.0
   0
LINE
   5
3D0
 100
AcDbEntity
   8
LEVEL001
 370
30
 100
AcDbLine
   6
CONTINUOUS
  62
7
  10
 39.124999999950
  20
 21.698445030146
  30
0.0
  11
 40.624999999950
  21
 21.698445030146
  31
0.0
   0
LINE
   5
3D1
 100
AcDbEntity
   8
LEVEL001
 370
30
 100
AcDbLine
   6
CONTINUOUS
  62
7
  10
 62.624999999950
  20
 21.698445030146
  30
0.0
  11
 64.124999999950
  21
 21.698445030146
  31
0.0
   0
LINE
   5
3D2
 100
AcDbEntity
   8
LEVEL001
 370
30
 100
AcDbLine
   6
CONTINUOUS
  62
7
  10
 39.124999999950
  20
 21.698445030146
  30
0.0
  11
 39.124999999950
  21
 29.448445030146
  31
0.0
   0
LINE
   5
3D3
 100
AcDbEntity
   8
LEVEL001
 370
30
 100
AcDbLine
   6
CONTINUOUS
  62
7
  10
 40.624999999950
  20
 21.698445030146
  30
0.0
  11
 40.624999999950
  21
 29.448445030146
  31
0.0
   0
LINE
   5
3D4
 100
AcDbEntity
   8
LEVEL001
 370
30
 100
AcDbLine
   6
CONTINUOUS
  62
7
  10
 62.624999999950
  20
 29.448445030146
  30
0.0
  11
 62.624999999950
  21
 21.698445030146
  31
0.0
   0
LINE
   5
3D5
 100
AcDbEntity
   8
LEVEL001
 370
30
 100
AcDbLine
   6
CONTINUOUS
  62
7
  10
 64.124999999950
  20
 29.448445030146
  30
0.0
  11
 64.124999999950
  21
 21.698445030146
  31
0.0
   0
ARC
   5
3D6
 100
AcDbEntity
   8
LEVEL002
 370
30
   6
CONTINUOUS
  62
7
 100
AcDbCircle
  10
 111.12499999995
  20
 29.448445030146
  30
0.0
  40
 2.2500000000000
 100
AcDbArc
  50
 89.999999999998
  51
 180.00000000000
   0
ARC
   5
3D7
 100
AcDbEntity
   8
LEVEL002
 370
30
   6
CONTINUOUS
  62
7
 100
AcDbCircle
  10
 111.12499999995
  20
 29.448445030146
  30
0.0
  40
 0.75000000000000
 100
AcDbArc
  50
 89.999999999993
  51
 180.00000000000
   0
LINE
   5
3D8
 100
AcDbEntity
   8
LEVEL002
 370
30
 100
AcDbLine
   6
CONTINUOUS
  62
7
  10
 108.87499999995
  20
 21.698445030146
  30
0.0
  11
 110.37499999995
  21
 21.698445030146
  31
0.0
   0
LINE
   5
3D9
 100
AcDbEntity
   8
LEVEL002
 370
30
 100
AcDbLine
   6
CONTINUOUS
  62
7
  10
 108.87499999995
  20
 21.698445030146
  30
0.0
  11
 108.87499999995
  21
 29.448445030146
  31
0.0
   0
LINE
   5
3DA
 100
AcDbEntity
   8
LEVEL002
 370
30
 100
AcDbLine
   6
CONTINUOUS
  62
7
  10
 110.37499999995
  20
 21.698445030146
  30
0.0
  11
 110.37499999995
  21
 29.448445030146
  31
0.0
   0
ARC
   5
3DB
 100
AcDbEntity
   8
LEVEL002
 370
30
   6
CONTINUOUS
  62
7
 100
AcDbCircle
  10
 136.62499999995
  20
 29.448445030146
  30
0.0
  40
 2.2500000000000
 100
AcDbArc
  50
0.0
  51
 90.000000000000
   0
LINE
   5
3DC
 100
AcDbEntity
   8
LEVEL002
 370
30
 100
AcDbLine
   6
CONTINUOUS
  62
7
  10
 138.87499999995
  20
 29.448445030146
  30
0.0
  11
 138.87499999995
  21
 21.698445030146
  31
0.0
   0
LINE
   5
3DD
 100
AcDbEntity
   8
LEVEL002
 370
30
 100
AcDbLine
   6
CONTINUOUS
  62
7
  10
 137.37499999995
  20
 21.698445030146
  30
0.0
  11
 138.87499999995
  21
 21.698445030146
  31
0.0
   0
LINE
   5
3DE
 100
AcDbEntity
   8
LEVEL002
 370
30
 100
AcDbLine
   6
CONTINUOUS
  62
7
  10
 137.37499999995
  20
 29.448445030146
  30
0.0
  11
 137.37499999995
  21
 21.698445030146
  31
0.0
   0
ARC
   5
3DF
 100
AcDbEntity
   8
LEVEL002
 370
30
   6
CONTINUOUS
  62
7
 100
AcDbCircle
  10
 136.62499999995
  20
 29.448445030146
  30
0.0
  40
 0.75000000000000
 100
AcDbArc
  50
0.0
  51
 90.000000000000
   0
LINE
   5
3E0
 100
AcDbEntity
   8
LEVEL002
 370
30
 100
AcDbLine
   6
CONTINUOUS
  62
7
  10
 111.12499999995
  20
 30.198445030146
  30
0.0
  11
 136.62499999995
  21
 30.198445030146
  31
0.0
   0
LINE
   5
3E1
 100
AcDbEntity
   8
LEVEL002
 370
30
 100
AcDbLine
   6
CONTINUOUS
  62
7
  10
 111.12499999995
  20
 31.698445030146
  30
0.0
  11
 136.62499999995
  21
 31.698445030146
  31
0.0
   0
ARC
   5
3E2
 100
AcDbEntity
   8
LEVEL002
 370
30
   6
CONTINUOUS
  62
7
 100
AcDbCircle
  10
 178.37499999995
  20
 39.448445030146
  30
0.0
  40
 2.2500000000000
 100
AcDbArc
  50
 90.000000000000
  51
 180.00000000000
   0
ARC
   5
3E3
 100
AcDbEntity
   8
LEVEL002
 370
30
   6
CONTINUOUS
  62
7
 100
AcDbCircle
  10
 178.37499999995
  20
 39.448445030146
  30
0.0
  40
 0.75000000000000
 100
AcDbArc
  50
 90.000000000000
  51
 180.00000000000
   0
ARC
   5
3E4
 100
AcDbEntity
   8
LEVEL002
 370
30
   6
CONTINUOUS
  62
7
 100
AcDbCircle
  10
 213.87499999995
  20
 39.448445030146
  30
0.0
  40
 2.2500000000000
 100
AcDbArc
  50
0.0
  51
 90.000000000000
   0
ARC
   5
3E5
 100
AcDbEntity
   8
LEVEL002
 370
30
   6
CONTINUOUS
  62
7
 100
AcDbCircle
  10
 213.87499999995
  20
 39.448445030146
  30
0.0
  40
 0.75000000000000
 100
AcDbArc
  50
0.0
  51
 90.000000000000
   0
LINE
   5
3E6
 100
AcDbEntity
   8
LEVEL002
 370
30
 100
AcDbLine
   6
CONTINUOUS
  62
7
  10
 178.37499999995
  20
 40.198445030146
  30
0.0
  11
 213.87499999995
  21
 40.198445030146
  31
0.0
   0
LINE
   5
3E7
 100
AcDbEntity
   8
LEVEL002
 370
30
 100
AcDbLine
   6
CONTINUOUS
  62
7
  10
 178.37499999995
  20
 41.698445030146
  30
0.0
  11
 213.87499999995
  21
 41.698445030146
  31
0.0
   0
LINE
   5
3E8
 100
AcDbEntity
   8
LEVEL002
 370
30
 100
AcDbLine
   6
CONTINUOUS
  62
7
  10
 176.12499999995
  20
 21.698445030146
  30
0.0
  11
 177.62499999995
  21
 21.698445030146
  31
0.0
   0
LINE
   5
3E9
 100
AcDbEntity
   8
LEVEL002
 370
30
 100
AcDbLine
   6
CONTINUOUS
  62
7
  10
 214.62499999995
  20
 21.698445030146
  30
0.0
  11
 216.12499999995
  21
 21.698445030146
  31
0.0
   0
LINE
   5
3EA
 100
AcDbEntity
   8
LEVEL002
 370
30
 100
AcDbLine
   6
CONTINUOUS
  62
7
  10
 214.62499999995
  20
 39.448445030146
  30
0.0
  11
 214.62499999995
  21
 21.698445030146
  31
0.0
   0
LINE
   5
3EB
 100
AcDbEntity
   8
LEVEL002
 370
30
 100
AcDbLine
   6
CONTINUOUS
  62
7
  10
 216.12499999995
  20
 39.448445030146
  30
0.0
  11
 216.12499999995
  21
 21.698445030146
  31
0.0
   0
LINE
   5
3EC
 100
AcDbEntity
   8
LEVEL002
 370
30
 100
AcDbLine
   6
CONTINUOUS
  62
7
  10
 176.12499999995
  20
 21.698445030146
  30
0.0
  11
 176.12499999995
  21
 39.448445030146
  31
0.0
   0
LINE
   5
3ED
 100
AcDbEntity
   8
LEVEL002
 370
30
 100
AcDbLine
   6
CONTINUOUS
  62
7
  10
 177.62499999995
  20
 21.698445030146
  30
0.0
  11
 177.62499999995
  21
 39.448445030146
  31
0.0
   0
LINE
   5
3EE
 100
AcDbEntity
   8
LEVEL001
 370
30
 100
AcDbLine
   6
CONTINUOUS
  62
7
  10
 288.37499999995
  20
 39.448445030146
  30
0.0
  11
 288.37499999995
  21
 21.698445030146
  31
0.0
   0
ARC
   5
3EF
 100
AcDbEntity
   8
LEVEL001
 370
30
   6
CONTINUOUS
  62
7
 100
AcDbCircle
  10
 286.12499999995
  20
 39.448445030146
  30
0.0
  40
 2.2500000000000
 100
AcDbArc
  50
0.0
  51
 90.000000000000
   0
ARC
   5
3F0
 100
AcDbEntity
   8
LEVEL001
 370
30
   6
CONTINUOUS
  62
7
 100
AcDbCircle
  10
 286.12499999995
  20
 39.448445030146
  30
0.0
  40
 0.75000000000000
 100
AcDbArc
  50
0.0
  51
 90.000000000000
   0
LINE
   5
3F1
 100
AcDbEntity
   8
LEVEL001
 370
30
 100
AcDbLine
   6
CONTINUOUS
  62
7
  10
 286.87499999995
  20
 39.448445030146
  30
0.0
  11
 286.87499999995
  21
 21.698445030146
  31
0.0
   0
LINE
   5
3F2
 100
AcDbEntity
   8
LEVEL001
 370
30
 100
AcDbLine
   6
CONTINUOUS
  62
7
  10
 248.37499999995
  20
 21.698445030146
  30
0.0
  11
 249.87499999995
  21
 21.698445030146
  31
0.0
   0
LINE
   5
3F3
 100
AcDbEntity
   8
LEVEL001
 370
30
 100
AcDbLine
   6
CONTINUOUS
  62
7
  10
 286.87499999995
  20
 21.698445030146
  30
0.0
  11
 288.37499999995
  21
 21.698445030146
  31
0.0
   0
LINE
   5
3F4
 100
AcDbEntity
   8
LEVEL001
 370
30
 100
AcDbLine
   6
CONTINUOUS
  62
7
  10
 248.37499999995
  20
 21.698445030146
  30
0.0
  11
 248.37499999995
  21
 27.477401430723
  31
0.0
   0
ARC
   5
3F5
 100
AcDbEntity
   8
LEVEL001
 370
30
   6
CONTINUOUS
  62
7
 100
AcDbCircle
  10
 250.62499999995
  20
 27.477401430723
  30
0.0
  40
 2.2500000000000
 100
AcDbArc
  50
 123.02386755580
  51
 180.00000000000
   0
LINE
   5
3F6
 100
AcDbEntity
   8
LEVEL001
 370
30
 100
AcDbLine
   6
CONTINUOUS
  62
7
  10
 249.39877621111
  20
 29.363899567400
  30
0.0
  11
 267.81576636407
  21
 41.334943166822
  31
0.0
   0
ARC
   5
3F7
 100
AcDbEntity
   8
LEVEL001
 370
30
   6
CONTINUOUS
  62
7
 100
AcDbCircle
  10
 269.04199015291
  20
 39.448445030146
  30
0.0
  40
 2.2500000000000
 100
AcDbArc
  50
 90.000000000000
  51
 123.02386755580
   0
LINE
   5
3F8
 100
AcDbEntity
   8
LEVEL001
 370
30
 100
AcDbLine
   6
CONTINUOUS
  62
7
  10
 269.04199015291
  20
 41.698445030146
  30
0.0
  11
 286.12499999995
  21
 41.698445030146
  31
0.0
   0
ARC
   5
3F9
 100
AcDbEntity
   8
LEVEL001
 370
30
   6
CONTINUOUS
  62
7
 100
AcDbCircle
  10
 250.62499999995
  20
 27.477401430723
  30
0.0
  40
 0.75000000000000
 100
AcDbArc
  50
 123.02386755579
  51
 180.00000000000
   0
LINE
   5
3FA
 100
AcDbEntity
   8
LEVEL001
 370
30
 100
AcDbLine
   6
CONTINUOUS
  62
7
  10
 250.21625873700
  20
 28.106234142949
  30
0.0
  11
 268.63324888996
  21
 40.077277742371
  31
0.0
   0
ARC
   5
3FB
 100
AcDbEntity
   8
LEVEL001
 370
30
   6
CONTINUOUS
  62
7
 100
AcDbCircle
  10
 269.04199015291
  20
 39.448445030146
  30
0.0
  40
 0.75000000000000
 100
AcDbArc
  50
 90.000000000013
  51
 123.02386755581
   0
LINE
   5
3FC
 100
AcDbEntity
   8
LEVEL001
 370
30
 100
AcDbLine
   6
CONTINUOUS
  62
7
  10
 249.87499999995
  20
 21.698445030146
  30
0.0
  11
 249.87499999995
  21
 27.477401430723
  31
0.0
   0
LINE
   5
3FD
 100
AcDbEntity
   8
LEVEL001
 370
30
 100
AcDbLine
   6
CONTINUOUS
  62
7
  10
 269.04199015291
  20
 40.198445030146
  30
0.0
  11
 286.12499999995
  21
 40.198445030146
  31
0.0
   0
DIMENSION
   5
3FE
 100
AcDbEntity
   8
LEVEL001
 370
15
   6
CONTINUOUS
  62
8
 100
AcDbDimension
   2
*D27
  10
 294.54618435429
  20
 41.698445030146
  30
0.0
  11
 294.54618435429
  21
 31.698445030146
  31
0.0
  70
0
   3
GMM001
 100
AcDbAlignedDimension
  13
 288.87499999995
  23
 21.698445030146
  33
0.0
  14
 286.62499999995
  24
 41.698445030146
  34
0.0
  50
 90.000000000000
 100
AcDbRotatedDimension
   0
DIMENSION
   5
3FF
 100
AcDbEntity
   8
LEVEL001
 370
15
   6
CONTINUOUS
  62
8
 100
AcDbDimension
   2
*D28
  10
 288.37499999995
  20
 16.294993194406
  30
0.0
  11
 290.42785134186
  21
 16.294993194406
  31
0.0
  70
128
   3
GMM009
 100
AcDbAlignedDimension
  13
 286.87499999995
  23
 21.698445030146
  33
0.0
  14
 288.37499999995
  24
 21.698445030146
  34
0.0
 100
AcDbRotatedDimension
   0
DIMENSION
   5
400
 100
AcDbEntity
   8
LEVEL001
 370
15
   6
CONTINUOUS
  62
8
 100
AcDbDimension
   2
*D29
  10
 288.37499999995
  20
 48.628493145178
  30
0.0
  11
 268.37499999995
  21
 48.628493145178
  31
0.0
  70
0
   3
GMM001
 100
AcDbAlignedDimension
  13
 248.37499999995
  23
 27.477401430723
  33
0.0
  14
 288.37499999995
  24
 39.448445030146
  34
0.0
 100
AcDbRotatedDimension
   0
DIMENSION
   5
401
 100
AcDbEntity
   8
LEVEL001
 370
15
   6
CONTINUOUS
  62
8
 100
AcDbDimension
   2
*D30
  10
 244.62981391602
  20
 28.698445030146
  30
0.0
  11
 244.62981391602
  21
 25.198445030146
  31
0.0
  70
0
   3
GMM001
 100
AcDbAlignedDimension
  13
 248.37499999995
  23
 21.698445030146
  33
0.0
  14
 248.73514483928
  24
 28.698445030146
  34
0.0
  50
 90.000000000000
 100
AcDbRotatedDimension
   0
DIMENSION
   5
402
 100
AcDbEntity
   8
LEVEL001
 370
15
   6
CONTINUOUS
  62
8
 100
AcDbDimension
   2
*D31
  10
 222.29618435429
  20
 41.698445030146
  30
0.0
  11
 222.29618435429
  21
 31.698445030146
  31
0.0
  70
0
   3
GMM001
 100
AcDbAlignedDimension
  13
 216.62499999995
  23
 21.698445030146
  33
0.0
  14
 214.37499999995
  24
 41.698445030146
  34
0.0
  50
 90.000000000000
 100
AcDbRotatedDimension
   0
DIMENSION
   5
403
 100
AcDbEntity
   8
LEVEL001
 370
15
   6
CONTINUOUS
  62
8
 100
AcDbDimension
   2
*D32
  10
 216.12499999995
  20
 48.628493145178
  30
0.0
  11
 196.12499999995
  21
 48.628493145178
  31
0.0
  70
0
   3
GMM001
 100
AcDbAlignedDimension
  13
 176.12499999995
  23
 39.448445030146
  33
0.0
  14
 216.12499999995
  24
 39.448445030146
  34
0.0
 100
AcDbRotatedDimension
   0
DIMENSION
   5
404
 100
AcDbEntity
   8
LEVEL001
 370
15
   6
CONTINUOUS
  62
8
 100
AcDbDimension
   2
*D33
  10
 216.12499999995
  20
 16.294993194406
  30
0.0
  11
 218.17785134186
  21
 16.294993194406
  31
0.0
  70
128
   3
GMM009
 100
AcDbAlignedDimension
  13
 214.62499999995
  23
 21.698445030146
  33
0.0
  14
 216.12499999995
  24
 21.698445030146
  34
0.0
 100
AcDbRotatedDimension
   0
LINE
   5
405
 100
AcDbEntity
   8
LEVEL002
 370
15
 100
AcDbLine
   6
DASHDOT
  62
8
  10
 196.12499999995
  20
 19.037550264801
  30
0.0
  11
 196.12499999995
  21
 44.359339795486
  31
0.0
   0
DIMENSION
   5
406
 100
AcDbEntity
   8
LEVEL001
 370
15
   6
CONTINUOUS
  62
8
 100
AcDbDimension
   2
*D34
  10
 138.87499999995
  20
 16.294993194406
  30
0.0
  11
 140.92785134186
  21
 16.294993194406
  31
0.0
  70
128
   3
GMM009
 100
AcDbAlignedDimension
  13
 137.37499999995
  23
 21.698445030146
  33
0.0
  14
 138.87499999995
  24
 21.698445030146
  34
0.0
 100
AcDbRotatedDimension
   0
DIMENSION
   5
407
 100
AcDbEntity
   8
LEVEL001
 370
15
   6
CONTINUOUS
  62
8
 100
AcDbDimension
   2
*D35
  10
 144.54618435429
  20
 31.698445030146
  30
0.0
  11
 144.54618435429
  21
 26.698445030146
  31
0.0
  70
0
   3
GMM001
 100
AcDbAlignedDimension
  13
 138.87499999995
  23
 21.698445030146
  33
0.0
  14
 136.62499999995
  24
 31.698445030146
  34
0.0
  50
 90.000000000000
 100
AcDbRotatedDimension
   0
DIMENSION
   5
408
 100
AcDbEntity
   8
LEVEL001
 370
15
   6
CONTINUOUS
  62
8
 100
AcDbDimension
   2
*D36
  10
 138.87499999995
  20
 37.280949479095
  30
0.0
  11
 123.87499999995
  21
 37.280949479095
  31
0.0
  70
0
   3
GMM001
 100
AcDbAlignedDimension
  13
 108.87499999995
  23
 29.781778363479
  33
0.0
  14
 138.87499999995
  24
 29.781778363479
  34
0.0
 100
AcDbRotatedDimension
   0
LINE
   5
409
 100
AcDbEntity
   8
LEVEL001
 370
15
 100
AcDbLine
   6
DASHDOT
  62
8
  10
 123.87499999995
  20
 17.822346245392
  30
0.0
  11
 123.87499999995
  21
 35.574543814899
  31
0.0
   0
DIMENSION
   5
40A
 100
AcDbEntity
   8
LEVEL001
 370
15
   6
CONTINUOUS
  62
8
 100
AcDbDimension
   2
*D37
  10
 64.124999999950
  20
 37.280949479095
  30
0.0
  11
 51.624999999950
  21
 37.280949479095
  31
0.0
  70
0
   3
GMM001
 100
AcDbAlignedDimension
  13
 39.124999999950
  23
 29.448445030146
  33
0.0
  14
 64.124999999950
  24
 29.448445030146
  34
0.0
 100
AcDbRotatedDimension
   0
DIMENSION
   5
40B
 100
AcDbEntity
   8
LEVEL001
 370
15
   6
CONTINUOUS
  62
8
 100
AcDbDimension
   2
*D38
  10
 64.124999999950
  20
 16.294993194406
  30
0.0
  11
 66.177851341857
  21
 16.294993194406
  31
0.0
  70
128
   3
GMM009
 100
AcDbAlignedDimension
  13
 62.624999999950
  23
 21.698445030146
  33
0.0
  14
 64.124999999950
  24
 21.698445030146
  34
0.0
 100
AcDbRotatedDimension
   0
DIMENSION
   5
40C
 100
AcDbEntity
   8
LEVEL001
 370
15
   6
CONTINUOUS
  62
8
 100
AcDbDimension
   2
*D39
  10
 69.796184354287
  20
 31.698445030146
  30
0.0
  11
 69.796184354287
  21
 26.698445030146
  31
0.0
  70
0
   3
GMM001
 100
AcDbAlignedDimension
  13
 64.124999999950
  23
 21.698445030146
  33
0.0
  14
 61.874999999950
  24
 31.698445030146
  34
0.0
  50
 90.000000000000
 100
AcDbRotatedDimension
   0
LINE
   5
40D
 100
AcDbEntity
   8
LEVEL001
 370
15
 100
AcDbLine
   6
DASHDOT
  62
8
  10
 51.624999999950
  20
 17.822346245392
  30
0.0
  11
 51.624999999950
  21
 35.574543814899
  31
0.0
   0
MTEXT
   5
40F
 100
AcDbEntity
   8
LEVEL002
 370
15
  62
8
 100
AcDbMText
  10
 354.49999999995
  20
 226.75000000000
  30
0.0
  40
 4.0000000000000
  41
0.0
  71
2
  72
1
   1
{\W1.000000;\T1.000000;ステンレス①}\P{\W0.500000;\T1.000000;(\W1.000000;\T1.000000;床押え・ハの字押え・床見切）}
   7
GMM002
  44
 0.79999984000003
   0
MTEXT
   5
411
 100
AcDbEntity
   8
LEVEL002
 370
15
  62
8
 100
AcDbMText
  10
 17.999999999950
  20
 204.91666666670
  30
0.0
  40
 2.0000000000000
  41
0.0
  71
1
  72
1
   3
{\W0.500000;\T1.000000;･\W1.000000;\T1.000000;定尺：４０００\W0.500000;\T1.000000;m/m}\P{\W0.500000;\T1.000000;･\W1.000000;\T1.000000;材質：ＳＵＳ３０４　ｔ＝１\W0.500000;\T1.000000;.\W1.000000;\T1.000000;５}\P{\W0.500000;\T1.000000;･\W1.000000;\T1.0
   1
00000;仕上：ＨＬ（穴なし・穴付）\W0.500000;\T1.000000; \W1.000000;\T1.000000;穴サイズ：下穴%%c５／皿%%c７}\P\P{\W0.500000;\T1.000000;･\W1.000000;\T1.000000;長尺シート／コンクリート}\P{\W0.500000;\T1.000000; \W1.000000;\T1.000000;石／木製用}
   7
GMM002
  44
 0.79999984000003
   0
MTEXT
   5
413
 100
AcDbEntity
   8
LEVEL002
 370
15
  62
8
 100
AcDbMText
  10
 90.249999999950
  20
 204.91666666670
  30
0.0
  40
 2.0000000000000
  41
0.0
  71
1
  72
1
   3
{\W0.500000;\T1.000000;･\W1.000000;\T1.000000;定尺：４０００\W0.500000;\T1.000000;m/m}\P{\W0.500000;\T1.000000;･\W1.000000;\T1.000000;材質：ＳＵＳ３０４　ｔ＝１\W0.500000;\T1.000000;.\W1.000000;\T1.000000;５}\P{\W0.500000;\T1.000000;･\W1.000000;\T1.0
   1
00000;仕上：ＨＬ（穴なし・穴付）\W0.500000;\T1.000000; \W1.000000;\T1.000000;穴サイズ：下穴%%c５／皿%%c７}\P\P{\W0.500000;\T1.000000;･\W1.000000;\T1.000000;長尺シート／コンクリート}\P{\W0.500000;\T1.000000; \W1.000000;\T1.000000;石／木製用}
   7
GMM002
  44
 0.79999984000003
   0
MTEXT
   5
415
 100
AcDbEntity
   8
LEVEL002
 370
15
  62
8
 100
AcDbMText
  10
 162.49999999995
  20
 204.91666666670
  30
0.0
  40
 2.0000000000000
  41
0.0
  71
1
  72
1
   3
{\W0.500000;\T1.000000;･\W1.000000;\T1.000000;定尺：４０００\W0.500000;\T1.000000;m/m}\P{\W0.500000;\T1.000000;･\W1.000000;\T1.000000;材質：ＳＵＳ３０４　ｔ＝１\W0.500000;\T1.000000;.\W1.000000;\T1.000000;５}\P{\W0.500000;\T1.000000;･\W1.000000;\T1.0
   1
00000;仕上：ＨＬ（穴なし・穴付）\W0.500000;\T1.000000; \W1.000000;\T1.000000;穴サイズ：下穴%%c５／皿%%c７}\P\P{\W0.500000;\T1.000000;･\W1.000000;\T1.000000;長尺シート／コンクリート}\P{\W0.500000;\T1.000000; \W1.000000;\T1.000000;石／木製用}
   7
GMM002
  44
 0.79999984000003
   0
MTEXT
   5
417
 100
AcDbEntity
   8
LEVEL002
 370
15
  62
8
 100
AcDbMText
  10
 17.999999999950
  20
 136.66666666671
  30
0.0
  40
 2.0000000000000
  41
0.0
  71
1
  72
1
   3
{\W0.500000;\T1.000000;･\W1.000000;\T1.000000;定尺：４０００\W0.500000;\T1.000000;m/m}\P{\W0.500000;\T1.000000;･\W1.000000;\T1.000000;材質：ＳＵＳ３０４　ｔ＝１\W0.500000;\T1.000000;.\W1.000000;\T1.000000;５}\P{\W0.500000;\T1.000000;･\W1.000000;\T1.0
   1
00000;仕上：ＨＬ（穴なし・穴付）\W0.500000;\T1.000000; \W1.000000;\T1.000000;穴サイズ：下穴%%c５／皿%%c７}\P\P{\W0.500000;\T1.000000;･\W1.000000;\T1.000000;長尺シート／コンクリート}\P{\W0.500000;\T1.000000; \W1.000000;\T1.000000;石／木製用}
   7
GMM002
  44
 0.79999984000003
   0
MTEXT
   5
419
 100
AcDbEntity
   8
LEVEL002
 370
15
  62
8
 100
AcDbMText
  10
 90.249999999950
  20
 136.66666666671
  30
0.0
  40
 2.0000000000000
  41
0.0
  71
1
  72
1
   3
{\W0.500000;\T1.000000;･\W1.000000;\T1.000000;定尺：４０００\W0.500000;\T1.000000;m/m}\P{\W0.500000;\T1.000000;･\W1.000000;\T1.000000;材質：ＳＵＳ３０４　ｔ＝１\W0.500000;\T1.000000;.\W1.000000;\T1.000000;５}\P{\W0.500000;\T1.000000;･\W1.000000;\T1.0
   1
00000;仕上：ＨＬ（穴なし・穴付）\W0.500000;\T1.000000; \W1.000000;\T1.000000;穴サイズ：下穴%%c５／皿%%c７}\P\P{\W0.500000;\T1.000000;･\W1.000000;\T1.000000;長尺シート／コンクリート}\P{\W0.500000;\T1.000000; \W1.000000;\T1.000000;石／木製用}
   7
GMM002
  44
 0.79999984000003
   0
MTEXT
   5
41B
 100
AcDbEntity
   8
LEVEL002
 370
15
  62
8
 100
AcDbMText
  10
 162.49999999995
  20
 136.66666666671
  30
0.0
  40
 2.0000000000000
  41
0.0
  71
1
  72
1
   3
{\W0.500000;\T1.000000;･\W1.000000;\T1.000000;定尺：４０００\W0.500000;\T1.000000;m/m}\P{\W0.500000;\T1.000000;･\W1.000000;\T1.000000;材質：ＳＵＳ３０４　ｔ＝１\W0.500000;\T1.000000;.\W1.000000;\T1.000000;５}\P{\W0.500000;\T1.000000;･\W1.000000;\T1.0
   1
00000;仕上：ＨＬ（穴なし・穴付）\W0.500000;\T1.000000; \W1.000000;\T1.000000;穴サイズ：下穴%%c５／皿%%c７}\P\P{\W0.500000;\T1.000000;･\W1.000000;\T1.000000;長尺シート／コンクリート}\P{\W0.500000;\T1.000000; \W1.000000;\T1.000000;石／木製用}
   7
GMM002
  44
 0.79999984000003
   0
MTEXT
   5
41D
 100
AcDbEntity
   8
LEVEL002
 370
15
  62
8
 100
AcDbMText
  10
 319.49999999995
  20
 207.91666666670
  30
0.0
  40
 3.5000000000000
  41
0.0
  71
1
  72
1
   1
{\W0.500000;\T1.000000;･\W1.000000;\T1.000000;ステンレス：ＳＵＳ３０４}\P{\W1.000000;\T1.000000;　※Ｓ３５１２のみＳＵＳ４３０}\P{\W0.500000;\T1.000000; }\P{\W0.500000;\T1.000000; \W1.000000;\T1.000000;仕上げ：ＨＬ}
   7
GMM002
  44
 0.79999984000003
   0
MTEXT
   5
41F
 100
AcDbEntity
   8
LEVEL002
 370
15
  62
8
 100
AcDbMText
  10
 17.999999999950
  20
 273.16666666670
  30
0.0
  40
 2.0000000000000
  41
0.0
  71
1
  72
1
   3
{\W0.500000;\T1.000000;･\W1.000000;\T1.000000;定尺：４０００\W0.500000;\T1.000000;m/m\W1.000000;\T1.000000;　／２０００\W0.500000;\T1.000000;m/m}\P{\W0.500000;\T1.000000;･\W1.000000;\T1.000000;材質：ＳＵＳ４３０　ｔ＝１\W0.500000;\T1.000000;.\W1.0000
   3
00;\T1.000000;２}\P{\W0.500000;\T1.000000;･\W1.000000;\T1.000000;仕上：ＨＬ（穴なし・穴付）\W0.500000;\T1.000000; \W1.000000;\T1.000000;穴サイズ：下穴%%c５／皿%%c７}\P\P{\W0.500000;\T1.000000;･\W1.000000;\T1.000000;長尺シート／コンクリート}\P{\W0.500
   1
000;\T1.000000; \W1.000000;\T1.000000;石／木製用}\P\P{\W0.500000;\T1.000000;･\W1.000000;\T1.000000;コーナー部材　有り}
   7
GMM002
  44
 0.79999984000003
   0
MTEXT
   5
421
 100
AcDbEntity
   8
LEVEL002
 370
15
  62
8
 100
AcDbMText
  10
 90.249999999950
  20
 273.16666666670
  30
0.0
  40
 2.0000000000000
  41
0.0
  71
1
  72
1
   3
{\W0.500000;\T1.000000;･\W1.000000;\T1.000000;定尺：４０００\W0.500000;\T1.000000;m/m}\P{\W0.500000;\T1.000000;･\W1.000000;\T1.000000;材質：ＳＵＳ３０４　ｔ＝１\W0.500000;\T1.000000;.\W1.000000;\T1.000000;２}\P{\W0.500000;\T1.000000;･\W1.000000;\T1.0
   3
00000;仕上：ＨＬ（穴なし・穴付）\W0.500000;\T1.000000; \W1.000000;\T1.000000;穴サイズ：下穴%%c５／皿%%c７}\P\P{\W0.500000;\T1.000000;･\W1.000000;\T1.000000;長尺シート／コンクリート}\P{\W0.500000;\T1.000000; \W1.000000;\T1.000000;石／木製用}\P\P{\W0.5
   1
00000;\T1.000000;･\W1.000000;\T1.000000;コーナー部材　有り}
   7
GMM002
  44
 0.79999984000003
   0
LINE
   5
422
 100
AcDbEntity
   8
LEVEL002
 370
30
 100
AcDbLine
   6
CONTINUOUS
  62
7
  10
 221.65190939962
  20
 160.69326495876
  30
0.0
  11
 203.65464169747
  21
 160.69326495876
  31
0.0
   0
LINE
   5
423
 100
AcDbEntity
   8
LEVEL002
 370
30
 100
AcDbLine
   6
CONTINUOUS
  62
7
  10
 221.65190939962
  20
 160.69326495876
  30
0.0
  11
 221.65190939962
  21
 161.44326495876
  31
0.0
   0
LINE
   5
424
 100
AcDbEntity
   8
LEVEL001
 370
30
 100
AcDbLine
   6
CONTINUOUS
  62
7
  10
 171.65190939962
  20
 158.19326495876
  30
0.0
  11
 171.81072440989
  21
 157.46027260374
  31
0.0
   0
DIMENSION
   5
425
 100
AcDbEntity
   8
LEVEL001
 370
15
   6
CONTINUOUS
  62
8
 100
AcDbDimension
   2
*D40
  10
 221.65190939962
  20
 168.44326495876
  30
0.0
  11
 204.15190939962
  21
 168.44326495876
  31
0.0
  70
0
   1
\A1;70
   3
GMM010
 100
AcDbAlignedDimension
  13
 186.65190939962
  23
 161.44326495876
  33
0.0
  14
 221.65190939962
  24
 161.44326495876
  34
0.0
 100
AcDbRotatedDimension
   0
LINE
   5
426
 100
AcDbEntity
   8
LEVEL001
 370
30
 100
AcDbLine
   6
CONTINUOUS
  62
7
  10
 171.65190939962
  20
 158.19326495876
  30
0.0
  11
 186.57341257664
  21
 161.42625731378
  31
0.0
   0
ARC
   5
427
 100
AcDbEntity
   8
LEVEL001
 370
30
   6
CONTINUOUS
  62
7
 100
AcDbCircle
  10
 186.73222758689
  20
 160.69326495876
  30
0.0
  40
 0.75000000000000
 100
AcDbArc
  50
 89.999999999983
  51
 102.22512267575
   0
POINT
   5
428
 100
AcDbEntity
   8
LEVEL001
 100
AcDbPoint
  62
7
  10
 186.65190939962
  20
 161.44326495876
  30
0.0
   0
LINE
   5
429
 100
AcDbEntity
   8
LEVEL002
 370
30
 100
AcDbLine
   6
CONTINUOUS
  62
7
  10
 221.65190939962
  20
 161.44326495876
  30
0.0
  11
 186.73222758689
  21
 161.44326495876
  31
0.0
   0
LINE
   5
42A
 100
AcDbEntity
   8
LEVEL001
 370
30
 100
AcDbLine
   6
CONTINUOUS
  62
7
  10
 171.81072440988
  20
 157.46027260374
  30
0.0
  11
 186.73222758689
  21
 160.69326495876
  31
0.0
   0
LINE
   5
42B
 100
AcDbEntity
   8
LEVEL001
 370
30
 100
AcDbLine
   6
CONTINUOUS
  62
7
  10
 221.65190939962
  20
 160.69326495876
  30
0.0
  11
 186.73222758689
  21
 160.69326495876
  31
0.0
   0
DIMENSION
   5
42C
 100
AcDbEntity
   8
LEVEL001
 370
15
   6
CONTINUOUS
  62
8
 100
AcDbDimension
   2
*D41
  10
 167.16833129804
  20
 161.44326495876
  30
0.0
  11
 167.16833129804
  21
 159.45176878125
  31
0.0
  70
0
   1
\A1;8
   3
GMM010
 100
AcDbAlignedDimension
  13
 171.81072440988
  23
 157.46027260374
  33
0.0
  14
 186.65190939962
  24
 161.44326495876
  34
0.0
  50
 90.000000000000
 100
AcDbRotatedDimension
   0
DIMENSION
   5
42D
 100
AcDbEntity
   8
LEVEL001
 370
15
   6
CONTINUOUS
  62
8
 100
AcDbDimension
   2
*D42
  10
 221.65190939962
  20
 174.67698723229
  30
0.0
  11
 196.65190939962
  21
 174.67698723229
  31
0.0
  70
0
   1
\A1;100
   3
GMM010
 100
AcDbAlignedDimension
  13
 171.65190939962
  23
 158.69326495877
  33
0.0
  14
 221.65190939962
  24
 164.94326495876
  34
0.0
 100
AcDbRotatedDimension
   0
DIMENSION
   5
42E
 100
AcDbEntity
   8
LEVEL001
 370
15
   6
CONTINUOUS
  62
8
 100
AcDbDimension
   2
*D43
  10
 227.12686320997
  20
 160.69326495876
  30
0.0
  11
 227.12686320997
  21
 155.62790684126
  31
0.0
  70
128
   1
\A1;6.5
   3
GMM011
 100
AcDbAlignedDimension
  13
 172.93926033610
  23
 157.44326495876
  33
0.0
  14
 221.65190939962
  24
 160.69326495876
  34
0.0
  50
 90.000000000000
 100
AcDbRotatedDimension
   0
DIMENSION
   5
42F
 100
AcDbEntity
   8
LEVEL001
 370
15
   6
CONTINUOUS
  62
8
 100
AcDbDimension
   2
*D44
  10
 227.12686320997
  20
 161.44326495876
  30
0.0
  11
 227.12686320997
  21
 162.47160408108
  31
0.0
  70
128
   1
\A1;1.5
   3
GMM012
 100
AcDbAlignedDimension
  13
 221.65190939962
  23
 160.69326495876
  33
0.0
  14
 221.65190939962
  24
 161.44326495876
  34
0.0
  50
 90.000000000000
 100
AcDbRotatedDimension
   0
LINE
   5
430
 100
AcDbEntity
   8
LEVEL002
 370
30
 100
AcDbLine
   6
CONTINUOUS
  62
7
  10
 170.18544600399
  20
 93.291948220035
  30
0.0
  11
 177.27044600399
  21
 96.694698220035
  31
0.0
   0
LINE
   5
431
 100
AcDbEntity
   8
LEVEL002
 370
30
 100
AcDbLine
   6
CONTINUOUS
  62
7
  10
 177.27044600399
  20
 96.694698220035
  30
0.0
  11
 184.69339600399
  21
 96.694698220035
  31
0.0
   0
LINE
   5
432
 100
AcDbEntity
   8
LEVEL002
 370
30
 100
AcDbLine
   6
CONTINUOUS
  62
7
  10
 184.69339600399
  20
 96.694698220035
  30
0.0
  11
 213.08454600399
  21
 96.702098220035
  31
0.0
   0
LINE
   5
433
 100
AcDbEntity
   8
LEVEL002
 370
30
 100
AcDbLine
   6
CONTINUOUS
  62
7
  10
 213.08454600399
  20
 96.702098220035
  30
0.0
  11
 220.12559600399
  21
 93.439048220035
  31
0.0
   0
LINE
   5
434
 100
AcDbEntity
   8
LEVEL002
 370
30
 100
AcDbLine
   6
CONTINUOUS
  62
7
  10
 220.12559600399
  20
 93.439048220035
  30
0.0
  11
 220.44529600399
  21
 94.129798220035
  31
0.0
   0
LINE
   5
435
 100
AcDbEntity
   8
LEVEL002
 370
30
 100
AcDbLine
   6
CONTINUOUS
  62
7
  10
 220.44529600399
  20
 94.129798220035
  30
0.0
  11
 213.45209600399
  21
 97.378348220035
  31
0.0
   0
ARC
   5
436
 100
AcDbEntity
   8
LEVEL002
 370
30
   6
CONTINUOUS
  62
7
 100
AcDbCircle
  10
 213.38758540722
  20
 97.333257211651
  30
0.0
  40
 0.78707154267440E-1
 100
AcDbArc
  50
 34.952415694062
  51
 72.085134034872
   0
ARC
   5
437
 100
AcDbEntity
   8
LEVEL002
 370
30
   6
CONTINUOUS
  62
7
 100
AcDbCircle
  10
 213.20927918799
  20
 96.899375813507
  30
0.0
  40
 0.54759695251658
 100
AcDbArc
  50
 68.294975341480
  51
 82.548430005421
   0
ARC
   5
438
 100
AcDbEntity
   8
LEVEL002
 370
30
   6
CONTINUOUS
  62
7
 100
AcDbCircle
  10
 212.93409745395
  20
 95.026083961658
  30
0.0
  40
 2.4409396556168
 100
AcDbArc
  50
 81.846243811784
  51
 91.297019070509
   0
LINE
   5
439
 100
AcDbEntity
   8
LEVEL002
 370
30
 100
AcDbLine
   6
CONTINUOUS
  62
7
  10
 212.87884600399
  20
 97.466398220035
  30
0.0
  11
 208.68969600399
  21
 97.466398220035
  31
0.0
   0
LINE
   5
43A
 100
AcDbEntity
   8
LEVEL002
 370
30
 100
AcDbLine
   6
CONTINUOUS
  62
7
  10
 208.68969600399
  20
 97.466398220035
  30
0.0
  11
 177.68919600399
  21
 97.466398220035
  31
0.0
   0
ARC
   5
43B
 100
AcDbEntity
   8
LEVEL002
 370
30
   6
CONTINUOUS
  62
7
 100
AcDbCircle
  10
 177.46896803981
  20
 93.943134784708
  30
0.0
  40
 3.5301395993535
 100
AcDbArc
  50
 86.423276861172
  51
 95.435974072683
   0
ARC
   5
43C
 100
AcDbEntity
   8
LEVEL002
 370
30
   6
CONTINUOUS
  62
7
 100
AcDbCircle
  10
 177.23337585819
  20
 96.824411661360
  30
0.0
  40
 0.64065538595012
 100
AcDbArc
  50
 98.874094321812
  51
 114.32364722352
   0
ARC
   5
43D
 100
AcDbEntity
   8
LEVEL002
 370
30
   6
CONTINUOUS
  62
7
 100
AcDbCircle
  10
 177.88240902716
  20
 95.424659480647
  30
0.0
  40
 2.1835375239600
 100
AcDbArc
  50
 114.71399683192
  51
 121.84895716887
   0
ARC
   5
43E
 100
AcDbEntity
   8
LEVEL002
 370
30
   6
CONTINUOUS
  62
7
 100
AcDbCircle
  10
 172.74825224660
  20
 104.41872397644
  30
0.0
  40
 8.1746641773829
 100
AcDbArc
  50
 298.12328131384
  51
 299.15067088678
   0
LINE
   5
43F
 100
AcDbEntity
   8
LEVEL002
 370
30
 100
AcDbLine
   6
CONTINUOUS
  62
7
  10
 176.60154600399
  20
 97.209198220035
  30
0.0
  11
 169.86934600399
  21
 93.997498220035
  31
0.0
   0
LINE
   5
440
 100
AcDbEntity
   8
LEVEL002
 370
30
 100
AcDbLine
   6
CONTINUOUS
  62
7
  10
 169.86934600399
  20
 93.997498220035
  30
0.0
  11
 170.18544600399
  21
 93.291948220035
  31
0.0
   0
DIMENSION
   5
441
 100
AcDbEntity
   8
LEVEL001
 370
15
   6
CONTINUOUS
  62
8
 100
AcDbDimension
   2
*D45
  10
 220.44529600399
  20
 102.87584822004
  30
0.0
  11
 195.13897100399
  21
 102.87584822004
  31
0.0
  70
0
   1
\A1;100
   3
GMM010
 100
AcDbAlignedDimension
  13
 169.83264600399
  23
 94.201944283175
  33
0.0
  14
 220.44529600399
  24
 95.104566058861
  34
0.0
 100
AcDbRotatedDimension
   0
DIMENSION
   5
442
 100
AcDbEntity
   8
LEVEL001
 370
15
   6
CONTINUOUS
  62
8
 100
AcDbDimension
   2
*D46
  10
 225.12554918010
  20
 97.473948220035
  30
0.0
  11
 225.12554918010
  21
 91.832562122001
  31
0.0
  70
128
   1
\A1;8
   3
GMM013
 100
AcDbAlignedDimension
  13
 220.76287726428
  23
 93.439048220035
  33
0.0
  14
 215.34714661017
  24
 97.473948220035
  34
0.0
  50
 90.000000000000
 100
AcDbRotatedDimension
   0
DIMENSION
   5
443
 100
AcDbEntity
   8
LEVEL001
 370
15
   6
CONTINUOUS
  62
8
 100
AcDbDimension
   2
*D47
  10
 166.90002038547
  20
 91.745483146165
  30
0.0
  11
 167.45620792449
  21
 90.525450992187
  31
0.0
  70
128
   1
\A1;1.5
   3
GMM014
 100
AcDbAlignedDimension
  13
 169.86667143063
  23
 94.003365063971
  33
0.0
  14
 170.20382994326
  24
 93.251621899413
  34
0.0
  50
 294.50726564422
 100
AcDbRotatedDimension
   0
LINE
   5
444
 100
AcDbEntity
   8
LEVEL001
 370
15
 100
AcDbLine
   6
DASHDOT
  62
8
  10
 195.13897100399
  20
 92.157270710031
  30
0.0
  11
 195.13897100399
  21
 101.23757089552
  31
0.0
   0
ENDSEC
  0
SECTION
  2
OBJECTS
  0
DICTIONARY
  5
C
100
AcDbDictionary
  3
ACAD_GROUP
350
D
  3
ACAD_MLINESTYLE
350
1B
  3
DWGPROPS
350
1C
  0
DICTIONARY
  5
D
102
{ACAD_REACTORS
330
C
102
}
100
AcDbDictionary
  0
DICTIONARY
  5
1B
102
{ACAD_REACTORS
330
C
102
}
100
AcDbDictionary
  3
STANDARD
350
1D
  0
MLINESTYLE
  5
1D
102
{ACAD_REACTORS
330
1B
102
}
100
AcDbMlineStyle
  2
STANDARD
 70
     0
  3

 62
   256
 51
90.0
 52
90.0
 71
     2
 49
0.5
 62
   256
  6
BYLAYER
 49
-0.5
 62
   256
  6
BYLAYER
   0
XRECORD
   5
1C
 102
{ACAD_REACTORS
 330
C
 102
}
 330
C
 100
AcDbXrecord
 280
1
   1
DWGPROPS COOKIE
   2
 
   3
 
   4
 
   6
 
   7
00000000.DRW
   8
 
   9

 300
 = 
 301
 = 
 302
 = 
 303
 = 
 304
 = 
 305
 = 
 306
 = 
 307
 = 
 308
 = 
 309
 = 
  40
0.0
  41
 2460114.5000000
  42
 2460114.5000000
   1

  90
10
   0
ENDSEC
   0
EOF
