   0
SECTION
   2
HEADER
   9
$ACADVER
   1
AC1015
   9
$DWGCODEPAGE
   3
ANSI_932
   9
$LIMMIN
  10
0.0
  20
0.0
   9
$LIMMAX
  10
 4200.0000000000
  20
 2970.0000000000
   9
$EXTMIN
  10
0.0
  20
0.0
  30
0.0
   9
$EXTMAX
  10
 4200.0000000000
  20
 2970.0000000000
  30
0.0
   9
$LTSCALE
  40
 84.000000000000
   9
$HANDSEED
   5
51A
   0
ENDSEC
   0
SECTION
   2
TABLES
  0
TABLE
  2
VPORT
  5
8
100
AcDbSymbolTable
 70
     1
  0
VPORT
  5
519
100
AcDbSymbolTableRecord
100
AcDbViewportTableRecord
  2
*ACTIVE
 70
     0
 10
0.0
 20
0.0
 11
1.0
 21
1.0
  12
 2100.0000000000
  22
 1485.0000000000
 13
0.0
 23
0.0
 14
1.0
 24
1.0
 15
0.0
 25
0.0
 16
0.0
 26
0.0
 36
1.0
 17
0.0
 27
0.0
 37
0.0
  40
 4200.0000000000
  41
 1.4787878787879
 42
50.0
 43
0.0
 44
0.0
 50
0.0
 51
0.0
 71
     0
 72
   100
 73
     1
 74
     1
 75
     0
 76
     0
 77
     0
 78
     0
  0
ENDTAB
  0
TABLE
  2
LTYPE
  5
5
100
AcDbSymbolTable
 70
    25
  0
LTYPE
  5
12
100
AcDbSymbolTableRecord
100
AcDbLinetypeTableRecord
  2
BYBLOCK
 70
     0
  3

 72
    65
 73
     0
 40
0.0
  0
LTYPE
  5
13
100
AcDbSymbolTableRecord
100
AcDbLinetypeTableRecord
  2
BYLAYER
 70
     0
  3

 72
    65
 73
     0
 40
0.0
  0
LTYPE
  5
14
100
AcDbSymbolTableRecord
100
AcDbLinetypeTableRecord
  2
CONTINUOUS
 70
     0
  3
Solid line
 72
    65
 73
     0
 40
0.0
  0
LTYPE
  5
20
100
AcDbSymbolTableRecord
100
AcDbLinetypeTableRecord
  2
BORDER
 70
     0
  3
__ __ . __ __ . __ __ . __ __ . __ __ . __ __ .
 72
    65
 73
     6
 40
1.75
 49
0.5
 74
     0
 49
-0.25
 74
     0
 49
0.5
 74
     0
 49
-0.25
 74
     0
 49
0.0
 74
     0
 49
-0.25
 74
     0
  0
LTYPE
  5
21
100
AcDbSymbolTableRecord
100
AcDbLinetypeTableRecord
  2
BORDER2
 70
     0
  3
__.__.__.__.__.__.__.__.__.__.__.__.__.__.__.__
 72
    65
 73
     6
 40
0.875
 49
0.25
 74
     0
 49
-0.125
 74
     0
 49
0.25
 74
     0
 49
-0.125
 74
     0
 49
0.0
 74
     0
 49
-0.125
 74
     0
  0
LTYPE
  5
22
100
AcDbSymbolTableRecord
100
AcDbLinetypeTableRecord
  2
BORDERX2
 70
     0
  3
____  ____  .  ____  ____  .  ____  ____  .  __
 72
    65
 73
     6
 40
3.5
 49
1.0
 74
     0
 49
-0.5
 74
     0
 49
1.0
 74
     0
 49
-0.5
 74
     0
 49
0.0
 74
     0
 49
-0.5
 74
     0
  0
LTYPE
  5
23
100
AcDbSymbolTableRecord
100
AcDbLinetypeTableRecord
  2
CENTER
 70
     0
  3
____ _ ____ _ ____ _ ____ _ ____ _ ____ _ ____ 
 72
    65
 73
     4
 40
2.0
 49
1.25
 74
     0
 49
-0.25
 74
     0
 49
0.25
 74
     0
 49
-0.25
 74
     0
  0
LTYPE
  5
24
100
AcDbSymbolTableRecord
100
AcDbLinetypeTableRecord
  2
CENTER2
 70
     0
  3
___ _ ___ _ ___ _ ___ _ ___ _ ___ _ ___ _ ___ _
 72
    65
 73
     4
 40
1.125
 49
0.75
 74
     0
 49
-0.125
 74
     0
 49
0.125
 74
     0
 49
-0.125
 74
     0
  0
LTYPE
  5
25
100
AcDbSymbolTableRecord
100
AcDbLinetypeTableRecord
  2
CENTERX2
 70
     0
  3
________  __  ________  __  ________  __  _____
 72
    65
 73
     4
 40
4.0
 49
2.5
 74
     0
 49
-0.5
 74
     0
 49
0.5
 74
     0
 49
-0.5
 74
     0
  0
LTYPE
  5
26
100
AcDbSymbolTableRecord
100
AcDbLinetypeTableRecord
  2
DASHDOT
 70
     0
  3
__ . __ . __ . __ . __ . __ . __ . __ . __ . __
 72
    65
 73
     4
 40
1.0
 49
0.5
 74
     0
 49
-0.25
 74
     0
 49
0.0
 74
     0
 49
-0.25
 74
     0
  0
LTYPE
  5
27
100
AcDbSymbolTableRecord
100
AcDbLinetypeTableRecord
  2
DASHDOT2
 70
     0
  3
_._._._._._._._._._._._._._._._._._._._._._._._
 72
    65
 73
     4
 40
0.5
 49
0.25
 74
     0
 49
-0.125
 74
     0
 49
0.0
 74
     0
 49
-0.125
 74
     0
  0
LTYPE
  5
28
100
AcDbSymbolTableRecord
100
AcDbLinetypeTableRecord
  2
DASHDOTX2
 70
     0
  3
____  .  ____  .  ____  .  ____  .  ____  .  __
 72
    65
 73
     4
 40
2.0
 49
1.0
 74
     0
 49
-0.5
 74
     0
 49
0.0
 74
     0
 49
-0.5
 74
     0
  0
LTYPE
  5
29
100
AcDbSymbolTableRecord
100
AcDbLinetypeTableRecord
  2
DASHED
 70
     0
  3
__ __ __ __ __ __ __ __ __ __ __ __ __ __ __ __
 72
    65
 73
     2
 40
0.75
 49
0.5
 74
     0
 49
-0.25
 74
     0
  0
LTYPE
  5
2A
100
AcDbSymbolTableRecord
100
AcDbLinetypeTableRecord
  2
DASHED2
 70
     0
  3
_ _ _ _ _ _ _ _ _ _ _ _ _ _ _ _ _ _ _ _ _ _ _ _
 72
    65
 73
     2
 40
0.375
 49
0.25
 74
     0
 49
-0.125
 74
     0
  0
LTYPE
  5
2B
100
AcDbSymbolTableRecord
100
AcDbLinetypeTableRecord
  2
DASHEDX2
 70
     0
  3
____  ____  ____  ____  ____  ____  ____  ____ 
 72
    65
 73
     2
 40
1.5
 49
1.0
 74
     0
 49
-0.5
 74
     0
  0
LTYPE
  5
2C
100
AcDbSymbolTableRecord
100
AcDbLinetypeTableRecord
  2
DIVIDE
 70
     0
  3
____ . . ____ . . ____ . . ____ . . ____ . . __
 72
    65
 73
     6
 40
1.25
 49
0.5
 74
     0
 49
-0.25
 74
     0
 49
0.0
 74
     0
 49
-0.25
 74
     0
 49
0.0
 74
     0
 49
-0.25
 74
     0
  0
LTYPE
  5
2D
100
AcDbSymbolTableRecord
100
AcDbLinetypeTableRecord
  2
DIVIDE2
 70
     0
  3
__..__..__..__..__..__..__..__..__..__..__..__.
 72
    65
 73
     6
 40
0.625
 49
0.25
 74
     0
 49
-0.125
 74
     0
 49
0.0
 74
     0
 49
-0.125
 74
     0
 49
0.0
 74
     0
 49
-0.125
 74
     0
  0
LTYPE
  5
2E
100
AcDbSymbolTableRecord
100
AcDbLinetypeTableRecord
  2
DIVIDEX2
 70
     0
  3
________  .  .  ________  .  .  ________  .  . 
 72
    65
 73
     6
 40
2.5
 49
1.0
 74
     0
 49
-0.5
 74
     0
 49
0.0
 74
     0
 49
-0.5
 74
     0
 49
0.0
 74
     0
 49
-0.5
 74
     0
  0
LTYPE
  5
2F
100
AcDbSymbolTableRecord
100
AcDbLinetypeTableRecord
  2
DOT
 70
     0
  3
. . . . . . . . . . . . . . . . . . . . . . . .
 72
    65
 73
     2
 40
0.25
 49
0.0
 74
     0
 49
-0.25
 74
     0
  0
LTYPE
  5
30
100
AcDbSymbolTableRecord
100
AcDbLinetypeTableRecord
  2
DOT2
 70
     0
  3
...............................................
 72
    65
 73
     2
 40
0.125
 49
0.0
 74
     0
 49
-0.125
 74
     0
  0
LTYPE
  5
31
100
AcDbSymbolTableRecord
100
AcDbLinetypeTableRecord
  2
DOTX2
 70
     0
  3
.  .  .  .  .  .  .  .  .  .  .  .  .  .  .  . 
 72
    65
 73
     2
 40
0.5
 49
0.0
 74
     0
 49
-0.5
 74
     0
  0
LTYPE
  5
32
100
AcDbSymbolTableRecord
100
AcDbLinetypeTableRecord
  2
HIDDEN
 70
     0
  3
__ __ __ __ __ __ __ __ __ __ __ __ __ __ __ __
 72
    65
 73
     2
 40
0.375
 49
0.25
 74
     0
 49
-0.125
 74
     0
  0
LTYPE
  5
33
100
AcDbSymbolTableRecord
100
AcDbLinetypeTableRecord
  2
HIDDEN2
 70
     0
  3
_ _ _ _ _ _ _ _ _ _ _ _ _ _ _ _ _ _ _ _ _ _ _ _
 72
    65
 73
     2
 40
0.1875
 49
0.125
 74
     0
 49
-0.0625
 74
     0
  0
LTYPE
  5
34
100
AcDbSymbolTableRecord
100
AcDbLinetypeTableRecord
  2
HIDDENX2
 70
     0
  3
____ ____ ____ ____ ____ ____ ____ ____ ____ __
 72
    65
 73
     2
 40
0.75
 49
0.5
 74
     0
 49
-0.25
 74
     0
  0
LTYPE
  5
35
100
AcDbSymbolTableRecord
100
AcDbLinetypeTableRecord
  2
PHANTOM
 70
     0
  3
______  __  __  ______  __  __  ______  __  __ 
 72
    65
 73
     6
 40
2.5
 49
1.25
 74
     0
 49
-0.25
 74
     0
 49
0.25
 74
     0
 49
-0.25
 74
     0
 49
0.25
 74
     0
 49
-0.25
 74
     0
  0
LTYPE
  5
36
100
AcDbSymbolTableRecord
100
AcDbLinetypeTableRecord
  2
PHANTOM2
 70
     0
  3
___ _ _ ___ _ _ ___ _ _ ___ _ _ ___ _ _ ___ _ _
 72
    65
 73
     6
 40
1.25
 49
0.625
 74
     0
 49
-0.125
 74
     0
 49
0.125
 74
     0
 49
-0.125
 74
     0
 49
0.125
 74
     0
 49
-0.125
 74
     0
  0
LTYPE
  5
37
100
AcDbSymbolTableRecord
100
AcDbLinetypeTableRecord
  2
PHANTOMX2
 70
     0
  3
____________    ____    ____    ____________   
 72
    65
 73
     6
 40
5.0
 49
2.5
 74
     0
 49
-0.5
 74
     0
 49
0.5
 74
     0
 49
-0.5
 74
     0
 49
0.5
 74
     0
 49
-0.5
 74
     0
  0
ENDTAB
   0
TABLE
   2
LAYER
   5
2
 100
AcDbSymbolTable
  70
3
   0
LAYER
   5
E
 100
AcDbSymbolTableRecord
 100
AcDbLayerTableRecord
   2
0
  70
0
  62
7
   6
CONTINUOUS
 390
30
   0
LAYER
   5
39
 100
AcDbSymbolTableRecord
 100
AcDbLayerTableRecord
   2
LEVEL001
  70
0
  62
7
   6
CONTINUOUS
 390
30
   0
LAYER
   5
3A
 100
AcDbSymbolTableRecord
 100
AcDbLayerTableRecord
   2
LEVEL002
  70
0
  62
7
   6
CONTINUOUS
 390
30
   0
ENDTAB
  0
TABLE
  2
STYLE
  5
3
100
AcDbSymbolTable
  70
5
  0
STYLE
  5
F
100
AcDbSymbolTableRecord
100
AcDbTextStyleTableRecord
  2
STANDARD
 70
     0
 40
0.0
 41
1.0
 50
0.0
 71
     0
 42
0.2
  3
TXT
  4
BIGFONT
  0
STYLE
  5
38
100
AcDbSymbolTableRecord
100
AcDbTextStyleTableRecord
  2
STANDARD1
 70
     4
 40
0.0
 41
1.0
 50
0.0
 71
     0
 42
0.2
  3
TXT
  4
BIGFONT
   0
STYLE
   5
3B
 100
AcDbSymbolTableRecord
 100
AcDbTextStyleTableRecord
   2
GMM001
  70
0
  40
0.0
  41
 0.80000000000000
  50
0.0
  71
     0
  42
1.0
   3
txt.shx
   4
bigfont.shx
   0
STYLE
   5
3C
 100
AcDbSymbolTableRecord
 100
AcDbTextStyleTableRecord
   2
GMM002
  70
0
  40
0.0
  41
 1.0000000000000
  50
0.0
  71
     0
  42
1.0
   3
txt.shx
   4
bigfont.shx
   0
STYLE
   5
3D
 100
AcDbSymbolTableRecord
 100
AcDbTextStyleTableRecord
   2
GMM003
  70
0
  40
0.0
  41
 1.0714285714286
  50
0.0
  71
     0
  42
1.0
   3
txt.shx
   4
bigfont.shx
   0
ENDTAB
  0
TABLE
  2
VIEW
  5
6
100
AcDbSymbolTable
 70
     0
  0
ENDTAB
  0
TABLE
  2
UCS
  5
7
100
AcDbSymbolTable
 70
     0
  0
ENDTAB
  0
TABLE
  2
APPID
  5
9
100
AcDbSymbolTable
 70
     1
  0
APPID
  5
10
100
AcDbSymbolTableRecord
100
AcDbRegAppTableRecord
  2
ACAD
 70
     0
  0
ENDTAB
   0
TABLE
   2
DIMSTYLE
   5
A
 100
AcDbSymbolTable
  70
4
 100
AcDbDimStyleTable
  0
DIMSTYLE
105
1D
100
AcDbSymbolTableRecord
100
AcDbDimStyleTableRecord
  2
STANDARD
 70
     0
  3

  4

  5

  6

  7

 40
1.0
 41
0.18
 42
0.0625
 43
0.38
 44
0.18
 45
0.0
 46
0.0
 47
0.0
 48
0.0
140
0.18
141
0.09
142
0.0
143
25.4
144
1.0
145
0.0
146
1.0
147
0.09
 71
     0
 72
     0
 73
     1
 74
     1
 75
     0
 76
     0
 77
     0
 78
     0
170
     0
171
     2
172
     0
173
     0
174
     0
175
     0
176
     0
177
     0
178
     0
270
     2
271
     4
272
     4
273
     2
274
     2
340
F
275
     0
280
     0
281
     0
282
     0
283
     1
284
     0
285
     0
286
     0
287
     3
288
     0
   0
DIMSTYLE
 105
3E
 100
AcDbSymbolTableRecord
 100
AcDbDimStyleTableRecord
   2
GMM001
  70
0
   3

   4

   5

   6
_DOT
   7
_DOT
  40
 1.0000000000000
  41
 4.0000000000000
  42
 10.000000000000
  43
 80.000000000000
  44
 10.000000000000
  45
0.0
  46
0.0
  47
0.0
  48
0.0
 140
 30.000000000000
 141
 10.000000000000
 142
0.0
 143
 0.39400000000000E-1
 144
 1.0000000000000
 145
0.0
 146
 0.83333333333333
 147
 10.000000000000
  71
0
  72
0
  73
0
  74
0
  75
0
  76
0
  77
3
  78
0
 170
0
 171
2
 172
1
 173
1
 174
0
 175
0
 176
8
 177
8
 178
8
 270
2
 271
0
 272
0
 273
2
 274
2
 340
3C
 275
1
 280
0
 281
0
 282
0
 283
1
 284
0
 285
0
 286
0
 287
3
 288
0
   0
DIMSTYLE
 105
3F
 100
AcDbSymbolTableRecord
 100
AcDbDimStyleTableRecord
   2
GMM002
  70
0
   3

   4

   5

   6

   7

  40
 1.0000000000000
  41
 20.000000000000
  42
 10.000000000000
  43
 80.000000000000
  44
 10.000000000000
  45
0.0
  46
0.0
  47
0.0
  48
0.0
 140
 30.000000000000
 141
 10.000000000000
 142
0.0
 143
 0.39400000000000E-1
 144
 1.0000000000000
 145
0.0
 146
 0.83333333333333
 147
0.0
  71
0
  72
0
  73
0
  74
0
  75
0
  76
0
  77
1
  78
0
 170
0
 171
2
 172
1
 173
1
 174
0
 175
0
 176
8
 177
8
 178
8
 270
2
 271
0
 272
0
 273
2
 274
2
 340
3C
 275
1
 280
0
 281
0
 282
0
 283
1
 284
0
 285
0
 286
0
 287
3
 288
0
   0
ENDTAB
  0
TABLE
  2
BLOCK_RECORD
  5
1
100
AcDbSymbolTable
 70
     0
  0
BLOCK_RECORD
  5
18
100
AcDbSymbolTableRecord
100
AcDbBlockTableRecord
  2
*MODEL_SPACE
  0
BLOCK_RECORD
  5
15
100
AcDbSymbolTableRecord
100
AcDbBlockTableRecord
  2
*PAPER_SPACE
   0
BLOCK_RECORD
   5
40
 100
AcDbSymbolTableRecord
 100
AcDbBlockTableRecord
   2
*D1
   0
BLOCK_RECORD
   5
41
 100
AcDbSymbolTableRecord
 100
AcDbBlockTableRecord
   2
*D2
   0
BLOCK_RECORD
   5
42
 100
AcDbSymbolTableRecord
 100
AcDbBlockTableRecord
   2
*D3
   0
BLOCK_RECORD
   5
43
 100
AcDbSymbolTableRecord
 100
AcDbBlockTableRecord
   2
*D5
   0
BLOCK_RECORD
   5
44
 100
AcDbSymbolTableRecord
 100
AcDbBlockTableRecord
   2
*D6
   0
BLOCK_RECORD
   5
45
 100
AcDbSymbolTableRecord
 100
AcDbBlockTableRecord
   2
*D7
   0
BLOCK_RECORD
   5
46
 100
AcDbSymbolTableRecord
 100
AcDbBlockTableRecord
   2
*D8
   0
BLOCK_RECORD
   5
47
 100
AcDbSymbolTableRecord
 100
AcDbBlockTableRecord
   2
*D9
   0
BLOCK_RECORD
   5
48
 100
AcDbSymbolTableRecord
 100
AcDbBlockTableRecord
   2
*D10
   0
BLOCK_RECORD
   5
49
 100
AcDbSymbolTableRecord
 100
AcDbBlockTableRecord
   2
*D12
   0
BLOCK_RECORD
   5
4A
 100
AcDbSymbolTableRecord
 100
AcDbBlockTableRecord
   2
*D13
   0
BLOCK_RECORD
   5
4B
 100
AcDbSymbolTableRecord
 100
AcDbBlockTableRecord
   2
*D14
   0
BLOCK_RECORD
   5
4C
 100
AcDbSymbolTableRecord
 100
AcDbBlockTableRecord
   2
*D15
   0
BLOCK_RECORD
   5
4D
 100
AcDbSymbolTableRecord
 100
AcDbBlockTableRecord
   2
*D16
   0
BLOCK_RECORD
   5
4E
 100
AcDbSymbolTableRecord
 100
AcDbBlockTableRecord
   2
*D17
   0
BLOCK_RECORD
   5
4F
 100
AcDbSymbolTableRecord
 100
AcDbBlockTableRecord
   2
*D19
   0
BLOCK_RECORD
   5
50
 100
AcDbSymbolTableRecord
 100
AcDbBlockTableRecord
   2
*D20
   0
BLOCK_RECORD
   5
51
 100
AcDbSymbolTableRecord
 100
AcDbBlockTableRecord
   2
*D21
   0
BLOCK_RECORD
   5
52
 100
AcDbSymbolTableRecord
 100
AcDbBlockTableRecord
   2
_ARCHTICK
   0
BLOCK_RECORD
   5
53
 100
AcDbSymbolTableRecord
 100
AcDbBlockTableRecord
   2
_BOXBLANK
   0
BLOCK_RECORD
   5
54
 100
AcDbSymbolTableRecord
 100
AcDbBlockTableRecord
   2
_BOXFILLED
   0
BLOCK_RECORD
   5
55
 100
AcDbSymbolTableRecord
 100
AcDbBlockTableRecord
   2
_CLOSED
   0
BLOCK_RECORD
   5
56
 100
AcDbSymbolTableRecord
 100
AcDbBlockTableRecord
   2
_CLOSEDBLANK
   0
BLOCK_RECORD
   5
57
 100
AcDbSymbolTableRecord
 100
AcDbBlockTableRecord
   2
_DATUMBLANK
   0
BLOCK_RECORD
   5
58
 100
AcDbSymbolTableRecord
 100
AcDbBlockTableRecord
   2
_DATUMFILLED
   0
BLOCK_RECORD
   5
59
 100
AcDbSymbolTableRecord
 100
AcDbBlockTableRecord
   2
_DOT
   0
BLOCK_RECORD
   5
5A
 100
AcDbSymbolTableRecord
 100
AcDbBlockTableRecord
   2
_DOTBLANK
   0
BLOCK_RECORD
   5
5B
 100
AcDbSymbolTableRecord
 100
AcDbBlockTableRecord
   2
_DOTSMALL
   0
BLOCK_RECORD
   5
5C
 100
AcDbSymbolTableRecord
 100
AcDbBlockTableRecord
   2
_INTEGRAL
   0
BLOCK_RECORD
   5
5D
 100
AcDbSymbolTableRecord
 100
AcDbBlockTableRecord
   2
_NONE
   0
BLOCK_RECORD
   5
5E
 100
AcDbSymbolTableRecord
 100
AcDbBlockTableRecord
   2
_OBLIQUE
   0
BLOCK_RECORD
   5
5F
 100
AcDbSymbolTableRecord
 100
AcDbBlockTableRecord
   2
_OPEN
   0
BLOCK_RECORD
   5
60
 100
AcDbSymbolTableRecord
 100
AcDbBlockTableRecord
   2
_OPEN30
   0
BLOCK_RECORD
   5
61
 100
AcDbSymbolTableRecord
 100
AcDbBlockTableRecord
   2
_OPEN90
   0
BLOCK_RECORD
   5
62
 100
AcDbSymbolTableRecord
 100
AcDbBlockTableRecord
   2
_ORIGIN
   0
ENDTAB
   0
ENDSEC
  0
SECTION
  2
BLOCKS
  0
BLOCK
  5
19
100
AcDbEntity
  8
0
100
AcDbBlockBegin
  2
*MODEL_SPACE
 70
     0
 10
0.0
 20
0.0
 30
0.0
  3
*MODEL_SPACE
  1

  0
ENDBLK
  5
1A
100
AcDbEntity
  8
0
100
AcDbBlockEnd
  0
BLOCK
  5
16
100
AcDbEntity
 67
     1
  8
0
100
AcDbBlockBegin
  2
*PAPER_SPACE
 70
     0
 10
0.0
 20
0.0
 30
0.0
  3
*PAPER_SPACE
  1

  0
ENDBLK
  5
17
100
AcDbEntity
 67
     1
  8
0
100
AcDbBlockEnd
   0
BLOCK
   5
63
 100
AcDbEntity
   8
0
 100
AcDbBlockBegin
   2
_ARCHTICK
  70
0
  10
0.0
  20
0.0
  30
0.0
   3
_ARCHTICK
   0
POLYLINE
   5
64
 100
AcDbEntity
   8
0
 370
-2
   6
BYBLOCK
  62
0
 100
AcDb2dPolyline
  66
1
  10
0.0
  20
0.0
  30
0.0
  70
1
  40
 0.15000000000000
  41
 0.15000000000000
   0
VERTEX
   5
65
 100
AcDbEntity
   8
0
   6
BYBLOCK
  62
0
 100
AcDbVertex
 100
AcDb2dVertex
  10
-0.50000000000000
  20
-0.50000000000000
  30
0.0
  40
 0.15000000000000
  41
 0.15000000000000
   0
VERTEX
   5
66
 100
AcDbEntity
   8
0
   6
BYBLOCK
  62
0
 100
AcDbVertex
 100
AcDb2dVertex
  10
 0.50000000000000
  20
 0.50000000000000
  30
0.0
  40
 0.15000000000000
  41
 0.15000000000000
   0
SEQEND
   5
67
 100
AcDbEntity
   8
0
   6
BYBLOCK
  62
0
   0
ENDBLK
   5
68
 100
AcDbEntity
   8
0
 100
AcDbBlockEnd
   0
BLOCK
   5
69
 100
AcDbEntity
   8
0
 100
AcDbBlockBegin
   2
_OBLIQUE
  70
0
  10
0.0
  20
0.0
  30
0.0
   3
_OBLIQUE
   0
LINE
   5
6A
 100
AcDbEntity
   8
0
 370
-2
 100
AcDbLine
   6
BYBLOCK
  62
0
  10
-0.50000000000000
  20
-0.50000000000000
  30
0.0
  11
 0.50000000000000
  21
 0.50000000000000
  31
0.0
   0
ENDBLK
   5
6B
 100
AcDbEntity
   8
0
 100
AcDbBlockEnd
   0
BLOCK
   5
6C
 100
AcDbEntity
   8
0
 100
AcDbBlockBegin
   2
_BOXBLANK
  70
0
  10
0.0
  20
0.0
  30
0.0
   3
_BOXBLANK
   0
LINE
   5
6D
 100
AcDbEntity
   8
0
 370
-2
 100
AcDbLine
   6
BYBLOCK
  62
0
  10
-0.50000000000000
  20
-0.50000000000000
  30
0.0
  11
 0.50000000000000
  21
-0.50000000000000
  31
0.0
   0
LINE
   5
6E
 100
AcDbEntity
   8
0
 370
-2
 100
AcDbLine
   6
BYBLOCK
  62
0
  10
 0.50000000000000
  20
-0.50000000000000
  30
0.0
  11
 0.50000000000000
  21
 0.50000000000000
  31
0.0
   0
LINE
   5
6F
 100
AcDbEntity
   8
0
 370
-2
 100
AcDbLine
   6
BYBLOCK
  62
0
  10
 0.50000000000000
  20
 0.50000000000000
  30
0.0
  11
-0.50000000000000
  21
 0.50000000000000
  31
0.0
   0
LINE
   5
70
 100
AcDbEntity
   8
0
 370
-2
 100
AcDbLine
   6
BYBLOCK
  62
0
  10
-0.50000000000000
  20
 0.50000000000000
  30
0.0
  11
-0.50000000000000
  21
-0.50000000000000
  31
0.0
   0
LINE
   5
71
 100
AcDbEntity
   8
0
 370
-2
 100
AcDbLine
   6
BYBLOCK
  62
0
  10
-0.50000000000000
  20
0.0
  30
0.0
  11
-1.0000000000000
  21
0.0
  31
0.0
   0
ENDBLK
   5
72
 100
AcDbEntity
   8
0
 100
AcDbBlockEnd
   0
BLOCK
   5
73
 100
AcDbEntity
   8
0
 100
AcDbBlockBegin
   2
_BOXFILLED
  70
0
  10
0.0
  20
0.0
  30
0.0
   3
_BOXFILLED
   0
SOLID
   5
74
 100
AcDbEntity
   8
0
 100
AcDbTrace
   6
BYBLOCK
  62
0
  10
-0.50000000000000
  20
 0.50000000000000
  30
0.0
  11
 0.50000000000000
  21
 0.50000000000000
  31
0.0
  12
-0.50000000000000
  22
-0.50000000000000
  32
0.0
  13
 0.50000000000000
  23
-0.50000000000000
  33
0.0
   0
LINE
   5
75
 100
AcDbEntity
   8
0
 370
-2
 100
AcDbLine
   6
BYBLOCK
  62
0
  10
-0.50000000000000
  20
0.0
  30
0.0
  11
-1.0000000000000
  21
0.0
  31
0.0
   0
ENDBLK
   5
76
 100
AcDbEntity
   8
0
 100
AcDbBlockEnd
   0
BLOCK
   5
77
 100
AcDbEntity
   8
0
 100
AcDbBlockBegin
   2
_CLOSED
  70
0
  10
0.0
  20
0.0
  30
0.0
   3
_CLOSED
   0
LINE
   5
78
 100
AcDbEntity
   8
0
 370
-2
 100
AcDbLine
   6
BYBLOCK
  62
0
  10
-1.0000000000000
  20
 0.16666666666667
  30
0.0
  11
0.0
  21
0.0
  31
0.0
   0
LINE
   5
79
 100
AcDbEntity
   8
0
 370
-2
 100
AcDbLine
   6
BYBLOCK
  62
0
  10
0.0
  20
0.0
  30
0.0
  11
-1.0000000000000
  21
-0.16666666666667
  31
0.0
   0
LINE
   5
7A
 100
AcDbEntity
   8
0
 370
-2
 100
AcDbLine
   6
BYBLOCK
  62
0
  10
-1.0000000000000
  20
 0.16666666666667
  30
0.0
  11
-1.0000000000000
  21
-0.16666666666667
  31
0.0
   0
LINE
   5
7B
 100
AcDbEntity
   8
0
 370
-2
 100
AcDbLine
   6
BYBLOCK
  62
0
  10
0.0
  20
0.0
  30
0.0
  11
-1.0000000000000
  21
0.0
  31
0.0
   0
ENDBLK
   5
7C
 100
AcDbEntity
   8
0
 100
AcDbBlockEnd
   0
BLOCK
   5
7D
 100
AcDbEntity
   8
0
 100
AcDbBlockBegin
   2
_OPEN
  70
0
  10
0.0
  20
0.0
  30
0.0
   3
_OPEN
   0
LINE
   5
7E
 100
AcDbEntity
   8
0
 370
-2
 100
AcDbLine
   6
BYBLOCK
  62
0
  10
-1.0000000000000
  20
 0.16666666666667
  30
0.0
  11
0.0
  21
0.0
  31
0.0
   0
LINE
   5
7F
 100
AcDbEntity
   8
0
 370
-2
 100
AcDbLine
   6
BYBLOCK
  62
0
  10
0.0
  20
0.0
  30
0.0
  11
-1.0000000000000
  21
-0.16666666666667
  31
0.0
   0
LINE
   5
80
 100
AcDbEntity
   8
0
 370
-2
 100
AcDbLine
   6
BYBLOCK
  62
0
  10
0.0
  20
0.0
  30
0.0
  11
-1.0000000000000
  21
0.0
  31
0.0
   0
ENDBLK
   5
81
 100
AcDbEntity
   8
0
 100
AcDbBlockEnd
   0
BLOCK
   5
82
 100
AcDbEntity
   8
0
 100
AcDbBlockBegin
   2
_OPEN30
  70
0
  10
0.0
  20
0.0
  30
0.0
   3
_OPEN30
   0
LINE
   5
83
 100
AcDbEntity
   8
0
 370
-2
 100
AcDbLine
   6
BYBLOCK
  62
0
  10
-1.0000000000000
  20
 0.26794919243110
  30
0.0
  11
0.0
  21
0.0
  31
0.0
   0
LINE
   5
84
 100
AcDbEntity
   8
0
 370
-2
 100
AcDbLine
   6
BYBLOCK
  62
0
  10
0.0
  20
0.0
  30
0.0
  11
-1.0000000000000
  21
-0.26794919243110
  31
0.0
   0
LINE
   5
85
 100
AcDbEntity
   8
0
 370
-2
 100
AcDbLine
   6
BYBLOCK
  62
0
  10
0.0
  20
0.0
  30
0.0
  11
-1.0000000000000
  21
0.0
  31
0.0
   0
ENDBLK
   5
86
 100
AcDbEntity
   8
0
 100
AcDbBlockEnd
   0
BLOCK
   5
87
 100
AcDbEntity
   8
0
 100
AcDbBlockBegin
   2
_OPEN90
  70
0
  10
0.0
  20
0.0
  30
0.0
   3
_OPEN90
   0
LINE
   5
88
 100
AcDbEntity
   8
0
 370
-2
 100
AcDbLine
   6
BYBLOCK
  62
0
  10
-0.50000000000000
  20
 0.50000000000000
  30
0.0
  11
0.0
  21
0.0
  31
0.0
   0
LINE
   5
89
 100
AcDbEntity
   8
0
 370
-2
 100
AcDbLine
   6
BYBLOCK
  62
0
  10
0.0
  20
0.0
  30
0.0
  11
-0.50000000000000
  21
-0.50000000000000
  31
0.0
   0
LINE
   5
8A
 100
AcDbEntity
   8
0
 370
-2
 100
AcDbLine
   6
BYBLOCK
  62
0
  10
0.0
  20
0.0
  30
0.0
  11
-1.0000000000000
  21
0.0
  31
0.0
   0
ENDBLK
   5
8B
 100
AcDbEntity
   8
0
 100
AcDbBlockEnd
   0
BLOCK
   5
8C
 100
AcDbEntity
   8
0
 100
AcDbBlockBegin
   2
_CLOSEDBLANK
  70
0
  10
0.0
  20
0.0
  30
0.0
   3
_CLOSEDBLANK
   0
LINE
   5
8D
 100
AcDbEntity
   8
0
 370
-2
 100
AcDbLine
   6
BYBLOCK
  62
0
  10
-1.0000000000000
  20
 0.16666666666667
  30
0.0
  11
0.0
  21
0.0
  31
0.0
   0
LINE
   5
8E
 100
AcDbEntity
   8
0
 370
-2
 100
AcDbLine
   6
BYBLOCK
  62
0
  10
0.0
  20
0.0
  30
0.0
  11
-1.0000000000000
  21
-0.16666666666667
  31
0.0
   0
LINE
   5
8F
 100
AcDbEntity
   8
0
 370
-2
 100
AcDbLine
   6
BYBLOCK
  62
0
  10
-1.0000000000000
  20
 0.16666666666667
  30
0.0
  11
-1.0000000000000
  21
-0.16666666666667
  31
0.0
   0
ENDBLK
   5
90
 100
AcDbEntity
   8
0
 100
AcDbBlockEnd
   0
BLOCK
   5
91
 100
AcDbEntity
   8
0
 100
AcDbBlockBegin
   2
_DOT
  70
0
  10
0.0
  20
0.0
  30
0.0
   3
_DOT
   0
POLYLINE
   5
92
 100
AcDbEntity
   8
0
 370
-2
   6
BYBLOCK
  62
0
 100
AcDb2dPolyline
  66
1
  10
0.0
  20
0.0
  30
0.0
  70
1
  40
 0.50000000000000
  41
 0.50000000000000
   0
VERTEX
   5
93
 100
AcDbEntity
   8
0
   6
BYBLOCK
  62
0
 100
AcDbVertex
 100
AcDb2dVertex
  10
-0.25000000000000
  20
0.0
  30
0.0
  42
 1.0000000000000
  40
 0.50000000000000
  41
 0.50000000000000
   0
VERTEX
   5
94
 100
AcDbEntity
   8
0
   6
BYBLOCK
  62
0
 100
AcDbVertex
 100
AcDb2dVertex
  10
 0.25000000000000
  20
0.0
  30
0.0
  42
 1.0000000000000
  40
 0.50000000000000
  41
 0.50000000000000
   0
SEQEND
   5
95
 100
AcDbEntity
   8
0
   6
BYBLOCK
  62
0
   0
LINE
   5
96
 100
AcDbEntity
   8
0
 370
-2
 100
AcDbLine
   6
BYBLOCK
  62
0
  10
-0.50000000000000
  20
0.0
  30
0.0
  11
-1.0000000000000
  21
0.0
  31
0.0
   0
ENDBLK
   5
97
 100
AcDbEntity
   8
0
 100
AcDbBlockEnd
   0
BLOCK
   5
98
 100
AcDbEntity
   8
0
 100
AcDbBlockBegin
   2
_DOTSMALL
  70
0
  10
0.0
  20
0.0
  30
0.0
   3
_DOTSMALL
   0
POLYLINE
   5
99
 100
AcDbEntity
   8
0
 370
-2
   6
BYBLOCK
  62
0
 100
AcDb2dPolyline
  66
1
  10
0.0
  20
0.0
  30
0.0
  70
1
  40
 0.50000000000000
  41
 0.50000000000000
   0
VERTEX
   5
9A
 100
AcDbEntity
   8
0
   6
BYBLOCK
  62
0
 100
AcDbVertex
 100
AcDb2dVertex
  10
-0.62500000000000E-1
  20
0.0
  30
0.0
  42
 1.0000000000000
  40
 0.50000000000000
  41
 0.50000000000000
   0
VERTEX
   5
9B
 100
AcDbEntity
   8
0
   6
BYBLOCK
  62
0
 100
AcDbVertex
 100
AcDb2dVertex
  10
 0.62500000000000E-1
  20
0.0
  30
0.0
  42
 1.0000000000000
  40
 0.50000000000000
  41
 0.50000000000000
   0
SEQEND
   5
9C
 100
AcDbEntity
   8
0
   6
BYBLOCK
  62
0
   0
ENDBLK
   5
9D
 100
AcDbEntity
   8
0
 100
AcDbBlockEnd
   0
BLOCK
   5
9E
 100
AcDbEntity
   8
0
 100
AcDbBlockBegin
   2
_DATUMBLANK
  70
0
  10
0.0
  20
0.0
  30
0.0
   3
_DATUMBLANK
   0
LINE
   5
9F
 100
AcDbEntity
   8
0
 370
-2
 100
AcDbLine
   6
BYBLOCK
  62
0
  10
0.0
  20
 0.57735027000000
  30
0.0
  11
-1.0000000000000
  21
0.0
  31
0.0
   0
LINE
   5
A0
 100
AcDbEntity
   8
0
 370
-2
 100
AcDbLine
   6
BYBLOCK
  62
0
  10
-1.0000000000000
  20
0.0
  30
0.0
  11
0.0
  21
-0.57735027000000
  31
0.0
   0
LINE
   5
A1
 100
AcDbEntity
   8
0
 370
-2
 100
AcDbLine
   6
BYBLOCK
  62
0
  10
0.0
  20
-0.57735027000000
  30
0.0
  11
0.0
  21
 0.57735027000000
  31
0.0
   0
ENDBLK
   5
A2
 100
AcDbEntity
   8
0
 100
AcDbBlockEnd
   0
BLOCK
   5
A3
 100
AcDbEntity
   8
0
 100
AcDbBlockBegin
   2
_DATUMFILLED
  70
0
  10
0.0
  20
0.0
  30
0.0
   3
_DATUMFILLED
   0
SOLID
   5
A4
 100
AcDbEntity
   8
0
 100
AcDbTrace
   6
BYBLOCK
  62
0
  10
0.0
  20
 0.57735027000000
  30
0.0
  11
-1.0000000000000
  21
0.0
  31
0.0
  12
0.0
  22
-0.57735027000000
  32
0.0
  13
0.0
  23
-0.57735027000000
  33
0.0
   0
ENDBLK
   5
A5
 100
AcDbEntity
   8
0
 100
AcDbBlockEnd
   0
BLOCK
   5
A6
 100
AcDbEntity
   8
0
 100
AcDbBlockBegin
   2
_ORIGIN
  70
0
  10
0.0
  20
0.0
  30
0.0
   3
_ORIGIN
   0
CIRCLE
   5
A7
 100
AcDbEntity
   8
0
 370
-2
 100
AcDbCircle
   6
BYBLOCK
  62
0
  10
0.0
  20
0.0
  30
0.0
  40
 0.50000000000000
   0
LINE
   5
A8
 100
AcDbEntity
   8
0
 370
-2
 100
AcDbLine
   6
BYBLOCK
  62
0
  10
0.0
  20
0.0
  30
0.0
  11
-1.0000000000000
  21
0.0
  31
0.0
   0
ENDBLK
   5
A9
 100
AcDbEntity
   8
0
 100
AcDbBlockEnd
   0
BLOCK
   5
AA
 100
AcDbEntity
   8
0
 100
AcDbBlockBegin
   2
_NONE
  70
0
  10
0.0
  20
0.0
  30
0.0
   3
_NONE
   0
CIRCLE
   5
AB
 100
AcDbEntity
   8
0
 370
-2
 100
AcDbCircle
   6
BYBLOCK
  62
0
  10
0.0
  20
0.0
  30
0.0
  40
 0.25000000000000
   0
ENDBLK
   5
AC
 100
AcDbEntity
   8
0
 100
AcDbBlockEnd
   0
BLOCK
   5
AD
 100
AcDbEntity
   8
0
 100
AcDbBlockBegin
   2
_DOTBLANK
  70
0
  10
0.0
  20
0.0
  30
0.0
   3
_DOTBLANK
   0
CIRCLE
   5
AE
 100
AcDbEntity
   8
0
 370
-2
 100
AcDbCircle
   6
BYBLOCK
  62
0
  10
0.0
  20
0.0
  30
0.0
  40
 0.50000000000000
   0
LINE
   5
AF
 100
AcDbEntity
   8
0
 370
-2
 100
AcDbLine
   6
BYBLOCK
  62
0
  10
-0.50000000000000
  20
0.0
  30
0.0
  11
-1.0000000000000
  21
0.0
  31
0.0
   0
ENDBLK
   5
B0
 100
AcDbEntity
   8
0
 100
AcDbBlockEnd
   0
BLOCK
   5
B1
 100
AcDbEntity
   8
0
 100
AcDbBlockBegin
   2
_INTEGRAL
  70
0
  10
0.0
  20
0.0
  30
0.0
   3
_INTEGRAL
   0
ARC
   5
B2
 100
AcDbEntity
   8
0
 370
-2
   6
BYBLOCK
  62
0
 100
AcDbCircle
  10
 0.44488800000000
  20
-0.91335000000000E-1
  30
0.0
  40
 0.45416700000000
 100
AcDbArc
  50
 102.00000000000
  51
 168.00000000000
   0
ARC
   5
B3
 100
AcDbEntity
   8
0
 370
-2
   6
BYBLOCK
  62
0
 100
AcDbCircle
  10
-0.44488800000000
  20
 0.91335000000000E-1
  30
0.0
  40
 0.45416700000000
 100
AcDbArc
  50
 282.00000000000
  51
 348.00000000000
   0
ENDBLK
   5
B4
 100
AcDbEntity
   8
0
 100
AcDbBlockEnd
   0
BLOCK
   5
B5
 100
AcDbEntity
   8
0
 100
AcDbBlockBegin
   2
*D1
  70
65
  10
0.0
  20
0.0
  30
0.0
   3
*D1
   0
LINE
   5
B6
 100
AcDbEntity
   8
LEVEL001
 370
15
 100
AcDbLine
   6
CONTINUOUS
  62
8
  10
 1828.0731507711
  20
 1701.8597758717
  30
0.0
  11
 1905.5050105679
  21
 1701.8597758717
  31
0.0
   0
LINE
   5
B7
 100
AcDbEntity
   8
LEVEL001
 370
15
 100
AcDbLine
   6
CONTINUOUS
  62
8
  10
 1828.0731507711
  20
 2401.8597758717
  30
0.0
  11
 1905.5050105679
  21
 2401.8597758717
  31
0.0
   0
LINE
   5
B8
 100
AcDbEntity
   8
LEVEL001
 370
15
 100
AcDbLine
   6
CONTINUOUS
  62
8
  10
 1895.5050105679
  20
 1701.8597758717
  30
0.0
  11
 1895.5050105679
  21
 2051.8597758717
  31
0.0
   0
LINE
   5
B9
 100
AcDbEntity
   8
LEVEL001
 370
15
 100
AcDbLine
   6
CONTINUOUS
  62
8
  10
 1895.5050105679
  20
 2401.8597758717
  30
0.0
  11
 1895.5050105679
  21
 2051.8597758717
  31
0.0
   0
INSERT
   5
BA
 100
AcDbEntity
   8
LEVEL001
   6
CONTINUOUS
  62
8
 100
AcDbBlockReference
   2
_DOT
  10
 1895.5050105679
  20
 1701.8597758717
  30
0.0
  41
 4.0000000000000
  42
 4.0000000000000
  43
 4.0000000000000
  50
 270.00000000000
   0
INSERT
   5
BB
 100
AcDbEntity
   8
LEVEL001
   6
CONTINUOUS
  62
8
 100
AcDbBlockReference
   2
_DOT
  10
 1895.5050105679
  20
 2401.8597758717
  30
0.0
  41
 4.0000000000000
  42
 4.0000000000000
  43
 4.0000000000000
  50
 90.000000000000
   0
MTEXT
   5
BC
 100
AcDbEntity
   8
LEVEL001
 370
15
  62
8
 100
AcDbMText
  10
 1885.5050105679
  20
 2051.8597758717
  30
0.0
  40
 30.000000000000
  41
0.0
  71
8
  72
1
   1
\A1;700
   7
GMM002
  11
0.0
  21
 1.0000000000000
  31
0.0
   0
ENDBLK
   5
BD
 100
AcDbEntity
   8
0
 100
AcDbBlockEnd
   0
BLOCK
   5
BE
 100
AcDbEntity
   8
0
 100
AcDbBlockBegin
   2
*D2
  70
65
  10
0.0
  20
0.0
  30
0.0
   3
*D2
   0
LINE
   5
BF
 100
AcDbEntity
   8
LEVEL001
 370
15
 100
AcDbLine
   6
CONTINUOUS
  62
8
  10
 1778.5050105679
  20
 1651.6730825157
  30
0.0
  11
 1778.5050105679
  21
 1574.6968723132
  31
0.0
   0
LINE
   5
C0
 100
AcDbEntity
   8
LEVEL001
 370
15
 100
AcDbLine
   6
CONTINUOUS
  62
8
  10
 1778.5050105679
  20
 1584.6968723132
  30
0.0
  11
 1748.2050105679
  21
 1584.6968723132
  31
0.0
   0
LINE
   5
C1
 100
AcDbEntity
   8
LEVEL001
 370
15
 100
AcDbLine
   6
CONTINUOUS
  62
8
  10
 1717.9050105679
  20
 1584.6968723132
  30
0.0
  11
 1748.2050105679
  21
 1584.6968723132
  31
0.0
   0
INSERT
   5
C2
 100
AcDbEntity
   8
LEVEL001
   6
CONTINUOUS
  62
8
 100
AcDbBlockReference
   2
_DOT
  10
 1778.5050105679
  20
 1584.6968723132
  30
0.0
  41
 4.0000000000000
  42
 4.0000000000000
  43
 4.0000000000000
  50
0.0
   0
INSERT
   5
C3
 100
AcDbEntity
   8
LEVEL001
   6
CONTINUOUS
  62
8
 100
AcDbBlockReference
   2
_DOT
  10
 1717.9050105679
  20
 1584.6968723132
  30
0.0
  41
 4.0000000000000
  42
 4.0000000000000
  43
 4.0000000000000
  50
 180.00000000000
   0
MTEXT
   5
C4
 100
AcDbEntity
   8
LEVEL001
 370
15
  62
8
 100
AcDbMText
  10
 1748.2050105679
  20
 1594.6968723132
  30
0.0
  40
 30.000000000000
  41
0.0
  71
8
  72
1
   1
\A1;60
   7
GMM002
   0
ENDBLK
   5
C5
 100
AcDbEntity
   8
0
 100
AcDbBlockEnd
   0
BLOCK
   5
C6
 100
AcDbEntity
   8
0
 100
AcDbBlockBegin
   2
*D3
  70
65
  10
0.0
  20
0.0
  30
0.0
   3
*D3
   0
LINE
   5
C7
 100
AcDbEntity
   8
LEVEL001
 370
15
 100
AcDbLine
   6
CONTINUOUS
  62
8
  10
 2103.5266135974
  20
 1701.8597758717
  30
0.0
  11
 2021.9863641459
  21
 1701.8597758717
  31
0.0
   0
LINE
   5
C8
 100
AcDbEntity
   8
LEVEL001
 370
15
 100
AcDbLine
   6
CONTINUOUS
  62
8
  10
 2093.5266135974
  20
 2401.8597758717
  30
0.0
  11
 2021.9863641459
  21
 2401.8597758717
  31
0.0
   0
LINE
   5
C9
 100
AcDbEntity
   8
LEVEL001
 370
15
 100
AcDbLine
   6
CONTINUOUS
  62
8
  10
 2031.9863641459
  20
 1701.8597758717
  30
0.0
  11
 2031.9863641459
  21
 2051.8597758717
  31
0.0
   0
LINE
   5
CA
 100
AcDbEntity
   8
LEVEL001
 370
15
 100
AcDbLine
   6
CONTINUOUS
  62
8
  10
 2031.9863641459
  20
 2401.8597758717
  30
0.0
  11
 2031.9863641459
  21
 2051.8597758717
  31
0.0
   0
INSERT
   5
CB
 100
AcDbEntity
   8
LEVEL001
   6
CONTINUOUS
  62
8
 100
AcDbBlockReference
   2
_DOT
  10
 2031.9863641459
  20
 1701.8597758717
  30
0.0
  41
 4.0000000000000
  42
 4.0000000000000
  43
 4.0000000000000
  50
 270.00000000000
   0
INSERT
   5
CC
 100
AcDbEntity
   8
LEVEL001
   6
CONTINUOUS
  62
8
 100
AcDbBlockReference
   2
_DOT
  10
 2031.9863641459
  20
 2401.8597758717
  30
0.0
  41
 4.0000000000000
  42
 4.0000000000000
  43
 4.0000000000000
  50
 90.000000000000
   0
MTEXT
   5
CD
 100
AcDbEntity
   8
LEVEL001
 370
15
  62
8
 100
AcDbMText
  10
 2021.9863641459
  20
 2051.8597758717
  30
0.0
  40
 30.000000000000
  41
0.0
  71
8
  72
1
   1
\A1;700
   7
GMM002
  11
0.0
  21
 1.0000000000000
  31
0.0
   0
ENDBLK
   5
CE
 100
AcDbEntity
   8
0
 100
AcDbBlockEnd
   0
BLOCK
   5
CF
 100
AcDbEntity
   8
0
 100
AcDbBlockBegin
   2
*D5
  70
65
  10
0.0
  20
0.0
  30
0.0
   3
*D5
   0
LINE
   5
D0
 100
AcDbEntity
   8
LEVEL001
 370
15
 100
AcDbLine
   6
CONTINUOUS
  62
8
  10
 2106.1048408382
  20
 2613.9708104640
  30
0.0
  11
 2021.9863641459
  21
 2613.9708104640
  31
0.0
   0
LINE
   5
D1
 100
AcDbEntity
   8
LEVEL001
 370
15
 100
AcDbLine
   6
CONTINUOUS
  62
8
  10
 2031.9863641459
  20
 2613.9708104640
  30
0.0
  11
 2031.9863641459
  21
 2644.6212555765
  31
0.0
   0
LINE
   5
D2
 100
AcDbEntity
   8
LEVEL001
 370
15
 100
AcDbLine
   6
CONTINUOUS
  62
8
  10
 2031.9863641459
  20
 2675.2717006890
  30
0.0
  11
 2031.9863641459
  21
 2644.6212555765
  31
0.0
   0
INSERT
   5
D3
 100
AcDbEntity
   8
LEVEL001
   6
CONTINUOUS
  62
8
 100
AcDbBlockReference
   2
_DOT
  10
 2031.9863641459
  20
 2613.9708104640
  30
0.0
  41
 4.0000000000000
  42
 4.0000000000000
  43
 4.0000000000000
  50
 270.00000000000
   0
INSERT
   5
D4
 100
AcDbEntity
   8
LEVEL001
   6
CONTINUOUS
  62
8
 100
AcDbBlockReference
   2
_DOT
  10
 2031.9863641459
  20
 2675.2717006890
  30
0.0
  41
 4.0000000000000
  42
 4.0000000000000
  43
 4.0000000000000
  50
 90.000000000000
   0
MTEXT
   5
D5
 100
AcDbEntity
   8
LEVEL001
 370
15
  62
8
 100
AcDbMText
  10
 2021.9863641459
  20
 2644.6212555765
  30
0.0
  40
 30.000000000000
  41
0.0
  71
8
  72
1
   1
\A1;60
   7
GMM002
  11
0.0
  21
 1.0000000000000
  31
0.0
   0
ENDBLK
   5
D6
 100
AcDbEntity
   8
0
 100
AcDbBlockEnd
   0
BLOCK
   5
D7
 100
AcDbEntity
   8
0
 100
AcDbBlockBegin
   2
*D6
  70
65
  10
0.0
  20
0.0
  30
0.0
   3
*D6
   0
LINE
   5
D8
 100
AcDbEntity
   8
LEVEL001
 370
15
 100
AcDbLine
   6
CONTINUOUS
  62
8
  10
 2148.9863641459
  20
 2564.4026702608
  30
0.0
  11
 2148.9863641459
  21
 2487.6717006890
  31
0.0
   0
LINE
   5
D9
 100
AcDbEntity
   8
LEVEL001
 370
15
 100
AcDbLine
   6
CONTINUOUS
  62
8
  10
 2748.9863641459
  20
 2564.4026702608
  30
0.0
  11
 2748.9863641459
  21
 2487.6717006890
  31
0.0
   0
LINE
   5
DA
 100
AcDbEntity
   8
LEVEL001
 370
15
 100
AcDbLine
   6
CONTINUOUS
  62
8
  10
 2148.9863641459
  20
 2497.6717006890
  30
0.0
  11
 2448.9863641459
  21
 2497.6717006890
  31
0.0
   0
LINE
   5
DB
 100
AcDbEntity
   8
LEVEL001
 370
15
 100
AcDbLine
   6
CONTINUOUS
  62
8
  10
 2748.9863641459
  20
 2497.6717006890
  30
0.0
  11
 2448.9863641459
  21
 2497.6717006890
  31
0.0
   0
INSERT
   5
DC
 100
AcDbEntity
   8
LEVEL001
   6
CONTINUOUS
  62
8
 100
AcDbBlockReference
   2
_DOT
  10
 2148.9863641459
  20
 2497.6717006890
  30
0.0
  41
 4.0000000000000
  42
 4.0000000000000
  43
 4.0000000000000
  50
 180.00000000000
   0
INSERT
   5
DD
 100
AcDbEntity
   8
LEVEL001
   6
CONTINUOUS
  62
8
 100
AcDbBlockReference
   2
_DOT
  10
 2748.9863641459
  20
 2497.6717006890
  30
0.0
  41
 4.0000000000000
  42
 4.0000000000000
  43
 4.0000000000000
  50
0.0
   0
MTEXT
   5
DE
 100
AcDbEntity
   8
LEVEL001
 370
15
  62
8
 100
AcDbMText
  10
 2448.9863641459
  20
 2507.6717006890
  30
0.0
  40
 30.000000000000
  41
0.0
  71
8
  72
1
   1
\A1;600
   7
GMM002
   0
ENDBLK
   5
DF
 100
AcDbEntity
   8
0
 100
AcDbBlockEnd
   0
BLOCK
   5
E0
 100
AcDbEntity
   8
0
 100
AcDbBlockBegin
   2
*D7
  70
65
  10
0.0
  20
0.0
  30
0.0
   3
*D7
   0
LINE
   5
E1
 100
AcDbEntity
   8
LEVEL001
 370
15
 100
AcDbLine
   6
CONTINUOUS
  62
8
  10
 2148.9863641459
  20
 1651.6730825157
  30
0.0
  11
 2148.9863641459
  21
 1574.6968723132
  31
0.0
   0
LINE
   5
E2
 100
AcDbEntity
   8
LEVEL001
 370
15
 100
AcDbLine
   6
CONTINUOUS
  62
8
  10
 2748.9863641459
  20
 1651.6730825157
  30
0.0
  11
 2748.9863641459
  21
 1574.6968723132
  31
0.0
   0
LINE
   5
E3
 100
AcDbEntity
   8
LEVEL001
 370
15
 100
AcDbLine
   6
CONTINUOUS
  62
8
  10
 2148.9863641459
  20
 1584.6968723132
  30
0.0
  11
 2448.9863641459
  21
 1584.6968723132
  31
0.0
   0
LINE
   5
E4
 100
AcDbEntity
   8
LEVEL001
 370
15
 100
AcDbLine
   6
CONTINUOUS
  62
8
  10
 2748.9863641459
  20
 1584.6968723132
  30
0.0
  11
 2448.9863641459
  21
 1584.6968723132
  31
0.0
   0
INSERT
   5
E5
 100
AcDbEntity
   8
LEVEL001
   6
CONTINUOUS
  62
8
 100
AcDbBlockReference
   2
_DOT
  10
 2148.9863641459
  20
 1584.6968723132
  30
0.0
  41
 4.0000000000000
  42
 4.0000000000000
  43
 4.0000000000000
  50
 180.00000000000
   0
INSERT
   5
E6
 100
AcDbEntity
   8
LEVEL001
   6
CONTINUOUS
  62
8
 100
AcDbBlockReference
   2
_DOT
  10
 2748.9863641459
  20
 1584.6968723132
  30
0.0
  41
 4.0000000000000
  42
 4.0000000000000
  43
 4.0000000000000
  50
0.0
   0
MTEXT
   5
E7
 100
AcDbEntity
   8
LEVEL001
 370
15
  62
8
 100
AcDbMText
  10
 2448.9863641459
  20
 1594.6968723132
  30
0.0
  40
 30.000000000000
  41
0.0
  71
8
  72
1
   1
\A1;600
   7
GMM002
   0
ENDBLK
   5
E8
 100
AcDbEntity
   8
0
 100
AcDbBlockEnd
   0
BLOCK
   5
E9
 100
AcDbEntity
   8
0
 100
AcDbBlockBegin
   2
*D8
  70
65
  10
0.0
  20
0.0
  30
0.0
   3
*D8
   0
LINE
   5
EA
 100
AcDbEntity
   8
LEVEL001
 370
15
 100
AcDbLine
   6
CONTINUOUS
  62
8
  10
 1346.5026026300
  20
 1701.8597758717
  30
0.0
  11
 1269.0707428332
  21
 1701.8597758717
  31
0.0
   0
LINE
   5
EB
 100
AcDbEntity
   8
LEVEL001
 370
15
 100
AcDbLine
   6
CONTINUOUS
  62
8
  10
 1346.5026026300
  20
 2401.8597758717
  30
0.0
  11
 1269.0707428332
  21
 2401.8597758717
  31
0.0
   0
LINE
   5
EC
 100
AcDbEntity
   8
LEVEL001
 370
15
 100
AcDbLine
   6
CONTINUOUS
  62
8
  10
 1279.0707428332
  20
 1701.8597758717
  30
0.0
  11
 1279.0707428332
  21
 2051.8597758717
  31
0.0
   0
LINE
   5
ED
 100
AcDbEntity
   8
LEVEL001
 370
15
 100
AcDbLine
   6
CONTINUOUS
  62
8
  10
 1279.0707428332
  20
 2401.8597758717
  30
0.0
  11
 1279.0707428332
  21
 2051.8597758717
  31
0.0
   0
INSERT
   5
EE
 100
AcDbEntity
   8
LEVEL001
   6
CONTINUOUS
  62
8
 100
AcDbBlockReference
   2
_DOT
  10
 1279.0707428332
  20
 1701.8597758717
  30
0.0
  41
 4.0000000000000
  42
 4.0000000000000
  43
 4.0000000000000
  50
 270.00000000000
   0
INSERT
   5
EF
 100
AcDbEntity
   8
LEVEL001
   6
CONTINUOUS
  62
8
 100
AcDbBlockReference
   2
_DOT
  10
 1279.0707428332
  20
 2401.8597758717
  30
0.0
  41
 4.0000000000000
  42
 4.0000000000000
  43
 4.0000000000000
  50
 90.000000000000
   0
MTEXT
   5
F0
 100
AcDbEntity
   8
LEVEL001
 370
15
  62
8
 100
AcDbMText
  10
 1269.0707428332
  20
 2051.8597758717
  30
0.0
  40
 30.000000000000
  41
0.0
  71
8
  72
1
   1
\A1;700
   7
GMM002
  11
0.0
  21
 1.0000000000000
  31
0.0
   0
ENDBLK
   5
F1
 100
AcDbEntity
   8
0
 100
AcDbBlockEnd
   0
BLOCK
   5
F2
 100
AcDbEntity
   8
0
 100
AcDbBlockBegin
   2
*D9
  70
65
  10
0.0
  20
0.0
  30
0.0
   3
*D9
   0
LINE
   5
F3
 100
AcDbEntity
   8
LEVEL001
 370
15
 100
AcDbLine
   6
CONTINUOUS
  62
8
  10
 1396.0707428332
  20
 1651.6730825157
  30
0.0
  11
 1396.0707428332
  21
 1574.6968723132
  31
0.0
   0
LINE
   5
F4
 100
AcDbEntity
   8
LEVEL001
 370
15
 100
AcDbLine
   6
CONTINUOUS
  62
8
  10
 1396.0707428332
  20
 1584.6968723132
  30
0.0
  11
 1426.3707428332
  21
 1584.6968723132
  31
0.0
   0
LINE
   5
F5
 100
AcDbEntity
   8
LEVEL001
 370
15
 100
AcDbLine
   6
CONTINUOUS
  62
8
  10
 1456.6707428332
  20
 1584.6968723132
  30
0.0
  11
 1426.3707428332
  21
 1584.6968723132
  31
0.0
   0
INSERT
   5
F6
 100
AcDbEntity
   8
LEVEL001
   6
CONTINUOUS
  62
8
 100
AcDbBlockReference
   2
_DOT
  10
 1396.0707428332
  20
 1584.6968723132
  30
0.0
  41
 4.0000000000000
  42
 4.0000000000000
  43
 4.0000000000000
  50
 180.00000000000
   0
INSERT
   5
F7
 100
AcDbEntity
   8
LEVEL001
   6
CONTINUOUS
  62
8
 100
AcDbBlockReference
   2
_DOT
  10
 1456.6707428332
  20
 1584.6968723132
  30
0.0
  41
 4.0000000000000
  42
 4.0000000000000
  43
 4.0000000000000
  50
0.0
   0
MTEXT
   5
F8
 100
AcDbEntity
   8
LEVEL001
 370
15
  62
8
 100
AcDbMText
  10
 1426.3707428332
  20
 1594.6968723132
  30
0.0
  40
 30.000000000000
  41
0.0
  71
8
  72
1
   1
\A1;60
   7
GMM002
   0
ENDBLK
   5
F9
 100
AcDbEntity
   8
0
 100
AcDbBlockEnd
   0
BLOCK
   5
FA
 100
AcDbEntity
   8
0
 100
AcDbBlockBegin
   2
*D10
  70
65
  10
0.0
  20
0.0
  30
0.0
   3
*D10
   0
LINE
   5
FB
 100
AcDbEntity
   8
LEVEL001
 370
15
 100
AcDbLine
   6
CONTINUOUS
  62
8
  10
 1071.0491398037
  20
 1701.8597758717
  30
0.0
  11
 1152.5893892552
  21
 1701.8597758717
  31
0.0
   0
LINE
   5
FC
 100
AcDbEntity
   8
LEVEL001
 370
15
 100
AcDbLine
   6
CONTINUOUS
  62
8
  10
 1081.0491398037
  20
 2401.8597758717
  30
0.0
  11
 1152.5893892552
  21
 2401.8597758717
  31
0.0
   0
LINE
   5
FD
 100
AcDbEntity
   8
LEVEL001
 370
15
 100
AcDbLine
   6
CONTINUOUS
  62
8
  10
 1142.5893892552
  20
 1701.8597758717
  30
0.0
  11
 1142.5893892552
  21
 2051.8597758717
  31
0.0
   0
LINE
   5
FE
 100
AcDbEntity
   8
LEVEL001
 370
15
 100
AcDbLine
   6
CONTINUOUS
  62
8
  10
 1142.5893892552
  20
 2401.8597758717
  30
0.0
  11
 1142.5893892552
  21
 2051.8597758717
  31
0.0
   0
INSERT
   5
FF
 100
AcDbEntity
   8
LEVEL001
   6
CONTINUOUS
  62
8
 100
AcDbBlockReference
   2
_DOT
  10
 1142.5893892552
  20
 1701.8597758717
  30
0.0
  41
 4.0000000000000
  42
 4.0000000000000
  43
 4.0000000000000
  50
 270.00000000000
   0
INSERT
   5
100
 100
AcDbEntity
   8
LEVEL001
   6
CONTINUOUS
  62
8
 100
AcDbBlockReference
   2
_DOT
  10
 1142.5893892552
  20
 2401.8597758717
  30
0.0
  41
 4.0000000000000
  42
 4.0000000000000
  43
 4.0000000000000
  50
 90.000000000000
   0
MTEXT
   5
101
 100
AcDbEntity
   8
LEVEL001
 370
15
  62
8
 100
AcDbMText
  10
 1132.5893892552
  20
 2051.8597758717
  30
0.0
  40
 30.000000000000
  41
0.0
  71
8
  72
1
   1
\A1;700
   7
GMM002
  11
0.0
  21
 1.0000000000000
  31
0.0
   0
ENDBLK
   5
102
 100
AcDbEntity
   8
0
 100
AcDbBlockEnd
   0
BLOCK
   5
103
 100
AcDbEntity
   8
0
 100
AcDbBlockBegin
   2
*D12
  70
65
  10
0.0
  20
0.0
  30
0.0
   3
*D12
   0
LINE
   5
104
 100
AcDbEntity
   8
LEVEL001
 370
15
 100
AcDbLine
   6
CONTINUOUS
  62
8
  10
 1068.4709125628
  20
 2613.9708104640
  30
0.0
  11
 1152.5893892552
  21
 2613.9708104640
  31
0.0
   0
LINE
   5
105
 100
AcDbEntity
   8
LEVEL001
 370
15
 100
AcDbLine
   6
CONTINUOUS
  62
8
  10
 1142.5893892552
  20
 2613.9708104640
  30
0.0
  11
 1142.5893892552
  21
 2644.6212555765
  31
0.0
   0
LINE
   5
106
 100
AcDbEntity
   8
LEVEL001
 370
15
 100
AcDbLine
   6
CONTINUOUS
  62
8
  10
 1142.5893892552
  20
 2675.2717006890
  30
0.0
  11
 1142.5893892552
  21
 2644.6212555765
  31
0.0
   0
INSERT
   5
107
 100
AcDbEntity
   8
LEVEL001
   6
CONTINUOUS
  62
8
 100
AcDbBlockReference
   2
_DOT
  10
 1142.5893892552
  20
 2613.9708104640
  30
0.0
  41
 4.0000000000000
  42
 4.0000000000000
  43
 4.0000000000000
  50
 270.00000000000
   0
INSERT
   5
108
 100
AcDbEntity
   8
LEVEL001
   6
CONTINUOUS
  62
8
 100
AcDbBlockReference
   2
_DOT
  10
 1142.5893892552
  20
 2675.2717006890
  30
0.0
  41
 4.0000000000000
  42
 4.0000000000000
  43
 4.0000000000000
  50
 90.000000000000
   0
MTEXT
   5
109
 100
AcDbEntity
   8
LEVEL001
 370
15
  62
8
 100
AcDbMText
  10
 1132.5893892552
  20
 2644.6212555765
  30
0.0
  40
 30.000000000000
  41
0.0
  71
8
  72
1
   1
\A1;60
   7
GMM002
  11
0.0
  21
 1.0000000000000
  31
0.0
   0
ENDBLK
   5
10A
 100
AcDbEntity
   8
0
 100
AcDbBlockEnd
   0
BLOCK
   5
10B
 100
AcDbEntity
   8
0
 100
AcDbBlockBegin
   2
*D13
  70
65
  10
0.0
  20
0.0
  30
0.0
   3
*D13
   0
LINE
   5
10C
 100
AcDbEntity
   8
LEVEL001
 370
15
 100
AcDbLine
   6
CONTINUOUS
  62
8
  10
 1025.5893892552
  20
 2564.4026702608
  30
0.0
  11
 1025.5893892552
  21
 2487.6717006890
  31
0.0
   0
LINE
   5
10D
 100
AcDbEntity
   8
LEVEL001
 370
15
 100
AcDbLine
   6
CONTINUOUS
  62
8
  10
 425.58938925517
  20
 2564.4026702608
  30
0.0
  11
 425.58938925517
  21
 2487.6717006890
  31
0.0
   0
LINE
   5
10E
 100
AcDbEntity
   8
LEVEL001
 370
15
 100
AcDbLine
   6
CONTINUOUS
  62
8
  10
 1025.5893892552
  20
 2497.6717006890
  30
0.0
  11
 725.58938925517
  21
 2497.6717006890
  31
0.0
   0
LINE
   5
10F
 100
AcDbEntity
   8
LEVEL001
 370
15
 100
AcDbLine
   6
CONTINUOUS
  62
8
  10
 425.58938925517
  20
 2497.6717006890
  30
0.0
  11
 725.58938925517
  21
 2497.6717006890
  31
0.0
   0
INSERT
   5
110
 100
AcDbEntity
   8
LEVEL001
   6
CONTINUOUS
  62
8
 100
AcDbBlockReference
   2
_DOT
  10
 1025.5893892552
  20
 2497.6717006890
  30
0.0
  41
 4.0000000000000
  42
 4.0000000000000
  43
 4.0000000000000
  50
0.0
   0
INSERT
   5
111
 100
AcDbEntity
   8
LEVEL001
   6
CONTINUOUS
  62
8
 100
AcDbBlockReference
   2
_DOT
  10
 425.58938925517
  20
 2497.6717006890
  30
0.0
  41
 4.0000000000000
  42
 4.0000000000000
  43
 4.0000000000000
  50
 180.00000000000
   0
MTEXT
   5
112
 100
AcDbEntity
   8
LEVEL001
 370
15
  62
8
 100
AcDbMText
  10
 725.58938925517
  20
 2507.6717006890
  30
0.0
  40
 30.000000000000
  41
0.0
  71
8
  72
1
   1
\A1;600
   7
GMM002
   0
ENDBLK
   5
113
 100
AcDbEntity
   8
0
 100
AcDbBlockEnd
   0
BLOCK
   5
114
 100
AcDbEntity
   8
0
 100
AcDbBlockBegin
   2
*D14
  70
65
  10
0.0
  20
0.0
  30
0.0
   3
*D14
   0
LINE
   5
115
 100
AcDbEntity
   8
LEVEL001
 370
15
 100
AcDbLine
   6
CONTINUOUS
  62
8
  10
 1025.5893892552
  20
 1651.6730825157
  30
0.0
  11
 1025.5893892552
  21
 1574.6968723132
  31
0.0
   0
LINE
   5
116
 100
AcDbEntity
   8
LEVEL001
 370
15
 100
AcDbLine
   6
CONTINUOUS
  62
8
  10
 425.58938925517
  20
 1651.6730825157
  30
0.0
  11
 425.58938925517
  21
 1574.6968723132
  31
0.0
   0
LINE
   5
117
 100
AcDbEntity
   8
LEVEL001
 370
15
 100
AcDbLine
   6
CONTINUOUS
  62
8
  10
 1025.5893892552
  20
 1584.6968723132
  30
0.0
  11
 725.58938925517
  21
 1584.6968723132
  31
0.0
   0
LINE
   5
118
 100
AcDbEntity
   8
LEVEL001
 370
15
 100
AcDbLine
   6
CONTINUOUS
  62
8
  10
 425.58938925517
  20
 1584.6968723132
  30
0.0
  11
 725.58938925517
  21
 1584.6968723132
  31
0.0
   0
INSERT
   5
119
 100
AcDbEntity
   8
LEVEL001
   6
CONTINUOUS
  62
8
 100
AcDbBlockReference
   2
_DOT
  10
 1025.5893892552
  20
 1584.6968723132
  30
0.0
  41
 4.0000000000000
  42
 4.0000000000000
  43
 4.0000000000000
  50
0.0
   0
INSERT
   5
11A
 100
AcDbEntity
   8
LEVEL001
   6
CONTINUOUS
  62
8
 100
AcDbBlockReference
   2
_DOT
  10
 425.58938925517
  20
 1584.6968723132
  30
0.0
  41
 4.0000000000000
  42
 4.0000000000000
  43
 4.0000000000000
  50
 180.00000000000
   0
MTEXT
   5
11B
 100
AcDbEntity
   8
LEVEL001
 370
15
  62
8
 100
AcDbMText
  10
 725.58938925517
  20
 1594.6968723132
  30
0.0
  40
 30.000000000000
  41
0.0
  71
8
  72
1
   1
\A1;600
   7
GMM002
   0
ENDBLK
   5
11C
 100
AcDbEntity
   8
0
 100
AcDbBlockEnd
   0
BLOCK
   5
11D
 100
AcDbEntity
   8
0
 100
AcDbBlockBegin
   2
*D15
  70
65
  10
0.0
  20
0.0
  30
0.0
   3
*D15
   0
LINE
   5
11E
 100
AcDbEntity
   8
LEVEL001
 370
15
 100
AcDbLine
   6
CONTINUOUS
  62
8
  10
 1346.5026026300
  20
 336.85977587173
  30
0.0
  11
 1269.0707428332
  21
 336.85977587173
  31
0.0
   0
LINE
   5
11F
 100
AcDbEntity
   8
LEVEL001
 370
15
 100
AcDbLine
   6
CONTINUOUS
  62
8
  10
 1346.5026026300
  20
 1036.8597758717
  30
0.0
  11
 1269.0707428332
  21
 1036.8597758717
  31
0.0
   0
LINE
   5
120
 100
AcDbEntity
   8
LEVEL001
 370
15
 100
AcDbLine
   6
CONTINUOUS
  62
8
  10
 1279.0707428332
  20
 336.85977587173
  30
0.0
  11
 1279.0707428332
  21
 686.85977587173
  31
0.0
   0
LINE
   5
121
 100
AcDbEntity
   8
LEVEL001
 370
15
 100
AcDbLine
   6
CONTINUOUS
  62
8
  10
 1279.0707428332
  20
 1036.8597758717
  30
0.0
  11
 1279.0707428332
  21
 686.85977587173
  31
0.0
   0
INSERT
   5
122
 100
AcDbEntity
   8
LEVEL001
   6
CONTINUOUS
  62
8
 100
AcDbBlockReference
   2
_DOT
  10
 1279.0707428332
  20
 336.85977587173
  30
0.0
  41
 4.0000000000000
  42
 4.0000000000000
  43
 4.0000000000000
  50
 270.00000000000
   0
INSERT
   5
123
 100
AcDbEntity
   8
LEVEL001
   6
CONTINUOUS
  62
8
 100
AcDbBlockReference
   2
_DOT
  10
 1279.0707428332
  20
 1036.8597758717
  30
0.0
  41
 4.0000000000000
  42
 4.0000000000000
  43
 4.0000000000000
  50
 90.000000000000
   0
MTEXT
   5
124
 100
AcDbEntity
   8
LEVEL001
 370
15
  62
8
 100
AcDbMText
  10
 1269.0707428332
  20
 686.85977587173
  30
0.0
  40
 30.000000000000
  41
0.0
  71
8
  72
1
   1
\A1;700
   7
GMM002
  11
0.0
  21
 1.0000000000000
  31
0.0
   0
ENDBLK
   5
125
 100
AcDbEntity
   8
0
 100
AcDbBlockEnd
   0
BLOCK
   5
126
 100
AcDbEntity
   8
0
 100
AcDbBlockBegin
   2
*D16
  70
65
  10
0.0
  20
0.0
  30
0.0
   3
*D16
   0
LINE
   5
127
 100
AcDbEntity
   8
LEVEL001
 370
15
 100
AcDbLine
   6
CONTINUOUS
  62
8
  10
 1396.0707428332
  20
 286.67308251573
  30
0.0
  11
 1396.0707428332
  21
 209.69687231320
  31
0.0
   0
LINE
   5
128
 100
AcDbEntity
   8
LEVEL001
 370
15
 100
AcDbLine
   6
CONTINUOUS
  62
8
  10
 1396.0707428332
  20
 219.69687231320
  30
0.0
  11
 1426.3707428332
  21
 219.69687231320
  31
0.0
   0
LINE
   5
129
 100
AcDbEntity
   8
LEVEL001
 370
15
 100
AcDbLine
   6
CONTINUOUS
  62
8
  10
 1456.6707428332
  20
 219.69687231320
  30
0.0
  11
 1426.3707428332
  21
 219.69687231320
  31
0.0
   0
INSERT
   5
12A
 100
AcDbEntity
   8
LEVEL001
   6
CONTINUOUS
  62
8
 100
AcDbBlockReference
   2
_DOT
  10
 1396.0707428332
  20
 219.69687231320
  30
0.0
  41
 4.0000000000000
  42
 4.0000000000000
  43
 4.0000000000000
  50
 180.00000000000
   0
INSERT
   5
12B
 100
AcDbEntity
   8
LEVEL001
   6
CONTINUOUS
  62
8
 100
AcDbBlockReference
   2
_DOT
  10
 1456.6707428332
  20
 219.69687231320
  30
0.0
  41
 4.0000000000000
  42
 4.0000000000000
  43
 4.0000000000000
  50
0.0
   0
MTEXT
   5
12C
 100
AcDbEntity
   8
LEVEL001
 370
15
  62
8
 100
AcDbMText
  10
 1426.3707428332
  20
 229.69687231320
  30
0.0
  40
 30.000000000000
  41
0.0
  71
8
  72
1
   1
\A1;60
   7
GMM002
   0
ENDBLK
   5
12D
 100
AcDbEntity
   8
0
 100
AcDbBlockEnd
   0
BLOCK
   5
12E
 100
AcDbEntity
   8
0
 100
AcDbBlockBegin
   2
*D17
  70
65
  10
0.0
  20
0.0
  30
0.0
   3
*D17
   0
LINE
   5
12F
 100
AcDbEntity
   8
LEVEL001
 370
15
 100
AcDbLine
   6
CONTINUOUS
  62
8
  10
 1071.0491398037
  20
 336.85977587173
  30
0.0
  11
 1152.5893892552
  21
 336.85977587173
  31
0.0
   0
LINE
   5
130
 100
AcDbEntity
   8
LEVEL001
 370
15
 100
AcDbLine
   6
CONTINUOUS
  62
8
  10
 1081.0491398037
  20
 1036.8597758717
  30
0.0
  11
 1152.5893892552
  21
 1036.8597758717
  31
0.0
   0
LINE
   5
131
 100
AcDbEntity
   8
LEVEL001
 370
15
 100
AcDbLine
   6
CONTINUOUS
  62
8
  10
 1142.5893892552
  20
 336.85977587173
  30
0.0
  11
 1142.5893892552
  21
 686.85977587173
  31
0.0
   0
LINE
   5
132
 100
AcDbEntity
   8
LEVEL001
 370
15
 100
AcDbLine
   6
CONTINUOUS
  62
8
  10
 1142.5893892552
  20
 1036.8597758717
  30
0.0
  11
 1142.5893892552
  21
 686.85977587173
  31
0.0
   0
INSERT
   5
133
 100
AcDbEntity
   8
LEVEL001
   6
CONTINUOUS
  62
8
 100
AcDbBlockReference
   2
_DOT
  10
 1142.5893892552
  20
 336.85977587173
  30
0.0
  41
 4.0000000000000
  42
 4.0000000000000
  43
 4.0000000000000
  50
 270.00000000000
   0
INSERT
   5
134
 100
AcDbEntity
   8
LEVEL001
   6
CONTINUOUS
  62
8
 100
AcDbBlockReference
   2
_DOT
  10
 1142.5893892552
  20
 1036.8597758717
  30
0.0
  41
 4.0000000000000
  42
 4.0000000000000
  43
 4.0000000000000
  50
 90.000000000000
   0
MTEXT
   5
135
 100
AcDbEntity
   8
LEVEL001
 370
15
  62
8
 100
AcDbMText
  10
 1132.5893892552
  20
 686.85977587173
  30
0.0
  40
 30.000000000000
  41
0.0
  71
8
  72
1
   1
\A1;700
   7
GMM002
  11
0.0
  21
 1.0000000000000
  31
0.0
   0
ENDBLK
   5
136
 100
AcDbEntity
   8
0
 100
AcDbBlockEnd
   0
BLOCK
   5
137
 100
AcDbEntity
   8
0
 100
AcDbBlockBegin
   2
*D19
  70
65
  10
0.0
  20
0.0
  30
0.0
   3
*D19
   0
LINE
   5
138
 100
AcDbEntity
   8
LEVEL001
 370
15
 100
AcDbLine
   6
CONTINUOUS
  62
8
  10
 1068.4709125628
  20
 1248.9708104641
  30
0.0
  11
 1152.5893892552
  21
 1248.9708104641
  31
0.0
   0
LINE
   5
139
 100
AcDbEntity
   8
LEVEL001
 370
15
 100
AcDbLine
   6
CONTINUOUS
  62
8
  10
 1142.5893892552
  20
 1248.9708104641
  30
0.0
  11
 1142.5893892552
  21
 1279.6212555766
  31
0.0
   0
LINE
   5
13A
 100
AcDbEntity
   8
LEVEL001
 370
15
 100
AcDbLine
   6
CONTINUOUS
  62
8
  10
 1142.5893892552
  20
 1310.2717006891
  30
0.0
  11
 1142.5893892552
  21
 1279.6212555766
  31
0.0
   0
INSERT
   5
13B
 100
AcDbEntity
   8
LEVEL001
   6
CONTINUOUS
  62
8
 100
AcDbBlockReference
   2
_DOT
  10
 1142.5893892552
  20
 1248.9708104641
  30
0.0
  41
 4.0000000000000
  42
 4.0000000000000
  43
 4.0000000000000
  50
 270.00000000000
   0
INSERT
   5
13C
 100
AcDbEntity
   8
LEVEL001
   6
CONTINUOUS
  62
8
 100
AcDbBlockReference
   2
_DOT
  10
 1142.5893892552
  20
 1310.2717006891
  30
0.0
  41
 4.0000000000000
  42
 4.0000000000000
  43
 4.0000000000000
  50
 90.000000000000
   0
MTEXT
   5
13D
 100
AcDbEntity
   8
LEVEL001
 370
15
  62
8
 100
AcDbMText
  10
 1132.5893892552
  20
 1279.6212555766
  30
0.0
  40
 30.000000000000
  41
0.0
  71
8
  72
1
   1
\A1;60
   7
GMM002
  11
0.0
  21
 1.0000000000000
  31
0.0
   0
ENDBLK
   5
13E
 100
AcDbEntity
   8
0
 100
AcDbBlockEnd
   0
BLOCK
   5
13F
 100
AcDbEntity
   8
0
 100
AcDbBlockBegin
   2
*D20
  70
65
  10
0.0
  20
0.0
  30
0.0
   3
*D20
   0
LINE
   5
140
 100
AcDbEntity
   8
LEVEL001
 370
15
 100
AcDbLine
   6
CONTINUOUS
  62
8
  10
 1025.5893892552
  20
 1199.4026702609
  30
0.0
  11
 1025.5893892552
  21
 1122.6717006891
  31
0.0
   0
LINE
   5
141
 100
AcDbEntity
   8
LEVEL001
 370
15
 100
AcDbLine
   6
CONTINUOUS
  62
8
  10
 325.58938925517
  20
 1199.4026702609
  30
0.0
  11
 325.58938925517
  21
 1122.6717006891
  31
0.0
   0
LINE
   5
142
 100
AcDbEntity
   8
LEVEL001
 370
15
 100
AcDbLine
   6
CONTINUOUS
  62
8
  10
 1025.5893892552
  20
 1132.6717006891
  30
0.0
  11
 675.58938925517
  21
 1132.6717006891
  31
0.0
   0
LINE
   5
143
 100
AcDbEntity
   8
LEVEL001
 370
15
 100
AcDbLine
   6
CONTINUOUS
  62
8
  10
 325.58938925517
  20
 1132.6717006891
  30
0.0
  11
 675.58938925517
  21
 1132.6717006891
  31
0.0
   0
INSERT
   5
144
 100
AcDbEntity
   8
LEVEL001
   6
CONTINUOUS
  62
8
 100
AcDbBlockReference
   2
_DOT
  10
 1025.5893892552
  20
 1132.6717006891
  30
0.0
  41
 4.0000000000000
  42
 4.0000000000000
  43
 4.0000000000000
  50
0.0
   0
INSERT
   5
145
 100
AcDbEntity
   8
LEVEL001
   6
CONTINUOUS
  62
8
 100
AcDbBlockReference
   2
_DOT
  10
 325.58938925517
  20
 1132.6717006891
  30
0.0
  41
 4.0000000000000
  42
 4.0000000000000
  43
 4.0000000000000
  50
 180.00000000000
   0
MTEXT
   5
146
 100
AcDbEntity
   8
LEVEL001
 370
15
  62
8
 100
AcDbMText
  10
 675.58938925517
  20
 1142.6717006891
  30
0.0
  40
 30.000000000000
  41
0.0
  71
8
  72
1
   1
\A1;700
   7
GMM002
   0
ENDBLK
   5
147
 100
AcDbEntity
   8
0
 100
AcDbBlockEnd
   0
BLOCK
   5
148
 100
AcDbEntity
   8
0
 100
AcDbBlockBegin
   2
*D21
  70
65
  10
0.0
  20
0.0
  30
0.0
   3
*D21
   0
LINE
   5
149
 100
AcDbEntity
   8
LEVEL001
 370
15
 100
AcDbLine
   6
CONTINUOUS
  62
8
  10
 1025.5893892552
  20
 286.67308251573
  30
0.0
  11
 1025.5893892552
  21
 209.69687231320
  31
0.0
   0
LINE
   5
14A
 100
AcDbEntity
   8
LEVEL001
 370
15
 100
AcDbLine
   6
CONTINUOUS
  62
8
  10
 325.58938925517
  20
 286.67308251573
  30
0.0
  11
 325.58938925517
  21
 209.69687231320
  31
0.0
   0
LINE
   5
14B
 100
AcDbEntity
   8
LEVEL001
 370
15
 100
AcDbLine
   6
CONTINUOUS
  62
8
  10
 1025.5893892552
  20
 219.69687231320
  30
0.0
  11
 675.58938925517
  21
 219.69687231320
  31
0.0
   0
LINE
   5
14C
 100
AcDbEntity
   8
LEVEL001
 370
15
 100
AcDbLine
   6
CONTINUOUS
  62
8
  10
 325.58938925517
  20
 219.69687231320
  30
0.0
  11
 675.58938925517
  21
 219.69687231320
  31
0.0
   0
INSERT
   5
14D
 100
AcDbEntity
   8
LEVEL001
   6
CONTINUOUS
  62
8
 100
AcDbBlockReference
   2
_DOT
  10
 1025.5893892552
  20
 219.69687231320
  30
0.0
  41
 4.0000000000000
  42
 4.0000000000000
  43
 4.0000000000000
  50
0.0
   0
INSERT
   5
14E
 100
AcDbEntity
   8
LEVEL001
   6
CONTINUOUS
  62
8
 100
AcDbBlockReference
   2
_DOT
  10
 325.58938925517
  20
 219.69687231320
  30
0.0
  41
 4.0000000000000
  42
 4.0000000000000
  43
 4.0000000000000
  50
 180.00000000000
   0
MTEXT
   5
14F
 100
AcDbEntity
   8
LEVEL001
 370
15
  62
8
 100
AcDbMText
  10
 675.58938925517
  20
 229.69687231320
  30
0.0
  40
 30.000000000000
  41
0.0
  71
8
  72
1
   1
\A1;700
   7
GMM002
   0
ENDBLK
   5
150
 100
AcDbEntity
   8
0
 100
AcDbBlockEnd
   0
ENDSEC
   0
SECTION
   2
ENTITIES
   0
LINE
   5
151
 100
AcDbEntity
   8
LEVEL002
 370
30
 100
AcDbLine
   6
CONTINUOUS
  62
7
  10
 3441.5000000000
  20
 2720.7500000000
  30
0.0
  11
 3369.5000000000
  21
 2720.7500000000
  31
0.0
   0
LINE
   5
152
 100
AcDbEntity
   8
LEVEL002
 370
30
 100
AcDbLine
   6
CONTINUOUS
  62
7
  10
 3369.5000000000
  20
 2720.7500000000
  30
0.0
  11
 3369.5000000000
  21
 2612.7500000000
  31
0.0
   0
LINE
   5
153
 100
AcDbEntity
   8
LEVEL002
 370
30
 100
AcDbLine
   6
CONTINUOUS
  62
7
  10
 3369.5000000000
  20
 2612.7500000000
  30
0.0
  11
 3405.5000000000
  21
 2612.7500000000
  31
0.0
   0
LINE
   5
154
 100
AcDbEntity
   8
LEVEL002
 370
30
 100
AcDbLine
   6
CONTINUOUS
  62
7
  10
 3405.5000000000
  20
 2612.7500000000
  30
0.0
  11
 3405.5000000000
  21
 2630.7500000000
  31
0.0
   0
LINE
   5
155
 100
AcDbEntity
   8
LEVEL002
 370
30
 100
AcDbLine
   6
CONTINUOUS
  62
7
  10
 3405.5000000000
  20
 2630.7500000000
  30
0.0
  11
 3441.5000000000
  21
 2630.7500000000
  31
0.0
   0
ARC
   5
156
 100
AcDbEntity
   8
LEVEL002
 370
30
   6
CONTINUOUS
  62
7
 100
AcDbCircle
  10
 3441.5000000000
  20
 2675.7500000000
  30
0.0
  40
 45.000000000000
 100
AcDbArc
  50
 270.00000000000
  51
 90.000000000000
   0
LINE
   5
157
 100
AcDbEntity
   8
LEVEL002
 370
30
 100
AcDbLine
   6
CONTINUOUS
  62
7
  10
 3405.5000000000
  20
 2666.7500000000
  30
0.0
  11
 3441.5000000000
  21
 2666.7500000000
  31
0.0
   0
ARC
   5
158
 100
AcDbEntity
   8
LEVEL002
 370
30
   6
CONTINUOUS
  62
7
 100
AcDbCircle
  10
 3441.5000000000
  20
 2675.7500000000
  30
0.0
  40
 9.0000000000000
 100
AcDbArc
  50
 270.00000000000
  51
 90.000000000000
   0
LINE
   5
159
 100
AcDbEntity
   8
LEVEL002
 370
30
 100
AcDbLine
   6
CONTINUOUS
  62
7
  10
 3441.5000000000
  20
 2684.7500000000
  30
0.0
  11
 3405.5000000000
  21
 2684.7500000000
  31
0.0
   0
LINE
   5
15A
 100
AcDbEntity
   8
LEVEL002
 370
30
 100
AcDbLine
   6
CONTINUOUS
  62
7
  10
 3405.5000000000
  20
 2684.7500000000
  30
0.0
  11
 3405.5000000000
  21
 2666.7500000000
  31
0.0
   0
LINE
   5
15B
 100
AcDbEntity
   8
LEVEL002
 370
30
 100
AcDbLine
   6
CONTINUOUS
  62
7
  10
 3459.5000000000
  20
 2612.7500000000
  30
0.0
  11
 3531.5000000000
  21
 2720.7500000000
  31
0.0
   0
LINE
   5
15C
 100
AcDbEntity
   8
LEVEL002
 370
30
 100
AcDbLine
   6
CONTINUOUS
  62
7
  10
 3531.5000000000
  20
 2720.7500000000
  30
0.0
  11
 3621.5000000000
  21
 2720.7500000000
  31
0.0
   0
LINE
   5
15D
 100
AcDbEntity
   8
LEVEL002
 370
30
 100
AcDbLine
   6
CONTINUOUS
  62
7
  10
 3621.5000000000
  20
 2720.7500000000
  30
0.0
  11
 3621.5000000000
  21
 2648.7500000000
  31
0.0
   0
LINE
   5
15E
 100
AcDbEntity
   8
LEVEL002
 370
30
 100
AcDbLine
   6
CONTINUOUS
  62
7
  10
 3621.5000000000
  20
 2648.7500000000
  30
0.0
  11
 3675.5000000000
  21
 2648.7500000000
  31
0.0
   0
LINE
   5
15F
 100
AcDbEntity
   8
LEVEL002
 370
30
 100
AcDbLine
   6
CONTINUOUS
  62
7
  10
 3675.5000000000
  20
 2648.7500000000
  30
0.0
  11
 3675.5000000000
  21
 2684.7500000000
  31
0.0
   0
LINE
   5
160
 100
AcDbEntity
   8
LEVEL002
 370
30
 100
AcDbLine
   6
CONTINUOUS
  62
7
  10
 3675.5000000000
  20
 2684.7500000000
  30
0.0
  11
 3639.5000000000
  21
 2684.7500000000
  31
0.0
   0
LINE
   5
161
 100
AcDbEntity
   8
LEVEL002
 370
30
 100
AcDbLine
   6
CONTINUOUS
  62
7
  10
 3639.5000000000
  20
 2684.7500000000
  30
0.0
  11
 3639.5000000000
  21
 2720.7500000000
  31
0.0
   0
LINE
   5
162
 100
AcDbEntity
   8
LEVEL002
 370
30
 100
AcDbLine
   6
CONTINUOUS
  62
7
  10
 3639.5000000000
  20
 2720.7500000000
  30
0.0
  11
 3855.5000000000
  21
 2720.7500000000
  31
0.0
   0
LINE
   5
163
 100
AcDbEntity
   8
LEVEL002
 370
30
 100
AcDbLine
   6
CONTINUOUS
  62
7
  10
 3855.5000000000
  20
 2720.7500000000
  30
0.0
  11
 3855.5000000000
  21
 2684.7500000000
  31
0.0
   0
LINE
   5
164
 100
AcDbEntity
   8
LEVEL002
 370
30
 100
AcDbLine
   6
CONTINUOUS
  62
7
  10
 3855.5000000000
  20
 2684.7500000000
  30
0.0
  11
 3783.5000000000
  21
 2684.7500000000
  31
0.0
   0
LINE
   5
165
 100
AcDbEntity
   8
LEVEL002
 370
30
 100
AcDbLine
   6
CONTINUOUS
  62
7
  10
 3783.5000000000
  20
 2684.7500000000
  30
0.0
  11
 3783.5000000000
  21
 2675.7500000000
  31
0.0
   0
LINE
   5
166
 100
AcDbEntity
   8
LEVEL002
 370
30
 100
AcDbLine
   6
CONTINUOUS
  62
7
  10
 3783.5000000000
  20
 2675.7500000000
  30
0.0
  11
 3846.5000000000
  21
 2675.7500000000
  31
0.0
   0
LINE
   5
167
 100
AcDbEntity
   8
LEVEL002
 370
30
 100
AcDbLine
   6
CONTINUOUS
  62
7
  10
 3846.5000000000
  20
 2675.7500000000
  30
0.0
  11
 3846.5000000000
  21
 2657.7500000000
  31
0.0
   0
LINE
   5
168
 100
AcDbEntity
   8
LEVEL002
 370
30
 100
AcDbLine
   6
CONTINUOUS
  62
7
  10
 3846.5000000000
  20
 2657.7500000000
  30
0.0
  11
 3783.5000000000
  21
 2657.7500000000
  31
0.0
   0
LINE
   5
169
 100
AcDbEntity
   8
LEVEL002
 370
30
 100
AcDbLine
   6
CONTINUOUS
  62
7
  10
 3783.5000000000
  20
 2657.7500000000
  30
0.0
  11
 3783.5000000000
  21
 2648.7500000000
  31
0.0
   0
LINE
   5
16A
 100
AcDbEntity
   8
LEVEL002
 370
30
 100
AcDbLine
   6
CONTINUOUS
  62
7
  10
 3783.5000000000
  20
 2648.7500000000
  30
0.0
  11
 3855.5000000000
  21
 2648.7500000000
  31
0.0
   0
LINE
   5
16B
 100
AcDbEntity
   8
LEVEL002
 370
30
 100
AcDbLine
   6
CONTINUOUS
  62
7
  10
 3855.5000000000
  20
 2648.7500000000
  30
0.0
  11
 3855.5000000000
  21
 2612.7500000000
  31
0.0
   0
LINE
   5
16C
 100
AcDbEntity
   8
LEVEL002
 370
30
 100
AcDbLine
   6
CONTINUOUS
  62
7
  10
 3855.5000000000
  20
 2612.7500000000
  30
0.0
  11
 3747.5000000000
  21
 2612.7500000000
  31
0.0
   0
LINE
   5
16D
 100
AcDbEntity
   8
LEVEL002
 370
30
 100
AcDbLine
   6
CONTINUOUS
  62
7
  10
 3747.5000000000
  20
 2612.7500000000
  30
0.0
  11
 3747.5000000000
  21
 2684.7500000000
  31
0.0
   0
LINE
   5
16E
 100
AcDbEntity
   8
LEVEL002
 370
30
 100
AcDbLine
   6
CONTINUOUS
  62
7
  10
 3747.5000000000
  20
 2684.7500000000
  30
0.0
  11
 3711.5000000000
  21
 2684.7500000000
  31
0.0
   0
LINE
   5
16F
 100
AcDbEntity
   8
LEVEL002
 370
30
 100
AcDbLine
   6
CONTINUOUS
  62
7
  10
 3711.5000000000
  20
 2684.7500000000
  30
0.0
  11
 3711.5000000000
  21
 2612.7500000000
  31
0.0
   0
LINE
   5
170
 100
AcDbEntity
   8
LEVEL002
 370
30
 100
AcDbLine
   6
CONTINUOUS
  62
7
  10
 3711.5000000000
  20
 2612.7500000000
  30
0.0
  11
 3585.5000000000
  21
 2612.7500000000
  31
0.0
   0
LINE
   5
171
 100
AcDbEntity
   8
LEVEL002
 370
30
 100
AcDbLine
   6
CONTINUOUS
  62
7
  10
 3585.5000000000
  20
 2612.7500000000
  30
0.0
  11
 3585.5000000000
  21
 2720.7500000000
  31
0.0
   0
LINE
   5
172
 100
AcDbEntity
   8
LEVEL002
 370
30
 100
AcDbLine
   6
CONTINUOUS
  62
7
  10
 3585.5000000000
  20
 2720.7500000000
  30
0.0
  11
 3513.5000000000
  21
 2612.7500000000
  31
0.0
   0
LINE
   5
173
 100
AcDbEntity
   8
LEVEL002
 370
30
 100
AcDbLine
   6
CONTINUOUS
  62
7
  10
 3513.5000000000
  20
 2612.7500000000
  30
0.0
  11
 3459.5000000000
  21
 2612.7500000000
  31
0.0
   0
LINE
   5
174
 100
AcDbEntity
   8
LEVEL002
 370
30
 100
AcDbLine
   6
CONTINUOUS
  62
7
  10
 3573.5000000000
  20
 2681.1166923470
  30
0.0
  11
 3527.9222051020
  21
 2612.7500000000
  31
0.0
   0
LINE
   5
175
 100
AcDbEntity
   8
LEVEL002
 370
30
 100
AcDbLine
   6
CONTINUOUS
  62
7
  10
 3527.9222051020
  20
 2612.7500000000
  30
0.0
  11
 3573.5000000000
  21
 2612.7500000000
  31
0.0
   0
LINE
   5
176
 100
AcDbEntity
   8
LEVEL002
 370
30
 100
AcDbLine
   6
CONTINUOUS
  62
7
  10
 3573.5000000000
  20
 2612.7500000000
  30
0.0
  11
 3573.5000000000
  21
 2681.1166923470
  31
0.0
   0
ARC
   5
177
 100
AcDbEntity
   8
LEVEL002
 370
30
   6
CONTINUOUS
  62
7
 100
AcDbCircle
  10
 3909.5000000000
  20
 2666.7500000000
  30
0.0
  40
 54.000000000000
 100
AcDbArc
  50
 90.000000000000
  51
 270.00000000000
   0
ARC
   5
178
 100
AcDbEntity
   8
LEVEL002
 370
30
   6
CONTINUOUS
  62
7
 100
AcDbCircle
  10
 3909.5000000000
  20
 2666.7500000000
  30
0.0
  40
 18.000000000000
 100
AcDbArc
  50
 90.000000000000
  51
 270.00000000000
   0
LINE
   5
179
 100
AcDbEntity
   8
LEVEL002
 370
30
 100
AcDbLine
   6
CONTINUOUS
  62
7
  10
 3909.5000000000
  20
 2720.7500000000
  30
0.0
  11
 3963.5000000000
  21
 2720.7500000000
  31
0.0
   0
LINE
   5
17A
 100
AcDbEntity
   8
LEVEL002
 370
30
 100
AcDbLine
   6
CONTINUOUS
  62
7
  10
 3963.5000000000
  20
 2720.7500000000
  30
0.0
  11
 3963.5000000000
  21
 2684.7500000000
  31
0.0
   0
LINE
   5
17B
 100
AcDbEntity
   8
LEVEL002
 370
30
 100
AcDbLine
   6
CONTINUOUS
  62
7
  10
 3963.5000000000
  20
 2684.7500000000
  30
0.0
  11
 3909.5000000000
  21
 2684.7500000000
  31
0.0
   0
LINE
   5
17C
 100
AcDbEntity
   8
LEVEL002
 370
30
 100
AcDbLine
   6
CONTINUOUS
  62
7
  10
 3369.5000000000
  20
 2720.7500000000
  30
0.0
  11
 3369.5000000000
  21
 2612.7500000000
  31
0.0
   0
LINE
   5
17D
 100
AcDbEntity
   8
LEVEL002
 370
30
 100
AcDbLine
   6
CONTINUOUS
  62
7
  10
 3369.5000000000
  20
 2612.7500000000
  30
0.0
  11
 3405.5000000000
  21
 2612.7500000000
  31
0.0
   0
LINE
   5
17E
 100
AcDbEntity
   8
LEVEL002
 370
30
 100
AcDbLine
   6
CONTINUOUS
  62
7
  10
 3405.5000000000
  20
 2612.7500000000
  30
0.0
  11
 3405.5000000000
  21
 2630.7500000000
  31
0.0
   0
LINE
   5
17F
 100
AcDbEntity
   8
LEVEL002
 370
30
 100
AcDbLine
   6
CONTINUOUS
  62
7
  10
 3405.5000000000
  20
 2630.7500000000
  30
0.0
  11
 3441.5000000000
  21
 2630.7500000000
  31
0.0
   0
ARC
   5
180
 100
AcDbEntity
   8
LEVEL002
 370
30
   6
CONTINUOUS
  62
7
 100
AcDbCircle
  10
 3441.5000000000
  20
 2675.7500000000
  30
0.0
  40
 45.000000000000
 100
AcDbArc
  50
 270.00000000000
  51
 90.000000000000
   0
LINE
   5
181
 100
AcDbEntity
   8
LEVEL002
 370
30
 100
AcDbLine
   6
CONTINUOUS
  62
7
  10
 3441.5000000000
  20
 2720.7500000000
  30
0.0
  11
 3369.5000000000
  21
 2720.7500000000
  31
0.0
   0
LINE
   5
182
 100
AcDbEntity
   8
LEVEL002
 370
30
 100
AcDbLine
   6
CONTINUOUS
  62
7
  10
 3405.5000000000
  20
 2684.7500000000
  30
0.0
  11
 3405.5000000000
  21
 2666.7500000000
  31
0.0
   0
LINE
   5
183
 100
AcDbEntity
   8
LEVEL002
 370
30
 100
AcDbLine
   6
CONTINUOUS
  62
7
  10
 3405.5000000000
  20
 2666.7500000000
  30
0.0
  11
 3441.5000000000
  21
 2666.7500000000
  31
0.0
   0
ARC
   5
184
 100
AcDbEntity
   8
LEVEL002
 370
30
   6
CONTINUOUS
  62
7
 100
AcDbCircle
  10
 3441.5000000000
  20
 2675.7500000000
  30
0.0
  40
 9.0000000000000
 100
AcDbArc
  50
 270.00000000000
  51
 90.000000000000
   0
LINE
   5
185
 100
AcDbEntity
   8
LEVEL002
 370
30
 100
AcDbLine
   6
CONTINUOUS
  62
7
  10
 3441.5000000000
  20
 2684.7500000000
  30
0.0
  11
 3405.5000000000
  21
 2684.7500000000
  31
0.0
   0
LINE
   5
186
 100
AcDbEntity
   8
LEVEL002
 370
30
 100
AcDbLine
   6
CONTINUOUS
  62
7
  10
 3531.5000000000
  20
 2720.7500000000
  30
0.0
  11
 3459.5000000000
  21
 2612.7500000000
  31
0.0
   0
LINE
   5
187
 100
AcDbEntity
   8
LEVEL002
 370
30
 100
AcDbLine
   6
CONTINUOUS
  62
7
  10
 3459.5000000000
  20
 2612.7500000000
  30
0.0
  11
 3513.5000000000
  21
 2612.7500000000
  31
0.0
   0
LINE
   5
188
 100
AcDbEntity
   8
LEVEL002
 370
30
 100
AcDbLine
   6
CONTINUOUS
  62
7
  10
 3513.5000000000
  20
 2612.7500000000
  30
0.0
  11
 3585.5000000000
  21
 2720.7500000000
  31
0.0
   0
LINE
   5
189
 100
AcDbEntity
   8
LEVEL002
 370
30
 100
AcDbLine
   6
CONTINUOUS
  62
7
  10
 3585.5000000000
  20
 2720.7500000000
  30
0.0
  11
 3531.5000000000
  21
 2720.7500000000
  31
0.0
   0
LINE
   5
18A
 100
AcDbEntity
   8
LEVEL002
 370
30
 100
AcDbLine
   6
CONTINUOUS
  62
7
  10
 3573.5000000000
  20
 2612.7500000000
  30
0.0
  11
 3573.5000000000
  21
 2681.1166923470
  31
0.0
   0
LINE
   5
18B
 100
AcDbEntity
   8
LEVEL002
 370
30
 100
AcDbLine
   6
CONTINUOUS
  62
7
  10
 3573.5000000000
  20
 2681.1166923470
  30
0.0
  11
 3527.9222051020
  21
 2612.7500000000
  31
0.0
   0
LINE
   5
18C
 100
AcDbEntity
   8
LEVEL002
 370
30
 100
AcDbLine
   6
CONTINUOUS
  62
7
  10
 3527.9222051020
  20
 2612.7500000000
  30
0.0
  11
 3573.5000000000
  21
 2612.7500000000
  31
0.0
   0
LINE
   5
18D
 100
AcDbEntity
   8
LEVEL002
 370
30
 100
AcDbLine
   6
CONTINUOUS
  62
7
  10
 3585.5000000000
  20
 2612.7500000000
  30
0.0
  11
 3711.5000000000
  21
 2612.7500000000
  31
0.0
   0
LINE
   5
18E
 100
AcDbEntity
   8
LEVEL002
 370
30
 100
AcDbLine
   6
CONTINUOUS
  62
7
  10
 3711.5000000000
  20
 2612.7500000000
  30
0.0
  11
 3711.5000000000
  21
 2684.7500000000
  31
0.0
   0
LINE
   5
18F
 100
AcDbEntity
   8
LEVEL002
 370
30
 100
AcDbLine
   6
CONTINUOUS
  62
7
  10
 3711.5000000000
  20
 2684.7500000000
  30
0.0
  11
 3747.5000000000
  21
 2684.7500000000
  31
0.0
   0
LINE
   5
190
 100
AcDbEntity
   8
LEVEL002
 370
30
 100
AcDbLine
   6
CONTINUOUS
  62
7
  10
 3747.5000000000
  20
 2684.7500000000
  30
0.0
  11
 3747.5000000000
  21
 2612.7500000000
  31
0.0
   0
LINE
   5
191
 100
AcDbEntity
   8
LEVEL002
 370
30
 100
AcDbLine
   6
CONTINUOUS
  62
7
  10
 3747.5000000000
  20
 2612.7500000000
  30
0.0
  11
 3855.5000000000
  21
 2612.7500000000
  31
0.0
   0
LINE
   5
192
 100
AcDbEntity
   8
LEVEL002
 370
30
 100
AcDbLine
   6
CONTINUOUS
  62
7
  10
 3855.5000000000
  20
 2612.7500000000
  30
0.0
  11
 3855.5000000000
  21
 2648.7500000000
  31
0.0
   0
LINE
   5
193
 100
AcDbEntity
   8
LEVEL002
 370
30
 100
AcDbLine
   6
CONTINUOUS
  62
7
  10
 3855.5000000000
  20
 2648.7500000000
  30
0.0
  11
 3783.5000000000
  21
 2648.7500000000
  31
0.0
   0
LINE
   5
194
 100
AcDbEntity
   8
LEVEL002
 370
30
 100
AcDbLine
   6
CONTINUOUS
  62
7
  10
 3783.5000000000
  20
 2648.7500000000
  30
0.0
  11
 3783.5000000000
  21
 2657.7500000000
  31
0.0
   0
LINE
   5
195
 100
AcDbEntity
   8
LEVEL002
 370
30
 100
AcDbLine
   6
CONTINUOUS
  62
7
  10
 3783.5000000000
  20
 2657.7500000000
  30
0.0
  11
 3846.5000000000
  21
 2657.7500000000
  31
0.0
   0
LINE
   5
196
 100
AcDbEntity
   8
LEVEL002
 370
30
 100
AcDbLine
   6
CONTINUOUS
  62
7
  10
 3846.5000000000
  20
 2657.7500000000
  30
0.0
  11
 3846.5000000000
  21
 2675.7500000000
  31
0.0
   0
LINE
   5
197
 100
AcDbEntity
   8
LEVEL002
 370
30
 100
AcDbLine
   6
CONTINUOUS
  62
7
  10
 3846.5000000000
  20
 2675.7500000000
  30
0.0
  11
 3783.5000000000
  21
 2675.7500000000
  31
0.0
   0
LINE
   5
198
 100
AcDbEntity
   8
LEVEL002
 370
30
 100
AcDbLine
   6
CONTINUOUS
  62
7
  10
 3783.5000000000
  20
 2675.7500000000
  30
0.0
  11
 3783.5000000000
  21
 2684.7500000000
  31
0.0
   0
LINE
   5
199
 100
AcDbEntity
   8
LEVEL002
 370
30
 100
AcDbLine
   6
CONTINUOUS
  62
7
  10
 3783.5000000000
  20
 2684.7500000000
  30
0.0
  11
 3855.5000000000
  21
 2684.7500000000
  31
0.0
   0
LINE
   5
19A
 100
AcDbEntity
   8
LEVEL002
 370
30
 100
AcDbLine
   6
CONTINUOUS
  62
7
  10
 3855.5000000000
  20
 2684.7500000000
  30
0.0
  11
 3855.5000000000
  21
 2720.7500000000
  31
0.0
   0
LINE
   5
19B
 100
AcDbEntity
   8
LEVEL002
 370
30
 100
AcDbLine
   6
CONTINUOUS
  62
7
  10
 3855.5000000000
  20
 2720.7500000000
  30
0.0
  11
 3639.5000000000
  21
 2720.7500000000
  31
0.0
   0
LINE
   5
19C
 100
AcDbEntity
   8
LEVEL002
 370
30
 100
AcDbLine
   6
CONTINUOUS
  62
7
  10
 3639.5000000000
  20
 2720.7500000000
  30
0.0
  11
 3639.5000000000
  21
 2684.7500000000
  31
0.0
   0
LINE
   5
19D
 100
AcDbEntity
   8
LEVEL002
 370
30
 100
AcDbLine
   6
CONTINUOUS
  62
7
  10
 3639.5000000000
  20
 2684.7500000000
  30
0.0
  11
 3675.5000000000
  21
 2684.7500000000
  31
0.0
   0
LINE
   5
19E
 100
AcDbEntity
   8
LEVEL002
 370
30
 100
AcDbLine
   6
CONTINUOUS
  62
7
  10
 3675.5000000000
  20
 2684.7500000000
  30
0.0
  11
 3675.5000000000
  21
 2648.7500000000
  31
0.0
   0
LINE
   5
19F
 100
AcDbEntity
   8
LEVEL002
 370
30
 100
AcDbLine
   6
CONTINUOUS
  62
7
  10
 3675.5000000000
  20
 2648.7500000000
  30
0.0
  11
 3621.5000000000
  21
 2648.7500000000
  31
0.0
   0
LINE
   5
1A0
 100
AcDbEntity
   8
LEVEL002
 370
30
 100
AcDbLine
   6
CONTINUOUS
  62
7
  10
 3621.5000000000
  20
 2648.7500000000
  30
0.0
  11
 3621.5000000000
  21
 2720.7500000000
  31
0.0
   0
LINE
   5
1A1
 100
AcDbEntity
   8
LEVEL002
 370
30
 100
AcDbLine
   6
CONTINUOUS
  62
7
  10
 3621.5000000000
  20
 2720.7500000000
  30
0.0
  11
 3585.5000000000
  21
 2720.7500000000
  31
0.0
   0
LINE
   5
1A2
 100
AcDbEntity
   8
LEVEL002
 370
30
 100
AcDbLine
   6
CONTINUOUS
  62
7
  10
 3585.5000000000
  20
 2720.7500000000
  30
0.0
  11
 3585.5000000000
  21
 2612.7500000000
  31
0.0
   0
LINE
   5
1A3
 100
AcDbEntity
   8
LEVEL002
 370
30
 100
AcDbLine
   6
CONTINUOUS
  62
7
  10
 3909.5000000000
  20
 2612.7500000000
  30
0.0
  11
 3963.5000000000
  21
 2612.7500000000
  31
0.0
   0
LINE
   5
1A4
 100
AcDbEntity
   8
LEVEL002
 370
30
 100
AcDbLine
   6
CONTINUOUS
  62
7
  10
 3963.5000000000
  20
 2612.7500000000
  30
0.0
  11
 3963.5000000000
  21
 2648.7500000000
  31
0.0
   0
LINE
   5
1A5
 100
AcDbEntity
   8
LEVEL002
 370
30
 100
AcDbLine
   6
CONTINUOUS
  62
7
  10
 3963.5000000000
  20
 2648.7500000000
  30
0.0
  11
 3909.5000000000
  21
 2648.7500000000
  31
0.0
   0
ARC
   5
1A6
 100
AcDbEntity
   8
LEVEL002
 370
30
   6
CONTINUOUS
  62
7
 100
AcDbCircle
  10
 3909.5000000000
  20
 2666.7500000000
  30
0.0
  40
 18.000000000000
 100
AcDbArc
  50
 90.000000000000
  51
 270.00000000000
   0
LINE
   5
1A7
 100
AcDbEntity
   8
LEVEL002
 370
30
 100
AcDbLine
   6
CONTINUOUS
  62
7
  10
 3909.5000000000
  20
 2684.7500000000
  30
0.0
  11
 3963.5000000000
  21
 2684.7500000000
  31
0.0
   0
LINE
   5
1A8
 100
AcDbEntity
   8
LEVEL002
 370
30
 100
AcDbLine
   6
CONTINUOUS
  62
7
  10
 3963.5000000000
  20
 2684.7500000000
  30
0.0
  11
 3963.5000000000
  21
 2720.7500000000
  31
0.0
   0
LINE
   5
1A9
 100
AcDbEntity
   8
LEVEL002
 370
30
 100
AcDbLine
   6
CONTINUOUS
  62
7
  10
 3963.5000000000
  20
 2720.7500000000
  30
0.0
  11
 3909.5000000000
  21
 2720.7500000000
  31
0.0
   0
ARC
   5
1AA
 100
AcDbEntity
   8
LEVEL002
 370
30
   6
CONTINUOUS
  62
7
 100
AcDbCircle
  10
 3909.5000000000
  20
 2666.7500000000
  30
0.0
  40
 54.000000000000
 100
AcDbArc
  50
 90.000000000000
  51
 270.00000000000
   0
MTEXT
   5
1AC
 100
AcDbEntity
   8
LEVEL002
 370
30
  62
7
 100
AcDbMText
  10
 3369.5000000000
  20
 2738.7500000000
  30
0.0
  40
 37.500000000000
  41
0.0
  71
7
  72
1
   1
\T1.000000;ケージーパルテック株式会社
   7
GMM001
  44
 0.79999984000003
   0
LINE
   5
1AD
 100
AcDbEntity
   8
LEVEL002
 370
30
 100
AcDbLine
   6
CONTINUOUS
  62
7
  10
 3333.5000000000
  20
 2636.7500000000
  30
0.0
  11
 3288.5000000000
  21
 2708.7500000000
  31
0.0
   0
LINE
   5
1AE
 100
AcDbEntity
   8
LEVEL002
 370
30
 100
AcDbLine
   6
CONTINUOUS
  62
7
  10
 3288.5000000000
  20
 2708.7500000000
  30
0.0
  11
 3333.5000000000
  21
 2708.7500000000
  31
0.0
   0
LINE
   5
1AF
 100
AcDbEntity
   8
LEVEL002
 370
30
 100
AcDbLine
   6
CONTINUOUS
  62
7
  10
 3333.5000000000
  20
 2708.7500000000
  30
0.0
  11
 3333.5000000000
  21
 2636.7500000000
  31
0.0
   0
LINE
   5
1B0
 100
AcDbEntity
   8
LEVEL002
 370
30
 100
AcDbLine
   6
CONTINUOUS
  62
7
  10
 3288.5000000000
  20
 2708.7500000000
  30
0.0
  11
 3333.5000000000
  21
 2636.7500000000
  31
0.0
   0
LINE
   5
1B1
 100
AcDbEntity
   8
LEVEL002
 370
30
 100
AcDbLine
   6
CONTINUOUS
  62
7
  10
 3333.5000000000
  20
 2636.7500000000
  30
0.0
  11
 3333.5000000000
  21
 2708.7500000000
  31
0.0
   0
LINE
   5
1B2
 100
AcDbEntity
   8
LEVEL002
 370
30
 100
AcDbLine
   6
CONTINUOUS
  62
7
  10
 3333.5000000000
  20
 2708.7500000000
  30
0.0
  11
 3288.5000000000
  21
 2708.7500000000
  31
0.0
   0
LINE
   5
1B3
 100
AcDbEntity
   8
LEVEL002
 370
30
 100
AcDbLine
   6
CONTINUOUS
  62
7
  10
 3190.5000000000
  20
 2804.7500000000
  30
0.0
  11
 3126.5000000000
  21
 2708.7500000000
  31
0.0
   0
LINE
   5
1B4
 100
AcDbEntity
   8
LEVEL002
 370
30
 100
AcDbLine
   6
CONTINUOUS
  62
7
  10
 3126.5000000000
  20
 2708.7500000000
  30
0.0
  11
 3190.5000000000
  21
 2612.7500000000
  31
0.0
   0
LINE
   5
1B5
 100
AcDbEntity
   8
LEVEL002
 370
30
 100
AcDbLine
   6
CONTINUOUS
  62
7
  10
 3244.5000000000
  20
 2612.7500000000
  30
0.0
  11
 3180.5000000000
  21
 2708.7500000000
  31
0.0
   0
LINE
   5
1B6
 100
AcDbEntity
   8
LEVEL002
 370
30
 100
AcDbLine
   6
CONTINUOUS
  62
7
  10
 3180.5000000000
  20
 2708.7500000000
  30
0.0
  11
 3244.5000000000
  21
 2804.7500000000
  31
0.0
   0
LINE
   5
1B7
 100
AcDbEntity
   8
LEVEL002
 370
30
 100
AcDbLine
   6
CONTINUOUS
  62
7
  10
 3271.5000000000
  20
 2804.7500000000
  30
0.0
  11
 3207.5000000000
  21
 2708.7500000000
  31
0.0
   0
LINE
   5
1B8
 100
AcDbEntity
   8
LEVEL002
 370
30
 100
AcDbLine
   6
CONTINUOUS
  62
7
  10
 3207.5000000000
  20
 2708.7500000000
  30
0.0
  11
 3271.5000000000
  21
 2612.7500000000
  31
0.0
   0
LINE
   5
1B9
 100
AcDbEntity
   8
LEVEL002
 370
30
 100
AcDbLine
   6
CONTINUOUS
  62
7
  10
 3325.5000000000
  20
 2612.7500000000
  30
0.0
  11
 3261.5000000000
  21
 2708.7500000000
  31
0.0
   0
LINE
   5
1BA
 100
AcDbEntity
   8
LEVEL002
 370
30
 100
AcDbLine
   6
CONTINUOUS
  62
7
  10
 3261.5000000000
  20
 2708.7500000000
  30
0.0
  11
 3325.5000000000
  21
 2804.7500000000
  31
0.0
   0
LINE
   5
1BB
 100
AcDbEntity
   8
LEVEL002
 370
30
 100
AcDbLine
   6
CONTINUOUS
  62
7
  10
 3190.5000000000
  20
 2612.7500000000
  30
0.0
  11
 3126.5000000000
  21
 2708.7500000000
  31
0.0
   0
LINE
   5
1BC
 100
AcDbEntity
   8
LEVEL002
 370
30
 100
AcDbLine
   6
CONTINUOUS
  62
7
  10
 3126.5000000000
  20
 2708.7500000000
  30
0.0
  11
 3190.5000000000
  21
 2804.7500000000
  31
0.0
   0
LINE
   5
1BD
 100
AcDbEntity
   8
LEVEL002
 370
30
 100
AcDbLine
   6
CONTINUOUS
  62
7
  10
 3190.5000000000
  20
 2804.7500000000
  30
0.0
  11
 3244.5000000000
  21
 2804.7500000000
  31
0.0
   0
LINE
   5
1BE
 100
AcDbEntity
   8
LEVEL002
 370
30
 100
AcDbLine
   6
CONTINUOUS
  62
7
  10
 3244.5000000000
  20
 2804.7500000000
  30
0.0
  11
 3180.5000000000
  21
 2708.7500000000
  31
0.0
   0
LINE
   5
1BF
 100
AcDbEntity
   8
LEVEL002
 370
30
 100
AcDbLine
   6
CONTINUOUS
  62
7
  10
 3180.5000000000
  20
 2708.7500000000
  30
0.0
  11
 3244.5000000000
  21
 2612.7500000000
  31
0.0
   0
LINE
   5
1C0
 100
AcDbEntity
   8
LEVEL002
 370
30
 100
AcDbLine
   6
CONTINUOUS
  62
7
  10
 3244.5000000000
  20
 2612.7500000000
  30
0.0
  11
 3190.5000000000
  21
 2612.7500000000
  31
0.0
   0
LINE
   5
1C1
 100
AcDbEntity
   8
LEVEL002
 370
30
 100
AcDbLine
   6
CONTINUOUS
  62
7
  10
 3271.5000000000
  20
 2612.7500000000
  30
0.0
  11
 3207.5000000000
  21
 2708.7500000000
  31
0.0
   0
LINE
   5
1C2
 100
AcDbEntity
   8
LEVEL002
 370
30
 100
AcDbLine
   6
CONTINUOUS
  62
7
  10
 3207.5000000000
  20
 2708.7500000000
  30
0.0
  11
 3271.5000000000
  21
 2804.7500000000
  31
0.0
   0
LINE
   5
1C3
 100
AcDbEntity
   8
LEVEL002
 370
30
 100
AcDbLine
   6
CONTINUOUS
  62
7
  10
 3271.5000000000
  20
 2804.7500000000
  30
0.0
  11
 3325.5000000000
  21
 2804.7500000000
  31
0.0
   0
LINE
   5
1C4
 100
AcDbEntity
   8
LEVEL002
 370
30
 100
AcDbLine
   6
CONTINUOUS
  62
7
  10
 3325.5000000000
  20
 2804.7500000000
  30
0.0
  11
 3261.5000000000
  21
 2708.7500000000
  31
0.0
   0
LINE
   5
1C5
 100
AcDbEntity
   8
LEVEL002
 370
30
 100
AcDbLine
   6
CONTINUOUS
  62
7
  10
 3261.5000000000
  20
 2708.7500000000
  30
0.0
  11
 3325.5000000000
  21
 2612.7500000000
  31
0.0
   0
LINE
   5
1C6
 100
AcDbEntity
   8
LEVEL002
 370
30
 100
AcDbLine
   6
CONTINUOUS
  62
7
  10
 3325.5000000000
  20
 2612.7500000000
  30
0.0
  11
 3271.5000000000
  21
 2612.7500000000
  31
0.0
   0
LINE
   5
1C7
 100
AcDbEntity
   8
LEVEL001
 370
30
 100
AcDbLine
   6
DOT
  62
7
  10
0.0
  20
0.0
  30
0.0
  11
 4200.0000000000
  21
0.0
  31
0.0
   0
LINE
   5
1C8
 100
AcDbEntity
   8
LEVEL001
 370
30
 100
AcDbLine
   6
DOT
  62
7
  10
 4200.0000000000
  20
0.0
  30
0.0
  11
 4200.0000000000
  21
 2970.0000000000
  31
0.0
   0
LINE
   5
1C9
 100
AcDbEntity
   8
LEVEL001
 370
30
 100
AcDbLine
   6
DOT
  62
7
  10
 4200.0000000000
  20
 2970.0000000000
  30
0.0
  11
0.0
  21
 2970.0000000000
  31
0.0
   0
LINE
   5
1CA
 100
AcDbEntity
   8
LEVEL001
 370
30
 100
AcDbLine
   6
DOT
  62
7
  10
0.0
  20
 2970.0000000000
  30
0.0
  11
0.0
  21
0.0
  31
0.0
   0
LINE
   5
1CB
 100
AcDbEntity
   8
LEVEL002
 370
40
 100
AcDbLine
   6
CONTINUOUS
  62
3
  10
 154.99999999950
  20
 2750.0000000000
  30
0.0
  11
 3044.9999999995
  21
 2750.0000000000
  31
0.0
   0
LINE
   5
1CC
 100
AcDbEntity
   8
LEVEL002
 370
40
 100
AcDbLine
   6
CONTINUOUS
  62
3
  10
 3044.9999999995
  20
 2567.5000000000
  30
0.0
  11
 4044.9999999995
  21
 2567.5000000000
  31
0.0
   0
LINE
   5
1CD
 100
AcDbEntity
   8
LEVEL002
 370
40
 100
AcDbLine
   6
CONTINUOUS
  62
3
  10
 3044.9999999995
  20
 2367.5000000000
  30
0.0
  11
 4044.9999999995
  21
 2367.5000000000
  31
0.0
   0
LINE
   5
1CE
 100
AcDbEntity
   8
LEVEL002
 370
40
 100
AcDbLine
   6
CONTINUOUS
  62
3
  10
 3044.9999999995
  20
 2167.5000000000
  30
0.0
  11
 4044.9999999995
  21
 2167.5000000000
  31
0.0
   0
LINE
   5
1CF
 100
AcDbEntity
   8
LEVEL002
 370
40
 100
AcDbLine
   6
CONTINUOUS
  62
3
  10
 3044.9999999995
  20
 720.00000000010
  30
0.0
  11
 4044.9999999995
  21
 720.00000000010
  31
0.0
   0
LINE
   5
1D0
 100
AcDbEntity
   8
LEVEL002
 370
40
 100
AcDbLine
   6
CONTINUOUS
  62
3
  10
 3044.9999999995
  20
 520.00000000010
  30
0.0
  11
 4044.9999999995
  21
 520.00000000010
  31
0.0
   0
LINE
   5
1D1
 100
AcDbEntity
   8
LEVEL002
 370
40
 100
AcDbLine
   6
CONTINUOUS
  62
3
  10
 3044.9999999995
  20
 320.00000000010
  30
0.0
  11
 4044.9999999995
  21
 320.00000000010
  31
0.0
   0
LINE
   5
1D2
 100
AcDbEntity
   8
LEVEL002
 370
40
 100
AcDbLine
   6
CONTINUOUS
  62
3
  10
 3544.9999999995
  20
 520.00000000010
  30
0.0
  11
 3544.9999999995
  21
 120.00000000010
  31
0.0
   0
LINE
   5
1D3
 100
AcDbEntity
   8
LEVEL002
 370
40
 100
AcDbLine
   6
CONTINUOUS
  62
3
  10
 3544.9999999995
  20
 386.66666666680
  30
0.0
  11
 4044.9999999995
  21
 386.66666666680
  31
0.0
   0
LINE
   5
1D4
 100
AcDbEntity
   8
LEVEL002
 370
40
 100
AcDbLine
   6
CONTINUOUS
  62
3
  10
 3544.9999999995
  20
 453.33333333345
  30
0.0
  11
 4044.9999999995
  21
 453.33333333345
  31
0.0
   0
LINE
   5
1D5
 100
AcDbEntity
   8
LEVEL002
 370
50
 100
AcDbLine
   6
CONTINUOUS
  62
4
  10
 4044.9999999995
  20
 2850.0000000000
  30
0.0
  11
 154.99999999950
  21
 2850.0000000000
  31
0.0
   0
LINE
   5
1D6
 100
AcDbEntity
   8
LEVEL002
 370
50
 100
AcDbLine
   6
CONTINUOUS
  62
4
  10
 3044.9999999995
  20
 2850.0000000000
  30
0.0
  11
 3044.9999999995
  21
 120.00000000010
  31
0.0
   0
LINE
   5
1D7
 100
AcDbEntity
   8
LEVEL002
 370
50
 100
AcDbLine
   6
CONTINUOUS
  62
4
  10
 4044.9999999995
  20
 120.00000000010
  30
0.0
  11
 4044.9999999995
  21
 2850.0000000000
  31
0.0
   0
LINE
   5
1D8
 100
AcDbEntity
   8
LEVEL002
 370
50
 100
AcDbLine
   6
CONTINUOUS
  62
4
  10
 154.99999999950
  20
 2850.0000000000
  30
0.0
  11
 154.99999999950
  21
 120.00000000010
  31
0.0
   0
LINE
   5
1D9
 100
AcDbEntity
   8
LEVEL002
 370
50
 100
AcDbLine
   6
CONTINUOUS
  62
4
  10
 154.99999999950
  20
 120.00000000010
  30
0.0
  11
 4044.9999999995
  21
 120.00000000010
  31
0.0
   0
HATCH
   5
1DA
 100
AcDbEntity
   8
LEVEL001
  62
1
 100
AcDbHatch
  10
0.0
  20
0.0
  30
0.0
 210
0.0
 220
0.0
 230
 1.0000000000000
   2
SOLID
  70
1
  71
1
  91
7
  92
1
  93
6
  72
1
  10
 3244.5000000000
  20
 2804.7500000000
  11
 3180.5000000000
  21
 2708.7500000000
  72
1
  10
 3180.5000000000
  20
 2708.7500000000
  11
 3244.5000000000
  21
 2612.7500000000
  72
1
  10
 3244.5000000000
  20
 2612.7500000000
  11
 3190.5000000000
  21
 2612.7500000000
  72
1
  10
 3190.5000000000
  20
 2612.7500000000
  11
 3126.5000000000
  21
 2708.7500000000
  72
1
  10
 3126.5000000000
  20
 2708.7500000000
  11
 3190.5000000000
  21
 2804.7500000000
  72
1
  10
 3190.5000000000
  20
 2804.7500000000
  11
 3244.5000000000
  21
 2804.7500000000
  97
1
 330

  92
16
  93
6
  72
1
  10
 3271.5000000000
  20
 2804.7500000000
  11
 3325.5000000000
  21
 2804.7500000000
  72
1
  10
 3325.5000000000
  20
 2804.7500000000
  11
 3261.5000000000
  21
 2708.7500000000
  72
1
  10
 3261.5000000000
  20
 2708.7500000000
  11
 3325.5000000000
  21
 2612.7500000000
  72
1
  10
 3325.5000000000
  20
 2612.7500000000
  11
 3271.5000000000
  21
 2612.7500000000
  72
1
  10
 3271.5000000000
  20
 2612.7500000000
  11
 3207.5000000000
  21
 2708.7500000000
  72
1
  10
 3207.5000000000
  20
 2708.7500000000
  11
 3271.5000000000
  21
 2804.7500000000
  97
1
 330

  92
16
  93
3
  72
1
  10
 3333.5000000000
  20
 2708.7500000000
  11
 3288.5000000000
  21
 2708.7500000000
  72
1
  10
 3288.5000000000
  20
 2708.7500000000
  11
 3333.5000000000
  21
 2636.7500000000
  72
1
  10
 3333.5000000000
  20
 2636.7500000000
  11
 3333.5000000000
  21
 2708.7500000000
  97
1
 330

  92
16
  93
6
  72
1
  10
 3369.5000000000
  20
 2720.7500000000
  11
 3441.5000000000
  21
 2720.7500000000
  72
2
  10
 3441.5000000000
  20
 2675.7500000000
  40
 45.000000000000
  50
 270.00000000000
  51
 90.000000000000
  73
0
  72
1
  10
 3441.5000000000
  20
 2630.7500000000
  11
 3405.5000000000
  21
 2630.7500000000
  72
1
  10
 3405.5000000000
  20
 2630.7500000000
  11
 3405.5000000000
  21
 2612.7500000000
  72
1
  10
 3405.5000000000
  20
 2612.7500000000
  11
 3369.5000000000
  21
 2612.7500000000
  72
1
  10
 3369.5000000000
  20
 2612.7500000000
  11
 3369.5000000000
  21
 2720.7500000000
  97
1
 330

  92
16
  93
4
  72
1
  10
 3441.5000000000
  20
 2684.7500000000
  11
 3405.5000000000
  21
 2684.7500000000
  72
1
  10
 3405.5000000000
  20
 2684.7500000000
  11
 3405.5000000000
  21
 2666.7500000000
  72
1
  10
 3405.5000000000
  20
 2666.7500000000
  11
 3441.5000000000
  21
 2666.7500000000
  72
2
  10
 3441.5000000000
  20
 2675.7500000000
  40
 9.0000000000000
  50
 270.00000000000
  51
 90.000000000000
  73
1
  97
1
 330

  92
16
  93
4
  72
1
  10
 3459.5000000000
  20
 2612.7500000000
  11
 3531.5000000000
  21
 2720.7500000000
  72
1
  10
 3531.5000000000
  20
 2720.7500000000
  11
 3585.5000000000
  21
 2720.7500000000
  72
1
  10
 3585.5000000000
  20
 2720.7500000000
  11
 3513.5000000000
  21
 2612.7500000000
  72
1
  10
 3513.5000000000
  20
 2612.7500000000
  11
 3459.5000000000
  21
 2612.7500000000
  97
1
 330

  92
16
  93
3
  72
1
  10
 3573.5000000000
  20
 2681.1166923470
  11
 3527.9222051020
  21
 2612.7500000000
  72
1
  10
 3527.9222051020
  20
 2612.7500000000
  11
 3573.5000000000
  21
 2612.7500000000
  72
1
  10
 3573.5000000000
  20
 2612.7500000000
  11
 3573.5000000000
  21
 2681.1166923470
  97
1
 330

  75
0
  76
1
  98
1
  10
0.0
  20
0.0
   0
HATCH
   5
1DB
 100
AcDbEntity
   8
LEVEL001
  62
1
 100
AcDbHatch
  10
0.0
  20
0.0
  30
0.0
 210
0.0
 220
0.0
 230
 1.0000000000000
   2
SOLID
  70
1
  71
1
  91
1
  92
1
  93
22
  72
1
  10
 3585.5000000000
  20
 2720.7500000000
  11
 3621.5000000000
  21
 2720.7500000000
  72
1
  10
 3621.5000000000
  20
 2720.7500000000
  11
 3621.5000000000
  21
 2648.7500000000
  72
1
  10
 3621.5000000000
  20
 2648.7500000000
  11
 3675.5000000000
  21
 2648.7500000000
  72
1
  10
 3675.5000000000
  20
 2648.7500000000
  11
 3675.5000000000
  21
 2684.7500000000
  72
1
  10
 3675.5000000000
  20
 2684.7500000000
  11
 3639.5000000000
  21
 2684.7500000000
  72
1
  10
 3639.5000000000
  20
 2684.7500000000
  11
 3639.5000000000
  21
 2720.7500000000
  72
1
  10
 3639.5000000000
  20
 2720.7500000000
  11
 3855.5000000000
  21
 2720.7500000000
  72
1
  10
 3855.5000000000
  20
 2720.7500000000
  11
 3855.5000000000
  21
 2684.7500000000
  72
1
  10
 3855.5000000000
  20
 2684.7500000000
  11
 3783.5000000000
  21
 2684.7500000000
  72
1
  10
 3783.5000000000
  20
 2684.7500000000
  11
 3783.5000000000
  21
 2675.7500000000
  72
1
  10
 3783.5000000000
  20
 2675.7500000000
  11
 3846.5000000000
  21
 2675.7500000000
  72
1
  10
 3846.5000000000
  20
 2675.7500000000
  11
 3846.5000000000
  21
 2657.7500000000
  72
1
  10
 3846.5000000000
  20
 2657.7500000000
  11
 3783.5000000000
  21
 2657.7500000000
  72
1
  10
 3783.5000000000
  20
 2657.7500000000
  11
 3783.5000000000
  21
 2648.7500000000
  72
1
  10
 3783.5000000000
  20
 2648.7500000000
  11
 3855.5000000000
  21
 2648.7500000000
  72
1
  10
 3855.5000000000
  20
 2648.7500000000
  11
 3855.5000000000
  21
 2612.7500000000
  72
1
  10
 3855.5000000000
  20
 2612.7500000000
  11
 3747.5000000000
  21
 2612.7500000000
  72
1
  10
 3747.5000000000
  20
 2612.7500000000
  11
 3747.5000000000
  21
 2684.7500000000
  72
1
  10
 3747.5000000000
  20
 2684.7500000000
  11
 3711.5000000000
  21
 2684.7500000000
  72
1
  10
 3711.5000000000
  20
 2684.7500000000
  11
 3711.5000000000
  21
 2612.7500000000
  72
1
  10
 3711.5000000000
  20
 2612.7500000000
  11
 3585.5000000000
  21
 2612.7500000000
  72
1
  10
 3585.5000000000
  20
 2612.7500000000
  11
 3585.5000000000
  21
 2720.7500000000
  97
1
 330

  75
0
  76
1
  98
1
  10
0.0
  20
0.0
   0
HATCH
   5
1DC
 100
AcDbEntity
   8
LEVEL001
  62
1
 100
AcDbHatch
  10
0.0
  20
0.0
  30
0.0
 210
0.0
 220
0.0
 230
 1.0000000000000
   2
SOLID
  70
1
  71
1
  91
1
  92
1
  93
8
  72
1
  10
 3963.5000000000
  20
 2720.7500000000
  11
 3909.5000000000
  21
 2720.7500000000
  72
2
  10
 3909.5000000000
  20
 2666.7500000000
  40
 54.000000000000
  50
 90.000000000000
  51
 270.00000000000
  73
1
  72
1
  10
 3909.5000000000
  20
 2612.7500000000
  11
 3963.5000000000
  21
 2612.7500000000
  72
1
  10
 3963.5000000000
  20
 2612.7500000000
  11
 3963.5000000000
  21
 2648.7500000000
  72
1
  10
 3963.5000000000
  20
 2648.7500000000
  11
 3909.5000000000
  21
 2648.7500000000
  72
2
  10
 3909.5000000000
  20
 2666.7500000000
  40
 18.000000000000
  50
 90.000000000000
  51
 270.00000000000
  73
0
  72
1
  10
 3909.5000000000
  20
 2684.7500000000
  11
 3963.5000000000
  21
 2684.7500000000
  72
1
  10
 3963.5000000000
  20
 2684.7500000000
  11
 3963.5000000000
  21
 2720.7500000000
  97
1
 330

  75
0
  76
1
  98
1
  10
0.0
  20
0.0
   0
MTEXT
   5
1DE
 100
AcDbEntity
   8
LEVEL002
 370
15
  62
8
 100
AcDbMText
  10
 3107.9999999995
  20
 282.50000000010
  30
0.0
  40
 30.000000000000
  41
0.0
  71
5
  72
1
   1
\T1.000000;サイズ：
   7
GMM002
  44
 0.79999984000003
   0
MTEXT
   5
1E0
 100
AcDbEntity
   8
LEVEL002
 370
15
  62
8
 100
AcDbMText
  10
 3092.9999999995
  20
 482.50000000010
  30
0.0
  40
 30.000000000000
  41
0.0
  71
5
  72
1
   1
\T1.000000;縮尺：
   7
GMM002
  44
 0.79999984000003
   0
MTEXT
   5
1E2
 100
AcDbEntity
   8
LEVEL002
 370
15
  62
8
 100
AcDbMText
  10
 3122.9999999995
  20
 682.50000000010
  30
0.0
  40
 30.000000000000
  41
0.0
  71
5
  72
1
   1
\T1.000000;図面名称：
   7
GMM002
  44
 0.79999984000003
   0
MTEXT
   5
1E4
 100
AcDbEntity
   8
LEVEL002
 370
15
  62
8
 100
AcDbMText
  10
 3637.9999999995
  20
 282.50000000010
  30
0.0
  40
 30.000000000000
  41
0.0
  71
5
  72
1
   1
\T1.000000;ファイル名：
   7
GMM002
  44
 0.79999984000003
   0
MTEXT
   5
1E6
 100
AcDbEntity
   8
LEVEL002
 370
15
  62
8
 100
AcDbMText
  10
 3622.9999999995
  20
 486.66666666680
  30
0.0
  40
 28.000000000000
  41
0.0
  71
5
  72
1
   1
\T1.000000;作成日付：
   7
GMM003
  44
 0.79999984000003
   0
MTEXT
   5
1E8
 100
AcDbEntity
   8
LEVEL002
 370
15
  62
8
 100
AcDbMText
  10
 3622.9999999995
  20
 420.00000000010
  30
0.0
  40
 28.000000000000
  41
0.0
  71
5
  72
1
   1
\T1.000000;変更日付：
   7
GMM003
  44
 0.79999984000003
   0
MTEXT
   5
1EA
 100
AcDbEntity
   8
LEVEL002
 370
15
  62
8
 100
AcDbMText
  10
 3294.9999999995
  20
 182.50000000010
  30
0.0
  40
 37.500000000000
  41
0.0
  71
5
  72
1
   1
\T1.000000;Ａ３
   7
GMM002
  44
 0.79999984000003
   0
MTEXT
   5
1EC
 100
AcDbEntity
   8
LEVEL002
 370
15
  62
8
 100
AcDbMText
  10
 3092.9999999995
  20
 2130.0000000000
  30
0.0
  40
 30.000000000000
  41
0.0
  71
5
  72
1
   1
\T1.000000;仕様：
   7
GMM002
  44
 0.79999984000003
   0
MTEXT
   5
1EE
 100
AcDbEntity
   8
LEVEL002
 370
15
  62
8
 100
AcDbMText
  10
 3092.9999999995
  20
 2330.0000000000
  30
0.0
  40
 30.000000000000
  41
0.0
  71
5
  72
1
   1
\T1.000000;形式：
   7
GMM002
  44
 0.79999984000003
   0
MTEXT
   5
1F0
 100
AcDbEntity
   8
LEVEL002
 370
15
  62
8
 100
AcDbMText
  10
 3107.9999999995
  20
 2530.0000000000
  30
0.0
  40
 30.000000000000
  41
0.0
  71
5
  72
1
   1
\T1.000000;商品名：
   7
GMM002
  44
 0.79999984000003
   0
MTEXT
   5
1F2
 100
AcDbEntity
   8
LEVEL002
 370
15
  62
8
 100
AcDbMText
  10
 3468.9999999995
  20
 768.70803459012
  30
0.0
  40
 40.000000000000
  41
0.0
  71
5
  72
1
   1
\T1.000000;　※本製品は予告無しに変更する事があります。
   7
GMM002
  44
 0.79999984000003
   0
MTEXT
   5
1F4
 100
AcDbEntity
   8
LEVEL002
 370
15
  62
8
 100
AcDbMText
  10
 3544.9999999995
  20
 582.50000000010
  30
0.0
  40
 37.500000000000
  41
0.0
  71
5
  72
1
   1
\T1.000000;三面図
   7
GMM002
  44
 0.79999984000003
   0
MTEXT
   5
1F6
 100
AcDbEntity
   8
LEVEL002
 370
15
  62
8
 100
AcDbMText
  10
 3872.1508456075
  20
 420.00000000010
  30
0.0
  40
 30.000000000000
  41
0.0
  71
5
  72
1
   1
\T1.000000;令和　　年　　月　　日
   7
GMM002
  44
 0.79999984000003
   0
MTEXT
   5
1F8
 100
AcDbEntity
   8
LEVEL002
 370
15
  62
8
 100
AcDbMText
  10
 3872.1508456075
  20
 353.33333333345
  30
0.0
  40
 30.000000000000
  41
0.0
  71
5
  72
1
   1
\T1.000000;令和　　年　　月　　日
   7
GMM002
  44
 0.79999984000003
   0
MTEXT
   5
1FA
 100
AcDbEntity
   8
LEVEL002
 370
15
  62
8
 100
AcDbMText
  10
 3294.9999999995
  20
 382.50000000010
  30
0.0
  40
 37.500000000000
  41
0.0
  71
5
  72
1
   1
\T1.000000;Ｓ＝１：１０
   7
GMM002
  44
 0.79999984000003
   0
LINE
   5
1FB
 100
AcDbEntity
   8
LEVEL002
 370
40
 100
AcDbLine
   6
CONTINUOUS
  62
3
  10
 154.99999999950
  20
 1385.0000000001
  30
0.0
  11
 3044.9999999995
  21
 1385.0000000001
  31
0.0
   0
LINE
   5
1FC
 100
AcDbEntity
   8
LEVEL002
 370
40
 100
AcDbLine
   6
CONTINUOUS
  62
3
  10
 154.99999999950
  20
 1485.0000000001
  30
0.0
  11
 3044.9999999995
  21
 1485.0000000001
  31
0.0
   0
LINE
   5
1FD
 100
AcDbEntity
   8
LEVEL001
 370
40
 100
AcDbLine
   6
CONTINUOUS
  62
3
  10
 1599.9999999995
  20
 2850.0000000000
  30
0.0
  11
 1599.9999999995
  21
 120.00000000010
  31
0.0
   0
MTEXT
   5
1FF
 100
AcDbEntity
   8
LEVEL002
 370
15
  62
8
 100
AcDbMText
  10
 3872.1508456075
  20
 486.66666666680
  30
0.0
  40
 30.000000000000
  41
0.0
  71
5
  72
1
   1
\T1.000000;令和０５年０６月１５日
   7
GMM002
  44
 0.79999984000003
   0
MTEXT
   5
201
 100
AcDbEntity
   8
LEVEL002
 370
15
  62
8
 100
AcDbMText
  10
 3122.5057208233
  20
 2079.1666666670
  30
0.0
  40
 35.000000000000
  41
0.0
  71
1
  72
1
   3
{\W0.500000;\T1.000000;･\W1.000000;\T1.000000;手摺本体\W0.500000;\T1.000000;(\W1.000000;\T1.000000;笠木%%c３４\W0.500000;\T1.000000;) }\P{\W1.000000;\T1.000000;表面材：樹脂被膜軟質ＰＶＣ（抗菌材入り）}\P{\W1.000000;\T1.000000;芯　材：アルミパイプ（Ａ
   3
６０６３Ｓ－Ｔ５　１\W0.500000;\T1.000000;.\W1.000000;\T1.000000;５ｔ）}\P{\W1.000000;\T1.000000;　　　　}\P\P{\W1.000000;\T1.000000;・ＦＳＲＩタイプ}\P{\W1.000000;\T1.000000;　色　：Ｃ００　ホワイト}\P{\W1.000000;\T1.000000;　　　　Ｃ０３　アイボリ
   3
ー}\P{\W1.000000;\T1.000000;　　　　Ｃ０７　イエロー}\P{\W1.000000;\T1.000000;　　　　Ｃ０８　エンジ}\P{\W1.000000;\T1.000000;　　　　Ｃ０９　ブラック}\P{\W1.000000;\T1.000000;　　　　Ｃ１４　ココア}\P{\W1.000000;\T1.000000;　　　　Ｃ１５　アクア}\P{
   3
\W1.000000;\T1.000000;・ＦＳＲＩ－Ｍタイプ（木目調）}\P{\W1.000000;\T1.000000;　　　　Ｍ０１　ナチュラル}\P{\W1.000000;\T1.000000;　　　　Ｍ０２　ミディアム}\P\P{\W0.500000;\T1.000000;･\W1.000000;\T1.000000;樹脂製化粧カバー（ＰＥ）}\P\P{\W0.500000;\T
   1
1.000000;･\W1.000000;\T1.000000;固定座金（ＺＤＣクロメート）}
   7
GMM002
  44
 0.79999984000003
   0
MTEXT
   5
203
 100
AcDbEntity
   8
LEVEL002
 370
15
  62
8
 100
AcDbMText
  10
 3364.9999999995
  20
 2475.0000000000
  30
0.0
  40
 45.000000000000
  41
0.0
  71
4
  72
1
   1
{\T1.000000;ジャンティサポート}\P{\T1.000000;トイレ用（Ｌ型）}
   7
GMM002
  44
 0.79999984000003
   0
MTEXT
   5
205
 100
AcDbEntity
   8
LEVEL002
 370
15
  62
8
 100
AcDbMText
  10
 3544.9999999995
  20
 2267.5000000000
  30
0.0
  40
 40.000000000000
  41
0.0
  71
5
  72
1
   1
\T1.000000;ＦＰＬ／ＦＰＬ（Ｍ）タイプ
   7
GMM002
  44
 0.79999984000003
   0
MTEXT
   5
207
 100
AcDbEntity
   8
LEVEL001
 370
15
  62
8
 100
AcDbMText
  10
 157.99999999950
  20
 2800.0000000000
  30
0.0
  40
 30.000000000000
  41
0.0
  71
4
  72
1
   1
\W0.500000;\T1.000000; \W1.000000;\T1.000000;　ＦＰＬ７０６０Ｌ／ＦＰＬ７０６０ＭＬ
   7
GMM002
  44
 0.79999984000003
   0
MTEXT
   5
209
 100
AcDbEntity
   8
LEVEL001
 370
15
  62
8
 100
AcDbMText
  10
 1602.9999999995
  20
 2800.0000000000
  30
0.0
  40
 30.000000000000
  41
0.0
  71
4
  72
1
   1
\W0.500000;\T1.000000; \W1.000000;\T1.000000;　ＦＰＬ７０６０Ｒ／ＦＰＬ７０６０ＭＲ
   7
GMM002
  44
 0.79999984000003
   0
LINE
   5
20A
 100
AcDbEntity
   8
LEVEL002
 370
30
 100
AcDbLine
   6
CONTINUOUS
  62
7
  10
 1766.6681233810
  20
 1682.8597758717
  30
0.0
  11
 1718.9050105679
  21
 1682.8597758717
  31
0.0
   0
ARC
   5
20B
 100
AcDbEntity
   8
LEVEL002
 370
30
   6
CONTINUOUS
  62
7
 100
AcDbCircle
  10
 1766.6681233901
  20
 1683.8597759697
  30
0.0
  40
 1.0000000000000
 100
AcDbArc
  50
 174.70601358480
  51
 269.99999947973
   0
ARC
   5
20C
 100
AcDbEntity
   8
LEVEL002
 370
30
   6
CONTINUOUS
  62
7
 100
AcDbCircle
  10
 1775.6297327835
  20
 1683.0293802767
  30
0.0
  40
 10.000000000000
 100
AcDbArc
  50
 129.45055115095
  51
 174.70600792217
   0
LINE
   5
20D
 100
AcDbEntity
   8
LEVEL002
 370
30
 100
AcDbLine
   6
CONTINUOUS
  62
7
  10
 1766.6681233810
  20
 1682.8597758717
  30
0.0
  11
 1769.2185723357
  21
 1682.8597758717
  31
0.0
   0
ARC
   5
20E
 100
AcDbEntity
   8
LEVEL002
 370
30
   6
CONTINUOUS
  62
7
 100
AcDbCircle
  10
 1718.9050105679
  20
 1683.8597761500
  30
0.0
  40
 1.0000000000000
 100
AcDbArc
  50
 180.00000000000
  51
 270.00000000000
   0
LINE
   5
20F
 100
AcDbEntity
   8
LEVEL002
 370
30
 100
AcDbLine
   6
CONTINUOUS
  62
7
  10
 1717.9050105679
  20
 1683.8597758717
  30
0.0
  11
 1717.9050105679
  21
 1748.0226541703
  31
0.0
   0
ARC
   5
210
 100
AcDbEntity
   8
LEVEL002
 370
30
   6
CONTINUOUS
  62
7
 100
AcDbCircle
  10
 1769.2185723298
  20
 1698.8597758717
  30
0.0
  40
 16.000000000000
 100
AcDbArc
  50
 270.00000002129
  51
 316.11749190174
   0
ARC
   5
211
 100
AcDbEntity
   8
LEVEL002
 370
30
   6
CONTINUOUS
  62
7
 100
AcDbCircle
  10
 1737.5050105697
  20
 1729.3597758735
  30
0.0
  40
 60.000000000000
 100
AcDbArc
  50
 316.11749188452
  51
0.0
   0
LINE
   5
212
 100
AcDbEntity
   8
LEVEL002
 370
30
 100
AcDbLine
   6
CONTINUOUS
  62
7
  10
 1761.5050105679
  20
 2247.3597758717
  30
0.0
  11
 1761.5050105679
  21
 2348.3597758717
  31
0.0
   0
LINE
   5
213
 100
AcDbEntity
   8
LEVEL002
 370
30
 100
AcDbLine
   6
CONTINUOUS
  62
7
  10
 1795.5050105679
  20
 2247.3597758717
  30
0.0
  11
 1795.5050105679
  21
 2348.3597758717
  31
0.0
   0
LINE
   5
214
 100
AcDbEntity
   8
LEVEL002
 370
30
 100
AcDbLine
   6
CONTINUOUS
  62
7
  10
 1765.6297327879
  20
 2421.6901714630
  30
0.0
  11
 1765.6297327879
  21
 2428.3597758722
  31
0.0
   0
LINE
   5
215
 100
AcDbEntity
   8
LEVEL002
 370
30
 100
AcDbLine
   6
CONTINUOUS
  62
7
  10
 1797.5050105679
  20
 2370.3597758717
  30
0.0
  11
 1788.3479058435
  21
 2370.3597758717
  31
0.0
   0
LINE
   5
216
 100
AcDbEntity
   8
LEVEL002
 370
30
 100
AcDbLine
   6
CONTINUOUS
  62
7
  10
 1797.5050105679
  20
 2349.3597758717
  30
0.0
  11
 1797.5050105679
  21
 2375.3597758717
  31
0.0
   0
LINE
   5
217
 100
AcDbEntity
   8
LEVEL002
 370
30
 100
AcDbLine
   6
CONTINUOUS
  62
7
  10
 1718.9050105679
  20
 2435.3597758717
  30
0.0
  11
 1737.5050105679
  21
 2435.3597758717
  31
0.0
   0
ARC
   5
218
 100
AcDbEntity
   8
LEVEL002
 370
30
   6
CONTINUOUS
  62
7
 100
AcDbCircle
  10
 1775.6297327879
  20
 2421.6901714495
  30
0.0
  40
 10.000000000000
 100
AcDbArc
  50
 179.99999992233
  51
 230.54944876676
   0
ARC
   5
219
 100
AcDbEntity
   8
LEVEL002
 370
30
   6
CONTINUOUS
  62
7
 100
AcDbCircle
  10
 1737.5050105679
  20
 2375.3597758712
  30
0.0
  40
 50.000000000000
 100
AcDbArc
  50
 355.50159333169
  51
 50.549448816438
   0
ARC
   5
21A
 100
AcDbEntity
   8
LEVEL002
 370
30
   6
CONTINUOUS
  62
7
 100
AcDbCircle
  10
 1788.3479058477
  20
 2371.3597759252
  30
0.0
  40
 1.0000000000000
 100
AcDbArc
  50
 175.50159640529
  51
 269.99999975873
   0
ARC
   5
21B
 100
AcDbEntity
   8
LEVEL002
 370
30
   6
CONTINUOUS
  62
7
 100
AcDbCircle
  10
 1760.5050105679
  20
 2349.3597757788
  30
0.0
  40
 1.0000000000000
 100
AcDbArc
  50
 179.99999467559
  51
 270.00000000000
   0
LINE
   5
21C
 100
AcDbEntity
   8
LEVEL002
 370
30
 100
AcDbLine
   6
CONTINUOUS
  62
7
  10
 1760.5050105679
  20
 2348.3597758717
  30
0.0
  11
 1796.5050105679
  21
 2348.3597758717
  31
0.0
   0
LINE
   5
21D
 100
AcDbEntity
   8
LEVEL002
 370
30
 100
AcDbLine
   6
CONTINUOUS
  62
7
  10
 1759.5050105679
  20
 2349.3597758717
  30
0.0
  11
 1759.5050105679
  21
 2354.6968975731
  31
0.0
   0
ARC
   5
21E
 100
AcDbEntity
   8
LEVEL002
 370
30
   6
CONTINUOUS
  62
7
 100
AcDbCircle
  10
 1758.5050105679
  20
 2354.6968976599
  30
0.0
  40
 1.0000000000000
 100
AcDbArc
  50
0.0
  51
 90.000000000208
   0
LINE
   5
21F
 100
AcDbEntity
   8
LEVEL002
 370
30
 100
AcDbLine
   6
CONTINUOUS
  62
7
  10
 1758.5050105679
  20
 2355.6968975731
  30
0.0
  11
 1718.9050105679
  21
 2355.6968975731
  31
0.0
   0
ARC
   5
220
 100
AcDbEntity
   8
LEVEL002
 370
30
   6
CONTINUOUS
  62
7
 100
AcDbCircle
  10
 1718.9050105679
  20
 2356.6968977127
  30
0.0
  40
 1.0000000000000
 100
AcDbArc
  50
 180.00000000000
  51
 270.00000000000
   0
LINE
   5
221
 100
AcDbEntity
   8
LEVEL002
 370
30
 100
AcDbLine
   6
CONTINUOUS
  62
7
  10
 1717.9050105679
  20
 2356.6968975731
  30
0.0
  11
 1717.9050105679
  21
 2434.3597758717
  31
0.0
   0
ARC
   5
222
 100
AcDbEntity
   8
LEVEL002
 370
30
   6
CONTINUOUS
  62
7
 100
AcDbCircle
  10
 1796.5050106464
  20
 2349.3597758717
  30
0.0
  40
 1.0000000000000
 100
AcDbArc
  50
 269.99999550206
  51
0.0
   0
ARC
   5
223
 100
AcDbEntity
   8
LEVEL002
 370
30
   6
CONTINUOUS
  62
7
 100
AcDbCircle
  10
 1718.9050104932
  20
 2434.3597758717
  30
0.0
  40
 1.0000000000000
 100
AcDbArc
  50
 89.999995716541
  51
 180.00000000000
   0
ARC
   5
224
 100
AcDbEntity
   8
LEVEL002
 370
30
   6
CONTINUOUS
  62
7
 100
AcDbCircle
  10
 1737.5050105679
  20
 2375.3597758719
  30
0.0
  40
 60.000000000000
 100
AcDbArc
  50
0.0
  51
 90.000000000000
   0
LINE
   5
225
 100
AcDbEntity
   8
LEVEL002
 370
30
 100
AcDbLine
   6
CONTINUOUS
  62
7
  10
 1797.5050105679
  20
 1734.3597758717
  30
0.0
  11
 1788.3479058435
  21
 1734.3597758717
  31
0.0
   0
LINE
   5
226
 100
AcDbEntity
   8
LEVEL002
 370
30
 100
AcDbLine
   6
CONTINUOUS
  62
7
  10
 1797.5050105679
  20
 1755.3597758717
  30
0.0
  11
 1797.5050105679
  21
 1729.3597758717
  31
0.0
   0
ARC
   5
227
 100
AcDbEntity
   8
LEVEL002
 370
30
   6
CONTINUOUS
  62
7
 100
AcDbCircle
  10
 1737.5050105676
  20
 1729.3597758714
  30
0.0
  40
 50.000000000000
 100
AcDbArc
  50
 309.45055118445
  51
 4.4984066692085
   0
ARC
   5
228
 100
AcDbEntity
   8
LEVEL002
 370
30
   6
CONTINUOUS
  62
7
 100
AcDbCircle
  10
 1788.3479056721
  20
 1733.3597758717
  30
0.0
  40
 1.0000000000000
 100
AcDbArc
  50
 89.999990180978
  51
 184.49840743842
   0
ARC
   5
229
 100
AcDbEntity
   8
LEVEL002
 370
30
   6
CONTINUOUS
  62
7
 100
AcDbCircle
  10
 1760.5050106362
  20
 1755.3597758717
  30
0.0
  40
 1.0000000000000
 100
AcDbArc
  50
 90.000003912851
  51
 180.00000000000
   0
LINE
   5
22A
 100
AcDbEntity
   8
LEVEL002
 370
30
 100
AcDbLine
   6
CONTINUOUS
  62
7
  10
 1760.5050105679
  20
 1756.3597758717
  30
0.0
  11
 1796.5050105679
  21
 1756.3597758717
  31
0.0
   0
LINE
   5
22B
 100
AcDbEntity
   8
LEVEL002
 370
30
 100
AcDbLine
   6
CONTINUOUS
  62
7
  10
 1759.5050105679
  20
 1755.3597758717
  30
0.0
  11
 1759.5050105679
  21
 1750.0226541703
  31
0.0
   0
ARC
   5
22C
 100
AcDbEntity
   8
LEVEL002
 370
30
   6
CONTINUOUS
  62
7
 100
AcDbCircle
  10
 1758.5050104462
  20
 1750.0226541703
  30
0.0
  40
 1.0000000000000
 100
AcDbArc
  50
 270.00000697318
  51
0.0
   0
LINE
   5
22D
 100
AcDbEntity
   8
LEVEL002
 370
30
 100
AcDbLine
   6
CONTINUOUS
  62
7
  10
 1758.5050105679
  20
 1749.0226541703
  30
0.0
  11
 1718.9050105679
  21
 1749.0226541703
  31
0.0
   0
ARC
   5
22E
 100
AcDbEntity
   8
LEVEL002
 370
30
   6
CONTINUOUS
  62
7
 100
AcDbCircle
  10
 1718.9050105470
  20
 1748.0226541703
  30
0.0
  40
 1.0000000000000
 100
AcDbArc
  50
 89.999998800631
  51
 180.00000000000
   0
ARC
   5
22F
 100
AcDbEntity
   8
LEVEL002
 370
30
   6
CONTINUOUS
  62
7
 100
AcDbCircle
  10
 1796.5050105679
  20
 1755.3597757685
  30
0.0
  40
 1.0000000000000
 100
AcDbArc
  50
 0.59113819843006E-5
  51
 90.000000000000
   0
LINE
   5
230
 100
AcDbEntity
   8
LEVEL002
 370
30
 100
AcDbLine
   6
CONTINUOUS
  62
7
  10
 1761.5050105679
  20
 2247.3597758717
  30
0.0
  11
 1761.5050105679
  21
 1756.3597758717
  31
0.0
   0
LINE
   5
231
 100
AcDbEntity
   8
LEVEL002
 370
30
 100
AcDbLine
   6
CONTINUOUS
  62
7
  10
 1795.5050105679
  20
 2247.3597758717
  30
0.0
  11
 1795.5050105679
  21
 1756.3597758717
  31
0.0
   0
LINE
   5
232
 100
AcDbEntity
   8
LEVEL002
 370
40
 100
AcDbLine
   6
CONTINUOUS
  62
3
  10
 1717.9050105679
  20
 1626.8597758717
  30
0.0
  11
 1716.7050105679
  21
 1626.8597758717
  31
0.0
   0
LINE
   5
233
 100
AcDbEntity
   8
LEVEL002
 370
15
 100
AcDbLine
   6
DASHDOT
  62
8
  10
 1778.5050105679
  20
 1661.6730825157
  30
0.0
  11
 1778.5050105679
  21
 2456.3794246729
  31
0.0
   0
LINE
   5
234
 100
AcDbEntity
   8
LEVEL002
 370
15
 100
AcDbLine
   6
DASHDOT
  62
8
  10
 1818.0731507711
  20
 2401.8597758717
  30
0.0
  11
 1672.0028615053
  21
 2401.8597758717
  31
0.0
   0
LINE
   5
235
 100
AcDbEntity
   8
LEVEL002
 370
15
 100
AcDbLine
   6
DASHDOT
  62
8
  10
 1818.0731507711
  20
 1701.8597758717
  30
0.0
  11
 1672.0028615053
  21
 1701.8597758717
  31
0.0
   0
DIMENSION
   5
236
 100
AcDbEntity
   8
LEVEL001
 370
15
   6
CONTINUOUS
  62
8
 100
AcDbDimension
   2
*D1
  10
 1895.5050105679
  20
 2401.8597758717
  30
0.0
  11
 1895.5050105679
  21
 2051.8597758717
  31
0.0
  70
0
   3
GMM001
 100
AcDbAlignedDimension
  13
 1818.0731507711
  23
 1701.8597758717
  33
0.0
  14
 1818.0731507711
  24
 2401.8597758717
  34
0.0
  50
 90.000000000000
 100
AcDbRotatedDimension
   0
DIMENSION
   5
237
 100
AcDbEntity
   8
LEVEL001
 370
15
   6
CONTINUOUS
  62
8
 100
AcDbDimension
   2
*D2
  10
 1717.9050105679
  20
 1584.6968723132
  30
0.0
  11
 1748.2050105679
  21
 1584.6968723132
  31
0.0
  70
0
   1
\A1;60
   3
GMM001
 100
AcDbAlignedDimension
  13
 1778.5050105679
  23
 1661.6730825157
  33
0.0
  14
 1717.9050105679
  24
 1584.6968723132
  34
0.0
  50
 180.00000000000
 100
AcDbRotatedDimension
   0
LINE
   5
238
 100
AcDbEntity
   8
LEVEL002
 370
40
 100
AcDbLine
   6
CONTINUOUS
  62
3
  10
 1717.9050105679
  20
 1540.8982453108
  30
0.0
  11
 1717.9050105679
  21
 2513.5309633591
  31
0.0
   0
ARC
   5
239
 100
AcDbEntity
   8
LEVEL002
 370
30
   6
CONTINUOUS
  62
7
 100
AcDbCircle
  10
 2134.9863641459
  20
 1733.3597758010
  30
0.0
  40
 1.0000000000000
 100
AcDbArc
  50
 89.999999999792
  51
 179.99999594791
   0
LINE
   5
23A
 100
AcDbEntity
   8
LEVEL002
 370
30
 100
AcDbLine
   6
CONTINUOUS
  62
7
  10
 2162.9863641459
  20
 1734.3597758717
  30
0.0
  11
 2134.9863641459
  21
 1734.3597758717
  31
0.0
   0
ARC
   5
23B
 100
AcDbEntity
   8
LEVEL002
 370
30
   6
CONTINUOUS
  62
7
 100
AcDbCircle
  10
 2162.9863641831
  20
 1733.3597758717
  30
0.0
  40
 1.0000000000000
 100
AcDbArc
  50
0.0
  51
 90.000002130474
   0
ARC
   5
23C
 100
AcDbEntity
   8
LEVEL002
 370
30
   6
CONTINUOUS
  62
7
 100
AcDbCircle
  10
 2130.9863641459
  20
 1755.3597759373
  30
0.0
  40
 1.0000000000000
 100
AcDbArc
  50
 90.000000000208
  51
 180.00000376236
   0
LINE
   5
23D
 100
AcDbEntity
   8
LEVEL002
 370
30
 100
AcDbLine
   6
CONTINUOUS
  62
7
  10
 2166.9863641459
  20
 1756.3597758717
  30
0.0
  11
 2130.9863641459
  21
 1756.3597758717
  31
0.0
   0
ARC
   5
23E
 100
AcDbEntity
   8
LEVEL002
 370
30
   6
CONTINUOUS
  62
7
 100
AcDbCircle
  10
 2166.9863641799
  20
 1755.3597758717
  30
0.0
  40
 1.0000000000000
 100
AcDbArc
  50
0.0
  51
 90.000001946837
   0
ARC
   5
23F
 100
AcDbEntity
   8
LEVEL002
 370
30
   6
CONTINUOUS
  62
7
 100
AcDbCircle
  10
 2162.9863641831
  20
 1733.3597758717
  30
0.0
  40
 1.0000000000000
 100
AcDbArc
  50
0.0
  51
 90.000002130474
   0
LINE
   5
240
 100
AcDbEntity
   8
LEVEL002
 370
30
 100
AcDbLine
   6
CONTINUOUS
  62
7
  10
 2134.9863641459
  20
 1734.3597758717
  30
0.0
  11
 2162.9863641459
  21
 1734.3597758717
  31
0.0
   0
ARC
   5
241
 100
AcDbEntity
   8
LEVEL002
 370
30
   6
CONTINUOUS
  62
7
 100
AcDbCircle
  10
 2134.9863641459
  20
 1733.3597758010
  30
0.0
  40
 1.0000000000000
 100
AcDbArc
  50
 89.999999999792
  51
 179.99999594791
   0
ARC
   5
242
 100
AcDbEntity
   8
LEVEL002
 370
30
   6
CONTINUOUS
  62
7
 100
AcDbCircle
  10
 2166.9863641799
  20
 1755.3597758717
  30
0.0
  40
 1.0000000000000
 100
AcDbArc
  50
0.0
  51
 90.000001946837
   0
LINE
   5
243
 100
AcDbEntity
   8
LEVEL002
 370
30
 100
AcDbLine
   6
CONTINUOUS
  62
7
  10
 2130.9863641459
  20
 1756.3597758717
  30
0.0
  11
 2166.9863641459
  21
 1756.3597758717
  31
0.0
   0
ARC
   5
244
 100
AcDbEntity
   8
LEVEL002
 370
30
   6
CONTINUOUS
  62
7
 100
AcDbCircle
  10
 2130.9863641459
  20
 1755.3597759373
  30
0.0
  40
 1.0000000000000
 100
AcDbArc
  50
 90.000000000208
  51
 180.00000376236
   0
LINE
   5
245
 100
AcDbEntity
   8
LEVEL002
 370
30
 100
AcDbLine
   6
CONTINUOUS
  62
7
  10
 2131.9863641459
  20
 1789.3537447347
  30
0.0
  11
 2131.9863641459
  21
 1756.3597758717
  31
0.0
   0
LINE
   5
246
 100
AcDbEntity
   8
LEVEL002
 370
30
 100
AcDbLine
   6
CONTINUOUS
  62
7
  10
 2165.9863641459
  20
 1789.3537447347
  30
0.0
  11
 2165.9863641459
  21
 1756.3597758717
  31
0.0
   0
LINE
   5
247
 100
AcDbEntity
   8
LEVEL002
 370
30
 100
AcDbLine
   6
CONTINUOUS
  62
7
  10
 2165.9863641459
  20
 1789.3537447347
  30
0.0
  11
 2165.9863641459
  21
 1756.3597758717
  31
0.0
   0
LINE
   5
248
 100
AcDbEntity
   8
LEVEL002
 370
30
 100
AcDbLine
   6
CONTINUOUS
  62
7
  10
 2165.9863641459
  20
 2247.3597758717
  30
0.0
  11
 2165.9863641459
  21
 1756.3597758717
  31
0.0
   0
LINE
   5
249
 100
AcDbEntity
   8
LEVEL002
 370
30
 100
AcDbLine
   6
CONTINUOUS
  62
7
  10
 2131.9863641459
  20
 2247.3597758717
  30
0.0
  11
 2131.9863641459
  21
 1756.3597758717
  31
0.0
   0
ARC
   5
24A
 100
AcDbEntity
   8
LEVEL002
 370
30
   6
CONTINUOUS
  62
7
 100
AcDbCircle
  10
 2148.9863641459
  20
 2410.3597758717
  30
0.0
  40
 24.000000000000
 100
AcDbArc
  50
0.0
  51
 180.00000000000
   0
ARC
   5
24B
 100
AcDbEntity
   8
LEVEL002
 370
30
   6
CONTINUOUS
  62
7
 100
AcDbCircle
  10
 2148.9863641459
  20
 2369.3597758654
  30
0.0
  40
 24.000000000000
 100
AcDbArc
  50
 322.34153800573
  51
 0.15070706376730E-7
   0
ARC
   5
24C
 100
AcDbEntity
   8
LEVEL002
 370
30
   6
CONTINUOUS
  62
7
 100
AcDbCircle
  10
 2148.9863641539
  20
 2369.3597758614
  30
0.0
  40
 24.000000000000
 100
AcDbArc
  50
 179.99999997533
  51
 217.65846197503
   0
ARC
   5
24D
 100
AcDbEntity
   8
LEVEL002
 370
30
   6
CONTINUOUS
  62
7
 100
AcDbCircle
  10
 2134.9863641133
  20
 2370.3597758717
  30
0.0
  40
 1.0000000000000
 100
AcDbArc
  50
 180.00000000000
  51
 270.00000186846
   0
LINE
   5
24E
 100
AcDbEntity
   8
LEVEL002
 370
30
 100
AcDbLine
   6
CONTINUOUS
  62
7
  10
 2162.9863641459
  20
 2369.3597758717
  30
0.0
  11
 2134.9863641459
  21
 2369.3597758717
  31
0.0
   0
ARC
   5
24F
 100
AcDbEntity
   8
LEVEL002
 370
30
   6
CONTINUOUS
  62
7
 100
AcDbCircle
  10
 2162.9863641459
  20
 2370.3597758708
  30
0.0
  40
 1.0000000000000
 100
AcDbArc
  50
 270.00000000000
  51
 0.51693326237889E-7
   0
ARC
   5
250
 100
AcDbEntity
   8
LEVEL002
 370
30
   6
CONTINUOUS
  62
7
 100
AcDbCircle
  10
 2130.9863642567
  20
 2348.3597758717
  30
0.0
  40
 1.0000000000000
 100
AcDbArc
  50
 179.99999999875
  51
 269.99999365402
   0
LINE
   5
251
 100
AcDbEntity
   8
LEVEL002
 370
30
 100
AcDbLine
   6
CONTINUOUS
  62
7
  10
 2166.9863641459
  20
 2347.3597758717
  30
0.0
  11
 2130.9863641459
  21
 2347.3597758717
  31
0.0
   0
ARC
   5
252
 100
AcDbEntity
   8
LEVEL002
 370
30
   6
CONTINUOUS
  62
7
 100
AcDbCircle
  10
 2166.9863641459
  20
 2348.3597758606
  30
0.0
  40
 1.0000000000000
 100
AcDbArc
  50
 270.00000000000
  51
 0.63824582637265E-6
   0
LINE
   5
253
 100
AcDbEntity
   8
LEVEL002
 370
30
 100
AcDbLine
   6
CONTINUOUS
  62
7
  10
 2131.9863641459
  20
 2314.3658070087
  30
0.0
  11
 2131.9863641459
  21
 2347.3597758717
  31
0.0
   0
ARC
   5
254
 100
AcDbEntity
   8
LEVEL002
 370
30
   6
CONTINUOUS
  62
7
 100
AcDbCircle
  10
 2148.9863641459
  20
 2410.3597758717
  30
0.0
  40
 24.000000000000
 100
AcDbArc
  50
0.0
  51
 180.00000000000
   0
ARC
   5
255
 100
AcDbEntity
   8
LEVEL002
 370
30
   6
CONTINUOUS
  62
7
 100
AcDbCircle
  10
 2148.9863641459
  20
 2369.3597758654
  30
0.0
  40
 24.000000000000
 100
AcDbArc
  50
 322.34153800573
  51
 0.15070706376730E-7
   0
ARC
   5
256
 100
AcDbEntity
   8
LEVEL002
 370
30
   6
CONTINUOUS
  62
7
 100
AcDbCircle
  10
 2148.9863641539
  20
 2369.3597758614
  30
0.0
  40
 24.000000000000
 100
AcDbArc
  50
 179.99999997533
  51
 217.65846197503
   0
ARC
   5
257
 100
AcDbEntity
   8
LEVEL002
 370
30
   6
CONTINUOUS
  62
7
 100
AcDbCircle
  10
 2134.9863641133
  20
 2370.3597758717
  30
0.0
  40
 1.0000000000000
 100
AcDbArc
  50
 180.00000000000
  51
 270.00000186846
   0
LINE
   5
258
 100
AcDbEntity
   8
LEVEL002
 370
30
 100
AcDbLine
   6
CONTINUOUS
  62
7
  10
 2162.9863641459
  20
 2369.3597758717
  30
0.0
  11
 2134.9863641459
  21
 2369.3597758717
  31
0.0
   0
ARC
   5
259
 100
AcDbEntity
   8
LEVEL002
 370
30
   6
CONTINUOUS
  62
7
 100
AcDbCircle
  10
 2162.9863641459
  20
 2370.3597758708
  30
0.0
  40
 1.0000000000000
 100
AcDbArc
  50
 270.00000000000
  51
 0.51693326237889E-7
   0
ARC
   5
25A
 100
AcDbEntity
   8
LEVEL002
 370
30
   6
CONTINUOUS
  62
7
 100
AcDbCircle
  10
 2130.9863642567
  20
 2348.3597758717
  30
0.0
  40
 1.0000000000000
 100
AcDbArc
  50
 179.99999999875
  51
 269.99999365402
   0
LINE
   5
25B
 100
AcDbEntity
   8
LEVEL002
 370
30
 100
AcDbLine
   6
CONTINUOUS
  62
7
  10
 2166.9863641459
  20
 2347.3597758717
  30
0.0
  11
 2130.9863641459
  21
 2347.3597758717
  31
0.0
   0
ARC
   5
25C
 100
AcDbEntity
   8
LEVEL002
 370
30
   6
CONTINUOUS
  62
7
 100
AcDbCircle
  10
 2166.9863641459
  20
 2348.3597758606
  30
0.0
  40
 1.0000000000000
 100
AcDbArc
  50
 270.00000000000
  51
 0.63824582637265E-6
   0
LINE
   5
25D
 100
AcDbEntity
   8
LEVEL002
 370
30
 100
AcDbLine
   6
CONTINUOUS
  62
7
  10
 2165.9863641459
  20
 2314.3658070087
  30
0.0
  11
 2165.9863641459
  21
 2347.3597758717
  31
0.0
   0
LINE
   5
25E
 100
AcDbEntity
   8
LEVEL002
 370
30
 100
AcDbLine
   6
CONTINUOUS
  62
7
  10
 2131.9863641459
  20
 2314.3658070087
  30
0.0
  11
 2131.9863641459
  21
 2347.3597758717
  31
0.0
   0
LINE
   5
25F
 100
AcDbEntity
   8
LEVEL002
 370
30
 100
AcDbLine
   6
CONTINUOUS
  62
7
  10
 2131.9863641459
  20
 2314.3658070087
  30
0.0
  11
 2131.9863641459
  21
 2347.3597758717
  31
0.0
   0
LINE
   5
260
 100
AcDbEntity
   8
LEVEL002
 370
30
 100
AcDbLine
   6
CONTINUOUS
  62
7
  10
 2172.9863641459
  20
 2401.8597758717
  30
0.0
  11
 2172.9863641459
  21
 2369.3597758717
  31
0.0
   0
LINE
   5
261
 100
AcDbEntity
   8
LEVEL002
 370
30
 100
AcDbLine
   6
CONTINUOUS
  62
7
  10
 2124.9863641459
  20
 2401.8597758717
  30
0.0
  11
 2124.9863641459
  21
 2369.3597758717
  31
0.0
   0
LINE
   5
262
 100
AcDbEntity
   8
LEVEL002
 370
30
 100
AcDbLine
   6
CONTINUOUS
  62
7
  10
 2172.9863641459
  20
 2369.3597758717
  30
0.0
  11
 2172.9863641459
  21
 2410.3597758717
  31
0.0
   0
LINE
   5
263
 100
AcDbEntity
   8
LEVEL002
 370
30
 100
AcDbLine
   6
CONTINUOUS
  62
7
  10
 2172.9863641459
  20
 2369.3597758717
  30
0.0
  11
 2172.9863641459
  21
 2410.3597758717
  31
0.0
   0
LINE
   5
264
 100
AcDbEntity
   8
LEVEL002
 370
30
 100
AcDbLine
   6
CONTINUOUS
  62
7
  10
 2124.9863641459
  20
 2369.3597758717
  30
0.0
  11
 2124.9863641459
  21
 2410.3597758717
  31
0.0
   0
LINE
   5
265
 100
AcDbEntity
   8
LEVEL002
 370
30
 100
AcDbLine
   6
CONTINUOUS
  62
7
  10
 2124.9863641459
  20
 2369.3597758717
  30
0.0
  11
 2124.9863641459
  21
 2410.3597758717
  31
0.0
   0
LINE
   5
266
 100
AcDbEntity
   8
LEVEL002
 370
30
 100
AcDbLine
   6
CONTINUOUS
  62
7
  10
 2134.9863641459
  20
 2369.3597758717
  30
0.0
  11
 2162.9863641459
  21
 2369.3597758717
  31
0.0
   0
LINE
   5
267
 100
AcDbEntity
   8
LEVEL002
 370
30
 100
AcDbLine
   6
CONTINUOUS
  62
7
  10
 2129.9863641459
  20
 2348.3597758717
  30
0.0
  11
 2129.9863641459
  21
 2414.0835811665
  31
0.0
   0
ARC
   5
268
 100
AcDbEntity
   8
LEVEL002
 370
30
   6
CONTINUOUS
  62
7
 100
AcDbCircle
  10
 2139.9863641459
  20
 2414.0835811754
  30
0.0
  40
 10.000000000000
 100
AcDbArc
  50
 130.00520091769
  51
 180.00000005104
   0
LINE
   5
269
 100
AcDbEntity
   8
LEVEL002
 370
30
 100
AcDbLine
   6
CONTINUOUS
  62
7
  10
 2133.9863641459
  20
 2370.3597758717
  30
0.0
  11
 2133.9863641459
  21
 2415.2587553573
  31
0.0
   0
ARC
   5
26A
 100
AcDbEntity
   8
LEVEL002
 370
30
   6
CONTINUOUS
  62
7
 100
AcDbCircle
  10
 2143.9863641459
  20
 2415.2587553628
  30
0.0
  40
 10.000000000000
 100
AcDbArc
  50
 135.58469142537
  51
 180.00000003152
   0
LINE
   5
26B
 100
AcDbEntity
   8
LEVEL002
 370
30
 100
AcDbLine
   6
CONTINUOUS
  62
7
  10
 2163.9863641459
  20
 2370.3597758717
  30
0.0
  11
 2163.9863641459
  21
 2415.2587553573
  31
0.0
   0
ARC
   5
26C
 100
AcDbEntity
   8
LEVEL002
 370
30
   6
CONTINUOUS
  62
7
 100
AcDbCircle
  10
 2148.9863641446
  20
 2410.3597758704
  30
0.0
  40
 17.000000000000
 100
AcDbArc
  50
 44.415308597324
  51
 135.58469139656
   0
ARC
   5
26D
 100
AcDbEntity
   8
LEVEL002
 370
30
   6
CONTINUOUS
  62
7
 100
AcDbCircle
  10
 2153.9863641471
  20
 2415.2587553560
  30
0.0
  40
 10.000000000000
 100
AcDbArc
  50
0.0
  51
 44.415308607308
   0
LINE
   5
26E
 100
AcDbEntity
   8
LEVEL002
 370
30
 100
AcDbLine
   6
CONTINUOUS
  62
7
  10
 2167.9863641459
  20
 2348.3597758717
  30
0.0
  11
 2167.9863641459
  21
 2414.0835811665
  31
0.0
   0
ARC
   5
26F
 100
AcDbEntity
   8
LEVEL002
 370
30
   6
CONTINUOUS
  62
7
 100
AcDbCircle
  10
 2148.9863641491
  20
 2403.3597758744
  30
0.0
  40
 24.000000000000
 100
AcDbArc
  50
 49.994799116853
  51
 130.00520089472
   0
ARC
   5
270
 100
AcDbEntity
   8
LEVEL002
 370
30
   6
CONTINUOUS
  62
7
 100
AcDbCircle
  10
 2157.9863641511
  20
 2414.0835811621
  30
0.0
  40
 10.000000000000
 100
AcDbArc
  50
 0.25179652457811E-7
  51
 49.994799154373
   0
LINE
   5
271
 100
AcDbEntity
   8
LEVEL002
 370
30
 100
AcDbLine
   6
CONTINUOUS
  62
7
  10
 2133.9863641459
  20
 2370.3597758717
  30
0.0
  11
 2133.9863641459
  21
 2415.2587553573
  31
0.0
   0
LINE
   5
272
 100
AcDbEntity
   8
LEVEL002
 370
30
 100
AcDbLine
   6
CONTINUOUS
  62
7
  10
 2167.9863641459
  20
 2348.3597758717
  30
0.0
  11
 2167.9863641459
  21
 2414.0835811665
  31
0.0
   0
LINE
   5
273
 100
AcDbEntity
   8
LEVEL002
 370
30
 100
AcDbLine
   6
CONTINUOUS
  62
7
  10
 2163.9863641459
  20
 2370.3597758717
  30
0.0
  11
 2163.9863641459
  21
 2415.2587553573
  31
0.0
   0
LINE
   5
274
 100
AcDbEntity
   8
LEVEL002
 370
30
 100
AcDbLine
   6
CONTINUOUS
  62
7
  10
 2131.9863641459
  20
 2247.3597758717
  30
0.0
  11
 2131.9863641459
  21
 2347.3597758717
  31
0.0
   0
LINE
   5
275
 100
AcDbEntity
   8
LEVEL002
 370
30
 100
AcDbLine
   6
CONTINUOUS
  62
7
  10
 2165.9863641459
  20
 2247.3597758717
  30
0.0
  11
 2165.9863641459
  21
 2347.3597758717
  31
0.0
   0
ARC
   5
276
 100
AcDbEntity
   8
LEVEL002
 370
30
   6
CONTINUOUS
  62
7
 100
AcDbCircle
  10
 2180.4863641835
  20
 1715.8597758717
  30
0.0
  40
 1.0000000000000
 100
AcDbArc
  50
0.0
  51
 90.000002152777
   0
LINE
   5
277
 100
AcDbEntity
   8
LEVEL002
 370
30
 100
AcDbLine
   6
CONTINUOUS
  62
7
  10
 2181.4863641459
  20
 1687.8597758717
  30
0.0
  11
 2181.4863641459
  21
 1715.8597758717
  31
0.0
   0
ARC
   5
278
 100
AcDbEntity
   8
LEVEL002
 370
30
   6
CONTINUOUS
  62
7
 100
AcDbCircle
  10
 2180.4863641459
  20
 1687.8597758708
  30
0.0
  40
 1.0000000000000
 100
AcDbArc
  50
 270.00000000000
  51
 0.51276444574681E-7
   0
ARC
   5
279
 100
AcDbEntity
   8
LEVEL002
 370
30
   6
CONTINUOUS
  62
7
 100
AcDbCircle
  10
 2202.4863642432
  20
 1719.8597758717
  30
0.0
  40
 1.0000000000000
 100
AcDbArc
  50
0.0
  51
 90.000005576209
   0
LINE
   5
27A
 100
AcDbEntity
   8
LEVEL002
 370
30
 100
AcDbLine
   6
CONTINUOUS
  62
7
  10
 2203.4863641459
  20
 1683.8597758717
  30
0.0
  11
 2203.4863641459
  21
 1719.8597758717
  31
0.0
   0
ARC
   5
27B
 100
AcDbEntity
   8
LEVEL002
 370
30
   6
CONTINUOUS
  62
7
 100
AcDbCircle
  10
 2202.4863641459
  20
 1683.8597761760
  30
0.0
  40
 1.0000000000000
 100
AcDbArc
  50
 270.00000000021
  51
0.0
   0
ARC
   5
27C
 100
AcDbEntity
   8
LEVEL002
 370
30
   6
CONTINUOUS
  62
7
 100
AcDbCircle
  10
 2180.4863641459
  20
 1687.8597758708
  30
0.0
  40
 1.0000000000000
 100
AcDbArc
  50
 270.00000000000
  51
 0.51276444574681E-7
   0
LINE
   5
27D
 100
AcDbEntity
   8
LEVEL002
 370
30
 100
AcDbLine
   6
CONTINUOUS
  62
7
  10
 2181.4863641459
  20
 1715.8597758717
  30
0.0
  11
 2181.4863641459
  21
 1687.8597758717
  31
0.0
   0
ARC
   5
27E
 100
AcDbEntity
   8
LEVEL002
 370
30
   6
CONTINUOUS
  62
7
 100
AcDbCircle
  10
 2180.4863641835
  20
 1715.8597758717
  30
0.0
  40
 1.0000000000000
 100
AcDbArc
  50
0.0
  51
 90.000002152777
   0
ARC
   5
27F
 100
AcDbEntity
   8
LEVEL002
 370
30
   6
CONTINUOUS
  62
7
 100
AcDbCircle
  10
 2202.4863641459
  20
 1683.8597761760
  30
0.0
  40
 1.0000000000000
 100
AcDbArc
  50
 270.00000000021
  51
0.0
   0
LINE
   5
280
 100
AcDbEntity
   8
LEVEL002
 370
30
 100
AcDbLine
   6
CONTINUOUS
  62
7
  10
 2203.4863641459
  20
 1719.8597758717
  30
0.0
  11
 2203.4863641459
  21
 1683.8597758717
  31
0.0
   0
ARC
   5
281
 100
AcDbEntity
   8
LEVEL002
 370
30
   6
CONTINUOUS
  62
7
 100
AcDbCircle
  10
 2202.4863642432
  20
 1719.8597758717
  30
0.0
  40
 1.0000000000000
 100
AcDbArc
  50
0.0
  51
 90.000005576209
   0
LINE
   5
282
 100
AcDbEntity
   8
LEVEL002
 370
40
 100
AcDbLine
   6
CONTINUOUS
  62
3
  10
 2236.4803330089
  20
 1718.8597758717
  30
0.0
  11
 2203.4863641459
  21
 1718.8597758717
  31
0.0
   0
LINE
   5
283
 100
AcDbEntity
   8
LEVEL002
 370
40
 100
AcDbLine
   6
CONTINUOUS
  62
3
  10
 2236.4803330089
  20
 1684.8597758717
  30
0.0
  11
 2203.4863641459
  21
 1684.8597758717
  31
0.0
   0
LINE
   5
284
 100
AcDbEntity
   8
LEVEL002
 370
40
 100
AcDbLine
   6
CONTINUOUS
  62
3
  10
 2236.4803330089
  20
 1684.8597758717
  30
0.0
  11
 2203.4863641459
  21
 1684.8597758717
  31
0.0
   0
LINE
   5
285
 100
AcDbEntity
   8
LEVEL002
 370
30
 100
AcDbLine
   6
CONTINUOUS
  62
7
  10
 2167.9863641459
  20
 1750.8597758717
  30
0.0
  11
 2167.9863641459
  21
 1755.3597758717
  31
0.0
   0
LINE
   5
286
 100
AcDbEntity
   8
LEVEL002
 370
30
 100
AcDbLine
   6
CONTINUOUS
  62
7
  10
 2197.9863641459
  20
 1720.8597758717
  30
0.0
  11
 2202.4863641459
  21
 1720.8597758717
  31
0.0
   0
ARC
   5
287
 100
AcDbEntity
   8
LEVEL002
 370
30
   6
CONTINUOUS
  62
7
 100
AcDbCircle
  10
 2197.9863641481
  20
 1750.8597758717
  30
0.0
  40
 30.000000000000
 100
AcDbArc
  50
 180.00000000000
  51
 269.99999999577
   0
LINE
   5
288
 100
AcDbEntity
   8
LEVEL002
 370
30
 100
AcDbLine
   6
CONTINUOUS
  62
7
  10
 2129.9863641459
  20
 1712.8597758717
  30
0.0
  11
 2129.9863641459
  21
 1755.3597758717
  31
0.0
   0
ARC
   5
289
 100
AcDbEntity
   8
LEVEL002
 370
30
   6
CONTINUOUS
  62
7
 100
AcDbCircle
  10
 2159.9863641402
  20
 1712.8597758717
  30
0.0
  40
 30.000000000000
 100
AcDbArc
  50
 180.00000000000
  51
 270.00000001099
   0
LINE
   5
28A
 100
AcDbEntity
   8
LEVEL002
 370
30
 100
AcDbLine
   6
CONTINUOUS
  62
7
  10
 2202.4863641459
  20
 1682.8597758717
  30
0.0
  11
 2159.9863641459
  21
 1682.8597758717
  31
0.0
   0
LINE
   5
28B
 100
AcDbEntity
   8
LEVEL002
 370
30
 100
AcDbLine
   6
CONTINUOUS
  62
7
  10
 2129.9863641459
  20
 1755.3597758717
  30
0.0
  11
 2129.9863641459
  21
 1712.8597758717
  31
0.0
   0
LINE
   5
28C
 100
AcDbEntity
   8
LEVEL002
 370
30
 100
AcDbLine
   6
CONTINUOUS
  62
7
  10
 2133.9863641459
  20
 1716.8597758717
  30
0.0
  11
 2133.9863641459
  21
 1733.3597758717
  31
0.0
   0
LINE
   5
28D
 100
AcDbEntity
   8
LEVEL002
 370
30
 100
AcDbLine
   6
CONTINUOUS
  62
7
  10
 2163.9863641459
  20
 1686.8597758717
  30
0.0
  11
 2180.4863641459
  21
 1686.8597758717
  31
0.0
   0
ARC
   5
28E
 100
AcDbEntity
   8
LEVEL002
 370
30
   6
CONTINUOUS
  62
7
 100
AcDbCircle
  10
 2163.9863641481
  20
 1716.8597758717
  30
0.0
  40
 30.000000000000
 100
AcDbArc
  50
 180.00000000000
  51
 269.99999999580
   0
LINE
   5
28F
 100
AcDbEntity
   8
LEVEL002
 370
30
 100
AcDbLine
   6
CONTINUOUS
  62
7
  10
 2202.4863641459
  20
 1720.8597758717
  30
0.0
  11
 2197.9863641459
  21
 1720.8597758717
  31
0.0
   0
LINE
   5
290
 100
AcDbEntity
   8
LEVEL002
 370
30
 100
AcDbLine
   6
CONTINUOUS
  62
7
  10
 2163.9863641459
  20
 1732.8597758717
  30
0.0
  11
 2163.9863641459
  21
 1733.3597758717
  31
0.0
   0
LINE
   5
291
 100
AcDbEntity
   8
LEVEL002
 370
30
 100
AcDbLine
   6
CONTINUOUS
  62
7
  10
 2179.9863641459
  20
 1716.8597758717
  30
0.0
  11
 2180.4863641459
  21
 1716.8597758717
  31
0.0
   0
ARC
   5
292
 100
AcDbEntity
   8
LEVEL002
 370
30
   6
CONTINUOUS
  62
7
 100
AcDbCircle
  10
 2179.9863641501
  20
 1732.8597758717
  30
0.0
  40
 16.000000000000
 100
AcDbArc
  50
 180.00000000000
  51
 269.99999998502
   0
LINE
   5
293
 100
AcDbEntity
   8
LEVEL002
 370
15
 100
AcDbLine
   6
DASHDOT
  62
8
  10
 2148.9863641459
  20
 1661.6730825157
  30
0.0
  11
 2148.9863641459
  21
 2462.5065394420
  31
0.0
   0
LINE
   5
294
 100
AcDbEntity
   8
LEVEL002
 370
15
 100
AcDbLine
   6
DASHDOT
  62
8
  10
 2113.5266135974
  20
 2401.8597758717
  30
0.0
  11
 2190.7642553656
  21
 2401.8597758717
  31
0.0
   0
DIMENSION
   5
295
 100
AcDbEntity
   8
LEVEL001
 370
15
   6
CONTINUOUS
  62
8
 100
AcDbDimension
   2
*D3
  10
 2031.9863641459
  20
 2401.8597758717
  30
0.0
  11
 2031.9863641459
  21
 2051.8597758717
  31
0.0
  70
0
   3
GMM001
 100
AcDbAlignedDimension
  13
 2113.5266135974
  23
 1701.8597758717
  33
0.0
  14
 2103.5266135974
  24
 2401.8597758717
  34
0.0
  50
 90.000000000000
 100
AcDbRotatedDimension
   0
ARC
   5
296
 100
AcDbEntity
   8
LEVEL002
 370
30
   6
CONTINUOUS
  62
7
 100
AcDbCircle
  10
 2757.4863641459
  20
 1701.8597758717
  30
0.0
  40
 24.000000000000
 100
AcDbArc
  50
 270.00000000000
  51
 90.000000000000
   0
ARC
   5
297
 100
AcDbEntity
   8
LEVEL002
 370
30
   6
CONTINUOUS
  62
7
 100
AcDbCircle
  10
 2716.4863641503
  20
 1701.8597758717
  30
0.0
  40
 24.000000000000
 100
AcDbArc
  50
 232.34153798550
  51
 269.99999998953
   0
ARC
   5
298
 100
AcDbEntity
   8
LEVEL002
 370
30
   6
CONTINUOUS
  62
7
 100
AcDbCircle
  10
 2716.4863641528
  20
 1701.8597758771
  30
0.0
  40
 24.000000000000
 100
AcDbArc
  50
 90.000000016536
  51
 127.65846202712
   0
ARC
   5
299
 100
AcDbEntity
   8
LEVEL002
 370
30
   6
CONTINUOUS
  62
7
 100
AcDbCircle
  10
 2717.4863641459
  20
 1715.8597758672
  30
0.0
  40
 1.0000000000000
 100
AcDbArc
  50
 90.000000000000
  51
 179.99999974195
   0
LINE
   5
29A
 100
AcDbEntity
   8
LEVEL002
 370
30
 100
AcDbLine
   6
CONTINUOUS
  62
7
  10
 2716.4863641459
  20
 1687.8597758717
  30
0.0
  11
 2716.4863641459
  21
 1715.8597758717
  31
0.0
   0
ARC
   5
29B
 100
AcDbEntity
   8
LEVEL002
 370
30
   6
CONTINUOUS
  62
7
 100
AcDbCircle
  10
 2717.4863641799
  20
 1687.8597758717
  30
0.0
  40
 1.0000000000000
 100
AcDbArc
  50
 180.00000000000
  51
 269.99999805275
   0
ARC
   5
29C
 100
AcDbEntity
   8
LEVEL002
 370
30
   6
CONTINUOUS
  62
7
 100
AcDbCircle
  10
 2695.4863641459
  20
 1719.8597758743
  30
0.0
  40
 1.0000000000000
 100
AcDbArc
  50
 90.000000000000
  51
 180.00000014883
   0
LINE
   5
29D
 100
AcDbEntity
   8
LEVEL002
 370
30
 100
AcDbLine
   6
CONTINUOUS
  62
7
  10
 2694.4863641459
  20
 1683.8597758717
  30
0.0
  11
 2694.4863641459
  21
 1719.8597758717
  31
0.0
   0
ARC
   5
29E
 100
AcDbEntity
   8
LEVEL002
 370
30
   6
CONTINUOUS
  62
7
 100
AcDbCircle
  10
 2695.4863639415
  20
 1683.8597758717
  30
0.0
  40
 1.0000000000000
 100
AcDbArc
  50
 180.00000000000
  51
 270.00001171312
   0
LINE
   5
29F
 100
AcDbEntity
   8
LEVEL002
 370
40
 100
AcDbLine
   6
CONTINUOUS
  62
3
  10
 2661.4923952829
  20
 1718.8597758717
  30
0.0
  11
 2694.4863641459
  21
 1718.8597758717
  31
0.0
   0
ARC
   5
2A0
 100
AcDbEntity
   8
LEVEL002
 370
30
   6
CONTINUOUS
  62
7
 100
AcDbCircle
  10
 2757.4863641459
  20
 1701.8597758717
  30
0.0
  40
 24.000000000000
 100
AcDbArc
  50
 270.00000000000
  51
 90.000000000000
   0
ARC
   5
2A1
 100
AcDbEntity
   8
LEVEL002
 370
30
   6
CONTINUOUS
  62
7
 100
AcDbCircle
  10
 2716.4863641503
  20
 1701.8597758717
  30
0.0
  40
 24.000000000000
 100
AcDbArc
  50
 232.34153798550
  51
 269.99999998953
   0
ARC
   5
2A2
 100
AcDbEntity
   8
LEVEL002
 370
30
   6
CONTINUOUS
  62
7
 100
AcDbCircle
  10
 2716.4863641528
  20
 1701.8597758771
  30
0.0
  40
 24.000000000000
 100
AcDbArc
  50
 90.000000016536
  51
 127.65846202712
   0
ARC
   5
2A3
 100
AcDbEntity
   8
LEVEL002
 370
30
   6
CONTINUOUS
  62
7
 100
AcDbCircle
  10
 2717.4863641459
  20
 1715.8597758672
  30
0.0
  40
 1.0000000000000
 100
AcDbArc
  50
 90.000000000000
  51
 179.99999974195
   0
LINE
   5
2A4
 100
AcDbEntity
   8
LEVEL002
 370
30
 100
AcDbLine
   6
CONTINUOUS
  62
7
  10
 2716.4863641459
  20
 1687.8597758717
  30
0.0
  11
 2716.4863641459
  21
 1715.8597758717
  31
0.0
   0
ARC
   5
2A5
 100
AcDbEntity
   8
LEVEL002
 370
30
   6
CONTINUOUS
  62
7
 100
AcDbCircle
  10
 2717.4863641799
  20
 1687.8597758717
  30
0.0
  40
 1.0000000000000
 100
AcDbArc
  50
 180.00000000000
  51
 269.99999805275
   0
ARC
   5
2A6
 100
AcDbEntity
   8
LEVEL002
 370
30
   6
CONTINUOUS
  62
7
 100
AcDbCircle
  10
 2695.4863641459
  20
 1719.8597758743
  30
0.0
  40
 1.0000000000000
 100
AcDbArc
  50
 90.000000000000
  51
 180.00000014883
   0
LINE
   5
2A7
 100
AcDbEntity
   8
LEVEL002
 370
30
 100
AcDbLine
   6
CONTINUOUS
  62
7
  10
 2694.4863641459
  20
 1683.8597758717
  30
0.0
  11
 2694.4863641459
  21
 1719.8597758717
  31
0.0
   0
ARC
   5
2A8
 100
AcDbEntity
   8
LEVEL002
 370
30
   6
CONTINUOUS
  62
7
 100
AcDbCircle
  10
 2695.4863639415
  20
 1683.8597758717
  30
0.0
  40
 1.0000000000000
 100
AcDbArc
  50
 180.00000000000
  51
 270.00001171312
   0
LINE
   5
2A9
 100
AcDbEntity
   8
LEVEL002
 370
30
 100
AcDbLine
   6
CONTINUOUS
  62
7
  10
 2661.4923952829
  20
 1684.8597758717
  30
0.0
  11
 2694.4863641459
  21
 1684.8597758717
  31
0.0
   0
LINE
   5
2AA
 100
AcDbEntity
   8
LEVEL002
 370
40
 100
AcDbLine
   6
CONTINUOUS
  62
3
  10
 2661.4923952829
  20
 1718.8597758717
  30
0.0
  11
 2694.4863641459
  21
 1718.8597758717
  31
0.0
   0
LINE
   5
2AB
 100
AcDbEntity
   8
LEVEL002
 370
40
 100
AcDbLine
   6
CONTINUOUS
  62
3
  10
 2661.4923952829
  20
 1718.8597758717
  30
0.0
  11
 2694.4863641459
  21
 1718.8597758717
  31
0.0
   0
LINE
   5
2AC
 100
AcDbEntity
   8
LEVEL002
 370
30
 100
AcDbLine
   6
CONTINUOUS
  62
7
  10
 2748.9863641459
  20
 1677.8597758717
  30
0.0
  11
 2716.4863641459
  21
 1677.8597758717
  31
0.0
   0
LINE
   5
2AD
 100
AcDbEntity
   8
LEVEL002
 370
30
 100
AcDbLine
   6
CONTINUOUS
  62
7
  10
 2748.9863641459
  20
 1725.8597758717
  30
0.0
  11
 2716.4863641459
  21
 1725.8597758717
  31
0.0
   0
LINE
   5
2AE
 100
AcDbEntity
   8
LEVEL002
 370
30
 100
AcDbLine
   6
CONTINUOUS
  62
7
  10
 2716.4863641459
  20
 1677.8597758717
  30
0.0
  11
 2757.4863641459
  21
 1677.8597758717
  31
0.0
   0
LINE
   5
2AF
 100
AcDbEntity
   8
LEVEL002
 370
30
 100
AcDbLine
   6
CONTINUOUS
  62
7
  10
 2716.4863641459
  20
 1677.8597758717
  30
0.0
  11
 2757.4863641459
  21
 1677.8597758717
  31
0.0
   0
LINE
   5
2B0
 100
AcDbEntity
   8
LEVEL002
 370
30
 100
AcDbLine
   6
CONTINUOUS
  62
7
  10
 2716.4863641459
  20
 1725.8597758717
  30
0.0
  11
 2757.4863641459
  21
 1725.8597758717
  31
0.0
   0
LINE
   5
2B1
 100
AcDbEntity
   8
LEVEL002
 370
30
 100
AcDbLine
   6
CONTINUOUS
  62
7
  10
 2716.4863641459
  20
 1725.8597758717
  30
0.0
  11
 2757.4863641459
  21
 1725.8597758717
  31
0.0
   0
LINE
   5
2B2
 100
AcDbEntity
   8
LEVEL002
 370
30
 100
AcDbLine
   6
CONTINUOUS
  62
7
  10
 2716.4863641459
  20
 1715.8597758717
  30
0.0
  11
 2716.4863641459
  21
 1687.8597758717
  31
0.0
   0
LINE
   5
2B3
 100
AcDbEntity
   8
LEVEL002
 370
30
 100
AcDbLine
   6
CONTINUOUS
  62
7
  10
 2695.4863641459
  20
 1720.8597758717
  30
0.0
  11
 2761.2101694407
  21
 1720.8597758717
  31
0.0
   0
ARC
   5
2B4
 100
AcDbEntity
   8
LEVEL002
 370
30
   6
CONTINUOUS
  62
7
 100
AcDbCircle
  10
 2761.2101694496
  20
 1710.8597758717
  30
0.0
  40
 10.000000000000
 100
AcDbArc
  50
 40.005200917613
  51
 90.000000051058
   0
LINE
   5
2B5
 100
AcDbEntity
   8
LEVEL002
 370
30
 100
AcDbLine
   6
CONTINUOUS
  62
7
  10
 2717.4863641459
  20
 1716.8597758717
  30
0.0
  11
 2762.3853436315
  21
 1716.8597758717
  31
0.0
   0
ARC
   5
2B6
 100
AcDbEntity
   8
LEVEL002
 370
30
   6
CONTINUOUS
  62
7
 100
AcDbCircle
  10
 2762.3853436245
  20
 1706.8597758717
  30
0.0
  40
 10.000000000000
 100
AcDbArc
  50
 45.584691374507
  51
 89.999999960313
   0
LINE
   5
2B7
 100
AcDbEntity
   8
LEVEL002
 370
30
 100
AcDbLine
   6
CONTINUOUS
  62
7
  10
 2717.4863641459
  20
 1686.8597758717
  30
0.0
  11
 2762.3853436315
  21
 1686.8597758717
  31
0.0
   0
ARC
   5
2B8
 100
AcDbEntity
   8
LEVEL002
 370
30
   6
CONTINUOUS
  62
7
 100
AcDbCircle
  10
 2757.4863641494
  20
 1701.8597758683
  30
0.0
  40
 17.000000000000
 100
AcDbArc
  50
 314.41530859686
  51
 45.584691419204
   0
ARC
   5
2B9
 100
AcDbEntity
   8
LEVEL002
 370
30
   6
CONTINUOUS
  62
7
 100
AcDbCircle
  10
 2762.3853436302
  20
 1696.8597758704
  30
0.0
  40
 10.000000000000
 100
AcDbArc
  50
 270.00000000725
  51
 314.41530860734
   0
LINE
   5
2BA
 100
AcDbEntity
   8
LEVEL002
 370
30
 100
AcDbLine
   6
CONTINUOUS
  62
7
  10
 2695.4863641459
  20
 1682.8597758717
  30
0.0
  11
 2761.2101694407
  21
 1682.8597758717
  31
0.0
   0
ARC
   5
2BB
 100
AcDbEntity
   8
LEVEL002
 370
30
   6
CONTINUOUS
  62
7
 100
AcDbCircle
  10
 2750.4863641474
  20
 1701.8597758700
  30
0.0
  40
 24.000000000000
 100
AcDbArc
  50
 319.99479911608
  51
 40.005200890233
   0
ARC
   5
2BC
 100
AcDbEntity
   8
LEVEL002
 370
30
   6
CONTINUOUS
  62
7
 100
AcDbCircle
  10
 2761.2101694507
  20
 1692.8597758837
  30
0.0
  40
 10.000000000000
 100
AcDbArc
  50
 269.99999994236
  51
 319.99479902538
   0
LINE
   5
2BD
 100
AcDbEntity
   8
LEVEL002
 370
30
 100
AcDbLine
   6
CONTINUOUS
  62
7
  10
 2717.4863641459
  20
 1716.8597758717
  30
0.0
  11
 2762.3853436315
  21
 1716.8597758717
  31
0.0
   0
LINE
   5
2BE
 100
AcDbEntity
   8
LEVEL002
 370
30
 100
AcDbLine
   6
CONTINUOUS
  62
7
  10
 2695.4863641459
  20
 1682.8597758717
  30
0.0
  11
 2761.2101694407
  21
 1682.8597758717
  31
0.0
   0
LINE
   5
2BF
 100
AcDbEntity
   8
LEVEL002
 370
30
 100
AcDbLine
   6
CONTINUOUS
  62
7
  10
 2717.4863641459
  20
 1686.8597758717
  30
0.0
  11
 2762.3853436315
  21
 1686.8597758717
  31
0.0
   0
LINE
   5
2C0
 100
AcDbEntity
   8
LEVEL002
 370
30
 100
AcDbLine
   6
CONTINUOUS
  62
7
  10
 2594.4863641459
  20
 1718.8597758717
  30
0.0
  11
 2694.4863641459
  21
 1718.8597758717
  31
0.0
   0
LINE
   5
2C1
 100
AcDbEntity
   8
LEVEL002
 370
30
 100
AcDbLine
   6
CONTINUOUS
  62
7
  10
 2594.4863641459
  20
 1684.8597758717
  30
0.0
  11
 2694.4863641459
  21
 1684.8597758717
  31
0.0
   0
LINE
   5
2C2
 100
AcDbEntity
   8
LEVEL002
 370
15
 100
AcDbLine
   6
DASHDOT
  62
8
  10
 2013.5266135974
  20
 1701.8597758717
  30
0.0
  11
 2793.1533728782
  21
 1701.8597758717
  31
0.0
   0
LINE
   5
2C3
 100
AcDbEntity
   8
LEVEL002
 370
15
 100
AcDbLine
   6
DASHDOT
  62
8
  10
 2748.9863641459
  20
 1661.6730825157
  30
0.0
  11
 2748.9863641459
  21
 1746.5943309371
  31
0.0
   0
LINE
   5
2C4
 100
AcDbEntity
   8
LEVEL002
 370
30
 100
AcDbLine
   6
CONTINUOUS
  62
7
  10
 2594.4863641459
  20
 1718.8597758717
  30
0.0
  11
 2203.4863641459
  21
 1718.8597758717
  31
0.0
   0
LINE
   5
2C5
 100
AcDbEntity
   8
LEVEL002
 370
30
 100
AcDbLine
   6
CONTINUOUS
  62
7
  10
 2594.4863641459
  20
 1684.8597758717
  30
0.0
  11
 2203.4863641459
  21
 1684.8597758717
  31
0.0
   0
LEADER
   5
2C6
 100
AcDbEntity
   8
LEVEL001
 370
15
   6
CONTINUOUS
  62
8
 100
AcDbLeader
   3
GMM002
  73
0
  74
0
  75
0
  40
 30.000000000000
  41
 630.00000000000
  76
2
  10
 2150.2454188029
  20
 2102.8602956404
  30
0.0
  10
 2213.4507493601
  20
 2188.2657010458
  30
0.0
  77
8
 340
2C7
 213
0.0
 223
-10.000000000000
 233
0.0
   0
MTEXT
   5
2C7
 102
{ACAD_REACTORS
 330
2C6
 102
}
 100
AcDbEntity
   8
LEVEL001
 370
15
  62
8
 100
AcDbMText
  10
 2213.4507493601
  20
 2198.2657010458
  30
0.0
  40
 30.000000000000
  41
0.0
  71
7
  72
1
   1
\A1;芯材：アルミニウム(%%c２７.２×１.５ｔ)　　　　　\P表面材：樹脂被膜軟質ＰＶＣ（抗菌材入り）外径%%c３４
   7
GMM002
  44
 0.79999984000003
   0
ARC
   5
2C8
 100
AcDbEntity
   8
LEVEL002
 370
30
   6
CONTINUOUS
  62
7
 100
AcDbCircle
  10
 2197.4863641459
  20
 2596.6717006992
  30
0.0
  40
 1.0000000000000
 100
AcDbArc
  50
 270.00000000000
  51
0.0
   0
ARC
   5
2C9
 100
AcDbEntity
   8
LEVEL002
 370
30
   6
CONTINUOUS
  62
7
 100
AcDbCircle
  10
 2190.1492423007
  20
 2674.2717006890
  30
0.0
  40
 1.0000000000000
 100
AcDbArc
  50
0.0
  51
 89.999991758666
   0
LINE
   5
2CA
 100
AcDbEntity
   8
LEVEL002
 370
30
 100
AcDbLine
   6
CONTINUOUS
  62
7
  10
 2191.1492424445
  20
 2634.6717006890
  30
0.0
  11
 2191.1492424445
  21
 2674.2717006890
  31
0.0
   0
ARC
   5
2CB
 100
AcDbEntity
   8
LEVEL002
 370
30
   6
CONTINUOUS
  62
7
 100
AcDbCircle
  10
 2192.1492424198
  20
 2634.6717006891
  30
0.0
  40
 1.0000000000000
 100
AcDbArc
  50
 180.00000000125
  51
 270.00000141615
   0
LINE
   5
2CC
 100
AcDbEntity
   8
LEVEL002
 370
30
 100
AcDbLine
   6
CONTINUOUS
  62
7
  10
 2197.4863641459
  20
 2633.6717006891
  30
0.0
  11
 2192.1492424445
  21
 2633.6717006891
  31
0.0
   0
LINE
   5
2CD
 100
AcDbEntity
   8
LEVEL002
 370
30
 100
AcDbLine
   6
CONTINUOUS
  62
7
  10
 2198.4863641459
  20
 2632.6717006890
  30
0.0
  11
 2198.4863641459
  21
 2596.6717006890
  31
0.0
   0
ARC
   5
2CE
 100
AcDbEntity
   8
LEVEL002
 370
30
   6
CONTINUOUS
  62
7
 100
AcDbCircle
  10
 2197.4863641928
  20
 2632.6717006891
  30
0.0
  40
 1.0000000000000
 100
AcDbArc
  50
0.0
  51
 90.000002684301
   0
ARC
   5
2CF
 100
AcDbEntity
   8
LEVEL002
 370
30
   6
CONTINUOUS
  62
7
 100
AcDbCircle
  10
 2175.4863642208
  20
 2604.8288054194
  30
0.0
  40
 1.0000000000000
 100
AcDbArc
  50
0.0
  51
 94.498410970178
   0
LINE
   5
2D0
 100
AcDbEntity
   8
LEVEL002
 370
30
 100
AcDbLine
   6
CONTINUOUS
  62
7
  10
 2197.4863641459
  20
 2595.6717006890
  30
0.0
  11
 2171.4863641459
  21
 2595.6717006890
  31
0.0
   0
LINE
   5
2D1
 100
AcDbEntity
   8
LEVEL002
 370
30
 100
AcDbLine
   6
CONTINUOUS
  62
7
  10
 2176.4863641459
  20
 2595.6717006890
  30
0.0
  11
 2176.4863641459
  21
 2604.8288054135
  31
0.0
   0
LINE
   5
2D2
 100
AcDbEntity
   8
LEVEL002
 370
30
 100
AcDbLine
   6
CONTINUOUS
  62
7
  10
 2125.9863641459
  20
 2675.2717006890
  30
0.0
  11
 2190.1492424445
  21
 2675.2717006890
  31
0.0
   0
ARC
   5
2D3
 100
AcDbEntity
   8
LEVEL002
 370
30
   6
CONTINUOUS
  62
7
 100
AcDbCircle
  10
 2125.9863641459
  20
 2674.2717009088
  30
0.0
  40
 1.0000000000000
 100
AcDbArc
  50
 90.000000000208
  51
 180.00001259149
   0
ARC
   5
2D4
 100
AcDbEntity
   8
LEVEL002
 370
30
   6
CONTINUOUS
  62
7
 100
AcDbCircle
  10
 2148.9639906159
  20
 2614.6717006890
  30
0.0
  40
 19.000000000000
 100
AcDbArc
  50
 180.00000000000
  51
0.0
   0
LINE
   5
2D5
 100
AcDbEntity
   8
LEVEL002
 370
30
 100
AcDbLine
   6
CONTINUOUS
  62
7
  10
 2162.9363641459
  20
 2623.9010988390
  30
0.0
  11
 2162.7240923962
  21
 2624.5319309113
  31
0.0
   0
LINE
   5
2D6
 100
AcDbEntity
   8
LEVEL002
 370
30
 100
AcDbLine
   6
CONTINUOUS
  62
7
  10
 2162.7240923962
  20
 2624.5319309113
  30
0.0
  11
 2162.0937269169
  21
 2625.1435954703
  31
0.0
   0
LINE
   5
2D7
 100
AcDbEntity
   8
LEVEL002
 370
30
 100
AcDbLine
   6
CONTINUOUS
  62
7
  10
 2162.0937269169
  20
 2625.1435954703
  30
0.0
  11
 2161.0644210441
  21
 2625.7175073979
  31
0.0
   0
LINE
   5
2D8
 100
AcDbEntity
   8
LEVEL002
 370
30
 100
AcDbLine
   6
CONTINUOUS
  62
7
  10
 2161.0644210441
  20
 2625.7175073979
  30
0.0
  11
 2159.6674497157
  21
 2626.2362286706
  31
0.0
   0
LINE
   5
2D9
 100
AcDbEntity
   8
LEVEL002
 370
30
 100
AcDbLine
   6
CONTINUOUS
  62
7
  10
 2159.6674497157
  20
 2626.2362286706
  30
0.0
  11
 2157.9452591989
  21
 2626.6839982050
  31
0.0
   0
LINE
   5
2DA
 100
AcDbEntity
   8
LEVEL002
 370
30
 100
AcDbLine
   6
CONTINUOUS
  62
7
  10
 2157.9452591989
  20
 2626.6839982050
  30
0.0
  11
 2155.9501773809
  21
 2627.0472107504
  31
0.0
   0
LINE
   5
2DB
 100
AcDbEntity
   8
LEVEL002
 370
30
 100
AcDbLine
   6
CONTINUOUS
  62
7
  10
 2155.9501773809
  20
 2627.0472107504
  30
0.0
  11
 2153.7428238132
  21
 2627.3148302773
  31
0.0
   0
LINE
   5
2DC
 100
AcDbEntity
   8
LEVEL002
 370
30
 100
AcDbLine
   6
CONTINUOUS
  62
7
  10
 2153.7428238132
  20
 2627.3148302773
  30
0.0
  11
 2151.3902678171
  21
 2627.4787253019
  31
0.0
   0
LINE
   5
2DD
 100
AcDbEntity
   8
LEVEL002
 370
30
 100
AcDbLine
   6
CONTINUOUS
  62
7
  10
 2151.3902678171
  20
 2627.4787253019
  30
0.0
  11
 2148.9639906159
  21
 2627.5339159569
  31
0.0
   0
LINE
   5
2DE
 100
AcDbEntity
   8
LEVEL002
 370
30
 100
AcDbLine
   6
CONTINUOUS
  62
7
  10
 2148.9639906159
  20
 2627.5339159569
  30
0.0
  11
 2146.5377134147
  21
 2627.4787253019
  31
0.0
   0
LINE
   5
2DF
 100
AcDbEntity
   8
LEVEL002
 370
30
 100
AcDbLine
   6
CONTINUOUS
  62
7
  10
 2146.5377134147
  20
 2627.4787253019
  30
0.0
  11
 2144.1851574186
  21
 2627.3148302773
  31
0.0
   0
LINE
   5
2E0
 100
AcDbEntity
   8
LEVEL002
 370
30
 100
AcDbLine
   6
CONTINUOUS
  62
7
  10
 2144.1851574186
  20
 2627.3148302773
  30
0.0
  11
 2141.9778038509
  21
 2627.0472107504
  31
0.0
   0
LINE
   5
2E1
 100
AcDbEntity
   8
LEVEL002
 370
30
 100
AcDbLine
   6
CONTINUOUS
  62
7
  10
 2141.9778038509
  20
 2627.0472107504
  30
0.0
  11
 2139.9827220329
  21
 2626.6839982050
  31
0.0
   0
LINE
   5
2E2
 100
AcDbEntity
   8
LEVEL002
 370
30
 100
AcDbLine
   6
CONTINUOUS
  62
7
  10
 2139.9827220329
  20
 2626.6839982050
  30
0.0
  11
 2138.2605315161
  21
 2626.2362286706
  31
0.0
   0
LINE
   5
2E3
 100
AcDbEntity
   8
LEVEL002
 370
30
 100
AcDbLine
   6
CONTINUOUS
  62
7
  10
 2138.2605315161
  20
 2626.2362286706
  30
0.0
  11
 2136.8635601878
  21
 2625.7175073979
  31
0.0
   0
LINE
   5
2E4
 100
AcDbEntity
   8
LEVEL002
 370
30
 100
AcDbLine
   6
CONTINUOUS
  62
7
  10
 2136.8635601878
  20
 2625.7175073979
  30
0.0
  11
 2135.8342543149
  21
 2625.1435954703
  31
0.0
   0
LINE
   5
2E5
 100
AcDbEntity
   8
LEVEL002
 370
30
 100
AcDbLine
   6
CONTINUOUS
  62
7
  10
 2135.8342543149
  20
 2625.1435954703
  30
0.0
  11
 2135.2038888356
  21
 2624.5319309113
  31
0.0
   0
LINE
   5
2E6
 100
AcDbEntity
   8
LEVEL002
 370
30
 100
AcDbLine
   6
CONTINUOUS
  62
7
  10
 2135.2038888356
  20
 2624.5319309113
  30
0.0
  11
 2134.9916170859
  21
 2623.9010988390
  31
0.0
   0
LINE
   5
2E7
 100
AcDbEntity
   8
LEVEL002
 370
30
 100
AcDbLine
   6
CONTINUOUS
  62
7
  10
 2162.9363641459
  20
 2623.9010988390
  30
0.0
  11
 2162.9363641459
  21
 2601.7964229080
  31
0.0
   0
LINE
   5
2E8
 100
AcDbEntity
   8
LEVEL002
 370
30
 100
AcDbLine
   6
CONTINUOUS
  62
7
  10
 2134.9916170859
  20
 2623.9010988390
  30
0.0
  11
 2134.9916170859
  21
 2601.7964229080
  31
0.0
   0
LINE
   5
2E9
 100
AcDbEntity
   8
LEVEL002
 370
30
 100
AcDbLine
   6
CONTINUOUS
  62
7
  10
 2125.0532834240
  20
 2674.1894718545
  30
0.0
  11
 2129.9639906159
  21
 2614.6717006890
  31
0.0
   0
ARC
   5
2EA
 100
AcDbEntity
   8
LEVEL002
 370
30
   6
CONTINUOUS
  62
7
 100
AcDbCircle
  10
 2126.0498968982
  20
 2674.2717007011
  30
0.0
  40
 1.0000000000000
 100
AcDbArc
  50
 89.999999942991
  51
 184.71669146800
   0
LINE
   5
2EB
 100
AcDbEntity
   8
LEVEL002
 370
30
 100
AcDbLine
   6
CONTINUOUS
  62
7
  10
 2171.8780843327
  20
 2675.2717006890
  30
0.0
  11
 2126.0498968991
  21
 2675.2717006890
  31
0.0
   0
LINE
   5
2EC
 100
AcDbEntity
   8
LEVEL002
 370
30
 100
AcDbLine
   6
CONTINUOUS
  62
7
  10
 2172.8746978078
  20
 2674.1894718545
  30
0.0
  11
 2167.9639906159
  21
 2614.6717006890
  31
0.0
   0
ARC
   5
2ED
 100
AcDbEntity
   8
LEVEL002
 370
30
   6
CONTINUOUS
  62
7
 100
AcDbCircle
  10
 2171.8780845428
  20
 2674.2717006890
  30
0.0
  40
 1.0000000000000
 100
AcDbArc
  50
 355.28330823423
  51
 90.000012039542
   0
ARC
   5
2EE
 100
AcDbEntity
   8
LEVEL002
 370
30
   6
CONTINUOUS
  62
7
 100
AcDbCircle
  10
 2171.4863641633
  20
 2655.6717006904
  30
0.0
  40
 50.000000000000
 100
AcDbArc
  50
 263.54349960754
  51
 274.49840664895
   0
ARC
   5
2EF
 100
AcDbEntity
   8
LEVEL002
 370
30
   6
CONTINUOUS
  62
7
 100
AcDbCircle
  10
 2171.4863641533
  20
 2655.6717006890
  30
0.0
  40
 60.000000000000
 100
AcDbArc
  50
 256.01744491791
  51
 269.99999999293
   0
LINE
   5
2F0
 100
AcDbEntity
   8
LEVEL002
 370
30
 100
AcDbLine
   6
CONTINUOUS
  62
7
  10
 2148.9863641459
  20
 2674.2717006890
  30
0.0
  11
 2148.9863641459
  21
 2655.6717006890
  31
0.0
   0
LINE
   5
2F1
 100
AcDbEntity
   8
LEVEL002
 370
15
 100
AcDbLine
   6
DASHDOT
  62
8
  10
 2148.9863641459
  20
 2574.4026702608
  30
0.0
  11
 2148.9863641459
  21
 2715.0933825499
  31
0.0
   0
DIMENSION
   5
2F2
 100
AcDbEntity
   8
LEVEL001
 370
15
   6
CONTINUOUS
  62
8
 100
AcDbDimension
   2
*D5
  10
 2031.9863641459
  20
 2675.2717006890
  30
0.0
  11
 2031.9863641459
  21
 2644.6212555765
  31
0.0
  70
0
   1
\A1;60
   3
GMM001
 100
AcDbAlignedDimension
  13
 2116.1048408382
  23
 2613.9708104640
  33
0.0
  14
 2031.9863641459
  24
 2675.2717006890
  34
0.0
  50
 90.000000000000
 100
AcDbRotatedDimension
   0
ARC
   5
2F3
 100
AcDbEntity
   8
LEVEL002
 370
30
   6
CONTINUOUS
  62
7
 100
AcDbCircle
  10
 2717.4863641459
  20
 2655.6717006873
  30
0.0
  40
 60.000000000000
 100
AcDbArc
  50
 270.00000000000
  51
0.0
   0
ARC
   5
2F4
 100
AcDbEntity
   8
LEVEL002
 370
30
   6
CONTINUOUS
  62
7
 100
AcDbCircle
  10
 2776.4863640258
  20
 2674.2717006890
  30
0.0
  40
 1.0000000000000
 100
AcDbArc
  50
0.0
  51
 89.999993116450
   0
ARC
   5
2F5
 100
AcDbEntity
   8
LEVEL002
 370
30
   6
CONTINUOUS
  62
7
 100
AcDbCircle
  10
 2691.4863641688
  20
 2596.6717006890
  30
0.0
  40
 1.0000000000000
 100
AcDbArc
  50
 180.00000000000
  51
 269.99999868682
   0
LINE
   5
2F6
 100
AcDbEntity
   8
LEVEL002
 370
30
 100
AcDbLine
   6
CONTINUOUS
  62
7
  10
 2698.8234858473
  20
 2675.2717006890
  30
0.0
  11
 2776.4863641459
  21
 2675.2717006890
  31
0.0
   0
ARC
   5
2F7
 100
AcDbEntity
   8
LEVEL002
 370
30
   6
CONTINUOUS
  62
7
 100
AcDbCircle
  10
 2698.8234858473
  20
 2674.2717008660
  30
0.0
  40
 1.0000000000000
 100
AcDbArc
  50
 90.000000000000
  51
 180.00001013689
   0
LINE
   5
2F8
 100
AcDbEntity
   8
LEVEL002
 370
30
 100
AcDbLine
   6
CONTINUOUS
  62
7
  10
 2697.8234858473
  20
 2634.6717006890
  30
0.0
  11
 2697.8234858473
  21
 2674.2717006890
  31
0.0
   0
ARC
   5
2F9
 100
AcDbEntity
   8
LEVEL002
 370
30
   6
CONTINUOUS
  62
7
 100
AcDbCircle
  10
 2696.8234858473
  20
 2634.6717007468
  30
0.0
  40
 1.0000000000000
 100
AcDbArc
  50
 270.00000000000
  51
0.0
   0
LINE
   5
2FA
 100
AcDbEntity
   8
LEVEL002
 370
30
 100
AcDbLine
   6
CONTINUOUS
  62
7
  10
 2691.4863641459
  20
 2633.6717006891
  30
0.0
  11
 2696.8234858473
  21
 2633.6717006891
  31
0.0
   0
LINE
   5
2FB
 100
AcDbEntity
   8
LEVEL002
 370
30
 100
AcDbLine
   6
CONTINUOUS
  62
7
  10
 2690.4863641459
  20
 2632.6717006890
  30
0.0
  11
 2690.4863641459
  21
 2596.6717006890
  31
0.0
   0
ARC
   5
2FC
 100
AcDbEntity
   8
LEVEL002
 370
30
   6
CONTINUOUS
  62
7
 100
AcDbCircle
  10
 2691.4863641459
  20
 2632.6717006753
  30
0.0
  40
 1.0000000000000
 100
AcDbArc
  50
 90.000000000000
  51
 179.99999921126
   0
ARC
   5
2FD
 100
AcDbEntity
   8
LEVEL002
 370
30
   6
CONTINUOUS
  62
7
 100
AcDbCircle
  10
 2713.4863641459
  20
 2604.8288053289
  30
0.0
  40
 1.0000000000000
 100
AcDbArc
  50
 85.501593711441
  51
 179.99999515250
   0
ARC
   5
2FE
 100
AcDbEntity
   8
LEVEL002
 370
30
   6
CONTINUOUS
  62
7
 100
AcDbCircle
  10
 2717.4863641463
  20
 2655.6717006895
  30
0.0
  40
 50.000000000000
 100
AcDbArc
  50
 265.50159333071
  51
 320.54944881541
   0
ARC
   5
2FF
 100
AcDbEntity
   8
LEVEL002
 370
30
   6
CONTINUOUS
  62
7
 100
AcDbCircle
  10
 2763.8167597364
  20
 2617.5469784681
  30
0.0
  40
 10.000000000000
 100
AcDbArc
  50
 89.999999995550
  51
 140.54944880906
   0
LINE
   5
300
 100
AcDbEntity
   8
LEVEL002
 370
30
 100
AcDbLine
   6
CONTINUOUS
  62
7
  10
 2777.4863641459
  20
 2674.2717006890
  30
0.0
  11
 2777.4863641459
  21
 2655.6717006890
  31
0.0
   0
LINE
   5
301
 100
AcDbEntity
   8
LEVEL002
 370
30
 100
AcDbLine
   6
CONTINUOUS
  62
7
  10
 2691.4863641459
  20
 2595.6717006890
  30
0.0
  11
 2717.4863641459
  21
 2595.6717006890
  31
0.0
   0
LINE
   5
302
 100
AcDbEntity
   8
LEVEL002
 370
30
 100
AcDbLine
   6
CONTINUOUS
  62
7
  10
 2712.4863641459
  20
 2595.6717006890
  30
0.0
  11
 2712.4863641459
  21
 2604.8288054135
  31
0.0
   0
LINE
   5
303
 100
AcDbEntity
   8
LEVEL002
 370
30
 100
AcDbLine
   6
CONTINUOUS
  62
7
  10
 2763.8167597372
  20
 2627.5469784690
  30
0.0
  11
 2770.4863641464
  21
 2627.5469784690
  31
0.0
   0
LINE
   5
304
 100
AcDbEntity
   8
LEVEL002
 370
30
 100
AcDbLine
   6
CONTINUOUS
  62
7
  10
 2589.4863641459
  20
 2597.6717006890
  30
0.0
  11
 2690.4863641459
  21
 2597.6717006890
  31
0.0
   0
LINE
   5
305
 100
AcDbEntity
   8
LEVEL002
 370
30
 100
AcDbLine
   6
CONTINUOUS
  62
7
  10
 2589.4863641459
  20
 2631.6717006890
  30
0.0
  11
 2690.4863641459
  21
 2631.6717006890
  31
0.0
   0
LINE
   5
306
 100
AcDbEntity
   8
LEVEL002
 370
15
 100
AcDbLine
   6
DASHDOT
  62
8
  10
 2748.9863641459
  20
 2574.4026702608
  30
0.0
  11
 2748.9863641459
  21
 2715.0933825499
  31
0.0
   0
DIMENSION
   5
307
 100
AcDbEntity
   8
LEVEL001
 370
15
   6
CONTINUOUS
  62
8
 100
AcDbDimension
   2
*D6
  10
 2748.9863641459
  20
 2497.6717006890
  30
0.0
  11
 2448.9863641459
  21
 2497.6717006890
  31
0.0
  70
0
   3
GMM001
 100
AcDbAlignedDimension
  13
 2148.9863641459
  23
 2574.4026702608
  33
0.0
  14
 2748.9863641459
  24
 2574.4026702608
  34
0.0
 100
AcDbRotatedDimension
   0
LINE
   5
308
 100
AcDbEntity
   8
LEVEL002
 370
30
 100
AcDbLine
   6
CONTINUOUS
  62
7
  10
 2589.4863641459
  20
 2631.6717006890
  30
0.0
  11
 2198.4863641459
  21
 2631.6717006890
  31
0.0
   0
LINE
   5
309
 100
AcDbEntity
   8
LEVEL002
 370
30
 100
AcDbLine
   6
CONTINUOUS
  62
7
  10
 2589.4863641459
  20
 2597.6717006890
  30
0.0
  11
 2198.4863641459
  21
 2597.6717006890
  31
0.0
   0
LINE
   5
30A
 100
AcDbEntity
   8
LEVEL002
 370
15
 100
AcDbLine
   6
DASHDOT
  62
8
  10
 2111.7112992374
  20
 2613.9708104640
  30
0.0
  11
 2790.8506931951
  21
 2613.9708104640
  31
0.0
   0
LINE
   5
30B
 100
AcDbEntity
   8
LEVEL002
 370
40
 100
AcDbLine
   6
CONTINUOUS
  62
3
  10
 2872.4067572683
  20
 2675.2717006890
  30
0.0
  11
 1968.0686537802
  21
 2675.2717006890
  31
0.0
   0
DIMENSION
   5
30C
 100
AcDbEntity
   8
LEVEL001
 370
15
   6
CONTINUOUS
  62
8
 100
AcDbDimension
   2
*D7
  10
 2748.9863641459
  20
 1584.6968723132
  30
0.0
  11
 2448.9863641459
  21
 1584.6968723132
  31
0.0
  70
0
   3
GMM001
 100
AcDbAlignedDimension
  13
 2148.9863641459
  23
 1661.6730825157
  33
0.0
  14
 2748.9863641459
  24
 1661.6730825157
  34
0.0
 100
AcDbRotatedDimension
   0
MTEXT
   5
30E
 100
AcDbEntity
   8
LEVEL002
 370
15
  62
8
 100
AcDbMText
  10
 2334.8941981118
  20
 1510.8224238622
  30
0.0
  40
 30.000000000000
  41
0.0
  71
4
  72
1
   1
\W1.000000;\T1.000000;　※\W0.500000;\T1.000000;(\W1.000000;\T1.000000;Ｒ\W0.500000;\T1.000000;)\W1.000000;\T1.000000;は便座に座った状態で右側に取付ける場合　　　　　　　　　
   7
GMM002
  44
 0.79999984000003
   0
MTEXT
   5
310
 100
AcDbEntity
   8
LEVEL002
 370
15
  62
8
 100
AcDbMText
  10
 889.89419811184
  20
 1510.8224238622
  30
0.0
  40
 30.000000000000
  41
0.0
  71
4
  72
1
   1
\W1.000000;\T1.000000;　※\W0.500000;\T1.000000;(\W1.000000;\T1.000000;Ｌ\W0.500000;\T1.000000;)\W1.000000;\T1.000000;は便座に座った状態で左側に取付ける場合　　　　　　　　　
   7
GMM002
  44
 0.79999984000003
   0
MTEXT
   5
312
 100
AcDbEntity
   8
LEVEL001
 370
15
  62
8
 100
AcDbMText
  10
 157.99999999950
  20
 1435.0000000001
  30
0.0
  40
 30.000000000000
  41
0.0
  71
4
  72
1
   1
\W0.500000;\T1.000000; \W1.000000;\T1.000000;　ＦＰＬ７０７０／ＦＰＬ７０７０Ｍ
   7
GMM002
  44
 0.79999984000003
   0
MTEXT
   5
314
 100
AcDbEntity
   8
LEVEL002
 370
15
  62
8
 100
AcDbMText
  10
 1403.0177679062
  20
 145.82242386222
  30
0.0
  40
 30.000000000000
  41
0.0
  71
4
  72
1
   1
\T1.000000;　※左右兼用　　　　　　　　
   7
GMM002
  44
 0.79999984000003
   0
LINE
   5
315
 100
AcDbEntity
   8
LEVEL002
 370
30
 100
AcDbLine
   6
CONTINUOUS
  62
7
  10
 1407.9076300201
  20
 1682.8597758717
  30
0.0
  11
 1455.6707428332
  21
 1682.8597758717
  31
0.0
   0
ARC
   5
316
 100
AcDbEntity
   8
LEVEL002
 370
30
   6
CONTINUOUS
  62
7
 100
AcDbCircle
  10
 1407.9076300110
  20
 1683.8597759697
  30
0.0
  40
 1.0000000000000
 100
AcDbArc
  50
 270.00000052027
  51
 5.2939864151957
   0
ARC
   5
317
 100
AcDbEntity
   8
LEVEL002
 370
30
   6
CONTINUOUS
  62
7
 100
AcDbCircle
  10
 1398.9460206176
  20
 1683.0293802767
  30
0.0
  40
 10.000000000000
 100
AcDbArc
  50
 5.2939920778329
  51
 50.549448849048
   0
LINE
   5
318
 100
AcDbEntity
   8
LEVEL002
 370
30
 100
AcDbLine
   6
CONTINUOUS
  62
7
  10
 1407.9076300201
  20
 1682.8597758717
  30
0.0
  11
 1405.3571810654
  21
 1682.8597758717
  31
0.0
   0
ARC
   5
319
 100
AcDbEntity
   8
LEVEL002
 370
30
   6
CONTINUOUS
  62
7
 100
AcDbCircle
  10
 1455.6707428332
  20
 1683.8597761500
  30
0.0
  40
 1.0000000000000
 100
AcDbArc
  50
 270.00000000000
  51
0.0
   0
LINE
   5
31A
 100
AcDbEntity
   8
LEVEL002
 370
30
 100
AcDbLine
   6
CONTINUOUS
  62
7
  10
 1456.6707428332
  20
 1683.8597758717
  30
0.0
  11
 1456.6707428332
  21
 1748.0226541703
  31
0.0
   0
ARC
   5
31B
 100
AcDbEntity
   8
LEVEL002
 370
30
   6
CONTINUOUS
  62
7
 100
AcDbCircle
  10
 1405.3571810713
  20
 1698.8597758717
  30
0.0
  40
 16.000000000000
 100
AcDbArc
  50
 223.88250809826
  51
 269.99999997871
   0
ARC
   5
31C
 100
AcDbEntity
   8
LEVEL002
 370
30
   6
CONTINUOUS
  62
7
 100
AcDbCircle
  10
 1437.0707428314
  20
 1729.3597758735
  30
0.0
  40
 60.000000000000
 100
AcDbArc
  50
 180.00000000178
  51
 223.88250811548
   0
LINE
   5
31D
 100
AcDbEntity
   8
LEVEL002
 370
30
 100
AcDbLine
   6
CONTINUOUS
  62
7
  10
 1413.0707428332
  20
 2247.3597758717
  30
0.0
  11
 1413.0707428332
  21
 2348.3597758717
  31
0.0
   0
LINE
   5
31E
 100
AcDbEntity
   8
LEVEL002
 370
30
 100
AcDbLine
   6
CONTINUOUS
  62
7
  10
 1379.0707428332
  20
 2247.3597758717
  30
0.0
  11
 1379.0707428332
  21
 2348.3597758717
  31
0.0
   0
LINE
   5
31F
 100
AcDbEntity
   8
LEVEL002
 370
30
 100
AcDbLine
   6
CONTINUOUS
  62
7
  10
 1408.9460206132
  20
 2421.6901714630
  30
0.0
  11
 1408.9460206132
  21
 2428.3597758722
  31
0.0
   0
LINE
   5
320
 100
AcDbEntity
   8
LEVEL002
 370
30
 100
AcDbLine
   6
CONTINUOUS
  62
7
  10
 1377.0707428332
  20
 2370.3597758717
  30
0.0
  11
 1386.2278475576
  21
 2370.3597758717
  31
0.0
   0
LINE
   5
321
 100
AcDbEntity
   8
LEVEL002
 370
30
 100
AcDbLine
   6
CONTINUOUS
  62
7
  10
 1377.0707428332
  20
 2349.3597758717
  30
0.0
  11
 1377.0707428332
  21
 2375.3597758717
  31
0.0
   0
LINE
   5
322
 100
AcDbEntity
   8
LEVEL002
 370
30
 100
AcDbLine
   6
CONTINUOUS
  62
7
  10
 1455.6707428332
  20
 2435.3597758717
  30
0.0
  11
 1437.0707428332
  21
 2435.3597758717
  31
0.0
   0
ARC
   5
323
 100
AcDbEntity
   8
LEVEL002
 370
30
   6
CONTINUOUS
  62
7
 100
AcDbCircle
  10
 1398.9460206132
  20
 2421.6901714495
  30
0.0
  40
 10.000000000000
 100
AcDbArc
  50
 309.45055123324
  51
 0.77665053855797E-7
   0
ARC
   5
324
 100
AcDbEntity
   8
LEVEL002
 370
30
   6
CONTINUOUS
  62
7
 100
AcDbCircle
  10
 1437.0707428332
  20
 2375.3597758712
  30
0.0
  40
 50.000000000000
 100
AcDbArc
  50
 129.45055118356
  51
 184.49840666831
   0
ARC
   5
325
 100
AcDbEntity
   8
LEVEL002
 370
30
   6
CONTINUOUS
  62
7
 100
AcDbCircle
  10
 1386.2278475534
  20
 2371.3597759252
  30
0.0
  40
 1.0000000000000
 100
AcDbArc
  50
 270.00000024127
  51
 4.4984035947074
   0
ARC
   5
326
 100
AcDbEntity
   8
LEVEL002
 370
30
   6
CONTINUOUS
  62
7
 100
AcDbCircle
  10
 1414.0707428332
  20
 2349.3597757788
  30
0.0
  40
 1.0000000000000
 100
AcDbArc
  50
 270.00000000000
  51
 0.53244126025026E-5
   0
LINE
   5
327
 100
AcDbEntity
   8
LEVEL002
 370
30
 100
AcDbLine
   6
CONTINUOUS
  62
7
  10
 1414.0707428332
  20
 2348.3597758717
  30
0.0
  11
 1378.0707428332
  21
 2348.3597758717
  31
0.0
   0
LINE
   5
328
 100
AcDbEntity
   8
LEVEL002
 370
30
 100
AcDbLine
   6
CONTINUOUS
  62
7
  10
 1415.0707428332
  20
 2349.3597758717
  30
0.0
  11
 1415.0707428332
  21
 2354.6968975731
  31
0.0
   0
ARC
   5
329
 100
AcDbEntity
   8
LEVEL002
 370
30
   6
CONTINUOUS
  62
7
 100
AcDbCircle
  10
 1416.0707428332
  20
 2354.6968976599
  30
0.0
  40
 1.0000000000000
 100
AcDbArc
  50
 89.999999999792
  51
 180.00000497423
   0
LINE
   5
32A
 100
AcDbEntity
   8
LEVEL002
 370
30
 100
AcDbLine
   6
CONTINUOUS
  62
7
  10
 1416.0707428332
  20
 2355.6968975731
  30
0.0
  11
 1455.6707428332
  21
 2355.6968975731
  31
0.0
   0
ARC
   5
32B
 100
AcDbEntity
   8
LEVEL002
 370
30
   6
CONTINUOUS
  62
7
 100
AcDbCircle
  10
 1455.6707428332
  20
 2356.6968977127
  30
0.0
  40
 1.0000000000000
 100
AcDbArc
  50
 270.00000000000
  51
0.0
   0
LINE
   5
32C
 100
AcDbEntity
   8
LEVEL002
 370
30
 100
AcDbLine
   6
CONTINUOUS
  62
7
  10
 1456.6707428332
  20
 2356.6968975731
  30
0.0
  11
 1456.6707428332
  21
 2434.3597758717
  31
0.0
   0
ARC
   5
32D
 100
AcDbEntity
   8
LEVEL002
 370
30
   6
CONTINUOUS
  62
7
 100
AcDbCircle
  10
 1378.0707427547
  20
 2349.3597758717
  30
0.0
  40
 1.0000000000000
 100
AcDbArc
  50
 180.00000000125
  51
 270.00000449794
   0
ARC
   5
32E
 100
AcDbEntity
   8
LEVEL002
 370
30
   6
CONTINUOUS
  62
7
 100
AcDbCircle
  10
 1455.6707429079
  20
 2434.3597758717
  30
0.0
  40
 1.0000000000000
 100
AcDbArc
  50
0.0
  51
 90.000004283459
   0
ARC
   5
32F
 100
AcDbEntity
   8
LEVEL002
 370
30
   6
CONTINUOUS
  62
7
 100
AcDbCircle
  10
 1437.0707428332
  20
 2375.3597758719
  30
0.0
  40
 60.000000000000
 100
AcDbArc
  50
 90.000000000000
  51
 180.00000000015
   0
LINE
   5
330
 100
AcDbEntity
   8
LEVEL002
 370
30
 100
AcDbLine
   6
CONTINUOUS
  62
7
  10
 1377.0707428332
  20
 1734.3597758717
  30
0.0
  11
 1386.2278475576
  21
 1734.3597758717
  31
0.0
   0
LINE
   5
331
 100
AcDbEntity
   8
LEVEL002
 370
30
 100
AcDbLine
   6
CONTINUOUS
  62
7
  10
 1377.0707428332
  20
 1755.3597758717
  30
0.0
  11
 1377.0707428332
  21
 1729.3597758717
  31
0.0
   0
ARC
   5
332
 100
AcDbEntity
   8
LEVEL002
 370
30
   6
CONTINUOUS
  62
7
 100
AcDbCircle
  10
 1437.0707428335
  20
 1729.3597758714
  30
0.0
  40
 50.000000000000
 100
AcDbArc
  50
 175.50159333079
  51
 230.54944881555
   0
ARC
   5
333
 100
AcDbEntity
   8
LEVEL002
 370
30
   6
CONTINUOUS
  62
7
 100
AcDbCircle
  10
 1386.2278477290
  20
 1733.3597758717
  30
0.0
  40
 1.0000000000000
 100
AcDbArc
  50
 355.50159256158
  51
 90.000009819022
   0
ARC
   5
334
 100
AcDbEntity
   8
LEVEL002
 370
30
   6
CONTINUOUS
  62
7
 100
AcDbCircle
  10
 1414.0707427649
  20
 1755.3597758717
  30
0.0
  40
 1.0000000000000
 100
AcDbArc
  50
0.0
  51
 89.999996087149
   0
LINE
   5
335
 100
AcDbEntity
   8
LEVEL002
 370
30
 100
AcDbLine
   6
CONTINUOUS
  62
7
  10
 1414.0707428332
  20
 1756.3597758717
  30
0.0
  11
 1378.0707428332
  21
 1756.3597758717
  31
0.0
   0
LINE
   5
336
 100
AcDbEntity
   8
LEVEL002
 370
30
 100
AcDbLine
   6
CONTINUOUS
  62
7
  10
 1415.0707428332
  20
 1755.3597758717
  30
0.0
  11
 1415.0707428332
  21
 1750.0226541703
  31
0.0
   0
ARC
   5
337
 100
AcDbEntity
   8
LEVEL002
 370
30
   6
CONTINUOUS
  62
7
 100
AcDbCircle
  10
 1416.0707429549
  20
 1750.0226541703
  30
0.0
  40
 1.0000000000000
 100
AcDbArc
  50
 180.00000000000
  51
 269.99999302682
   0
LINE
   5
338
 100
AcDbEntity
   8
LEVEL002
 370
30
 100
AcDbLine
   6
CONTINUOUS
  62
7
  10
 1416.0707428332
  20
 1749.0226541703
  30
0.0
  11
 1455.6707428332
  21
 1749.0226541703
  31
0.0
   0
ARC
   5
339
 100
AcDbEntity
   8
LEVEL002
 370
30
   6
CONTINUOUS
  62
7
 100
AcDbCircle
  10
 1455.6707428541
  20
 1748.0226541703
  30
0.0
  40
 1.0000000000000
 100
AcDbArc
  50
0.0
  51
 90.000001199369
   0
ARC
   5
33A
 100
AcDbEntity
   8
LEVEL002
 370
30
   6
CONTINUOUS
  62
7
 100
AcDbCircle
  10
 1378.0707428332
  20
 1755.3597757685
  30
0.0
  40
 1.0000000000000
 100
AcDbArc
  50
 90.000000000000
  51
 179.99999408862
   0
LINE
   5
33B
 100
AcDbEntity
   8
LEVEL002
 370
30
 100
AcDbLine
   6
CONTINUOUS
  62
7
  10
 1413.0707428332
  20
 2247.3597758717
  30
0.0
  11
 1413.0707428332
  21
 1756.3597758717
  31
0.0
   0
LINE
   5
33C
 100
AcDbEntity
   8
LEVEL002
 370
30
 100
AcDbLine
   6
CONTINUOUS
  62
7
  10
 1379.0707428332
  20
 2247.3597758717
  30
0.0
  11
 1379.0707428332
  21
 1756.3597758717
  31
0.0
   0
LINE
   5
33D
 100
AcDbEntity
   8
LEVEL002
 370
40
 100
AcDbLine
   6
CONTINUOUS
  62
3
  10
 1456.6707428332
  20
 1626.8597758717
  30
0.0
  11
 1457.8707428332
  21
 1626.8597758717
  31
0.0
   0
LINE
   5
33E
 100
AcDbEntity
   8
LEVEL002
 370
15
 100
AcDbLine
   6
DASHDOT
  62
8
  10
 1396.0707428332
  20
 1661.6730825157
  30
0.0
  11
 1396.0707428332
  21
 2456.3794246729
  31
0.0
   0
LINE
   5
33F
 100
AcDbEntity
   8
LEVEL002
 370
15
 100
AcDbLine
   6
DASHDOT
  62
8
  10
 1356.5026026300
  20
 2401.8597758717
  30
0.0
  11
 1502.5728918958
  21
 2401.8597758717
  31
0.0
   0
LINE
   5
340
 100
AcDbEntity
   8
LEVEL002
 370
15
 100
AcDbLine
   6
DASHDOT
  62
8
  10
 1356.5026026300
  20
 1701.8597758717
  30
0.0
  11
 1502.5728918958
  21
 1701.8597758717
  31
0.0
   0
DIMENSION
   5
341
 100
AcDbEntity
   8
LEVEL001
 370
15
   6
CONTINUOUS
  62
8
 100
AcDbDimension
   2
*D8
  10
 1279.0707428332
  20
 2401.8597758717
  30
0.0
  11
 1279.0707428332
  21
 2051.8597758717
  31
0.0
  70
0
   3
GMM001
 100
AcDbAlignedDimension
  13
 1356.5026026300
  23
 1701.8597758717
  33
0.0
  14
 1356.5026026300
  24
 2401.8597758717
  34
0.0
  50
 90.000000000000
 100
AcDbRotatedDimension
   0
DIMENSION
   5
342
 100
AcDbEntity
   8
LEVEL001
 370
15
   6
CONTINUOUS
  62
8
 100
AcDbDimension
   2
*D9
  10
 1456.6707428332
  20
 1584.6968723132
  30
0.0
  11
 1426.3707428332
  21
 1584.6968723132
  31
0.0
  70
0
   1
\A1;60
   3
GMM001
 100
AcDbAlignedDimension
  13
 1396.0707428332
  23
 1661.6730825157
  33
0.0
  14
 1456.6707428332
  24
 1584.6968723132
  34
0.0
 100
AcDbRotatedDimension
   0
LINE
   5
343
 100
AcDbEntity
   8
LEVEL002
 370
40
 100
AcDbLine
   6
CONTINUOUS
  62
3
  10
 1456.6707428332
  20
 1540.8982453108
  30
0.0
  11
 1456.6707428332
  21
 2513.5309633591
  31
0.0
   0
ARC
   5
344
 100
AcDbEntity
   8
LEVEL002
 370
30
   6
CONTINUOUS
  62
7
 100
AcDbCircle
  10
 1039.5893892552
  20
 1733.3597758010
  30
0.0
  40
 1.0000000000000
 100
AcDbArc
  50
 0.40520897663894E-5
  51
 90.000000000208
   0
LINE
   5
345
 100
AcDbEntity
   8
LEVEL002
 370
30
 100
AcDbLine
   6
CONTINUOUS
  62
7
  10
 1011.5893892552
  20
 1734.3597758717
  30
0.0
  11
 1039.5893892552
  21
 1734.3597758717
  31
0.0
   0
ARC
   5
346
 100
AcDbEntity
   8
LEVEL002
 370
30
   6
CONTINUOUS
  62
7
 100
AcDbCircle
  10
 1011.5893892180
  20
 1733.3597758717
  30
0.0
  40
 1.0000000000000
 100
AcDbArc
  50
 89.999997869526
  51
 180.00000000000
   0
ARC
   5
347
 100
AcDbEntity
   8
LEVEL002
 370
30
   6
CONTINUOUS
  62
7
 100
AcDbCircle
  10
 1043.5893892552
  20
 1755.3597759373
  30
0.0
  40
 1.0000000000000
 100
AcDbArc
  50
0.0
  51
 89.999999999792
   0
LINE
   5
348
 100
AcDbEntity
   8
LEVEL002
 370
30
 100
AcDbLine
   6
CONTINUOUS
  62
7
  10
 1007.5893892552
  20
 1756.3597758717
  30
0.0
  11
 1043.5893892552
  21
 1756.3597758717
  31
0.0
   0
ARC
   5
349
 100
AcDbEntity
   8
LEVEL002
 370
30
   6
CONTINUOUS
  62
7
 100
AcDbCircle
  10
 1007.5893892212
  20
 1755.3597758717
  30
0.0
  40
 1.0000000000000
 100
AcDbArc
  50
 89.999998053163
  51
 180.00000000000
   0
ARC
   5
34A
 100
AcDbEntity
   8
LEVEL002
 370
30
   6
CONTINUOUS
  62
7
 100
AcDbCircle
  10
 1011.5893892180
  20
 1733.3597758717
  30
0.0
  40
 1.0000000000000
 100
AcDbArc
  50
 89.999997869526
  51
 180.00000000000
   0
LINE
   5
34B
 100
AcDbEntity
   8
LEVEL002
 370
30
 100
AcDbLine
   6
CONTINUOUS
  62
7
  10
 1039.5893892552
  20
 1734.3597758717
  30
0.0
  11
 1011.5893892552
  21
 1734.3597758717
  31
0.0
   0
ARC
   5
34C
 100
AcDbEntity
   8
LEVEL002
 370
30
   6
CONTINUOUS
  62
7
 100
AcDbCircle
  10
 1039.5893892552
  20
 1733.3597758010
  30
0.0
  40
 1.0000000000000
 100
AcDbArc
  50
 0.40520897663894E-5
  51
 90.000000000208
   0
ARC
   5
34D
 100
AcDbEntity
   8
LEVEL002
 370
30
   6
CONTINUOUS
  62
7
 100
AcDbCircle
  10
 1007.5893892212
  20
 1755.3597758717
  30
0.0
  40
 1.0000000000000
 100
AcDbArc
  50
 89.999998053163
  51
 180.00000000000
   0
LINE
   5
34E
 100
AcDbEntity
   8
LEVEL002
 370
30
 100
AcDbLine
   6
CONTINUOUS
  62
7
  10
 1043.5893892552
  20
 1756.3597758717
  30
0.0
  11
 1007.5893892552
  21
 1756.3597758717
  31
0.0
   0
ARC
   5
34F
 100
AcDbEntity
   8
LEVEL002
 370
30
   6
CONTINUOUS
  62
7
 100
AcDbCircle
  10
 1043.5893892552
  20
 1755.3597759373
  30
0.0
  40
 1.0000000000000
 100
AcDbArc
  50
0.0
  51
 89.999999999792
   0
LINE
   5
350
 100
AcDbEntity
   8
LEVEL002
 370
30
 100
AcDbLine
   6
CONTINUOUS
  62
7
  10
 1042.5893892552
  20
 1789.3537447347
  30
0.0
  11
 1042.5893892552
  21
 1756.3597758717
  31
0.0
   0
LINE
   5
351
 100
AcDbEntity
   8
LEVEL002
 370
30
 100
AcDbLine
   6
CONTINUOUS
  62
7
  10
 1008.5893892552
  20
 1789.3537447347
  30
0.0
  11
 1008.5893892552
  21
 1756.3597758717
  31
0.0
   0
LINE
   5
352
 100
AcDbEntity
   8
LEVEL002
 370
30
 100
AcDbLine
   6
CONTINUOUS
  62
7
  10
 1008.5893892552
  20
 1789.3537447347
  30
0.0
  11
 1008.5893892552
  21
 1756.3597758717
  31
0.0
   0
LINE
   5
353
 100
AcDbEntity
   8
LEVEL002
 370
30
 100
AcDbLine
   6
CONTINUOUS
  62
7
  10
 1008.5893892552
  20
 2247.3597758717
  30
0.0
  11
 1008.5893892552
  21
 1756.3597758717
  31
0.0
   0
LINE
   5
354
 100
AcDbEntity
   8
LEVEL002
 370
30
 100
AcDbLine
   6
CONTINUOUS
  62
7
  10
 1042.5893892552
  20
 2247.3597758717
  30
0.0
  11
 1042.5893892552
  21
 1756.3597758717
  31
0.0
   0
ARC
   5
355
 100
AcDbEntity
   8
LEVEL002
 370
30
   6
CONTINUOUS
  62
7
 100
AcDbCircle
  10
 1025.5893892552
  20
 2410.3597758717
  30
0.0
  40
 24.000000000000
 100
AcDbArc
  50
0.0
  51
 180.00000000000
   0
ARC
   5
356
 100
AcDbEntity
   8
LEVEL002
 370
30
   6
CONTINUOUS
  62
7
 100
AcDbCircle
  10
 1025.5893892552
  20
 2369.3597758654
  30
0.0
  40
 24.000000000000
 100
AcDbArc
  50
 179.99999998493
  51
 217.65846199427
   0
ARC
   5
357
 100
AcDbEntity
   8
LEVEL002
 370
30
   6
CONTINUOUS
  62
7
 100
AcDbCircle
  10
 1025.5893892472
  20
 2369.3597758614
  30
0.0
  40
 24.000000000000
 100
AcDbArc
  50
 322.34153802497
  51
 0.24667669665182E-7
   0
ARC
   5
358
 100
AcDbEntity
   8
LEVEL002
 370
30
   6
CONTINUOUS
  62
7
 100
AcDbCircle
  10
 1039.5893892878
  20
 2370.3597758717
  30
0.0
  40
 1.0000000000000
 100
AcDbArc
  50
 269.99999813154
  51
0.0
   0
LINE
   5
359
 100
AcDbEntity
   8
LEVEL002
 370
30
 100
AcDbLine
   6
CONTINUOUS
  62
7
  10
 1011.5893892552
  20
 2369.3597758717
  30
0.0
  11
 1039.5893892552
  21
 2369.3597758717
  31
0.0
   0
ARC
   5
35A
 100
AcDbEntity
   8
LEVEL002
 370
30
   6
CONTINUOUS
  62
7
 100
AcDbCircle
  10
 1011.5893892552
  20
 2370.3597758708
  30
0.0
  40
 1.0000000000000
 100
AcDbArc
  50
 179.99999994831
  51
 270.00000000000
   0
ARC
   5
35B
 100
AcDbEntity
   8
LEVEL002
 370
30
   6
CONTINUOUS
  62
7
 100
AcDbCircle
  10
 1043.5893891444
  20
 2348.3597758717
  30
0.0
  40
 1.0000000000000
 100
AcDbArc
  50
 270.00000634598
  51
 0.12506449896264E-8
   0
LINE
   5
35C
 100
AcDbEntity
   8
LEVEL002
 370
30
 100
AcDbLine
   6
CONTINUOUS
  62
7
  10
 1007.5893892552
  20
 2347.3597758717
  30
0.0
  11
 1043.5893892552
  21
 2347.3597758717
  31
0.0
   0
ARC
   5
35D
 100
AcDbEntity
   8
LEVEL002
 370
30
   6
CONTINUOUS
  62
7
 100
AcDbCircle
  10
 1007.5893892552
  20
 2348.3597758606
  30
0.0
  40
 1.0000000000000
 100
AcDbArc
  50
 179.99999936175
  51
 270.00000000000
   0
LINE
   5
35E
 100
AcDbEntity
   8
LEVEL002
 370
30
 100
AcDbLine
   6
CONTINUOUS
  62
7
  10
 1042.5893892552
  20
 2314.3658070087
  30
0.0
  11
 1042.5893892552
  21
 2347.3597758717
  31
0.0
   0
ARC
   5
35F
 100
AcDbEntity
   8
LEVEL002
 370
30
   6
CONTINUOUS
  62
7
 100
AcDbCircle
  10
 1025.5893892552
  20
 2410.3597758717
  30
0.0
  40
 24.000000000000
 100
AcDbArc
  50
0.0
  51
 180.00000000000
   0
ARC
   5
360
 100
AcDbEntity
   8
LEVEL002
 370
30
   6
CONTINUOUS
  62
7
 100
AcDbCircle
  10
 1025.5893892552
  20
 2369.3597758654
  30
0.0
  40
 24.000000000000
 100
AcDbArc
  50
 179.99999998493
  51
 217.65846199427
   0
ARC
   5
361
 100
AcDbEntity
   8
LEVEL002
 370
30
   6
CONTINUOUS
  62
7
 100
AcDbCircle
  10
 1025.5893892472
  20
 2369.3597758614
  30
0.0
  40
 24.000000000000
 100
AcDbArc
  50
 322.34153802497
  51
 0.24667669665182E-7
   0
ARC
   5
362
 100
AcDbEntity
   8
LEVEL002
 370
30
   6
CONTINUOUS
  62
7
 100
AcDbCircle
  10
 1039.5893892878
  20
 2370.3597758717
  30
0.0
  40
 1.0000000000000
 100
AcDbArc
  50
 269.99999813154
  51
0.0
   0
LINE
   5
363
 100
AcDbEntity
   8
LEVEL002
 370
30
 100
AcDbLine
   6
CONTINUOUS
  62
7
  10
 1011.5893892552
  20
 2369.3597758717
  30
0.0
  11
 1039.5893892552
  21
 2369.3597758717
  31
0.0
   0
ARC
   5
364
 100
AcDbEntity
   8
LEVEL002
 370
30
   6
CONTINUOUS
  62
7
 100
AcDbCircle
  10
 1011.5893892552
  20
 2370.3597758708
  30
0.0
  40
 1.0000000000000
 100
AcDbArc
  50
 179.99999994831
  51
 270.00000000000
   0
ARC
   5
365
 100
AcDbEntity
   8
LEVEL002
 370
30
   6
CONTINUOUS
  62
7
 100
AcDbCircle
  10
 1043.5893891444
  20
 2348.3597758717
  30
0.0
  40
 1.0000000000000
 100
AcDbArc
  50
 270.00000634598
  51
 0.12506449896264E-8
   0
LINE
   5
366
 100
AcDbEntity
   8
LEVEL002
 370
30
 100
AcDbLine
   6
CONTINUOUS
  62
7
  10
 1007.5893892552
  20
 2347.3597758717
  30
0.0
  11
 1043.5893892552
  21
 2347.3597758717
  31
0.0
   0
ARC
   5
367
 100
AcDbEntity
   8
LEVEL002
 370
30
   6
CONTINUOUS
  62
7
 100
AcDbCircle
  10
 1007.5893892552
  20
 2348.3597758606
  30
0.0
  40
 1.0000000000000
 100
AcDbArc
  50
 179.99999936175
  51
 270.00000000000
   0
LINE
   5
368
 100
AcDbEntity
   8
LEVEL002
 370
30
 100
AcDbLine
   6
CONTINUOUS
  62
7
  10
 1008.5893892552
  20
 2314.3658070087
  30
0.0
  11
 1008.5893892552
  21
 2347.3597758717
  31
0.0
   0
LINE
   5
369
 100
AcDbEntity
   8
LEVEL002
 370
30
 100
AcDbLine
   6
CONTINUOUS
  62
7
  10
 1042.5893892552
  20
 2314.3658070087
  30
0.0
  11
 1042.5893892552
  21
 2347.3597758717
  31
0.0
   0
LINE
   5
36A
 100
AcDbEntity
   8
LEVEL002
 370
30
 100
AcDbLine
   6
CONTINUOUS
  62
7
  10
 1042.5893892552
  20
 2314.3658070087
  30
0.0
  11
 1042.5893892552
  21
 2347.3597758717
  31
0.0
   0
LINE
   5
36B
 100
AcDbEntity
   8
LEVEL002
 370
30
 100
AcDbLine
   6
CONTINUOUS
  62
7
  10
 1001.5893892552
  20
 2401.8597758717
  30
0.0
  11
 1001.5893892552
  21
 2369.3597758717
  31
0.0
   0
LINE
   5
36C
 100
AcDbEntity
   8
LEVEL002
 370
30
 100
AcDbLine
   6
CONTINUOUS
  62
7
  10
 1049.5893892552
  20
 2401.8597758717
  30
0.0
  11
 1049.5893892552
  21
 2369.3597758717
  31
0.0
   0
LINE
   5
36D
 100
AcDbEntity
   8
LEVEL002
 370
30
 100
AcDbLine
   6
CONTINUOUS
  62
7
  10
 1001.5893892552
  20
 2369.3597758717
  30
0.0
  11
 1001.5893892552
  21
 2410.3597758717
  31
0.0
   0
LINE
   5
36E
 100
AcDbEntity
   8
LEVEL002
 370
30
 100
AcDbLine
   6
CONTINUOUS
  62
7
  10
 1001.5893892552
  20
 2369.3597758717
  30
0.0
  11
 1001.5893892552
  21
 2410.3597758717
  31
0.0
   0
LINE
   5
36F
 100
AcDbEntity
   8
LEVEL002
 370
30
 100
AcDbLine
   6
CONTINUOUS
  62
7
  10
 1049.5893892552
  20
 2369.3597758717
  30
0.0
  11
 1049.5893892552
  21
 2410.3597758717
  31
0.0
   0
LINE
   5
370
 100
AcDbEntity
   8
LEVEL002
 370
30
 100
AcDbLine
   6
CONTINUOUS
  62
7
  10
 1049.5893892552
  20
 2369.3597758717
  30
0.0
  11
 1049.5893892552
  21
 2410.3597758717
  31
0.0
   0
LINE
   5
371
 100
AcDbEntity
   8
LEVEL002
 370
30
 100
AcDbLine
   6
CONTINUOUS
  62
7
  10
 1039.5893892552
  20
 2369.3597758717
  30
0.0
  11
 1011.5893892552
  21
 2369.3597758717
  31
0.0
   0
LINE
   5
372
 100
AcDbEntity
   8
LEVEL002
 370
30
 100
AcDbLine
   6
CONTINUOUS
  62
7
  10
 1044.5893892552
  20
 2348.3597758717
  30
0.0
  11
 1044.5893892552
  21
 2414.0835811665
  31
0.0
   0
ARC
   5
373
 100
AcDbEntity
   8
LEVEL002
 370
30
   6
CONTINUOUS
  62
7
 100
AcDbCircle
  10
 1034.5893892552
  20
 2414.0835811754
  30
0.0
  40
 10.000000000000
 100
AcDbArc
  50
0.0
  51
 49.994799082313
   0
LINE
   5
374
 100
AcDbEntity
   8
LEVEL002
 370
30
 100
AcDbLine
   6
CONTINUOUS
  62
7
  10
 1040.5893892552
  20
 2370.3597758717
  30
0.0
  11
 1040.5893892552
  21
 2415.2587553573
  31
0.0
   0
ARC
   5
375
 100
AcDbEntity
   8
LEVEL002
 370
30
   6
CONTINUOUS
  62
7
 100
AcDbCircle
  10
 1030.5893892552
  20
 2415.2587553628
  30
0.0
  40
 10.000000000000
 100
AcDbArc
  50
0.0
  51
 44.415308574633
   0
LINE
   5
376
 100
AcDbEntity
   8
LEVEL002
 370
30
 100
AcDbLine
   6
CONTINUOUS
  62
7
  10
 1010.5893892552
  20
 2370.3597758717
  30
0.0
  11
 1010.5893892552
  21
 2415.2587553573
  31
0.0
   0
ARC
   5
377
 100
AcDbEntity
   8
LEVEL002
 370
30
   6
CONTINUOUS
  62
7
 100
AcDbCircle
  10
 1025.5893892565
  20
 2410.3597758704
  30
0.0
  40
 17.000000000000
 100
AcDbArc
  50
 44.415308603441
  51
 135.58469140268
   0
ARC
   5
378
 100
AcDbEntity
   8
LEVEL002
 370
30
   6
CONTINUOUS
  62
7
 100
AcDbCircle
  10
 1020.5893892540
  20
 2415.2587553560
  30
0.0
  40
 10.000000000000
 100
AcDbArc
  50
 135.58469139269
  51
 180.00000000000
   0
LINE
   5
379
 100
AcDbEntity
   8
LEVEL002
 370
30
 100
AcDbLine
   6
CONTINUOUS
  62
7
  10
 1006.5893892552
  20
 2348.3597758717
  30
0.0
  11
 1006.5893892552
  21
 2414.0835811665
  31
0.0
   0
ARC
   5
37A
 100
AcDbEntity
   8
LEVEL002
 370
30
   6
CONTINUOUS
  62
7
 100
AcDbCircle
  10
 1025.5893892520
  20
 2403.3597758744
  30
0.0
  40
 24.000000000000
 100
AcDbArc
  50
 49.994799105279
  51
 130.00520088315
   0
ARC
   5
37B
 100
AcDbEntity
   8
LEVEL002
 370
30
   6
CONTINUOUS
  62
7
 100
AcDbCircle
  10
 1016.5893892500
  20
 2414.0835811621
  30
0.0
  40
 10.000000000000
 100
AcDbArc
  50
 130.00520084563
  51
 179.99999997482
   0
LINE
   5
37C
 100
AcDbEntity
   8
LEVEL002
 370
30
 100
AcDbLine
   6
CONTINUOUS
  62
7
  10
 1040.5893892552
  20
 2370.3597758717
  30
0.0
  11
 1040.5893892552
  21
 2415.2587553573
  31
0.0
   0
LINE
   5
37D
 100
AcDbEntity
   8
LEVEL002
 370
30
 100
AcDbLine
   6
CONTINUOUS
  62
7
  10
 1006.5893892552
  20
 2348.3597758717
  30
0.0
  11
 1006.5893892552
  21
 2414.0835811665
  31
0.0
   0
LINE
   5
37E
 100
AcDbEntity
   8
LEVEL002
 370
30
 100
AcDbLine
   6
CONTINUOUS
  62
7
  10
 1010.5893892552
  20
 2370.3597758717
  30
0.0
  11
 1010.5893892552
  21
 2415.2587553573
  31
0.0
   0
LINE
   5
37F
 100
AcDbEntity
   8
LEVEL002
 370
30
 100
AcDbLine
   6
CONTINUOUS
  62
7
  10
 1042.5893892552
  20
 2247.3597758717
  30
0.0
  11
 1042.5893892552
  21
 2347.3597758717
  31
0.0
   0
LINE
   5
380
 100
AcDbEntity
   8
LEVEL002
 370
30
 100
AcDbLine
   6
CONTINUOUS
  62
7
  10
 1008.5893892552
  20
 2247.3597758717
  30
0.0
  11
 1008.5893892552
  21
 2347.3597758717
  31
0.0
   0
ARC
   5
381
 100
AcDbEntity
   8
LEVEL002
 370
30
   6
CONTINUOUS
  62
7
 100
AcDbCircle
  10
 994.08938921757
  20
 1715.8597758717
  30
0.0
  40
 1.0000000000000
 100
AcDbArc
  50
 89.999997847223
  51
 180.00000000000
   0
LINE
   5
382
 100
AcDbEntity
   8
LEVEL002
 370
30
 100
AcDbLine
   6
CONTINUOUS
  62
7
  10
 993.08938925517
  20
 1687.8597758717
  30
0.0
  11
 993.08938925517
  21
 1715.8597758717
  31
0.0
   0
ARC
   5
383
 100
AcDbEntity
   8
LEVEL002
 370
30
   6
CONTINUOUS
  62
7
 100
AcDbCircle
  10
 994.08938925517
  20
 1687.8597758708
  30
0.0
  40
 1.0000000000000
 100
AcDbArc
  50
 179.99999994872
  51
 270.00000000000
   0
ARC
   5
384
 100
AcDbEntity
   8
LEVEL002
 370
30
   6
CONTINUOUS
  62
7
 100
AcDbCircle
  10
 972.08938915787
  20
 1719.8597758717
  30
0.0
  40
 1.0000000000000
 100
AcDbArc
  50
 89.999994423791
  51
 180.00000000000
   0
LINE
   5
385
 100
AcDbEntity
   8
LEVEL002
 370
30
 100
AcDbLine
   6
CONTINUOUS
  62
7
  10
 971.08938925517
  20
 1683.8597758717
  30
0.0
  11
 971.08938925517
  21
 1719.8597758717
  31
0.0
   0
ARC
   5
386
 100
AcDbEntity
   8
LEVEL002
 370
30
   6
CONTINUOUS
  62
7
 100
AcDbCircle
  10
 972.08938925517
  20
 1683.8597761760
  30
0.0
  40
 1.0000000000000
 100
AcDbArc
  50
 180.00000000000
  51
 269.99999999979
   0
ARC
   5
387
 100
AcDbEntity
   8
LEVEL002
 370
30
   6
CONTINUOUS
  62
7
 100
AcDbCircle
  10
 994.08938925517
  20
 1687.8597758708
  30
0.0
  40
 1.0000000000000
 100
AcDbArc
  50
 179.99999994872
  51
 270.00000000000
   0
LINE
   5
388
 100
AcDbEntity
   8
LEVEL002
 370
30
 100
AcDbLine
   6
CONTINUOUS
  62
7
  10
 993.08938925517
  20
 1715.8597758717
  30
0.0
  11
 993.08938925517
  21
 1687.8597758717
  31
0.0
   0
ARC
   5
389
 100
AcDbEntity
   8
LEVEL002
 370
30
   6
CONTINUOUS
  62
7
 100
AcDbCircle
  10
 994.08938921757
  20
 1715.8597758717
  30
0.0
  40
 1.0000000000000
 100
AcDbArc
  50
 89.999997847223
  51
 180.00000000000
   0
ARC
   5
38A
 100
AcDbEntity
   8
LEVEL002
 370
30
   6
CONTINUOUS
  62
7
 100
AcDbCircle
  10
 972.08938925517
  20
 1683.8597761760
  30
0.0
  40
 1.0000000000000
 100
AcDbArc
  50
 180.00000000000
  51
 269.99999999979
   0
LINE
   5
38B
 100
AcDbEntity
   8
LEVEL002
 370
30
 100
AcDbLine
   6
CONTINUOUS
  62
7
  10
 971.08938925517
  20
 1719.8597758717
  30
0.0
  11
 971.08938925517
  21
 1683.8597758717
  31
0.0
   0
ARC
   5
38C
 100
AcDbEntity
   8
LEVEL002
 370
30
   6
CONTINUOUS
  62
7
 100
AcDbCircle
  10
 972.08938915787
  20
 1719.8597758717
  30
0.0
  40
 1.0000000000000
 100
AcDbArc
  50
 89.999994423791
  51
 180.00000000000
   0
LINE
   5
38D
 100
AcDbEntity
   8
LEVEL002
 370
40
 100
AcDbLine
   6
CONTINUOUS
  62
3
  10
 938.09542039217
  20
 1718.8597758717
  30
0.0
  11
 971.08938925517
  21
 1718.8597758717
  31
0.0
   0
LINE
   5
38E
 100
AcDbEntity
   8
LEVEL002
 370
40
 100
AcDbLine
   6
CONTINUOUS
  62
3
  10
 938.09542039217
  20
 1684.8597758717
  30
0.0
  11
 971.08938925517
  21
 1684.8597758717
  31
0.0
   0
LINE
   5
38F
 100
AcDbEntity
   8
LEVEL002
 370
40
 100
AcDbLine
   6
CONTINUOUS
  62
3
  10
 938.09542039217
  20
 1684.8597758717
  30
0.0
  11
 971.08938925517
  21
 1684.8597758717
  31
0.0
   0
LINE
   5
390
 100
AcDbEntity
   8
LEVEL002
 370
30
 100
AcDbLine
   6
CONTINUOUS
  62
7
  10
 1006.5893892552
  20
 1750.8597758717
  30
0.0
  11
 1006.5893892552
  21
 1755.3597758717
  31
0.0
   0
LINE
   5
391
 100
AcDbEntity
   8
LEVEL002
 370
30
 100
AcDbLine
   6
CONTINUOUS
  62
7
  10
 976.58938925517
  20
 1720.8597758717
  30
0.0
  11
 972.08938925517
  21
 1720.8597758717
  31
0.0
   0
ARC
   5
392
 100
AcDbEntity
   8
LEVEL002
 370
30
   6
CONTINUOUS
  62
7
 100
AcDbCircle
  10
 976.58938925297
  20
 1750.8597758717
  30
0.0
  40
 30.000000000000
 100
AcDbArc
  50
 270.00000000423
  51
0.0
   0
LINE
   5
393
 100
AcDbEntity
   8
LEVEL002
 370
30
 100
AcDbLine
   6
CONTINUOUS
  62
7
  10
 1044.5893892552
  20
 1712.8597758717
  30
0.0
  11
 1044.5893892552
  21
 1755.3597758717
  31
0.0
   0
ARC
   5
394
 100
AcDbEntity
   8
LEVEL002
 370
30
   6
CONTINUOUS
  62
7
 100
AcDbCircle
  10
 1014.5893892609
  20
 1712.8597758717
  30
0.0
  40
 30.000000000000
 100
AcDbArc
  50
 269.99999998901
  51
0.0
   0
LINE
   5
395
 100
AcDbEntity
   8
LEVEL002
 370
30
 100
AcDbLine
   6
CONTINUOUS
  62
7
  10
 972.08938925517
  20
 1682.8597758717
  30
0.0
  11
 1014.5893892552
  21
 1682.8597758717
  31
0.0
   0
LINE
   5
396
 100
AcDbEntity
   8
LEVEL002
 370
30
 100
AcDbLine
   6
CONTINUOUS
  62
7
  10
 1044.5893892552
  20
 1755.3597758717
  30
0.0
  11
 1044.5893892552
  21
 1712.8597758717
  31
0.0
   0
LINE
   5
397
 100
AcDbEntity
   8
LEVEL002
 370
30
 100
AcDbLine
   6
CONTINUOUS
  62
7
  10
 1040.5893892552
  20
 1716.8597758717
  30
0.0
  11
 1040.5893892552
  21
 1733.3597758717
  31
0.0
   0
LINE
   5
398
 100
AcDbEntity
   8
LEVEL002
 370
30
 100
AcDbLine
   6
CONTINUOUS
  62
7
  10
 1010.5893892552
  20
 1686.8597758717
  30
0.0
  11
 994.08938925517
  21
 1686.8597758717
  31
0.0
   0
ARC
   5
399
 100
AcDbEntity
   8
LEVEL002
 370
30
   6
CONTINUOUS
  62
7
 100
AcDbCircle
  10
 1010.5893892530
  20
 1716.8597758717
  30
0.0
  40
 30.000000000000
 100
AcDbArc
  50
 270.00000000420
  51
0.0
   0
LINE
   5
39A
 100
AcDbEntity
   8
LEVEL002
 370
30
 100
AcDbLine
   6
CONTINUOUS
  62
7
  10
 972.08938925517
  20
 1720.8597758717
  30
0.0
  11
 976.58938925517
  21
 1720.8597758717
  31
0.0
   0
LINE
   5
39B
 100
AcDbEntity
   8
LEVEL002
 370
30
 100
AcDbLine
   6
CONTINUOUS
  62
7
  10
 1010.5893892552
  20
 1732.8597758717
  30
0.0
  11
 1010.5893892552
  21
 1733.3597758717
  31
0.0
   0
LINE
   5
39C
 100
AcDbEntity
   8
LEVEL002
 370
30
 100
AcDbLine
   6
CONTINUOUS
  62
7
  10
 994.58938925517
  20
 1716.8597758717
  30
0.0
  11
 994.08938925517
  21
 1716.8597758717
  31
0.0
   0
ARC
   5
39D
 100
AcDbEntity
   8
LEVEL002
 370
30
   6
CONTINUOUS
  62
7
 100
AcDbCircle
  10
 994.58938925097
  20
 1732.8597758717
  30
0.0
  40
 16.000000000000
 100
AcDbArc
  50
 270.00000001498
  51
0.0
   0
LINE
   5
39E
 100
AcDbEntity
   8
LEVEL002
 370
15
 100
AcDbLine
   6
DASHDOT
  62
8
  10
 1025.5893892552
  20
 1661.6730825157
  30
0.0
  11
 1025.5893892552
  21
 2462.5065394420
  31
0.0
   0
LINE
   5
39F
 100
AcDbEntity
   8
LEVEL002
 370
15
 100
AcDbLine
   6
DASHDOT
  62
8
  10
 1061.0491398037
  20
 2401.8597758717
  30
0.0
  11
 983.81149803547
  21
 2401.8597758717
  31
0.0
   0
DIMENSION
   5
3A0
 100
AcDbEntity
   8
LEVEL001
 370
15
   6
CONTINUOUS
  62
8
 100
AcDbDimension
   2
*D10
  10
 1142.5893892552
  20
 2401.8597758717
  30
0.0
  11
 1142.5893892552
  21
 2051.8597758717
  31
0.0
  70
0
   3
GMM001
 100
AcDbAlignedDimension
  13
 1061.0491398037
  23
 1701.8597758717
  33
0.0
  14
 1071.0491398037
  24
 2401.8597758717
  34
0.0
  50
 90.000000000000
 100
AcDbRotatedDimension
   0
ARC
   5
3A1
 100
AcDbEntity
   8
LEVEL002
 370
30
   6
CONTINUOUS
  62
7
 100
AcDbCircle
  10
 417.08938925517
  20
 1701.8597758717
  30
0.0
  40
 24.000000000000
 100
AcDbArc
  50
 90.000000000000
  51
 270.00000000000
   0
ARC
   5
3A2
 100
AcDbEntity
   8
LEVEL002
 370
30
   6
CONTINUOUS
  62
7
 100
AcDbCircle
  10
 458.08938925077
  20
 1701.8597758717
  30
0.0
  40
 24.000000000000
 100
AcDbArc
  50
 270.00000001047
  51
 307.65846201450
   0
ARC
   5
3A3
 100
AcDbEntity
   8
LEVEL002
 370
30
   6
CONTINUOUS
  62
7
 100
AcDbCircle
  10
 458.08938924827
  20
 1701.8597758771
  30
0.0
  40
 24.000000000000
 100
AcDbArc
  50
 52.341537972881
  51
 89.999999983464
   0
ARC
   5
3A4
 100
AcDbEntity
   8
LEVEL002
 370
30
   6
CONTINUOUS
  62
7
 100
AcDbCircle
  10
 457.08938925517
  20
 1715.8597758672
  30
0.0
  40
 1.0000000000000
 100
AcDbArc
  50
 0.25804974952624E-6
  51
 90.000000000000
   0
LINE
   5
3A5
 100
AcDbEntity
   8
LEVEL002
 370
30
 100
AcDbLine
   6
CONTINUOUS
  62
7
  10
 458.08938925517
  20
 1687.8597758717
  30
0.0
  11
 458.08938925517
  21
 1715.8597758717
  31
0.0
   0
ARC
   5
3A6
 100
AcDbEntity
   8
LEVEL002
 370
30
   6
CONTINUOUS
  62
7
 100
AcDbCircle
  10
 457.08938922117
  20
 1687.8597758717
  30
0.0
  40
 1.0000000000000
 100
AcDbArc
  50
 270.00000194725
  51
0.0
   0
ARC
   5
3A7
 100
AcDbEntity
   8
LEVEL002
 370
30
   6
CONTINUOUS
  62
7
 100
AcDbCircle
  10
 479.08938925517
  20
 1719.8597758743
  30
0.0
  40
 1.0000000000000
 100
AcDbArc
  50
0.0
  51
 90.000000000000
   0
LINE
   5
3A8
 100
AcDbEntity
   8
LEVEL002
 370
30
 100
AcDbLine
   6
CONTINUOUS
  62
7
  10
 480.08938925517
  20
 1683.8597758717
  30
0.0
  11
 480.08938925517
  21
 1719.8597758717
  31
0.0
   0
ARC
   5
3A9
 100
AcDbEntity
   8
LEVEL002
 370
30
   6
CONTINUOUS
  62
7
 100
AcDbCircle
  10
 479.08938945957
  20
 1683.8597758717
  30
0.0
  40
 1.0000000000000
 100
AcDbArc
  50
 269.99998828688
  51
0.0
   0
LINE
   5
3AA
 100
AcDbEntity
   8
LEVEL002
 370
40
 100
AcDbLine
   6
CONTINUOUS
  62
3
  10
 513.08335811817
  20
 1718.8597758717
  30
0.0
  11
 480.08938925517
  21
 1718.8597758717
  31
0.0
   0
ARC
   5
3AB
 100
AcDbEntity
   8
LEVEL002
 370
30
   6
CONTINUOUS
  62
7
 100
AcDbCircle
  10
 417.08938925517
  20
 1701.8597758717
  30
0.0
  40
 24.000000000000
 100
AcDbArc
  50
 90.000000000000
  51
 270.00000000000
   0
ARC
   5
3AC
 100
AcDbEntity
   8
LEVEL002
 370
30
   6
CONTINUOUS
  62
7
 100
AcDbCircle
  10
 458.08938925077
  20
 1701.8597758717
  30
0.0
  40
 24.000000000000
 100
AcDbArc
  50
 270.00000001047
  51
 307.65846201450
   0
ARC
   5
3AD
 100
AcDbEntity
   8
LEVEL002
 370
30
   6
CONTINUOUS
  62
7
 100
AcDbCircle
  10
 458.08938924827
  20
 1701.8597758771
  30
0.0
  40
 24.000000000000
 100
AcDbArc
  50
 52.341537972881
  51
 89.999999983464
   0
ARC
   5
3AE
 100
AcDbEntity
   8
LEVEL002
 370
30
   6
CONTINUOUS
  62
7
 100
AcDbCircle
  10
 457.08938925517
  20
 1715.8597758672
  30
0.0
  40
 1.0000000000000
 100
AcDbArc
  50
 0.25804974952624E-6
  51
 90.000000000000
   0
LINE
   5
3AF
 100
AcDbEntity
   8
LEVEL002
 370
30
 100
AcDbLine
   6
CONTINUOUS
  62
7
  10
 458.08938925517
  20
 1687.8597758717
  30
0.0
  11
 458.08938925517
  21
 1715.8597758717
  31
0.0
   0
ARC
   5
3B0
 100
AcDbEntity
   8
LEVEL002
 370
30
   6
CONTINUOUS
  62
7
 100
AcDbCircle
  10
 457.08938922117
  20
 1687.8597758717
  30
0.0
  40
 1.0000000000000
 100
AcDbArc
  50
 270.00000194725
  51
0.0
   0
ARC
   5
3B1
 100
AcDbEntity
   8
LEVEL002
 370
30
   6
CONTINUOUS
  62
7
 100
AcDbCircle
  10
 479.08938925517
  20
 1719.8597758743
  30
0.0
  40
 1.0000000000000
 100
AcDbArc
  50
0.0
  51
 90.000000000000
   0
LINE
   5
3B2
 100
AcDbEntity
   8
LEVEL002
 370
30
 100
AcDbLine
   6
CONTINUOUS
  62
7
  10
 480.08938925517
  20
 1683.8597758717
  30
0.0
  11
 480.08938925517
  21
 1719.8597758717
  31
0.0
   0
ARC
   5
3B3
 100
AcDbEntity
   8
LEVEL002
 370
30
   6
CONTINUOUS
  62
7
 100
AcDbCircle
  10
 479.08938945957
  20
 1683.8597758717
  30
0.0
  40
 1.0000000000000
 100
AcDbArc
  50
 269.99998828688
  51
0.0
   0
LINE
   5
3B4
 100
AcDbEntity
   8
LEVEL002
 370
30
 100
AcDbLine
   6
CONTINUOUS
  62
7
  10
 513.08335811817
  20
 1684.8597758717
  30
0.0
  11
 480.08938925517
  21
 1684.8597758717
  31
0.0
   0
LINE
   5
3B5
 100
AcDbEntity
   8
LEVEL002
 370
40
 100
AcDbLine
   6
CONTINUOUS
  62
3
  10
 513.08335811817
  20
 1718.8597758717
  30
0.0
  11
 480.08938925517
  21
 1718.8597758717
  31
0.0
   0
LINE
   5
3B6
 100
AcDbEntity
   8
LEVEL002
 370
40
 100
AcDbLine
   6
CONTINUOUS
  62
3
  10
 513.08335811817
  20
 1718.8597758717
  30
0.0
  11
 480.08938925517
  21
 1718.8597758717
  31
0.0
   0
LINE
   5
3B7
 100
AcDbEntity
   8
LEVEL002
 370
30
 100
AcDbLine
   6
CONTINUOUS
  62
7
  10
 425.58938925517
  20
 1677.8597758717
  30
0.0
  11
 458.08938925517
  21
 1677.8597758717
  31
0.0
   0
LINE
   5
3B8
 100
AcDbEntity
   8
LEVEL002
 370
30
 100
AcDbLine
   6
CONTINUOUS
  62
7
  10
 425.58938925517
  20
 1725.8597758717
  30
0.0
  11
 458.08938925517
  21
 1725.8597758717
  31
0.0
   0
LINE
   5
3B9
 100
AcDbEntity
   8
LEVEL002
 370
30
 100
AcDbLine
   6
CONTINUOUS
  62
7
  10
 458.08938925517
  20
 1677.8597758717
  30
0.0
  11
 417.08938925517
  21
 1677.8597758717
  31
0.0
   0
LINE
   5
3BA
 100
AcDbEntity
   8
LEVEL002
 370
30
 100
AcDbLine
   6
CONTINUOUS
  62
7
  10
 458.08938925517
  20
 1677.8597758717
  30
0.0
  11
 417.08938925517
  21
 1677.8597758717
  31
0.0
   0
LINE
   5
3BB
 100
AcDbEntity
   8
LEVEL002
 370
30
 100
AcDbLine
   6
CONTINUOUS
  62
7
  10
 458.08938925517
  20
 1725.8597758717
  30
0.0
  11
 417.08938925517
  21
 1725.8597758717
  31
0.0
   0
LINE
   5
3BC
 100
AcDbEntity
   8
LEVEL002
 370
30
 100
AcDbLine
   6
CONTINUOUS
  62
7
  10
 458.08938925517
  20
 1725.8597758717
  30
0.0
  11
 417.08938925517
  21
 1725.8597758717
  31
0.0
   0
LINE
   5
3BD
 100
AcDbEntity
   8
LEVEL002
 370
30
 100
AcDbLine
   6
CONTINUOUS
  62
7
  10
 458.08938925517
  20
 1715.8597758717
  30
0.0
  11
 458.08938925517
  21
 1687.8597758717
  31
0.0
   0
LINE
   5
3BE
 100
AcDbEntity
   8
LEVEL002
 370
30
 100
AcDbLine
   6
CONTINUOUS
  62
7
  10
 479.08938925517
  20
 1720.8597758717
  30
0.0
  11
 413.36558396037
  21
 1720.8597758717
  31
0.0
   0
ARC
   5
3BF
 100
AcDbEntity
   8
LEVEL002
 370
30
   6
CONTINUOUS
  62
7
 100
AcDbCircle
  10
 413.36558395147
  20
 1710.8597758717
  30
0.0
  40
 10.000000000000
 100
AcDbArc
  50
 89.999999948942
  51
 139.99479908239
   0
LINE
   5
3C0
 100
AcDbEntity
   8
LEVEL002
 370
30
 100
AcDbLine
   6
CONTINUOUS
  62
7
  10
 457.08938925517
  20
 1716.8597758717
  30
0.0
  11
 412.19040976957
  21
 1716.8597758717
  31
0.0
   0
ARC
   5
3C1
 100
AcDbEntity
   8
LEVEL002
 370
30
   6
CONTINUOUS
  62
7
 100
AcDbCircle
  10
 412.19040977657
  20
 1706.8597758717
  30
0.0
  40
 10.000000000000
 100
AcDbArc
  50
 90.000000039687
  51
 134.41530862549
   0
LINE
   5
3C2
 100
AcDbEntity
   8
LEVEL002
 370
30
 100
AcDbLine
   6
CONTINUOUS
  62
7
  10
 457.08938925517
  20
 1686.8597758717
  30
0.0
  11
 412.19040976957
  21
 1686.8597758717
  31
0.0
   0
ARC
   5
3C3
 100
AcDbEntity
   8
LEVEL002
 370
30
   6
CONTINUOUS
  62
7
 100
AcDbCircle
  10
 417.08938925167
  20
 1701.8597758683
  30
0.0
  40
 17.000000000000
 100
AcDbArc
  50
 134.41530858080
  51
 225.58469140314
   0
ARC
   5
3C4
 100
AcDbEntity
   8
LEVEL002
 370
30
   6
CONTINUOUS
  62
7
 100
AcDbCircle
  10
 412.19040977087
  20
 1696.8597758704
  30
0.0
  40
 10.000000000000
 100
AcDbArc
  50
 225.58469139266
  51
 269.99999999275
   0
LINE
   5
3C5
 100
AcDbEntity
   8
LEVEL002
 370
30
 100
AcDbLine
   6
CONTINUOUS
  62
7
  10
 479.08938925517
  20
 1682.8597758717
  30
0.0
  11
 413.36558396037
  21
 1682.8597758717
  31
0.0
   0
ARC
   5
3C6
 100
AcDbEntity
   8
LEVEL002
 370
30
   6
CONTINUOUS
  62
7
 100
AcDbCircle
  10
 424.08938925367
  20
 1701.8597758700
  30
0.0
  40
 24.000000000000
 100
AcDbArc
  50
 139.99479910977
  51
 220.00520088392
   0
ARC
   5
3C7
 100
AcDbEntity
   8
LEVEL002
 370
30
   6
CONTINUOUS
  62
7
 100
AcDbCircle
  10
 413.36558395037
  20
 1692.8597758837
  30
0.0
  40
 10.000000000000
 100
AcDbArc
  50
 220.00520097462
  51
 270.00000005764
   0
LINE
   5
3C8
 100
AcDbEntity
   8
LEVEL002
 370
30
 100
AcDbLine
   6
CONTINUOUS
  62
7
  10
 457.08938925517
  20
 1716.8597758717
  30
0.0
  11
 412.19040976957
  21
 1716.8597758717
  31
0.0
   0
LINE
   5
3C9
 100
AcDbEntity
   8
LEVEL002
 370
30
 100
AcDbLine
   6
CONTINUOUS
  62
7
  10
 479.08938925517
  20
 1682.8597758717
  30
0.0
  11
 413.36558396037
  21
 1682.8597758717
  31
0.0
   0
LINE
   5
3CA
 100
AcDbEntity
   8
LEVEL002
 370
30
 100
AcDbLine
   6
CONTINUOUS
  62
7
  10
 457.08938925517
  20
 1686.8597758717
  30
0.0
  11
 412.19040976957
  21
 1686.8597758717
  31
0.0
   0
LINE
   5
3CB
 100
AcDbEntity
   8
LEVEL002
 370
30
 100
AcDbLine
   6
CONTINUOUS
  62
7
  10
 580.08938925517
  20
 1718.8597758717
  30
0.0
  11
 480.08938925517
  21
 1718.8597758717
  31
0.0
   0
LINE
   5
3CC
 100
AcDbEntity
   8
LEVEL002
 370
30
 100
AcDbLine
   6
CONTINUOUS
  62
7
  10
 580.08938925517
  20
 1684.8597758717
  30
0.0
  11
 480.08938925517
  21
 1684.8597758717
  31
0.0
   0
LINE
   5
3CD
 100
AcDbEntity
   8
LEVEL002
 370
15
 100
AcDbLine
   6
DASHDOT
  62
8
  10
 1161.0491398037
  20
 1701.8597758717
  30
0.0
  11
 381.42238052287
  21
 1701.8597758717
  31
0.0
   0
LINE
   5
3CE
 100
AcDbEntity
   8
LEVEL002
 370
15
 100
AcDbLine
   6
DASHDOT
  62
8
  10
 425.58938925517
  20
 1661.6730825157
  30
0.0
  11
 425.58938925517
  21
 1746.5943309371
  31
0.0
   0
LINE
   5
3CF
 100
AcDbEntity
   8
LEVEL002
 370
30
 100
AcDbLine
   6
CONTINUOUS
  62
7
  10
 580.08938925517
  20
 1718.8597758717
  30
0.0
  11
 971.08938925517
  21
 1718.8597758717
  31
0.0
   0
LINE
   5
3D0
 100
AcDbEntity
   8
LEVEL002
 370
30
 100
AcDbLine
   6
CONTINUOUS
  62
7
  10
 580.08938925517
  20
 1684.8597758717
  30
0.0
  11
 971.08938925517
  21
 1684.8597758717
  31
0.0
   0
LEADER
   5
3D1
 100
AcDbEntity
   8
LEVEL001
 370
15
   6
CONTINUOUS
  62
8
 100
AcDbLeader
   3
GMM002
  73
0
  74
1
  75
0
  40
 30.000000000000
  41
 630.00000000000
  76
2
  10
 1024.3303345982
  20
 2102.8602956404
  30
0.0
  10
 961.12500404095
  20
 2188.2657010458
  30
0.0
  77
8
 340
3D2
 213
0.0
 223
-10.000000000000
 233
0.0
   0
MTEXT
   5
3D2
 102
{ACAD_REACTORS
 330
3D1
 102
}
 100
AcDbEntity
   8
LEVEL001
 370
15
  62
8
 100
AcDbMText
  10
 331.12500404095
  20
 2198.2657010458
  30
0.0
  40
 30.000000000000
  41
0.0
  71
7
  72
1
   1
\A1;芯材：アルミニウム(%%c２７.２×１.５ｔ)　　　　　\P表面材：樹脂被膜軟質ＰＶＣ（抗菌材入り）外径%%c３４
   7
GMM002
   0
ARC
   5
3D3
 100
AcDbEntity
   8
LEVEL002
 370
30
   6
CONTINUOUS
  62
7
 100
AcDbCircle
  10
 977.08938925517
  20
 2596.6717006992
  30
0.0
  40
 1.0000000000000
 100
AcDbArc
  50
 180.00000000000
  51
 270.00000000000
   0
ARC
   5
3D4
 100
AcDbEntity
   8
LEVEL002
 370
30
   6
CONTINUOUS
  62
7
 100
AcDbCircle
  10
 984.42651110037
  20
 2674.2717006890
  30
0.0
  40
 1.0000000000000
 100
AcDbArc
  50
 90.000008241334
  51
 180.00000000000
   0
LINE
   5
3D5
 100
AcDbEntity
   8
LEVEL002
 370
30
 100
AcDbLine
   6
CONTINUOUS
  62
7
  10
 983.42651095657
  20
 2634.6717006890
  30
0.0
  11
 983.42651095657
  21
 2674.2717006890
  31
0.0
   0
ARC
   5
3D6
 100
AcDbEntity
   8
LEVEL002
 370
30
   6
CONTINUOUS
  62
7
 100
AcDbCircle
  10
 982.42651098127
  20
 2634.6717006891
  30
0.0
  40
 1.0000000000000
 100
AcDbArc
  50
 269.99999858385
  51
0.0
   0
LINE
   5
3D7
 100
AcDbEntity
   8
LEVEL002
 370
30
 100
AcDbLine
   6
CONTINUOUS
  62
7
  10
 977.08938925517
  20
 2633.6717006891
  30
0.0
  11
 982.42651095657
  21
 2633.6717006891
  31
0.0
   0
LINE
   5
3D8
 100
AcDbEntity
   8
LEVEL002
 370
30
 100
AcDbLine
   6
CONTINUOUS
  62
7
  10
 976.08938925517
  20
 2632.6717006890
  30
0.0
  11
 976.08938925517
  21
 2596.6717006890
  31
0.0
   0
ARC
   5
3D9
 100
AcDbEntity
   8
LEVEL002
 370
30
   6
CONTINUOUS
  62
7
 100
AcDbCircle
  10
 977.08938920827
  20
 2632.6717006891
  30
0.0
  40
 1.0000000000000
 100
AcDbArc
  50
 89.999997315699
  51
 180.00000000000
   0
ARC
   5
3DA
 100
AcDbEntity
   8
LEVEL002
 370
30
   6
CONTINUOUS
  62
7
 100
AcDbCircle
  10
 999.08938918027
  20
 2604.8288054194
  30
0.0
  40
 1.0000000000000
 100
AcDbArc
  50
 85.501589029822
  51
 180.00000000000
   0
LINE
   5
3DB
 100
AcDbEntity
   8
LEVEL002
 370
30
 100
AcDbLine
   6
CONTINUOUS
  62
7
  10
 977.08938925517
  20
 2595.6717006890
  30
0.0
  11
 1003.0893892552
  21
 2595.6717006890
  31
0.0
   0
LINE
   5
3DC
 100
AcDbEntity
   8
LEVEL002
 370
30
 100
AcDbLine
   6
CONTINUOUS
  62
7
  10
 998.08938925517
  20
 2595.6717006890
  30
0.0
  11
 998.08938925517
  21
 2604.8288054135
  31
0.0
   0
LINE
   5
3DD
 100
AcDbEntity
   8
LEVEL002
 370
30
 100
AcDbLine
   6
CONTINUOUS
  62
7
  10
 1048.5893892552
  20
 2675.2717006890
  30
0.0
  11
 984.42651095657
  21
 2675.2717006890
  31
0.0
   0
ARC
   5
3DE
 100
AcDbEntity
   8
LEVEL002
 370
30
   6
CONTINUOUS
  62
7
 100
AcDbCircle
  10
 1048.5893892552
  20
 2674.2717009088
  30
0.0
  40
 1.0000000000000
 100
AcDbArc
  50
0.0
  51
 89.999999999792
   0
ARC
   5
3DF
 100
AcDbEntity
   8
LEVEL002
 370
30
   6
CONTINUOUS
  62
7
 100
AcDbCircle
  10
 1025.6117627852
  20
 2614.6717006890
  30
0.0
  40
 19.000000000000
 100
AcDbArc
  50
 180.00000000000
  51
0.0
   0
LINE
   5
3E0
 100
AcDbEntity
   8
LEVEL002
 370
30
 100
AcDbLine
   6
CONTINUOUS
  62
7
  10
 1011.6393892552
  20
 2623.9010988390
  30
0.0
  11
 1011.8516610049
  21
 2624.5319309113
  31
0.0
   0
LINE
   5
3E1
 100
AcDbEntity
   8
LEVEL002
 370
30
 100
AcDbLine
   6
CONTINUOUS
  62
7
  10
 1011.8516610049
  20
 2624.5319309113
  30
0.0
  11
 1012.4820264842
  21
 2625.1435954703
  31
0.0
   0
LINE
   5
3E2
 100
AcDbEntity
   8
LEVEL002
 370
30
 100
AcDbLine
   6
CONTINUOUS
  62
7
  10
 1012.4820264842
  20
 2625.1435954703
  30
0.0
  11
 1013.5113323570
  21
 2625.7175073979
  31
0.0
   0
LINE
   5
3E3
 100
AcDbEntity
   8
LEVEL002
 370
30
 100
AcDbLine
   6
CONTINUOUS
  62
7
  10
 1013.5113323570
  20
 2625.7175073979
  30
0.0
  11
 1014.9083036854
  21
 2626.2362286706
  31
0.0
   0
LINE
   5
3E4
 100
AcDbEntity
   8
LEVEL002
 370
30
 100
AcDbLine
   6
CONTINUOUS
  62
7
  10
 1014.9083036854
  20
 2626.2362286706
  30
0.0
  11
 1016.6304942022
  21
 2626.6839982050
  31
0.0
   0
LINE
   5
3E5
 100
AcDbEntity
   8
LEVEL002
 370
30
 100
AcDbLine
   6
CONTINUOUS
  62
7
  10
 1016.6304942022
  20
 2626.6839982050
  30
0.0
  11
 1018.6255760202
  21
 2627.0472107504
  31
0.0
   0
LINE
   5
3E6
 100
AcDbEntity
   8
LEVEL002
 370
30
 100
AcDbLine
   6
CONTINUOUS
  62
7
  10
 1018.6255760202
  20
 2627.0472107504
  30
0.0
  11
 1020.8329295879
  21
 2627.3148302773
  31
0.0
   0
LINE
   5
3E7
 100
AcDbEntity
   8
LEVEL002
 370
30
 100
AcDbLine
   6
CONTINUOUS
  62
7
  10
 1020.8329295879
  20
 2627.3148302773
  30
0.0
  11
 1023.1854855840
  21
 2627.4787253019
  31
0.0
   0
LINE
   5
3E8
 100
AcDbEntity
   8
LEVEL002
 370
30
 100
AcDbLine
   6
CONTINUOUS
  62
7
  10
 1023.1854855840
  20
 2627.4787253019
  30
0.0
  11
 1025.6117627852
  21
 2627.5339159569
  31
0.0
   0
LINE
   5
3E9
 100
AcDbEntity
   8
LEVEL002
 370
30
 100
AcDbLine
   6
CONTINUOUS
  62
7
  10
 1025.6117627852
  20
 2627.5339159569
  30
0.0
  11
 1028.0380399864
  21
 2627.4787253019
  31
0.0
   0
LINE
   5
3EA
 100
AcDbEntity
   8
LEVEL002
 370
30
 100
AcDbLine
   6
CONTINUOUS
  62
7
  10
 1028.0380399864
  20
 2627.4787253019
  30
0.0
  11
 1030.3905959825
  21
 2627.3148302773
  31
0.0
   0
LINE
   5
3EB
 100
AcDbEntity
   8
LEVEL002
 370
30
 100
AcDbLine
   6
CONTINUOUS
  62
7
  10
 1030.3905959825
  20
 2627.3148302773
  30
0.0
  11
 1032.5979495502
  21
 2627.0472107504
  31
0.0
   0
LINE
   5
3EC
 100
AcDbEntity
   8
LEVEL002
 370
30
 100
AcDbLine
   6
CONTINUOUS
  62
7
  10
 1032.5979495502
  20
 2627.0472107504
  30
0.0
  11
 1034.5930313682
  21
 2626.6839982050
  31
0.0
   0
LINE
   5
3ED
 100
AcDbEntity
   8
LEVEL002
 370
30
 100
AcDbLine
   6
CONTINUOUS
  62
7
  10
 1034.5930313682
  20
 2626.6839982050
  30
0.0
  11
 1036.3152218850
  21
 2626.2362286706
  31
0.0
   0
LINE
   5
3EE
 100
AcDbEntity
   8
LEVEL002
 370
30
 100
AcDbLine
   6
CONTINUOUS
  62
7
  10
 1036.3152218850
  20
 2626.2362286706
  30
0.0
  11
 1037.7121932133
  21
 2625.7175073979
  31
0.0
   0
LINE
   5
3EF
 100
AcDbEntity
   8
LEVEL002
 370
30
 100
AcDbLine
   6
CONTINUOUS
  62
7
  10
 1037.7121932133
  20
 2625.7175073979
  30
0.0
  11
 1038.7414990862
  21
 2625.1435954703
  31
0.0
   0
LINE
   5
3F0
 100
AcDbEntity
   8
LEVEL002
 370
30
 100
AcDbLine
   6
CONTINUOUS
  62
7
  10
 1038.7414990862
  20
 2625.1435954703
  30
0.0
  11
 1039.3718645655
  21
 2624.5319309113
  31
0.0
   0
LINE
   5
3F1
 100
AcDbEntity
   8
LEVEL002
 370
30
 100
AcDbLine
   6
CONTINUOUS
  62
7
  10
 1039.3718645655
  20
 2624.5319309113
  30
0.0
  11
 1039.5841363152
  21
 2623.9010988390
  31
0.0
   0
LINE
   5
3F2
 100
AcDbEntity
   8
LEVEL002
 370
30
 100
AcDbLine
   6
CONTINUOUS
  62
7
  10
 1011.6393892552
  20
 2623.9010988390
  30
0.0
  11
 1011.6393892552
  21
 2601.7964229080
  31
0.0
   0
LINE
   5
3F3
 100
AcDbEntity
   8
LEVEL002
 370
30
 100
AcDbLine
   6
CONTINUOUS
  62
7
  10
 1039.5841363152
  20
 2623.9010988390
  30
0.0
  11
 1039.5841363152
  21
 2601.7964229080
  31
0.0
   0
LINE
   5
3F4
 100
AcDbEntity
   8
LEVEL002
 370
30
 100
AcDbLine
   6
CONTINUOUS
  62
7
  10
 1049.5224699771
  20
 2674.1894718545
  30
0.0
  11
 1044.6117627852
  21
 2614.6717006890
  31
0.0
   0
ARC
   5
3F5
 100
AcDbEntity
   8
LEVEL002
 370
30
   6
CONTINUOUS
  62
7
 100
AcDbCircle
  10
 1048.5258565029
  20
 2674.2717007011
  30
0.0
  40
 1.0000000000000
 100
AcDbArc
  50
 355.28330853200
  51
 90.000000057009
   0
LINE
   5
3F6
 100
AcDbEntity
   8
LEVEL002
 370
30
 100
AcDbLine
   6
CONTINUOUS
  62
7
  10
 1002.6976690684
  20
 2675.2717006890
  30
0.0
  11
 1048.5258565020
  21
 2675.2717006890
  31
0.0
   0
LINE
   5
3F7
 100
AcDbEntity
   8
LEVEL002
 370
30
 100
AcDbLine
   6
CONTINUOUS
  62
7
  10
 1001.7010555933
  20
 2674.1894718545
  30
0.0
  11
 1006.6117627852
  21
 2614.6717006890
  31
0.0
   0
ARC
   5
3F8
 100
AcDbEntity
   8
LEVEL002
 370
30
   6
CONTINUOUS
  62
7
 100
AcDbCircle
  10
 1002.6976688583
  20
 2674.2717006890
  30
0.0
  40
 1.0000000000000
 100
AcDbArc
  50
 89.999987960458
  51
 184.71669176577
   0
ARC
   5
3F9
 100
AcDbEntity
   8
LEVEL002
 370
30
   6
CONTINUOUS
  62
7
 100
AcDbCircle
  10
 1003.0893892378
  20
 2655.6717006904
  30
0.0
  40
 50.000000000000
 100
AcDbArc
  50
 265.50159335105
  51
 276.45650039246
   0
ARC
   5
3FA
 100
AcDbEntity
   8
LEVEL002
 370
30
   6
CONTINUOUS
  62
7
 100
AcDbCircle
  10
 1003.0893892478
  20
 2655.6717006890
  30
0.0
  40
 60.000000000000
 100
AcDbArc
  50
 270.00000000707
  51
 283.98255508209
   0
LINE
   5
3FB
 100
AcDbEntity
   8
LEVEL002
 370
30
 100
AcDbLine
   6
CONTINUOUS
  62
7
  10
 1025.5893892552
  20
 2674.2717006890
  30
0.0
  11
 1025.5893892552
  21
 2655.6717006890
  31
0.0
   0
LINE
   5
3FC
 100
AcDbEntity
   8
LEVEL002
 370
15
 100
AcDbLine
   6
DASHDOT
  62
8
  10
 1025.5893892552
  20
 2574.4026702608
  30
0.0
  11
 1025.5893892552
  21
 2715.0933825499
  31
0.0
   0
DIMENSION
   5
3FD
 100
AcDbEntity
   8
LEVEL001
 370
15
   6
CONTINUOUS
  62
8
 100
AcDbDimension
   2
*D12
  10
 1142.5893892552
  20
 2675.2717006890
  30
0.0
  11
 1142.5893892552
  21
 2644.6212555765
  31
0.0
  70
0
   1
\A1;60
   3
GMM001
 100
AcDbAlignedDimension
  13
 1058.4709125628
  23
 2613.9708104640
  33
0.0
  14
 1142.5893892552
  24
 2675.2717006890
  34
0.0
  50
 90.000000000000
 100
AcDbRotatedDimension
   0
ARC
   5
3FE
 100
AcDbEntity
   8
LEVEL002
 370
30
   6
CONTINUOUS
  62
7
 100
AcDbCircle
  10
 457.08938925517
  20
 2655.6717006873
  30
0.0
  40
 60.000000000000
 100
AcDbArc
  50
 180.00000000000
  51
 270.00000000000
   0
ARC
   5
3FF
 100
AcDbEntity
   8
LEVEL002
 370
30
   6
CONTINUOUS
  62
7
 100
AcDbCircle
  10
 398.08938937527
  20
 2674.2717006890
  30
0.0
  40
 1.0000000000000
 100
AcDbArc
  50
 90.000006883550
  51
 180.00000000000
   0
ARC
   5
400
 100
AcDbEntity
   8
LEVEL002
 370
30
   6
CONTINUOUS
  62
7
 100
AcDbCircle
  10
 483.08938923227
  20
 2596.6717006890
  30
0.0
  40
 1.0000000000000
 100
AcDbArc
  50
 270.00000131318
  51
0.0
   0
LINE
   5
401
 100
AcDbEntity
   8
LEVEL002
 370
30
 100
AcDbLine
   6
CONTINUOUS
  62
7
  10
 475.75226755377
  20
 2675.2717006890
  30
0.0
  11
 398.08938925517
  21
 2675.2717006890
  31
0.0
   0
ARC
   5
402
 100
AcDbEntity
   8
LEVEL002
 370
30
   6
CONTINUOUS
  62
7
 100
AcDbCircle
  10
 475.75226755377
  20
 2674.2717008660
  30
0.0
  40
 1.0000000000000
 100
AcDbArc
  50
0.0
  51
 90.000000000000
   0
LINE
   5
403
 100
AcDbEntity
   8
LEVEL002
 370
30
 100
AcDbLine
   6
CONTINUOUS
  62
7
  10
 476.75226755377
  20
 2634.6717006890
  30
0.0
  11
 476.75226755377
  21
 2674.2717006890
  31
0.0
   0
ARC
   5
404
 100
AcDbEntity
   8
LEVEL002
 370
30
   6
CONTINUOUS
  62
7
 100
AcDbCircle
  10
 477.75226755377
  20
 2634.6717007468
  30
0.0
  40
 1.0000000000000
 100
AcDbArc
  50
 180.00000000000
  51
 270.00000000000
   0
LINE
   5
405
 100
AcDbEntity
   8
LEVEL002
 370
30
 100
AcDbLine
   6
CONTINUOUS
  62
7
  10
 483.08938925517
  20
 2633.6717006891
  30
0.0
  11
 477.75226755377
  21
 2633.6717006891
  31
0.0
   0
LINE
   5
406
 100
AcDbEntity
   8
LEVEL002
 370
30
 100
AcDbLine
   6
CONTINUOUS
  62
7
  10
 484.08938925517
  20
 2632.6717006890
  30
0.0
  11
 484.08938925517
  21
 2596.6717006890
  31
0.0
   0
ARC
   5
407
 100
AcDbEntity
   8
LEVEL002
 370
30
   6
CONTINUOUS
  62
7
 100
AcDbCircle
  10
 483.08938925517
  20
 2632.6717006753
  30
0.0
  40
 1.0000000000000
 100
AcDbArc
  50
 0.78874010679102E-6
  51
 90.000000000000
   0
ARC
   5
408
 100
AcDbEntity
   8
LEVEL002
 370
30
   6
CONTINUOUS
  62
7
 100
AcDbCircle
  10
 461.08938925517
  20
 2604.8288053289
  30
0.0
  40
 1.0000000000000
 100
AcDbArc
  50
 0.48474999797918E-5
  51
 94.498406288559
   0
ARC
   5
409
 100
AcDbEntity
   8
LEVEL002
 370
30
   6
CONTINUOUS
  62
7
 100
AcDbCircle
  10
 457.08938925477
  20
 2655.6717006895
  30
0.0
  40
 50.000000000000
 100
AcDbArc
  50
 219.45055118459
  51
 274.49840666929
   0
ARC
   5
40A
 100
AcDbEntity
   8
LEVEL002
 370
30
   6
CONTINUOUS
  62
7
 100
AcDbCircle
  10
 410.75899366467
  20
 2617.5469784681
  30
0.0
  40
 10.000000000000
 100
AcDbArc
  50
 39.450551190938
  51
 90.000000004450
   0
LINE
   5
40B
 100
AcDbEntity
   8
LEVEL002
 370
30
 100
AcDbLine
   6
CONTINUOUS
  62
7
  10
 397.08938925517
  20
 2674.2717006890
  30
0.0
  11
 397.08938925517
  21
 2655.6717006890
  31
0.0
   0
LINE
   5
40C
 100
AcDbEntity
   8
LEVEL002
 370
30
 100
AcDbLine
   6
CONTINUOUS
  62
7
  10
 483.08938925517
  20
 2595.6717006890
  30
0.0
  11
 457.08938925517
  21
 2595.6717006890
  31
0.0
   0
LINE
   5
40D
 100
AcDbEntity
   8
LEVEL002
 370
30
 100
AcDbLine
   6
CONTINUOUS
  62
7
  10
 462.08938925517
  20
 2595.6717006890
  30
0.0
  11
 462.08938925517
  21
 2604.8288054135
  31
0.0
   0
LINE
   5
40E
 100
AcDbEntity
   8
LEVEL002
 370
30
 100
AcDbLine
   6
CONTINUOUS
  62
7
  10
 410.75899366387
  20
 2627.5469784690
  30
0.0
  11
 404.08938925467
  21
 2627.5469784690
  31
0.0
   0
LINE
   5
40F
 100
AcDbEntity
   8
LEVEL002
 370
30
 100
AcDbLine
   6
CONTINUOUS
  62
7
  10
 585.08938925517
  20
 2597.6717006890
  30
0.0
  11
 484.08938925517
  21
 2597.6717006890
  31
0.0
   0
LINE
   5
410
 100
AcDbEntity
   8
LEVEL002
 370
30
 100
AcDbLine
   6
CONTINUOUS
  62
7
  10
 585.08938925517
  20
 2631.6717006890
  30
0.0
  11
 484.08938925517
  21
 2631.6717006890
  31
0.0
   0
LINE
   5
411
 100
AcDbEntity
   8
LEVEL002
 370
15
 100
AcDbLine
   6
DASHDOT
  62
8
  10
 425.58938925517
  20
 2574.4026702608
  30
0.0
  11
 425.58938925517
  21
 2715.0933825499
  31
0.0
   0
DIMENSION
   5
412
 100
AcDbEntity
   8
LEVEL001
 370
15
   6
CONTINUOUS
  62
8
 100
AcDbDimension
   2
*D13
  10
 425.58938925517
  20
 2497.6717006890
  30
0.0
  11
 725.58938925517
  21
 2497.6717006890
  31
0.0
  70
0
   3
GMM001
 100
AcDbAlignedDimension
  13
 1025.5893892552
  23
 2574.4026702608
  33
0.0
  14
 425.58938925517
  24
 2574.4026702608
  34
0.0
  50
 180.00000000000
 100
AcDbRotatedDimension
   0
LINE
   5
413
 100
AcDbEntity
   8
LEVEL002
 370
30
 100
AcDbLine
   6
CONTINUOUS
  62
7
  10
 585.08938925517
  20
 2631.6717006890
  30
0.0
  11
 976.08938925517
  21
 2631.6717006890
  31
0.0
   0
LINE
   5
414
 100
AcDbEntity
   8
LEVEL002
 370
30
 100
AcDbLine
   6
CONTINUOUS
  62
7
  10
 585.08938925517
  20
 2597.6717006890
  30
0.0
  11
 976.08938925517
  21
 2597.6717006890
  31
0.0
   0
LINE
   5
415
 100
AcDbEntity
   8
LEVEL002
 370
15
 100
AcDbLine
   6
DASHDOT
  62
8
  10
 1062.8644541637
  20
 2613.9708104640
  30
0.0
  11
 383.72506020601
  21
 2613.9708104640
  31
0.0
   0
LINE
   5
416
 100
AcDbEntity
   8
LEVEL002
 370
40
 100
AcDbLine
   6
CONTINUOUS
  62
3
  10
 302.16899613273
  20
 2675.2717006890
  30
0.0
  11
 1206.5070996209
  21
 2675.2717006890
  31
0.0
   0
DIMENSION
   5
417
 100
AcDbEntity
   8
LEVEL001
 370
15
   6
CONTINUOUS
  62
8
 100
AcDbDimension
   2
*D14
  10
 425.58938925517
  20
 1584.6968723132
  30
0.0
  11
 725.58938925517
  21
 1584.6968723132
  31
0.0
  70
0
   3
GMM001
 100
AcDbAlignedDimension
  13
 1025.5893892552
  23
 1661.6730825157
  33
0.0
  14
 425.58938925517
  24
 1661.6730825157
  34
0.0
  50
 180.00000000000
 100
AcDbRotatedDimension
   0
LINE
   5
418
 100
AcDbEntity
   8
LEVEL002
 370
30
 100
AcDbLine
   6
CONTINUOUS
  62
7
  10
 1407.9076300201
  20
 317.85977587173
  30
0.0
  11
 1455.6707428332
  21
 317.85977587173
  31
0.0
   0
ARC
   5
419
 100
AcDbEntity
   8
LEVEL002
 370
30
   6
CONTINUOUS
  62
7
 100
AcDbCircle
  10
 1407.9076300110
  20
 318.85977596975
  30
0.0
  40
 1.0000000000000
 100
AcDbArc
  50
 270.00000052027
  51
 5.2939864151957
   0
ARC
   5
41A
 100
AcDbEntity
   8
LEVEL002
 370
30
   6
CONTINUOUS
  62
7
 100
AcDbCircle
  10
 1398.9460206176
  20
 318.02938027677
  30
0.0
  40
 10.000000000000
 100
AcDbArc
  50
 5.2939920778329
  51
 50.549448849048
   0
LINE
   5
41B
 100
AcDbEntity
   8
LEVEL002
 370
30
 100
AcDbLine
   6
CONTINUOUS
  62
7
  10
 1407.9076300201
  20
 317.85977587173
  30
0.0
  11
 1405.3571810654
  21
 317.85977587173
  31
0.0
   0
ARC
   5
41C
 100
AcDbEntity
   8
LEVEL002
 370
30
   6
CONTINUOUS
  62
7
 100
AcDbCircle
  10
 1455.6707428332
  20
 318.85977615003
  30
0.0
  40
 1.0000000000000
 100
AcDbArc
  50
 270.00000000000
  51
0.0
   0
LINE
   5
41D
 100
AcDbEntity
   8
LEVEL002
 370
30
 100
AcDbLine
   6
CONTINUOUS
  62
7
  10
 1456.6707428332
  20
 318.85977587173
  30
0.0
  11
 1456.6707428332
  21
 383.02265417038
  31
0.0
   0
ARC
   5
41E
 100
AcDbEntity
   8
LEVEL002
 370
30
   6
CONTINUOUS
  62
7
 100
AcDbCircle
  10
 1405.3571810713
  20
 333.85977587173
  30
0.0
  40
 16.000000000000
 100
AcDbArc
  50
 223.88250809826
  51
 269.99999997871
   0
ARC
   5
41F
 100
AcDbEntity
   8
LEVEL002
 370
30
   6
CONTINUOUS
  62
7
 100
AcDbCircle
  10
 1437.0707428314
  20
 364.35977587360
  30
0.0
  40
 60.000000000000
 100
AcDbArc
  50
 180.00000000178
  51
 223.88250811548
   0
LINE
   5
420
 100
AcDbEntity
   8
LEVEL002
 370
30
 100
AcDbLine
   6
CONTINUOUS
  62
7
  10
 1413.0707428332
  20
 882.35977587173
  30
0.0
  11
 1413.0707428332
  21
 983.35977587173
  31
0.0
   0
LINE
   5
421
 100
AcDbEntity
   8
LEVEL002
 370
30
 100
AcDbLine
   6
CONTINUOUS
  62
7
  10
 1379.0707428332
  20
 882.35977587173
  30
0.0
  11
 1379.0707428332
  21
 983.35977587173
  31
0.0
   0
LINE
   5
422
 100
AcDbEntity
   8
LEVEL002
 370
30
 100
AcDbLine
   6
CONTINUOUS
  62
7
  10
 1408.9460206132
  20
 1056.6901714630
  30
0.0
  11
 1408.9460206132
  21
 1063.3597758722
  31
0.0
   0
LINE
   5
423
 100
AcDbEntity
   8
LEVEL002
 370
30
 100
AcDbLine
   6
CONTINUOUS
  62
7
  10
 1377.0707428332
  20
 1005.3597758717
  30
0.0
  11
 1386.2278475576
  21
 1005.3597758717
  31
0.0
   0
LINE
   5
424
 100
AcDbEntity
   8
LEVEL002
 370
30
 100
AcDbLine
   6
CONTINUOUS
  62
7
  10
 1377.0707428332
  20
 984.35977587173
  30
0.0
  11
 1377.0707428332
  21
 1010.3597758717
  31
0.0
   0
LINE
   5
425
 100
AcDbEntity
   8
LEVEL002
 370
30
 100
AcDbLine
   6
CONTINUOUS
  62
7
  10
 1455.6707428332
  20
 1070.3597758717
  30
0.0
  11
 1437.0707428332
  21
 1070.3597758717
  31
0.0
   0
ARC
   5
426
 100
AcDbEntity
   8
LEVEL002
 370
30
   6
CONTINUOUS
  62
7
 100
AcDbCircle
  10
 1398.9460206132
  20
 1056.6901714495
  30
0.0
  40
 10.000000000000
 100
AcDbArc
  50
 309.45055123324
  51
 0.77665053855797E-7
   0
ARC
   5
427
 100
AcDbEntity
   8
LEVEL002
 370
30
   6
CONTINUOUS
  62
7
 100
AcDbCircle
  10
 1437.0707428332
  20
 1010.3597758712
  30
0.0
  40
 50.000000000000
 100
AcDbArc
  50
 129.45055118356
  51
 184.49840666831
   0
ARC
   5
428
 100
AcDbEntity
   8
LEVEL002
 370
30
   6
CONTINUOUS
  62
7
 100
AcDbCircle
  10
 1386.2278475534
  20
 1006.3597759252
  30
0.0
  40
 1.0000000000000
 100
AcDbArc
  50
 270.00000024127
  51
 4.4984035947074
   0
ARC
   5
429
 100
AcDbEntity
   8
LEVEL002
 370
30
   6
CONTINUOUS
  62
7
 100
AcDbCircle
  10
 1414.0707428332
  20
 984.35977577883
  30
0.0
  40
 1.0000000000000
 100
AcDbArc
  50
 270.00000000000
  51
 0.53244126025026E-5
   0
LINE
   5
42A
 100
AcDbEntity
   8
LEVEL002
 370
30
 100
AcDbLine
   6
CONTINUOUS
  62
7
  10
 1414.0707428332
  20
 983.35977587173
  30
0.0
  11
 1378.0707428332
  21
 983.35977587173
  31
0.0
   0
LINE
   5
42B
 100
AcDbEntity
   8
LEVEL002
 370
30
 100
AcDbLine
   6
CONTINUOUS
  62
7
  10
 1415.0707428332
  20
 984.35977587173
  30
0.0
  11
 1415.0707428332
  21
 989.69689757313
  31
0.0
   0
ARC
   5
42C
 100
AcDbEntity
   8
LEVEL002
 370
30
   6
CONTINUOUS
  62
7
 100
AcDbCircle
  10
 1416.0707428332
  20
 989.69689765993
  30
0.0
  40
 1.0000000000000
 100
AcDbArc
  50
 89.999999999792
  51
 180.00000497423
   0
LINE
   5
42D
 100
AcDbEntity
   8
LEVEL002
 370
30
 100
AcDbLine
   6
CONTINUOUS
  62
7
  10
 1416.0707428332
  20
 990.69689757313
  30
0.0
  11
 1455.6707428332
  21
 990.69689757313
  31
0.0
   0
ARC
   5
42E
 100
AcDbEntity
   8
LEVEL002
 370
30
   6
CONTINUOUS
  62
7
 100
AcDbCircle
  10
 1455.6707428332
  20
 991.69689771273
  30
0.0
  40
 1.0000000000000
 100
AcDbArc
  50
 270.00000000000
  51
0.0
   0
LINE
   5
42F
 100
AcDbEntity
   8
LEVEL002
 370
30
 100
AcDbLine
   6
CONTINUOUS
  62
7
  10
 1456.6707428332
  20
 991.69689757313
  30
0.0
  11
 1456.6707428332
  21
 1069.3597758717
  31
0.0
   0
ARC
   5
430
 100
AcDbEntity
   8
LEVEL002
 370
30
   6
CONTINUOUS
  62
7
 100
AcDbCircle
  10
 1378.0707427547
  20
 984.35977587173
  30
0.0
  40
 1.0000000000000
 100
AcDbArc
  50
 180.00000000125
  51
 270.00000449794
   0
ARC
   5
431
 100
AcDbEntity
   8
LEVEL002
 370
30
   6
CONTINUOUS
  62
7
 100
AcDbCircle
  10
 1455.6707429079
  20
 1069.3597758717
  30
0.0
  40
 1.0000000000000
 100
AcDbArc
  50
0.0
  51
 90.000004283459
   0
ARC
   5
432
 100
AcDbEntity
   8
LEVEL002
 370
30
   6
CONTINUOUS
  62
7
 100
AcDbCircle
  10
 1437.0707428332
  20
 1010.3597758719
  30
0.0
  40
 60.000000000000
 100
AcDbArc
  50
 90.000000000000
  51
 180.00000000015
   0
LINE
   5
433
 100
AcDbEntity
   8
LEVEL002
 370
30
 100
AcDbLine
   6
CONTINUOUS
  62
7
  10
 1377.0707428332
  20
 369.35977587173
  30
0.0
  11
 1386.2278475576
  21
 369.35977587173
  31
0.0
   0
LINE
   5
434
 100
AcDbEntity
   8
LEVEL002
 370
30
 100
AcDbLine
   6
CONTINUOUS
  62
7
  10
 1377.0707428332
  20
 390.35977587173
  30
0.0
  11
 1377.0707428332
  21
 364.35977587173
  31
0.0
   0
ARC
   5
435
 100
AcDbEntity
   8
LEVEL002
 370
30
   6
CONTINUOUS
  62
7
 100
AcDbCircle
  10
 1437.0707428335
  20
 364.35977587144
  30
0.0
  40
 50.000000000000
 100
AcDbArc
  50
 175.50159333079
  51
 230.54944881555
   0
ARC
   5
436
 100
AcDbEntity
   8
LEVEL002
 370
30
   6
CONTINUOUS
  62
7
 100
AcDbCircle
  10
 1386.2278477290
  20
 368.35977587173
  30
0.0
  40
 1.0000000000000
 100
AcDbArc
  50
 355.50159256158
  51
 90.000009819022
   0
ARC
   5
437
 100
AcDbEntity
   8
LEVEL002
 370
30
   6
CONTINUOUS
  62
7
 100
AcDbCircle
  10
 1414.0707427649
  20
 390.35977587173
  30
0.0
  40
 1.0000000000000
 100
AcDbArc
  50
0.0
  51
 89.999996087149
   0
LINE
   5
438
 100
AcDbEntity
   8
LEVEL002
 370
30
 100
AcDbLine
   6
CONTINUOUS
  62
7
  10
 1414.0707428332
  20
 391.35977587173
  30
0.0
  11
 1378.0707428332
  21
 391.35977587173
  31
0.0
   0
LINE
   5
439
 100
AcDbEntity
   8
LEVEL002
 370
30
 100
AcDbLine
   6
CONTINUOUS
  62
7
  10
 1415.0707428332
  20
 390.35977587173
  30
0.0
  11
 1415.0707428332
  21
 385.02265417036
  31
0.0
   0
ARC
   5
43A
 100
AcDbEntity
   8
LEVEL002
 370
30
   6
CONTINUOUS
  62
7
 100
AcDbCircle
  10
 1416.0707429549
  20
 385.02265417036
  30
0.0
  40
 1.0000000000000
 100
AcDbArc
  50
 180.00000000000
  51
 269.99999302682
   0
LINE
   5
43B
 100
AcDbEntity
   8
LEVEL002
 370
30
 100
AcDbLine
   6
CONTINUOUS
  62
7
  10
 1416.0707428332
  20
 384.02265417036
  30
0.0
  11
 1455.6707428332
  21
 384.02265417036
  31
0.0
   0
ARC
   5
43C
 100
AcDbEntity
   8
LEVEL002
 370
30
   6
CONTINUOUS
  62
7
 100
AcDbCircle
  10
 1455.6707428541
  20
 383.02265417036
  30
0.0
  40
 1.0000000000000
 100
AcDbArc
  50
0.0
  51
 90.000001199369
   0
ARC
   5
43D
 100
AcDbEntity
   8
LEVEL002
 370
30
   6
CONTINUOUS
  62
7
 100
AcDbCircle
  10
 1378.0707428332
  20
 390.35977576856
  30
0.0
  40
 1.0000000000000
 100
AcDbArc
  50
 90.000000000000
  51
 179.99999408862
   0
LINE
   5
43E
 100
AcDbEntity
   8
LEVEL002
 370
30
 100
AcDbLine
   6
CONTINUOUS
  62
7
  10
 1413.0707428332
  20
 882.35977587173
  30
0.0
  11
 1413.0707428332
  21
 391.35977587173
  31
0.0
   0
LINE
   5
43F
 100
AcDbEntity
   8
LEVEL002
 370
30
 100
AcDbLine
   6
CONTINUOUS
  62
7
  10
 1379.0707428332
  20
 882.35977587173
  30
0.0
  11
 1379.0707428332
  21
 391.35977587173
  31
0.0
   0
LINE
   5
440
 100
AcDbEntity
   8
LEVEL002
 370
40
 100
AcDbLine
   6
CONTINUOUS
  62
3
  10
 1456.6707428332
  20
 261.85977587173
  30
0.0
  11
 1457.8707428332
  21
 261.85977587173
  31
0.0
   0
LINE
   5
441
 100
AcDbEntity
   8
LEVEL002
 370
15
 100
AcDbLine
   6
DASHDOT
  62
8
  10
 1396.0707428332
  20
 296.67308251573
  30
0.0
  11
 1396.0707428332
  21
 1091.3794246729
  31
0.0
   0
LINE
   5
442
 100
AcDbEntity
   8
LEVEL002
 370
15
 100
AcDbLine
   6
DASHDOT
  62
8
  10
 1356.5026026300
  20
 1036.8597758717
  30
0.0
  11
 1502.5728918958
  21
 1036.8597758717
  31
0.0
   0
LINE
   5
443
 100
AcDbEntity
   8
LEVEL002
 370
15
 100
AcDbLine
   6
DASHDOT
  62
8
  10
 1356.5026026300
  20
 336.85977587173
  30
0.0
  11
 1502.5728918958
  21
 336.85977587173
  31
0.0
   0
DIMENSION
   5
444
 100
AcDbEntity
   8
LEVEL001
 370
15
   6
CONTINUOUS
  62
8
 100
AcDbDimension
   2
*D15
  10
 1279.0707428332
  20
 1036.8597758717
  30
0.0
  11
 1279.0707428332
  21
 686.85977587173
  31
0.0
  70
0
   3
GMM001
 100
AcDbAlignedDimension
  13
 1356.5026026300
  23
 336.85977587173
  33
0.0
  14
 1356.5026026300
  24
 1036.8597758717
  34
0.0
  50
 90.000000000000
 100
AcDbRotatedDimension
   0
DIMENSION
   5
445
 100
AcDbEntity
   8
LEVEL001
 370
15
   6
CONTINUOUS
  62
8
 100
AcDbDimension
   2
*D16
  10
 1456.6707428332
  20
 219.69687231320
  30
0.0
  11
 1426.3707428332
  21
 219.69687231320
  31
0.0
  70
0
   1
\A1;60
   3
GMM001
 100
AcDbAlignedDimension
  13
 1396.0707428332
  23
 296.67308251573
  33
0.0
  14
 1456.6707428332
  24
 219.69687231320
  34
0.0
 100
AcDbRotatedDimension
   0
LINE
   5
446
 100
AcDbEntity
   8
LEVEL002
 370
40
 100
AcDbLine
   6
CONTINUOUS
  62
3
  10
 1456.6707428332
  20
 175.89824531088
  30
0.0
  11
 1456.6707428332
  21
 1148.5309633592
  31
0.0
   0
ARC
   5
447
 100
AcDbEntity
   8
LEVEL002
 370
30
   6
CONTINUOUS
  62
7
 100
AcDbCircle
  10
 1039.5893892552
  20
 368.35977580103
  30
0.0
  40
 1.0000000000000
 100
AcDbArc
  50
 0.40520897663894E-5
  51
 90.000000000208
   0
LINE
   5
448
 100
AcDbEntity
   8
LEVEL002
 370
30
 100
AcDbLine
   6
CONTINUOUS
  62
7
  10
 1011.5893892552
  20
 369.35977587173
  30
0.0
  11
 1039.5893892552
  21
 369.35977587173
  31
0.0
   0
ARC
   5
449
 100
AcDbEntity
   8
LEVEL002
 370
30
   6
CONTINUOUS
  62
7
 100
AcDbCircle
  10
 1011.5893892180
  20
 368.35977587173
  30
0.0
  40
 1.0000000000000
 100
AcDbArc
  50
 89.999997869526
  51
 180.00000000000
   0
ARC
   5
44A
 100
AcDbEntity
   8
LEVEL002
 370
30
   6
CONTINUOUS
  62
7
 100
AcDbCircle
  10
 1043.5893892552
  20
 390.35977593740
  30
0.0
  40
 1.0000000000000
 100
AcDbArc
  50
0.0
  51
 89.999999999792
   0
LINE
   5
44B
 100
AcDbEntity
   8
LEVEL002
 370
30
 100
AcDbLine
   6
CONTINUOUS
  62
7
  10
 1007.5893892552
  20
 391.35977587173
  30
0.0
  11
 1043.5893892552
  21
 391.35977587173
  31
0.0
   0
ARC
   5
44C
 100
AcDbEntity
   8
LEVEL002
 370
30
   6
CONTINUOUS
  62
7
 100
AcDbCircle
  10
 1007.5893892212
  20
 390.35977587173
  30
0.0
  40
 1.0000000000000
 100
AcDbArc
  50
 89.999998053163
  51
 180.00000000000
   0
ARC
   5
44D
 100
AcDbEntity
   8
LEVEL002
 370
30
   6
CONTINUOUS
  62
7
 100
AcDbCircle
  10
 1011.5893892180
  20
 368.35977587173
  30
0.0
  40
 1.0000000000000
 100
AcDbArc
  50
 89.999997869526
  51
 180.00000000000
   0
LINE
   5
44E
 100
AcDbEntity
   8
LEVEL002
 370
30
 100
AcDbLine
   6
CONTINUOUS
  62
7
  10
 1039.5893892552
  20
 369.35977587173
  30
0.0
  11
 1011.5893892552
  21
 369.35977587173
  31
0.0
   0
ARC
   5
44F
 100
AcDbEntity
   8
LEVEL002
 370
30
   6
CONTINUOUS
  62
7
 100
AcDbCircle
  10
 1039.5893892552
  20
 368.35977580103
  30
0.0
  40
 1.0000000000000
 100
AcDbArc
  50
 0.40520897663894E-5
  51
 90.000000000208
   0
ARC
   5
450
 100
AcDbEntity
   8
LEVEL002
 370
30
   6
CONTINUOUS
  62
7
 100
AcDbCircle
  10
 1007.5893892212
  20
 390.35977587173
  30
0.0
  40
 1.0000000000000
 100
AcDbArc
  50
 89.999998053163
  51
 180.00000000000
   0
LINE
   5
451
 100
AcDbEntity
   8
LEVEL002
 370
30
 100
AcDbLine
   6
CONTINUOUS
  62
7
  10
 1043.5893892552
  20
 391.35977587173
  30
0.0
  11
 1007.5893892552
  21
 391.35977587173
  31
0.0
   0
ARC
   5
452
 100
AcDbEntity
   8
LEVEL002
 370
30
   6
CONTINUOUS
  62
7
 100
AcDbCircle
  10
 1043.5893892552
  20
 390.35977593740
  30
0.0
  40
 1.0000000000000
 100
AcDbArc
  50
0.0
  51
 89.999999999792
   0
LINE
   5
453
 100
AcDbEntity
   8
LEVEL002
 370
30
 100
AcDbLine
   6
CONTINUOUS
  62
7
  10
 1042.5893892552
  20
 424.35374473480
  30
0.0
  11
 1042.5893892552
  21
 391.35977587173
  31
0.0
   0
LINE
   5
454
 100
AcDbEntity
   8
LEVEL002
 370
30
 100
AcDbLine
   6
CONTINUOUS
  62
7
  10
 1008.5893892552
  20
 424.35374473480
  30
0.0
  11
 1008.5893892552
  21
 391.35977587173
  31
0.0
   0
LINE
   5
455
 100
AcDbEntity
   8
LEVEL002
 370
30
 100
AcDbLine
   6
CONTINUOUS
  62
7
  10
 1008.5893892552
  20
 424.35374473480
  30
0.0
  11
 1008.5893892552
  21
 391.35977587173
  31
0.0
   0
LINE
   5
456
 100
AcDbEntity
   8
LEVEL002
 370
30
 100
AcDbLine
   6
CONTINUOUS
  62
7
  10
 1008.5893892552
  20
 882.35977587173
  30
0.0
  11
 1008.5893892552
  21
 391.35977587173
  31
0.0
   0
LINE
   5
457
 100
AcDbEntity
   8
LEVEL002
 370
30
 100
AcDbLine
   6
CONTINUOUS
  62
7
  10
 1042.5893892552
  20
 882.35977587173
  30
0.0
  11
 1042.5893892552
  21
 391.35977587173
  31
0.0
   0
ARC
   5
458
 100
AcDbEntity
   8
LEVEL002
 370
30
   6
CONTINUOUS
  62
7
 100
AcDbCircle
  10
 1025.5893892552
  20
 1045.3597758717
  30
0.0
  40
 24.000000000000
 100
AcDbArc
  50
0.0
  51
 180.00000000000
   0
ARC
   5
459
 100
AcDbEntity
   8
LEVEL002
 370
30
   6
CONTINUOUS
  62
7
 100
AcDbCircle
  10
 1025.5893892552
  20
 1004.3597758654
  30
0.0
  40
 24.000000000000
 100
AcDbArc
  50
 179.99999998493
  51
 217.65846199427
   0
ARC
   5
45A
 100
AcDbEntity
   8
LEVEL002
 370
30
   6
CONTINUOUS
  62
7
 100
AcDbCircle
  10
 1025.5893892472
  20
 1004.3597758614
  30
0.0
  40
 24.000000000000
 100
AcDbArc
  50
 322.34153802497
  51
 0.24667669665182E-7
   0
ARC
   5
45B
 100
AcDbEntity
   8
LEVEL002
 370
30
   6
CONTINUOUS
  62
7
 100
AcDbCircle
  10
 1039.5893892878
  20
 1005.3597758717
  30
0.0
  40
 1.0000000000000
 100
AcDbArc
  50
 269.99999813154
  51
0.0
   0
LINE
   5
45C
 100
AcDbEntity
   8
LEVEL002
 370
30
 100
AcDbLine
   6
CONTINUOUS
  62
7
  10
 1011.5893892552
  20
 1004.3597758717
  30
0.0
  11
 1039.5893892552
  21
 1004.3597758717
  31
0.0
   0
ARC
   5
45D
 100
AcDbEntity
   8
LEVEL002
 370
30
   6
CONTINUOUS
  62
7
 100
AcDbCircle
  10
 1011.5893892552
  20
 1005.3597758708
  30
0.0
  40
 1.0000000000000
 100
AcDbArc
  50
 179.99999994831
  51
 270.00000000000
   0
ARC
   5
45E
 100
AcDbEntity
   8
LEVEL002
 370
30
   6
CONTINUOUS
  62
7
 100
AcDbCircle
  10
 1043.5893891444
  20
 983.35977587173
  30
0.0
  40
 1.0000000000000
 100
AcDbArc
  50
 270.00000634598
  51
 0.12506449896264E-8
   0
LINE
   5
45F
 100
AcDbEntity
   8
LEVEL002
 370
30
 100
AcDbLine
   6
CONTINUOUS
  62
7
  10
 1007.5893892552
  20
 982.35977587173
  30
0.0
  11
 1043.5893892552
  21
 982.35977587173
  31
0.0
   0
ARC
   5
460
 100
AcDbEntity
   8
LEVEL002
 370
30
   6
CONTINUOUS
  62
7
 100
AcDbCircle
  10
 1007.5893892552
  20
 983.35977586063
  30
0.0
  40
 1.0000000000000
 100
AcDbArc
  50
 179.99999936175
  51
 270.00000000000
   0
LINE
   5
461
 100
AcDbEntity
   8
LEVEL002
 370
30
 100
AcDbLine
   6
CONTINUOUS
  62
7
  10
 1042.5893892552
  20
 949.36580700873
  30
0.0
  11
 1042.5893892552
  21
 982.35977587173
  31
0.0
   0
ARC
   5
462
 100
AcDbEntity
   8
LEVEL002
 370
30
   6
CONTINUOUS
  62
7
 100
AcDbCircle
  10
 1025.5893892552
  20
 1045.3597758717
  30
0.0
  40
 24.000000000000
 100
AcDbArc
  50
0.0
  51
 180.00000000000
   0
ARC
   5
463
 100
AcDbEntity
   8
LEVEL002
 370
30
   6
CONTINUOUS
  62
7
 100
AcDbCircle
  10
 1025.5893892552
  20
 1004.3597758654
  30
0.0
  40
 24.000000000000
 100
AcDbArc
  50
 179.99999998493
  51
 217.65846199427
   0
ARC
   5
464
 100
AcDbEntity
   8
LEVEL002
 370
30
   6
CONTINUOUS
  62
7
 100
AcDbCircle
  10
 1025.5893892472
  20
 1004.3597758614
  30
0.0
  40
 24.000000000000
 100
AcDbArc
  50
 322.34153802497
  51
 0.24667669665182E-7
   0
ARC
   5
465
 100
AcDbEntity
   8
LEVEL002
 370
30
   6
CONTINUOUS
  62
7
 100
AcDbCircle
  10
 1039.5893892878
  20
 1005.3597758717
  30
0.0
  40
 1.0000000000000
 100
AcDbArc
  50
 269.99999813154
  51
0.0
   0
LINE
   5
466
 100
AcDbEntity
   8
LEVEL002
 370
30
 100
AcDbLine
   6
CONTINUOUS
  62
7
  10
 1011.5893892552
  20
 1004.3597758717
  30
0.0
  11
 1039.5893892552
  21
 1004.3597758717
  31
0.0
   0
ARC
   5
467
 100
AcDbEntity
   8
LEVEL002
 370
30
   6
CONTINUOUS
  62
7
 100
AcDbCircle
  10
 1011.5893892552
  20
 1005.3597758708
  30
0.0
  40
 1.0000000000000
 100
AcDbArc
  50
 179.99999994831
  51
 270.00000000000
   0
ARC
   5
468
 100
AcDbEntity
   8
LEVEL002
 370
30
   6
CONTINUOUS
  62
7
 100
AcDbCircle
  10
 1043.5893891444
  20
 983.35977587173
  30
0.0
  40
 1.0000000000000
 100
AcDbArc
  50
 270.00000634598
  51
 0.12506449896264E-8
   0
LINE
   5
469
 100
AcDbEntity
   8
LEVEL002
 370
30
 100
AcDbLine
   6
CONTINUOUS
  62
7
  10
 1007.5893892552
  20
 982.35977587173
  30
0.0
  11
 1043.5893892552
  21
 982.35977587173
  31
0.0
   0
ARC
   5
46A
 100
AcDbEntity
   8
LEVEL002
 370
30
   6
CONTINUOUS
  62
7
 100
AcDbCircle
  10
 1007.5893892552
  20
 983.35977586063
  30
0.0
  40
 1.0000000000000
 100
AcDbArc
  50
 179.99999936175
  51
 270.00000000000
   0
LINE
   5
46B
 100
AcDbEntity
   8
LEVEL002
 370
30
 100
AcDbLine
   6
CONTINUOUS
  62
7
  10
 1008.5893892552
  20
 949.36580700873
  30
0.0
  11
 1008.5893892552
  21
 982.35977587173
  31
0.0
   0
LINE
   5
46C
 100
AcDbEntity
   8
LEVEL002
 370
30
 100
AcDbLine
   6
CONTINUOUS
  62
7
  10
 1042.5893892552
  20
 949.36580700873
  30
0.0
  11
 1042.5893892552
  21
 982.35977587173
  31
0.0
   0
LINE
   5
46D
 100
AcDbEntity
   8
LEVEL002
 370
30
 100
AcDbLine
   6
CONTINUOUS
  62
7
  10
 1042.5893892552
  20
 949.36580700873
  30
0.0
  11
 1042.5893892552
  21
 982.35977587173
  31
0.0
   0
LINE
   5
46E
 100
AcDbEntity
   8
LEVEL002
 370
30
 100
AcDbLine
   6
CONTINUOUS
  62
7
  10
 1001.5893892552
  20
 1036.8597758717
  30
0.0
  11
 1001.5893892552
  21
 1004.3597758717
  31
0.0
   0
LINE
   5
46F
 100
AcDbEntity
   8
LEVEL002
 370
30
 100
AcDbLine
   6
CONTINUOUS
  62
7
  10
 1049.5893892552
  20
 1036.8597758717
  30
0.0
  11
 1049.5893892552
  21
 1004.3597758717
  31
0.0
   0
LINE
   5
470
 100
AcDbEntity
   8
LEVEL002
 370
30
 100
AcDbLine
   6
CONTINUOUS
  62
7
  10
 1001.5893892552
  20
 1004.3597758717
  30
0.0
  11
 1001.5893892552
  21
 1045.3597758717
  31
0.0
   0
LINE
   5
471
 100
AcDbEntity
   8
LEVEL002
 370
30
 100
AcDbLine
   6
CONTINUOUS
  62
7
  10
 1001.5893892552
  20
 1004.3597758717
  30
0.0
  11
 1001.5893892552
  21
 1045.3597758717
  31
0.0
   0
LINE
   5
472
 100
AcDbEntity
   8
LEVEL002
 370
30
 100
AcDbLine
   6
CONTINUOUS
  62
7
  10
 1049.5893892552
  20
 1004.3597758717
  30
0.0
  11
 1049.5893892552
  21
 1045.3597758717
  31
0.0
   0
LINE
   5
473
 100
AcDbEntity
   8
LEVEL002
 370
30
 100
AcDbLine
   6
CONTINUOUS
  62
7
  10
 1049.5893892552
  20
 1004.3597758717
  30
0.0
  11
 1049.5893892552
  21
 1045.3597758717
  31
0.0
   0
LINE
   5
474
 100
AcDbEntity
   8
LEVEL002
 370
30
 100
AcDbLine
   6
CONTINUOUS
  62
7
  10
 1039.5893892552
  20
 1004.3597758717
  30
0.0
  11
 1011.5893892552
  21
 1004.3597758717
  31
0.0
   0
LINE
   5
475
 100
AcDbEntity
   8
LEVEL002
 370
30
 100
AcDbLine
   6
CONTINUOUS
  62
7
  10
 1044.5893892552
  20
 983.35977587173
  30
0.0
  11
 1044.5893892552
  21
 1049.0835811665
  31
0.0
   0
ARC
   5
476
 100
AcDbEntity
   8
LEVEL002
 370
30
   6
CONTINUOUS
  62
7
 100
AcDbCircle
  10
 1034.5893892552
  20
 1049.0835811754
  30
0.0
  40
 10.000000000000
 100
AcDbArc
  50
0.0
  51
 49.994799082313
   0
LINE
   5
477
 100
AcDbEntity
   8
LEVEL002
 370
30
 100
AcDbLine
   6
CONTINUOUS
  62
7
  10
 1040.5893892552
  20
 1005.3597758717
  30
0.0
  11
 1040.5893892552
  21
 1050.2587553573
  31
0.0
   0
ARC
   5
478
 100
AcDbEntity
   8
LEVEL002
 370
30
   6
CONTINUOUS
  62
7
 100
AcDbCircle
  10
 1030.5893892552
  20
 1050.2587553628
  30
0.0
  40
 10.000000000000
 100
AcDbArc
  50
0.0
  51
 44.415308574633
   0
LINE
   5
479
 100
AcDbEntity
   8
LEVEL002
 370
30
 100
AcDbLine
   6
CONTINUOUS
  62
7
  10
 1010.5893892552
  20
 1005.3597758717
  30
0.0
  11
 1010.5893892552
  21
 1050.2587553573
  31
0.0
   0
ARC
   5
47A
 100
AcDbEntity
   8
LEVEL002
 370
30
   6
CONTINUOUS
  62
7
 100
AcDbCircle
  10
 1025.5893892565
  20
 1045.3597758704
  30
0.0
  40
 17.000000000000
 100
AcDbArc
  50
 44.415308603441
  51
 135.58469140268
   0
ARC
   5
47B
 100
AcDbEntity
   8
LEVEL002
 370
30
   6
CONTINUOUS
  62
7
 100
AcDbCircle
  10
 1020.5893892540
  20
 1050.2587553560
  30
0.0
  40
 10.000000000000
 100
AcDbArc
  50
 135.58469139269
  51
 180.00000000000
   0
LINE
   5
47C
 100
AcDbEntity
   8
LEVEL002
 370
30
 100
AcDbLine
   6
CONTINUOUS
  62
7
  10
 1006.5893892552
  20
 983.35977587173
  30
0.0
  11
 1006.5893892552
  21
 1049.0835811665
  31
0.0
   0
ARC
   5
47D
 100
AcDbEntity
   8
LEVEL002
 370
30
   6
CONTINUOUS
  62
7
 100
AcDbCircle
  10
 1025.5893892520
  20
 1038.3597758744
  30
0.0
  40
 24.000000000000
 100
AcDbArc
  50
 49.994799105279
  51
 130.00520088315
   0
ARC
   5
47E
 100
AcDbEntity
   8
LEVEL002
 370
30
   6
CONTINUOUS
  62
7
 100
AcDbCircle
  10
 1016.5893892500
  20
 1049.0835811621
  30
0.0
  40
 10.000000000000
 100
AcDbArc
  50
 130.00520084563
  51
 179.99999997482
   0
LINE
   5
47F
 100
AcDbEntity
   8
LEVEL002
 370
30
 100
AcDbLine
   6
CONTINUOUS
  62
7
  10
 1040.5893892552
  20
 1005.3597758717
  30
0.0
  11
 1040.5893892552
  21
 1050.2587553573
  31
0.0
   0
LINE
   5
480
 100
AcDbEntity
   8
LEVEL002
 370
30
 100
AcDbLine
   6
CONTINUOUS
  62
7
  10
 1006.5893892552
  20
 983.35977587173
  30
0.0
  11
 1006.5893892552
  21
 1049.0835811665
  31
0.0
   0
LINE
   5
481
 100
AcDbEntity
   8
LEVEL002
 370
30
 100
AcDbLine
   6
CONTINUOUS
  62
7
  10
 1010.5893892552
  20
 1005.3597758717
  30
0.0
  11
 1010.5893892552
  21
 1050.2587553573
  31
0.0
   0
LINE
   5
482
 100
AcDbEntity
   8
LEVEL002
 370
30
 100
AcDbLine
   6
CONTINUOUS
  62
7
  10
 1042.5893892552
  20
 882.35977587173
  30
0.0
  11
 1042.5893892552
  21
 982.35977587173
  31
0.0
   0
LINE
   5
483
 100
AcDbEntity
   8
LEVEL002
 370
30
 100
AcDbLine
   6
CONTINUOUS
  62
7
  10
 1008.5893892552
  20
 882.35977587173
  30
0.0
  11
 1008.5893892552
  21
 982.35977587173
  31
0.0
   0
ARC
   5
484
 100
AcDbEntity
   8
LEVEL002
 370
30
   6
CONTINUOUS
  62
7
 100
AcDbCircle
  10
 994.08938921757
  20
 350.85977587173
  30
0.0
  40
 1.0000000000000
 100
AcDbArc
  50
 89.999997847223
  51
 180.00000000000
   0
LINE
   5
485
 100
AcDbEntity
   8
LEVEL002
 370
30
 100
AcDbLine
   6
CONTINUOUS
  62
7
  10
 993.08938925517
  20
 322.85977587173
  30
0.0
  11
 993.08938925517
  21
 350.85977587176
  31
0.0
   0
ARC
   5
486
 100
AcDbEntity
   8
LEVEL002
 370
30
   6
CONTINUOUS
  62
7
 100
AcDbCircle
  10
 994.08938925517
  20
 322.85977587084
  30
0.0
  40
 1.0000000000000
 100
AcDbArc
  50
 179.99999994872
  51
 270.00000000000
   0
ARC
   5
487
 100
AcDbEntity
   8
LEVEL002
 370
30
   6
CONTINUOUS
  62
7
 100
AcDbCircle
  10
 972.08938915787
  20
 354.85977587176
  30
0.0
  40
 1.0000000000000
 100
AcDbArc
  50
 89.999994423791
  51
 180.00000000000
   0
LINE
   5
488
 100
AcDbEntity
   8
LEVEL002
 370
30
 100
AcDbLine
   6
CONTINUOUS
  62
7
  10
 971.08938925517
  20
 318.85977587173
  30
0.0
  11
 971.08938925517
  21
 354.85977587173
  31
0.0
   0
ARC
   5
489
 100
AcDbEntity
   8
LEVEL002
 370
30
   6
CONTINUOUS
  62
7
 100
AcDbCircle
  10
 972.08938925517
  20
 318.85977617608
  30
0.0
  40
 1.0000000000000
 100
AcDbArc
  50
 180.00000000000
  51
 269.99999999979
   0
ARC
   5
48A
 100
AcDbEntity
   8
LEVEL002
 370
30
   6
CONTINUOUS
  62
7
 100
AcDbCircle
  10
 994.08938925517
  20
 322.85977587084
  30
0.0
  40
 1.0000000000000
 100
AcDbArc
  50
 179.99999994872
  51
 270.00000000000
   0
LINE
   5
48B
 100
AcDbEntity
   8
LEVEL002
 370
30
 100
AcDbLine
   6
CONTINUOUS
  62
7
  10
 993.08938925517
  20
 350.85977587176
  30
0.0
  11
 993.08938925517
  21
 322.85977587173
  31
0.0
   0
ARC
   5
48C
 100
AcDbEntity
   8
LEVEL002
 370
30
   6
CONTINUOUS
  62
7
 100
AcDbCircle
  10
 994.08938921757
  20
 350.85977587173
  30
0.0
  40
 1.0000000000000
 100
AcDbArc
  50
 89.999997847223
  51
 180.00000000000
   0
ARC
   5
48D
 100
AcDbEntity
   8
LEVEL002
 370
30
   6
CONTINUOUS
  62
7
 100
AcDbCircle
  10
 972.08938925517
  20
 318.85977617608
  30
0.0
  40
 1.0000000000000
 100
AcDbArc
  50
 180.00000000000
  51
 269.99999999979
   0
LINE
   5
48E
 100
AcDbEntity
   8
LEVEL002
 370
30
 100
AcDbLine
   6
CONTINUOUS
  62
7
  10
 971.08938925517
  20
 354.85977587173
  30
0.0
  11
 971.08938925517
  21
 318.85977587173
  31
0.0
   0
ARC
   5
48F
 100
AcDbEntity
   8
LEVEL002
 370
30
   6
CONTINUOUS
  62
7
 100
AcDbCircle
  10
 972.08938915787
  20
 354.85977587176
  30
0.0
  40
 1.0000000000000
 100
AcDbArc
  50
 89.999994423791
  51
 180.00000000000
   0
LINE
   5
490
 100
AcDbEntity
   8
LEVEL002
 370
40
 100
AcDbLine
   6
CONTINUOUS
  62
3
  10
 938.09542039217
  20
 353.85977587173
  30
0.0
  11
 971.08938925517
  21
 353.85977587173
  31
0.0
   0
LINE
   5
491
 100
AcDbEntity
   8
LEVEL002
 370
40
 100
AcDbLine
   6
CONTINUOUS
  62
3
  10
 938.09542039217
  20
 319.85977587173
  30
0.0
  11
 971.08938925517
  21
 319.85977587173
  31
0.0
   0
LINE
   5
492
 100
AcDbEntity
   8
LEVEL002
 370
40
 100
AcDbLine
   6
CONTINUOUS
  62
3
  10
 938.09542039217
  20
 319.85977587173
  30
0.0
  11
 971.08938925517
  21
 319.85977587173
  31
0.0
   0
LINE
   5
493
 100
AcDbEntity
   8
LEVEL002
 370
30
 100
AcDbLine
   6
CONTINUOUS
  62
7
  10
 1006.5893892552
  20
 385.85977587176
  30
0.0
  11
 1006.5893892552
  21
 390.35977587173
  31
0.0
   0
LINE
   5
494
 100
AcDbEntity
   8
LEVEL002
 370
30
 100
AcDbLine
   6
CONTINUOUS
  62
7
  10
 976.58938925517
  20
 355.85977587176
  30
0.0
  11
 972.08938925517
  21
 355.85977587176
  31
0.0
   0
ARC
   5
495
 100
AcDbEntity
   8
LEVEL002
 370
30
   6
CONTINUOUS
  62
7
 100
AcDbCircle
  10
 976.58938925297
  20
 385.85977587176
  30
0.0
  40
 30.000000000000
 100
AcDbArc
  50
 270.00000000423
  51
0.0
   0
LINE
   5
496
 100
AcDbEntity
   8
LEVEL002
 370
30
 100
AcDbLine
   6
CONTINUOUS
  62
7
  10
 1044.5893892552
  20
 347.85977587173
  30
0.0
  11
 1044.5893892552
  21
 390.35977587173
  31
0.0
   0
ARC
   5
497
 100
AcDbEntity
   8
LEVEL002
 370
30
   6
CONTINUOUS
  62
7
 100
AcDbCircle
  10
 1014.5893892609
  20
 347.85977587173
  30
0.0
  40
 30.000000000000
 100
AcDbArc
  50
 269.99999998901
  51
0.0
   0
LINE
   5
498
 100
AcDbEntity
   8
LEVEL002
 370
30
 100
AcDbLine
   6
CONTINUOUS
  62
7
  10
 972.08938925517
  20
 317.85977587173
  30
0.0
  11
 1014.5893892552
  21
 317.85977587173
  31
0.0
   0
LINE
   5
499
 100
AcDbEntity
   8
LEVEL002
 370
30
 100
AcDbLine
   6
CONTINUOUS
  62
7
  10
 1044.5893892552
  20
 390.35977587173
  30
0.0
  11
 1044.5893892552
  21
 347.85977587173
  31
0.0
   0
LINE
   5
49A
 100
AcDbEntity
   8
LEVEL002
 370
30
 100
AcDbLine
   6
CONTINUOUS
  62
7
  10
 1040.5893892552
  20
 351.85977587173
  30
0.0
  11
 1040.5893892552
  21
 368.35977587176
  31
0.0
   0
LINE
   5
49B
 100
AcDbEntity
   8
LEVEL002
 370
30
 100
AcDbLine
   6
CONTINUOUS
  62
7
  10
 1010.5893892552
  20
 321.85977587173
  30
0.0
  11
 994.08938925517
  21
 321.85977587173
  31
0.0
   0
ARC
   5
49C
 100
AcDbEntity
   8
LEVEL002
 370
30
   6
CONTINUOUS
  62
7
 100
AcDbCircle
  10
 1010.5893892530
  20
 351.85977587173
  30
0.0
  40
 30.000000000000
 100
AcDbArc
  50
 270.00000000420
  51
0.0
   0
LINE
   5
49D
 100
AcDbEntity
   8
LEVEL002
 370
30
 100
AcDbLine
   6
CONTINUOUS
  62
7
  10
 972.08938925517
  20
 355.85977587176
  30
0.0
  11
 976.58938925517
  21
 355.85977587176
  31
0.0
   0
LINE
   5
49E
 100
AcDbEntity
   8
LEVEL002
 370
30
 100
AcDbLine
   6
CONTINUOUS
  62
7
  10
 1010.5893892552
  20
 367.85977587173
  30
0.0
  11
 1010.5893892552
  21
 368.35977587176
  31
0.0
   0
LINE
   5
49F
 100
AcDbEntity
   8
LEVEL002
 370
30
 100
AcDbLine
   6
CONTINUOUS
  62
7
  10
 994.58938925517
  20
 351.85977587173
  30
0.0
  11
 994.08938925517
  21
 351.85977587173
  31
0.0
   0
ARC
   5
4A0
 100
AcDbEntity
   8
LEVEL002
 370
30
   6
CONTINUOUS
  62
7
 100
AcDbCircle
  10
 994.58938925097
  20
 367.85977587173
  30
0.0
  40
 16.000000000000
 100
AcDbArc
  50
 270.00000001498
  51
0.0
   0
LINE
   5
4A1
 100
AcDbEntity
   8
LEVEL002
 370
15
 100
AcDbLine
   6
DASHDOT
  62
8
  10
 1025.5893892552
  20
 296.67308251573
  30
0.0
  11
 1025.5893892552
  21
 1097.5065394420
  31
0.0
   0
LINE
   5
4A2
 100
AcDbEntity
   8
LEVEL002
 370
15
 100
AcDbLine
   6
DASHDOT
  62
8
  10
 1061.0491398037
  20
 1036.8597758717
  30
0.0
  11
 983.81149803547
  21
 1036.8597758717
  31
0.0
   0
DIMENSION
   5
4A3
 100
AcDbEntity
   8
LEVEL001
 370
15
   6
CONTINUOUS
  62
8
 100
AcDbDimension
   2
*D17
  10
 1142.5893892552
  20
 1036.8597758717
  30
0.0
  11
 1142.5893892552
  21
 686.85977587173
  31
0.0
  70
0
   3
GMM001
 100
AcDbAlignedDimension
  13
 1061.0491398037
  23
 336.85977587173
  33
0.0
  14
 1071.0491398037
  24
 1036.8597758717
  34
0.0
  50
 90.000000000000
 100
AcDbRotatedDimension
   0
LEADER
   5
4A4
 100
AcDbEntity
   8
LEVEL001
 370
15
   6
CONTINUOUS
  62
8
 100
AcDbLeader
   3
GMM002
  73
0
  74
1
  75
0
  40
 30.000000000000
  41
 630.00000000000
  76
2
  10
 1024.3303345982
  20
 737.86029564047
  30
0.0
  10
 961.12500404095
  20
 823.26570104589
  30
0.0
  77
8
 340
4A5
 213
0.0
 223
-10.000000000000
 233
0.0
   0
MTEXT
   5
4A5
 102
{ACAD_REACTORS
 330
4A4
 102
}
 100
AcDbEntity
   8
LEVEL001
 370
15
  62
8
 100
AcDbMText
  10
 331.12500404095
  20
 833.26570104589
  30
0.0
  40
 30.000000000000
  41
0.0
  71
7
  72
1
   1
\A1;芯材：アルミニウム(%%c２７.２×１.５ｔ)　　　　　\P表面材：樹脂被膜軟質ＰＶＣ（抗菌材入り）外径%%c３４
   7
GMM002
   0
ARC
   5
4A6
 100
AcDbEntity
   8
LEVEL002
 370
30
   6
CONTINUOUS
  62
7
 100
AcDbCircle
  10
 977.08938925517
  20
 1231.6717006993
  30
0.0
  40
 1.0000000000000
 100
AcDbArc
  50
 180.00000000000
  51
 270.00000000000
   0
ARC
   5
4A7
 100
AcDbEntity
   8
LEVEL002
 370
30
   6
CONTINUOUS
  62
7
 100
AcDbCircle
  10
 984.42651110037
  20
 1309.2717006891
  30
0.0
  40
 1.0000000000000
 100
AcDbArc
  50
 90.000008241334
  51
 180.00000000000
   0
LINE
   5
4A8
 100
AcDbEntity
   8
LEVEL002
 370
30
 100
AcDbLine
   6
CONTINUOUS
  62
7
  10
 983.42651095657
  20
 1269.6717006891
  30
0.0
  11
 983.42651095657
  21
 1309.2717006891
  31
0.0
   0
ARC
   5
4A9
 100
AcDbEntity
   8
LEVEL002
 370
30
   6
CONTINUOUS
  62
7
 100
AcDbCircle
  10
 982.42651098127
  20
 1269.6717006892
  30
0.0
  40
 1.0000000000000
 100
AcDbArc
  50
 269.99999858385
  51
0.0
   0
LINE
   5
4AA
 100
AcDbEntity
   8
LEVEL002
 370
30
 100
AcDbLine
   6
CONTINUOUS
  62
7
  10
 977.08938925517
  20
 1268.6717006892
  30
0.0
  11
 982.42651095657
  21
 1268.6717006892
  31
0.0
   0
LINE
   5
4AB
 100
AcDbEntity
   8
LEVEL002
 370
30
 100
AcDbLine
   6
CONTINUOUS
  62
7
  10
 976.08938925517
  20
 1267.6717006891
  30
0.0
  11
 976.08938925517
  21
 1231.6717006891
  31
0.0
   0
ARC
   5
4AC
 100
AcDbEntity
   8
LEVEL002
 370
30
   6
CONTINUOUS
  62
7
 100
AcDbCircle
  10
 977.08938920827
  20
 1267.6717006892
  30
0.0
  40
 1.0000000000000
 100
AcDbArc
  50
 89.999997315699
  51
 180.00000000000
   0
ARC
   5
4AD
 100
AcDbEntity
   8
LEVEL002
 370
30
   6
CONTINUOUS
  62
7
 100
AcDbCircle
  10
 999.08938918027
  20
 1239.8288054195
  30
0.0
  40
 1.0000000000000
 100
AcDbArc
  50
 85.501589029822
  51
 180.00000000000
   0
LINE
   5
4AE
 100
AcDbEntity
   8
LEVEL002
 370
30
 100
AcDbLine
   6
CONTINUOUS
  62
7
  10
 977.08938925517
  20
 1230.6717006891
  30
0.0
  11
 1003.0893892552
  21
 1230.6717006891
  31
0.0
   0
LINE
   5
4AF
 100
AcDbEntity
   8
LEVEL002
 370
30
 100
AcDbLine
   6
CONTINUOUS
  62
7
  10
 998.08938925517
  20
 1230.6717006891
  30
0.0
  11
 998.08938925517
  21
 1239.8288054136
  31
0.0
   0
LINE
   5
4B0
 100
AcDbEntity
   8
LEVEL002
 370
30
 100
AcDbLine
   6
CONTINUOUS
  62
7
  10
 1048.5893892552
  20
 1310.2717006891
  30
0.0
  11
 984.42651095657
  21
 1310.2717006891
  31
0.0
   0
ARC
   5
4B1
 100
AcDbEntity
   8
LEVEL002
 370
30
   6
CONTINUOUS
  62
7
 100
AcDbCircle
  10
 1048.5893892552
  20
 1309.2717009089
  30
0.0
  40
 1.0000000000000
 100
AcDbArc
  50
0.0
  51
 89.999999999792
   0
ARC
   5
4B2
 100
AcDbEntity
   8
LEVEL002
 370
30
   6
CONTINUOUS
  62
7
 100
AcDbCircle
  10
 1025.6117627852
  20
 1249.6717006891
  30
0.0
  40
 19.000000000000
 100
AcDbArc
  50
 180.00000000000
  51
0.0
   0
LINE
   5
4B3
 100
AcDbEntity
   8
LEVEL002
 370
30
 100
AcDbLine
   6
CONTINUOUS
  62
7
  10
 1011.6393892552
  20
 1258.9010988391
  30
0.0
  11
 1011.8516610049
  21
 1259.5319309114
  31
0.0
   0
LINE
   5
4B4
 100
AcDbEntity
   8
LEVEL002
 370
30
 100
AcDbLine
   6
CONTINUOUS
  62
7
  10
 1011.8516610049
  20
 1259.5319309114
  30
0.0
  11
 1012.4820264842
  21
 1260.1435954704
  31
0.0
   0
LINE
   5
4B5
 100
AcDbEntity
   8
LEVEL002
 370
30
 100
AcDbLine
   6
CONTINUOUS
  62
7
  10
 1012.4820264842
  20
 1260.1435954704
  30
0.0
  11
 1013.5113323570
  21
 1260.7175073980
  31
0.0
   0
LINE
   5
4B6
 100
AcDbEntity
   8
LEVEL002
 370
30
 100
AcDbLine
   6
CONTINUOUS
  62
7
  10
 1013.5113323570
  20
 1260.7175073980
  30
0.0
  11
 1014.9083036854
  21
 1261.2362286707
  31
0.0
   0
LINE
   5
4B7
 100
AcDbEntity
   8
LEVEL002
 370
30
 100
AcDbLine
   6
CONTINUOUS
  62
7
  10
 1014.9083036854
  20
 1261.2362286707
  30
0.0
  11
 1016.6304942022
  21
 1261.6839982051
  31
0.0
   0
LINE
   5
4B8
 100
AcDbEntity
   8
LEVEL002
 370
30
 100
AcDbLine
   6
CONTINUOUS
  62
7
  10
 1016.6304942022
  20
 1261.6839982051
  30
0.0
  11
 1018.6255760202
  21
 1262.0472107505
  31
0.0
   0
LINE
   5
4B9
 100
AcDbEntity
   8
LEVEL002
 370
30
 100
AcDbLine
   6
CONTINUOUS
  62
7
  10
 1018.6255760202
  20
 1262.0472107505
  30
0.0
  11
 1020.8329295879
  21
 1262.3148302774
  31
0.0
   0
LINE
   5
4BA
 100
AcDbEntity
   8
LEVEL002
 370
30
 100
AcDbLine
   6
CONTINUOUS
  62
7
  10
 1020.8329295879
  20
 1262.3148302774
  30
0.0
  11
 1023.1854855840
  21
 1262.4787253020
  31
0.0
   0
LINE
   5
4BB
 100
AcDbEntity
   8
LEVEL002
 370
30
 100
AcDbLine
   6
CONTINUOUS
  62
7
  10
 1023.1854855840
  20
 1262.4787253020
  30
0.0
  11
 1025.6117627852
  21
 1262.5339159570
  31
0.0
   0
LINE
   5
4BC
 100
AcDbEntity
   8
LEVEL002
 370
30
 100
AcDbLine
   6
CONTINUOUS
  62
7
  10
 1025.6117627852
  20
 1262.5339159570
  30
0.0
  11
 1028.0380399864
  21
 1262.4787253020
  31
0.0
   0
LINE
   5
4BD
 100
AcDbEntity
   8
LEVEL002
 370
30
 100
AcDbLine
   6
CONTINUOUS
  62
7
  10
 1028.0380399864
  20
 1262.4787253020
  30
0.0
  11
 1030.3905959825
  21
 1262.3148302774
  31
0.0
   0
LINE
   5
4BE
 100
AcDbEntity
   8
LEVEL002
 370
30
 100
AcDbLine
   6
CONTINUOUS
  62
7
  10
 1030.3905959825
  20
 1262.3148302774
  30
0.0
  11
 1032.5979495502
  21
 1262.0472107505
  31
0.0
   0
LINE
   5
4BF
 100
AcDbEntity
   8
LEVEL002
 370
30
 100
AcDbLine
   6
CONTINUOUS
  62
7
  10
 1032.5979495502
  20
 1262.0472107505
  30
0.0
  11
 1034.5930313682
  21
 1261.6839982051
  31
0.0
   0
LINE
   5
4C0
 100
AcDbEntity
   8
LEVEL002
 370
30
 100
AcDbLine
   6
CONTINUOUS
  62
7
  10
 1034.5930313682
  20
 1261.6839982051
  30
0.0
  11
 1036.3152218850
  21
 1261.2362286707
  31
0.0
   0
LINE
   5
4C1
 100
AcDbEntity
   8
LEVEL002
 370
30
 100
AcDbLine
   6
CONTINUOUS
  62
7
  10
 1036.3152218850
  20
 1261.2362286707
  30
0.0
  11
 1037.7121932133
  21
 1260.7175073980
  31
0.0
   0
LINE
   5
4C2
 100
AcDbEntity
   8
LEVEL002
 370
30
 100
AcDbLine
   6
CONTINUOUS
  62
7
  10
 1037.7121932133
  20
 1260.7175073980
  30
0.0
  11
 1038.7414990862
  21
 1260.1435954704
  31
0.0
   0
LINE
   5
4C3
 100
AcDbEntity
   8
LEVEL002
 370
30
 100
AcDbLine
   6
CONTINUOUS
  62
7
  10
 1038.7414990862
  20
 1260.1435954704
  30
0.0
  11
 1039.3718645655
  21
 1259.5319309114
  31
0.0
   0
LINE
   5
4C4
 100
AcDbEntity
   8
LEVEL002
 370
30
 100
AcDbLine
   6
CONTINUOUS
  62
7
  10
 1039.3718645655
  20
 1259.5319309114
  30
0.0
  11
 1039.5841363152
  21
 1258.9010988391
  31
0.0
   0
LINE
   5
4C5
 100
AcDbEntity
   8
LEVEL002
 370
30
 100
AcDbLine
   6
CONTINUOUS
  62
7
  10
 1011.6393892552
  20
 1258.9010988391
  30
0.0
  11
 1011.6393892552
  21
 1236.7964229081
  31
0.0
   0
LINE
   5
4C6
 100
AcDbEntity
   8
LEVEL002
 370
30
 100
AcDbLine
   6
CONTINUOUS
  62
7
  10
 1039.5841363152
  20
 1258.9010988391
  30
0.0
  11
 1039.5841363152
  21
 1236.7964229081
  31
0.0
   0
LINE
   5
4C7
 100
AcDbEntity
   8
LEVEL002
 370
30
 100
AcDbLine
   6
CONTINUOUS
  62
7
  10
 1049.5224699771
  20
 1309.1894718546
  30
0.0
  11
 1044.6117627852
  21
 1249.6717006891
  31
0.0
   0
ARC
   5
4C8
 100
AcDbEntity
   8
LEVEL002
 370
30
   6
CONTINUOUS
  62
7
 100
AcDbCircle
  10
 1048.5258565029
  20
 1309.2717007012
  30
0.0
  40
 1.0000000000000
 100
AcDbArc
  50
 355.28330853200
  51
 90.000000057009
   0
LINE
   5
4C9
 100
AcDbEntity
   8
LEVEL002
 370
30
 100
AcDbLine
   6
CONTINUOUS
  62
7
  10
 1002.6976690684
  20
 1310.2717006891
  30
0.0
  11
 1048.5258565020
  21
 1310.2717006891
  31
0.0
   0
LINE
   5
4CA
 100
AcDbEntity
   8
LEVEL002
 370
30
 100
AcDbLine
   6
CONTINUOUS
  62
7
  10
 1001.7010555933
  20
 1309.1894718546
  30
0.0
  11
 1006.6117627852
  21
 1249.6717006891
  31
0.0
   0
ARC
   5
4CB
 100
AcDbEntity
   8
LEVEL002
 370
30
   6
CONTINUOUS
  62
7
 100
AcDbCircle
  10
 1002.6976688583
  20
 1309.2717006891
  30
0.0
  40
 1.0000000000000
 100
AcDbArc
  50
 89.999987960458
  51
 184.71669176577
   0
ARC
   5
4CC
 100
AcDbEntity
   8
LEVEL002
 370
30
   6
CONTINUOUS
  62
7
 100
AcDbCircle
  10
 1003.0893892378
  20
 1290.6717006905
  30
0.0
  40
 50.000000000000
 100
AcDbArc
  50
 265.50159335105
  51
 276.45650039246
   0
ARC
   5
4CD
 100
AcDbEntity
   8
LEVEL002
 370
30
   6
CONTINUOUS
  62
7
 100
AcDbCircle
  10
 1003.0893892478
  20
 1290.6717006891
  30
0.0
  40
 60.000000000000
 100
AcDbArc
  50
 270.00000000707
  51
 283.98255508209
   0
LINE
   5
4CE
 100
AcDbEntity
   8
LEVEL002
 370
30
 100
AcDbLine
   6
CONTINUOUS
  62
7
  10
 1025.5893892552
  20
 1309.2717006891
  30
0.0
  11
 1025.5893892552
  21
 1290.6717006891
  31
0.0
   0
LINE
   5
4CF
 100
AcDbEntity
   8
LEVEL002
 370
15
 100
AcDbLine
   6
DASHDOT
  62
8
  10
 1025.5893892552
  20
 1209.4026702609
  30
0.0
  11
 1025.5893892552
  21
 1350.0933825500
  31
0.0
   0
DIMENSION
   5
4D0
 100
AcDbEntity
   8
LEVEL001
 370
15
   6
CONTINUOUS
  62
8
 100
AcDbDimension
   2
*D19
  10
 1142.5893892552
  20
 1310.2717006891
  30
0.0
  11
 1142.5893892552
  21
 1279.6212555766
  31
0.0
  70
0
   1
\A1;60
   3
GMM001
 100
AcDbAlignedDimension
  13
 1058.4709125628
  23
 1248.9708104641
  33
0.0
  14
 1142.5893892552
  24
 1310.2717006891
  34
0.0
  50
 90.000000000000
 100
AcDbRotatedDimension
   0
ARC
   5
4D1
 100
AcDbEntity
   8
LEVEL002
 370
30
   6
CONTINUOUS
  62
7
 100
AcDbCircle
  10
 317.08938925517
  20
 336.85977587173
  30
0.0
  40
 24.000000000000
 100
AcDbArc
  50
 90.000000000000
  51
 270.00000000000
   0
ARC
   5
4D2
 100
AcDbEntity
   8
LEVEL002
 370
30
   6
CONTINUOUS
  62
7
 100
AcDbCircle
  10
 358.08938925077
  20
 336.85977587173
  30
0.0
  40
 24.000000000000
 100
AcDbArc
  50
 270.00000001047
  51
 307.65846201450
   0
ARC
   5
4D3
 100
AcDbEntity
   8
LEVEL002
 370
30
   6
CONTINUOUS
  62
7
 100
AcDbCircle
  10
 358.08938924827
  20
 336.85977587711
  30
0.0
  40
 24.000000000000
 100
AcDbArc
  50
 52.341537972881
  51
 89.999999983464
   0
ARC
   5
4D4
 100
AcDbEntity
   8
LEVEL002
 370
30
   6
CONTINUOUS
  62
7
 100
AcDbCircle
  10
 357.08938925517
  20
 350.85977586725
  30
0.0
  40
 1.0000000000000
 100
AcDbArc
  50
 0.25804974952624E-6
  51
 90.000000000000
   0
LINE
   5
4D5
 100
AcDbEntity
   8
LEVEL002
 370
30
 100
AcDbLine
   6
CONTINUOUS
  62
7
  10
 358.08938925517
  20
 322.85977587173
  30
0.0
  11
 358.08938925517
  21
 350.85977587176
  31
0.0
   0
ARC
   5
4D6
 100
AcDbEntity
   8
LEVEL002
 370
30
   6
CONTINUOUS
  62
7
 100
AcDbCircle
  10
 357.08938922117
  20
 322.85977587173
  30
0.0
  40
 1.0000000000000
 100
AcDbArc
  50
 270.00000194725
  51
0.0
   0
ARC
   5
4D7
 100
AcDbEntity
   8
LEVEL002
 370
30
   6
CONTINUOUS
  62
7
 100
AcDbCircle
  10
 379.08938925517
  20
 354.85977587433
  30
0.0
  40
 1.0000000000000
 100
AcDbArc
  50
0.0
  51
 90.000000000000
   0
LINE
   5
4D8
 100
AcDbEntity
   8
LEVEL002
 370
30
 100
AcDbLine
   6
CONTINUOUS
  62
7
  10
 380.08938925517
  20
 318.85977587173
  30
0.0
  11
 380.08938925517
  21
 354.85977587173
  31
0.0
   0
ARC
   5
4D9
 100
AcDbEntity
   8
LEVEL002
 370
30
   6
CONTINUOUS
  62
7
 100
AcDbCircle
  10
 379.08938945957
  20
 318.85977587173
  30
0.0
  40
 1.0000000000000
 100
AcDbArc
  50
 269.99998828688
  51
0.0
   0
LINE
   5
4DA
 100
AcDbEntity
   8
LEVEL002
 370
40
 100
AcDbLine
   6
CONTINUOUS
  62
3
  10
 413.08335811817
  20
 353.85977587173
  30
0.0
  11
 380.08938925517
  21
 353.85977587173
  31
0.0
   0
ARC
   5
4DB
 100
AcDbEntity
   8
LEVEL002
 370
30
   6
CONTINUOUS
  62
7
 100
AcDbCircle
  10
 317.08938925517
  20
 336.85977587173
  30
0.0
  40
 24.000000000000
 100
AcDbArc
  50
 90.000000000000
  51
 270.00000000000
   0
ARC
   5
4DC
 100
AcDbEntity
   8
LEVEL002
 370
30
   6
CONTINUOUS
  62
7
 100
AcDbCircle
  10
 358.08938925077
  20
 336.85977587173
  30
0.0
  40
 24.000000000000
 100
AcDbArc
  50
 270.00000001047
  51
 307.65846201450
   0
ARC
   5
4DD
 100
AcDbEntity
   8
LEVEL002
 370
30
   6
CONTINUOUS
  62
7
 100
AcDbCircle
  10
 358.08938924827
  20
 336.85977587711
  30
0.0
  40
 24.000000000000
 100
AcDbArc
  50
 52.341537972881
  51
 89.999999983464
   0
ARC
   5
4DE
 100
AcDbEntity
   8
LEVEL002
 370
30
   6
CONTINUOUS
  62
7
 100
AcDbCircle
  10
 357.08938925517
  20
 350.85977586725
  30
0.0
  40
 1.0000000000000
 100
AcDbArc
  50
 0.25804974952624E-6
  51
 90.000000000000
   0
LINE
   5
4DF
 100
AcDbEntity
   8
LEVEL002
 370
30
 100
AcDbLine
   6
CONTINUOUS
  62
7
  10
 358.08938925517
  20
 322.85977587173
  30
0.0
  11
 358.08938925517
  21
 350.85977587176
  31
0.0
   0
ARC
   5
4E0
 100
AcDbEntity
   8
LEVEL002
 370
30
   6
CONTINUOUS
  62
7
 100
AcDbCircle
  10
 357.08938922117
  20
 322.85977587173
  30
0.0
  40
 1.0000000000000
 100
AcDbArc
  50
 270.00000194725
  51
0.0
   0
ARC
   5
4E1
 100
AcDbEntity
   8
LEVEL002
 370
30
   6
CONTINUOUS
  62
7
 100
AcDbCircle
  10
 379.08938925517
  20
 354.85977587433
  30
0.0
  40
 1.0000000000000
 100
AcDbArc
  50
0.0
  51
 90.000000000000
   0
LINE
   5
4E2
 100
AcDbEntity
   8
LEVEL002
 370
30
 100
AcDbLine
   6
CONTINUOUS
  62
7
  10
 380.08938925517
  20
 318.85977587173
  30
0.0
  11
 380.08938925517
  21
 354.85977587173
  31
0.0
   0
ARC
   5
4E3
 100
AcDbEntity
   8
LEVEL002
 370
30
   6
CONTINUOUS
  62
7
 100
AcDbCircle
  10
 379.08938945957
  20
 318.85977587173
  30
0.0
  40
 1.0000000000000
 100
AcDbArc
  50
 269.99998828688
  51
0.0
   0
LINE
   5
4E4
 100
AcDbEntity
   8
LEVEL002
 370
30
 100
AcDbLine
   6
CONTINUOUS
  62
7
  10
 413.08335811817
  20
 319.85977587173
  30
0.0
  11
 380.08938925517
  21
 319.85977587173
  31
0.0
   0
LINE
   5
4E5
 100
AcDbEntity
   8
LEVEL002
 370
40
 100
AcDbLine
   6
CONTINUOUS
  62
3
  10
 413.08335811817
  20
 353.85977587173
  30
0.0
  11
 380.08938925517
  21
 353.85977587173
  31
0.0
   0
LINE
   5
4E6
 100
AcDbEntity
   8
LEVEL002
 370
40
 100
AcDbLine
   6
CONTINUOUS
  62
3
  10
 413.08335811817
  20
 353.85977587173
  30
0.0
  11
 380.08938925517
  21
 353.85977587173
  31
0.0
   0
LINE
   5
4E7
 100
AcDbEntity
   8
LEVEL002
 370
30
 100
AcDbLine
   6
CONTINUOUS
  62
7
  10
 325.58938925517
  20
 312.85977587173
  30
0.0
  11
 358.08938925517
  21
 312.85977587173
  31
0.0
   0
LINE
   5
4E8
 100
AcDbEntity
   8
LEVEL002
 370
30
 100
AcDbLine
   6
CONTINUOUS
  62
7
  10
 325.58938925517
  20
 360.85977587176
  30
0.0
  11
 358.08938925517
  21
 360.85977587176
  31
0.0
   0
LINE
   5
4E9
 100
AcDbEntity
   8
LEVEL002
 370
30
 100
AcDbLine
   6
CONTINUOUS
  62
7
  10
 358.08938925517
  20
 312.85977587173
  30
0.0
  11
 317.08938925517
  21
 312.85977587173
  31
0.0
   0
LINE
   5
4EA
 100
AcDbEntity
   8
LEVEL002
 370
30
 100
AcDbLine
   6
CONTINUOUS
  62
7
  10
 358.08938925517
  20
 312.85977587173
  30
0.0
  11
 317.08938925517
  21
 312.85977587173
  31
0.0
   0
LINE
   5
4EB
 100
AcDbEntity
   8
LEVEL002
 370
30
 100
AcDbLine
   6
CONTINUOUS
  62
7
  10
 358.08938925517
  20
 360.85977587176
  30
0.0
  11
 317.08938925517
  21
 360.85977587176
  31
0.0
   0
LINE
   5
4EC
 100
AcDbEntity
   8
LEVEL002
 370
30
 100
AcDbLine
   6
CONTINUOUS
  62
7
  10
 358.08938925517
  20
 360.85977587176
  30
0.0
  11
 317.08938925517
  21
 360.85977587176
  31
0.0
   0
LINE
   5
4ED
 100
AcDbEntity
   8
LEVEL002
 370
30
 100
AcDbLine
   6
CONTINUOUS
  62
7
  10
 358.08938925517
  20
 350.85977587176
  30
0.0
  11
 358.08938925517
  21
 322.85977587173
  31
0.0
   0
LINE
   5
4EE
 100
AcDbEntity
   8
LEVEL002
 370
30
 100
AcDbLine
   6
CONTINUOUS
  62
7
  10
 379.08938925517
  20
 355.85977587176
  30
0.0
  11
 313.36558396037
  21
 355.85977587176
  31
0.0
   0
ARC
   5
4EF
 100
AcDbEntity
   8
LEVEL002
 370
30
   6
CONTINUOUS
  62
7
 100
AcDbCircle
  10
 313.36558395147
  20
 345.85977587176
  30
0.0
  40
 10.000000000000
 100
AcDbArc
  50
 89.999999948942
  51
 139.99479908239
   0
LINE
   5
4F0
 100
AcDbEntity
   8
LEVEL002
 370
30
 100
AcDbLine
   6
CONTINUOUS
  62
7
  10
 357.08938925517
  20
 351.85977587173
  30
0.0
  11
 312.19040976957
  21
 351.85977587173
  31
0.0
   0
ARC
   5
4F1
 100
AcDbEntity
   8
LEVEL002
 370
30
   6
CONTINUOUS
  62
7
 100
AcDbCircle
  10
 312.19040977657
  20
 341.85977587173
  30
0.0
  40
 10.000000000000
 100
AcDbArc
  50
 90.000000039687
  51
 134.41530862549
   0
LINE
   5
4F2
 100
AcDbEntity
   8
LEVEL002
 370
30
 100
AcDbLine
   6
CONTINUOUS
  62
7
  10
 357.08938925517
  20
 321.85977587173
  30
0.0
  11
 312.19040976957
  21
 321.85977587173
  31
0.0
   0
ARC
   5
4F3
 100
AcDbEntity
   8
LEVEL002
 370
30
   6
CONTINUOUS
  62
7
 100
AcDbCircle
  10
 317.08938925167
  20
 336.85977586834
  30
0.0
  40
 17.000000000000
 100
AcDbArc
  50
 134.41530858080
  51
 225.58469140314
   0
ARC
   5
4F4
 100
AcDbEntity
   8
LEVEL002
 370
30
   6
CONTINUOUS
  62
7
 100
AcDbCircle
  10
 312.19040977087
  20
 331.85977587050
  30
0.0
  40
 10.000000000000
 100
AcDbArc
  50
 225.58469139266
  51
 269.99999999275
   0
LINE
   5
4F5
 100
AcDbEntity
   8
LEVEL002
 370
30
 100
AcDbLine
   6
CONTINUOUS
  62
7
  10
 379.08938925517
  20
 317.85977587173
  30
0.0
  11
 313.36558396037
  21
 317.85977587173
  31
0.0
   0
ARC
   5
4F6
 100
AcDbEntity
   8
LEVEL002
 370
30
   6
CONTINUOUS
  62
7
 100
AcDbCircle
  10
 324.08938925367
  20
 336.85977587002
  30
0.0
  40
 24.000000000000
 100
AcDbArc
  50
 139.99479910977
  51
 220.00520088392
   0
ARC
   5
4F7
 100
AcDbEntity
   8
LEVEL002
 370
30
   6
CONTINUOUS
  62
7
 100
AcDbCircle
  10
 313.36558395037
  20
 327.85977588375
  30
0.0
  40
 10.000000000000
 100
AcDbArc
  50
 220.00520097462
  51
 270.00000005764
   0
LINE
   5
4F8
 100
AcDbEntity
   8
LEVEL002
 370
30
 100
AcDbLine
   6
CONTINUOUS
  62
7
  10
 357.08938925517
  20
 351.85977587173
  30
0.0
  11
 312.19040976957
  21
 351.85977587173
  31
0.0
   0
LINE
   5
4F9
 100
AcDbEntity
   8
LEVEL002
 370
30
 100
AcDbLine
   6
CONTINUOUS
  62
7
  10
 379.08938925517
  20
 317.85977587173
  30
0.0
  11
 313.36558396037
  21
 317.85977587173
  31
0.0
   0
LINE
   5
4FA
 100
AcDbEntity
   8
LEVEL002
 370
30
 100
AcDbLine
   6
CONTINUOUS
  62
7
  10
 357.08938925517
  20
 321.85977587173
  30
0.0
  11
 312.19040976957
  21
 321.85977587173
  31
0.0
   0
LINE
   5
4FB
 100
AcDbEntity
   8
LEVEL002
 370
15
 100
AcDbLine
   6
DASHDOT
  62
8
  10
 1061.0491398037
  20
 336.85977587173
  30
0.0
  11
 281.42238052287
  21
 336.85977587173
  31
0.0
   0
LINE
   5
4FC
 100
AcDbEntity
   8
LEVEL002
 370
15
 100
AcDbLine
   6
DASHDOT
  62
8
  10
 325.58938925517
  20
 296.67308251573
  30
0.0
  11
 325.58938925517
  21
 381.59433093718
  31
0.0
   0
ARC
   5
4FD
 100
AcDbEntity
   8
LEVEL002
 370
30
   6
CONTINUOUS
  62
7
 100
AcDbCircle
  10
 357.08938925517
  20
 1290.6717006874
  30
0.0
  40
 60.000000000000
 100
AcDbArc
  50
 180.00000000000
  51
 270.00000000000
   0
ARC
   5
4FE
 100
AcDbEntity
   8
LEVEL002
 370
30
   6
CONTINUOUS
  62
7
 100
AcDbCircle
  10
 298.08938937527
  20
 1309.2717006891
  30
0.0
  40
 1.0000000000000
 100
AcDbArc
  50
 90.000006883550
  51
 180.00000000000
   0
ARC
   5
4FF
 100
AcDbEntity
   8
LEVEL002
 370
30
   6
CONTINUOUS
  62
7
 100
AcDbCircle
  10
 383.08938923227
  20
 1231.6717006891
  30
0.0
  40
 1.0000000000000
 100
AcDbArc
  50
 270.00000131318
  51
0.0
   0
LINE
   5
500
 100
AcDbEntity
   8
LEVEL002
 370
30
 100
AcDbLine
   6
CONTINUOUS
  62
7
  10
 375.75226755377
  20
 1310.2717006891
  30
0.0
  11
 298.08938925517
  21
 1310.2717006891
  31
0.0
   0
ARC
   5
501
 100
AcDbEntity
   8
LEVEL002
 370
30
   6
CONTINUOUS
  62
7
 100
AcDbCircle
  10
 375.75226755377
  20
 1309.2717008661
  30
0.0
  40
 1.0000000000000
 100
AcDbArc
  50
0.0
  51
 90.000000000000
   0
LINE
   5
502
 100
AcDbEntity
   8
LEVEL002
 370
30
 100
AcDbLine
   6
CONTINUOUS
  62
7
  10
 376.75226755377
  20
 1269.6717006891
  30
0.0
  11
 376.75226755377
  21
 1309.2717006891
  31
0.0
   0
ARC
   5
503
 100
AcDbEntity
   8
LEVEL002
 370
30
   6
CONTINUOUS
  62
7
 100
AcDbCircle
  10
 377.75226755377
  20
 1269.6717007469
  30
0.0
  40
 1.0000000000000
 100
AcDbArc
  50
 180.00000000000
  51
 270.00000000000
   0
LINE
   5
504
 100
AcDbEntity
   8
LEVEL002
 370
30
 100
AcDbLine
   6
CONTINUOUS
  62
7
  10
 383.08938925517
  20
 1268.6717006892
  30
0.0
  11
 377.75226755377
  21
 1268.6717006892
  31
0.0
   0
LINE
   5
505
 100
AcDbEntity
   8
LEVEL002
 370
30
 100
AcDbLine
   6
CONTINUOUS
  62
7
  10
 384.08938925517
  20
 1267.6717006891
  30
0.0
  11
 384.08938925517
  21
 1231.6717006891
  31
0.0
   0
ARC
   5
506
 100
AcDbEntity
   8
LEVEL002
 370
30
   6
CONTINUOUS
  62
7
 100
AcDbCircle
  10
 383.08938925517
  20
 1267.6717006754
  30
0.0
  40
 1.0000000000000
 100
AcDbArc
  50
 0.78874010679102E-6
  51
 90.000000000000
   0
ARC
   5
507
 100
AcDbEntity
   8
LEVEL002
 370
30
   6
CONTINUOUS
  62
7
 100
AcDbCircle
  10
 361.08938925517
  20
 1239.8288053290
  30
0.0
  40
 1.0000000000000
 100
AcDbArc
  50
 0.48474999797918E-5
  51
 94.498406288559
   0
ARC
   5
508
 100
AcDbEntity
   8
LEVEL002
 370
30
   6
CONTINUOUS
  62
7
 100
AcDbCircle
  10
 357.08938925477
  20
 1290.6717006896
  30
0.0
  40
 50.000000000000
 100
AcDbArc
  50
 219.45055118459
  51
 274.49840666929
   0
ARC
   5
509
 100
AcDbEntity
   8
LEVEL002
 370
30
   6
CONTINUOUS
  62
7
 100
AcDbCircle
  10
 310.75899366467
  20
 1252.5469784682
  30
0.0
  40
 10.000000000000
 100
AcDbArc
  50
 39.450551190938
  51
 90.000000004450
   0
LINE
   5
50A
 100
AcDbEntity
   8
LEVEL002
 370
30
 100
AcDbLine
   6
CONTINUOUS
  62
7
  10
 297.08938925517
  20
 1309.2717006891
  30
0.0
  11
 297.08938925517
  21
 1290.6717006891
  31
0.0
   0
LINE
   5
50B
 100
AcDbEntity
   8
LEVEL002
 370
30
 100
AcDbLine
   6
CONTINUOUS
  62
7
  10
 383.08938925517
  20
 1230.6717006891
  30
0.0
  11
 357.08938925517
  21
 1230.6717006891
  31
0.0
   0
LINE
   5
50C
 100
AcDbEntity
   8
LEVEL002
 370
30
 100
AcDbLine
   6
CONTINUOUS
  62
7
  10
 362.08938925517
  20
 1230.6717006891
  30
0.0
  11
 362.08938925517
  21
 1239.8288054136
  31
0.0
   0
LINE
   5
50D
 100
AcDbEntity
   8
LEVEL002
 370
30
 100
AcDbLine
   6
CONTINUOUS
  62
7
  10
 310.75899366387
  20
 1262.5469784691
  30
0.0
  11
 304.08938925467
  21
 1262.5469784691
  31
0.0
   0
LINE
   5
50E
 100
AcDbEntity
   8
LEVEL002
 370
15
 100
AcDbLine
   6
DASHDOT
  62
8
  10
 325.58938925517
  20
 1209.4026702609
  30
0.0
  11
 325.58938925517
  21
 1350.0933825500
  31
0.0
   0
LINE
   5
50F
 100
AcDbEntity
   8
LEVEL002
 370
15
 100
AcDbLine
   6
DASHDOT
  62
8
  10
 962.86445416367
  20
 1248.9708104641
  30
0.0
  11
 283.72506020601
  21
 1248.9708104641
  31
0.0
   0
LINE
   5
510
 100
AcDbEntity
   8
LEVEL002
 370
30
 100
AcDbLine
   6
CONTINUOUS
  62
7
  10
 384.08938925517
  20
 1266.6717006891
  30
0.0
  11
 976.08938925517
  21
 1266.6717006891
  31
0.0
   0
LINE
   5
511
 100
AcDbEntity
   8
LEVEL002
 370
30
 100
AcDbLine
   6
CONTINUOUS
  62
7
  10
 384.08938925517
  20
 1232.6717006891
  30
0.0
  11
 976.08938925517
  21
 1232.6717006891
  31
0.0
   0
LINE
   5
512
 100
AcDbEntity
   8
LEVEL002
 370
40
 100
AcDbLine
   6
CONTINUOUS
  62
3
  10
 202.16899613273
  20
 1310.2717006891
  30
0.0
  11
 1188.6244041602
  21
 1310.2717006891
  31
0.0
   0
DIMENSION
   5
513
 100
AcDbEntity
   8
LEVEL001
 370
15
   6
CONTINUOUS
  62
8
 100
AcDbDimension
   2
*D20
  10
 325.58938925517
  20
 1132.6717006891
  30
0.0
  11
 675.58938925517
  21
 1132.6717006891
  31
0.0
  70
0
   3
GMM001
 100
AcDbAlignedDimension
  13
 1025.5893892552
  23
 1209.4026702609
  33
0.0
  14
 325.58938925517
  24
 1209.4026702609
  34
0.0
  50
 180.00000000000
 100
AcDbRotatedDimension
   0
DIMENSION
   5
514
 100
AcDbEntity
   8
LEVEL001
 370
15
   6
CONTINUOUS
  62
8
 100
AcDbDimension
   2
*D21
  10
 325.58938925517
  20
 219.69687231320
  30
0.0
  11
 675.58938925517
  21
 219.69687231320
  31
0.0
  70
0
   3
GMM001
 100
AcDbAlignedDimension
  13
 1025.5893892552
  23
 296.67308251573
  33
0.0
  14
 325.58938925517
  24
 296.67308251573
  34
0.0
  50
 180.00000000000
 100
AcDbRotatedDimension
   0
LINE
   5
515
 100
AcDbEntity
   8
LEVEL002
 370
30
 100
AcDbLine
   6
CONTINUOUS
  62
7
  10
 380.08938925517
  20
 353.85977587173
  30
0.0
  11
 971.08938925517
  21
 353.85977587173
  31
0.0
   0
LINE
   5
516
 100
AcDbEntity
   8
LEVEL002
 370
30
 100
AcDbLine
   6
CONTINUOUS
  62
7
  10
 380.08938925517
  20
 319.85977587173
  30
0.0
  11
 971.08938925517
  21
 319.85977587173
  31
0.0
   0
MTEXT
   5
518
 100
AcDbEntity
   8
LEVEL002
 370
15
  62
8
 100
AcDbMText
  10
 3794.9999999995
  20
 200.83333333345
  30
0.0
  40
 25.000000000000
  41
0.0
  71
5
  72
1
   1
\T1.000000;ＦＰＬ－１
   7
GMM002
  44
 0.79999984000003
   0
ENDSEC
  0
SECTION
  2
OBJECTS
  0
DICTIONARY
  5
C
100
AcDbDictionary
  3
ACAD_GROUP
350
D
  3
ACAD_MLINESTYLE
350
1B
  3
DWGPROPS
350
1C
  0
DICTIONARY
  5
D
102
{ACAD_REACTORS
330
C
102
}
100
AcDbDictionary
  0
DICTIONARY
  5
1B
102
{ACAD_REACTORS
330
C
102
}
100
AcDbDictionary
  3
STANDARD
350
1D
  0
MLINESTYLE
  5
1D
102
{ACAD_REACTORS
330
1B
102
}
100
AcDbMlineStyle
  2
STANDARD
 70
     0
  3

 62
   256
 51
90.0
 52
90.0
 71
     2
 49
0.5
 62
   256
  6
BYLAYER
 49
-0.5
 62
   256
  6
BYLAYER
   0
XRECORD
   5
1C
 102
{ACAD_REACTORS
 330
C
 102
}
 330
C
 100
AcDbXrecord
 280
1
   1
DWGPROPS COOKIE
   2
 
   3
 
   4
 
   6
 
   7
00000000.DRW
   8
 
   9

 300
 = 
 301
 = 
 302
 = 
 303
 = 
 304
 = 
 305
 = 
 306
 = 
 307
 = 
 308
 = 
 309
 = 
  40
0.0
  41
 2460200.5000000
  42
 2460200.5000000
   1

  90
10
   0
ENDSEC
   0
EOF
