   0
SECTION
   2
HEADER
   9
$ACADVER
   1
AC1015
   9
$DWGCODEPAGE
   3
ANSI_932
   9
$LIMMIN
  10
0.0
  20
0.0
   9
$LIMMAX
  10
 4200.0000000000
  20
 2970.0000000000
   9
$EXTMIN
  10
0.0
  20
0.0
  30
0.0
   9
$EXTMAX
  10
 4200.0000000000
  20
 2970.0000000000
  30
0.0
   9
$LTSCALE
  40
 84.000000000000
   9
$HANDSEED
   5
36B
   0
ENDSEC
   0
SECTION
   2
TABLES
  0
TABLE
  2
VPORT
  5
8
100
AcDbSymbolTable
 70
     1
  0
VPORT
  5
36A
100
AcDbSymbolTableRecord
100
AcDbViewportTableRecord
  2
*ACTIVE
 70
     0
 10
0.0
 20
0.0
 11
1.0
 21
1.0
  12
 2100.0000000000
  22
 1485.0000000000
 13
0.0
 23
0.0
 14
1.0
 24
1.0
 15
0.0
 25
0.0
 16
0.0
 26
0.0
 36
1.0
 17
0.0
 27
0.0
 37
0.0
  40
 4200.0000000000
  41
 1.4787878787879
 42
50.0
 43
0.0
 44
0.0
 50
0.0
 51
0.0
 71
     0
 72
   100
 73
     1
 74
     1
 75
     0
 76
     0
 77
     0
 78
     0
  0
ENDTAB
  0
TABLE
  2
LTYPE
  5
5
100
AcDbSymbolTable
 70
    25
  0
LTYPE
  5
12
100
AcDbSymbolTableRecord
100
AcDbLinetypeTableRecord
  2
BYBLOCK
 70
     0
  3

 72
    65
 73
     0
 40
0.0
  0
LTYPE
  5
13
100
AcDbSymbolTableRecord
100
AcDbLinetypeTableRecord
  2
BYLAYER
 70
     0
  3

 72
    65
 73
     0
 40
0.0
  0
LTYPE
  5
14
100
AcDbSymbolTableRecord
100
AcDbLinetypeTableRecord
  2
CONTINUOUS
 70
     0
  3
Solid line
 72
    65
 73
     0
 40
0.0
  0
LTYPE
  5
20
100
AcDbSymbolTableRecord
100
AcDbLinetypeTableRecord
  2
BORDER
 70
     0
  3
__ __ . __ __ . __ __ . __ __ . __ __ . __ __ .
 72
    65
 73
     6
 40
1.75
 49
0.5
 74
     0
 49
-0.25
 74
     0
 49
0.5
 74
     0
 49
-0.25
 74
     0
 49
0.0
 74
     0
 49
-0.25
 74
     0
  0
LTYPE
  5
21
100
AcDbSymbolTableRecord
100
AcDbLinetypeTableRecord
  2
BORDER2
 70
     0
  3
__.__.__.__.__.__.__.__.__.__.__.__.__.__.__.__
 72
    65
 73
     6
 40
0.875
 49
0.25
 74
     0
 49
-0.125
 74
     0
 49
0.25
 74
     0
 49
-0.125
 74
     0
 49
0.0
 74
     0
 49
-0.125
 74
     0
  0
LTYPE
  5
22
100
AcDbSymbolTableRecord
100
AcDbLinetypeTableRecord
  2
BORDERX2
 70
     0
  3
____  ____  .  ____  ____  .  ____  ____  .  __
 72
    65
 73
     6
 40
3.5
 49
1.0
 74
     0
 49
-0.5
 74
     0
 49
1.0
 74
     0
 49
-0.5
 74
     0
 49
0.0
 74
     0
 49
-0.5
 74
     0
  0
LTYPE
  5
23
100
AcDbSymbolTableRecord
100
AcDbLinetypeTableRecord
  2
CENTER
 70
     0
  3
____ _ ____ _ ____ _ ____ _ ____ _ ____ _ ____ 
 72
    65
 73
     4
 40
2.0
 49
1.25
 74
     0
 49
-0.25
 74
     0
 49
0.25
 74
     0
 49
-0.25
 74
     0
  0
LTYPE
  5
24
100
AcDbSymbolTableRecord
100
AcDbLinetypeTableRecord
  2
CENTER2
 70
     0
  3
___ _ ___ _ ___ _ ___ _ ___ _ ___ _ ___ _ ___ _
 72
    65
 73
     4
 40
1.125
 49
0.75
 74
     0
 49
-0.125
 74
     0
 49
0.125
 74
     0
 49
-0.125
 74
     0
  0
LTYPE
  5
25
100
AcDbSymbolTableRecord
100
AcDbLinetypeTableRecord
  2
CENTERX2
 70
     0
  3
________  __  ________  __  ________  __  _____
 72
    65
 73
     4
 40
4.0
 49
2.5
 74
     0
 49
-0.5
 74
     0
 49
0.5
 74
     0
 49
-0.5
 74
     0
  0
LTYPE
  5
26
100
AcDbSymbolTableRecord
100
AcDbLinetypeTableRecord
  2
DASHDOT
 70
     0
  3
__ . __ . __ . __ . __ . __ . __ . __ . __ . __
 72
    65
 73
     4
 40
1.0
 49
0.5
 74
     0
 49
-0.25
 74
     0
 49
0.0
 74
     0
 49
-0.25
 74
     0
  0
LTYPE
  5
27
100
AcDbSymbolTableRecord
100
AcDbLinetypeTableRecord
  2
DASHDOT2
 70
     0
  3
_._._._._._._._._._._._._._._._._._._._._._._._
 72
    65
 73
     4
 40
0.5
 49
0.25
 74
     0
 49
-0.125
 74
     0
 49
0.0
 74
     0
 49
-0.125
 74
     0
  0
LTYPE
  5
28
100
AcDbSymbolTableRecord
100
AcDbLinetypeTableRecord
  2
DASHDOTX2
 70
     0
  3
____  .  ____  .  ____  .  ____  .  ____  .  __
 72
    65
 73
     4
 40
2.0
 49
1.0
 74
     0
 49
-0.5
 74
     0
 49
0.0
 74
     0
 49
-0.5
 74
     0
  0
LTYPE
  5
29
100
AcDbSymbolTableRecord
100
AcDbLinetypeTableRecord
  2
DASHED
 70
     0
  3
__ __ __ __ __ __ __ __ __ __ __ __ __ __ __ __
 72
    65
 73
     2
 40
0.75
 49
0.5
 74
     0
 49
-0.25
 74
     0
  0
LTYPE
  5
2A
100
AcDbSymbolTableRecord
100
AcDbLinetypeTableRecord
  2
DASHED2
 70
     0
  3
_ _ _ _ _ _ _ _ _ _ _ _ _ _ _ _ _ _ _ _ _ _ _ _
 72
    65
 73
     2
 40
0.375
 49
0.25
 74
     0
 49
-0.125
 74
     0
  0
LTYPE
  5
2B
100
AcDbSymbolTableRecord
100
AcDbLinetypeTableRecord
  2
DASHEDX2
 70
     0
  3
____  ____  ____  ____  ____  ____  ____  ____ 
 72
    65
 73
     2
 40
1.5
 49
1.0
 74
     0
 49
-0.5
 74
     0
  0
LTYPE
  5
2C
100
AcDbSymbolTableRecord
100
AcDbLinetypeTableRecord
  2
DIVIDE
 70
     0
  3
____ . . ____ . . ____ . . ____ . . ____ . . __
 72
    65
 73
     6
 40
1.25
 49
0.5
 74
     0
 49
-0.25
 74
     0
 49
0.0
 74
     0
 49
-0.25
 74
     0
 49
0.0
 74
     0
 49
-0.25
 74
     0
  0
LTYPE
  5
2D
100
AcDbSymbolTableRecord
100
AcDbLinetypeTableRecord
  2
DIVIDE2
 70
     0
  3
__..__..__..__..__..__..__..__..__..__..__..__.
 72
    65
 73
     6
 40
0.625
 49
0.25
 74
     0
 49
-0.125
 74
     0
 49
0.0
 74
     0
 49
-0.125
 74
     0
 49
0.0
 74
     0
 49
-0.125
 74
     0
  0
LTYPE
  5
2E
100
AcDbSymbolTableRecord
100
AcDbLinetypeTableRecord
  2
DIVIDEX2
 70
     0
  3
________  .  .  ________  .  .  ________  .  . 
 72
    65
 73
     6
 40
2.5
 49
1.0
 74
     0
 49
-0.5
 74
     0
 49
0.0
 74
     0
 49
-0.5
 74
     0
 49
0.0
 74
     0
 49
-0.5
 74
     0
  0
LTYPE
  5
2F
100
AcDbSymbolTableRecord
100
AcDbLinetypeTableRecord
  2
DOT
 70
     0
  3
. . . . . . . . . . . . . . . . . . . . . . . .
 72
    65
 73
     2
 40
0.25
 49
0.0
 74
     0
 49
-0.25
 74
     0
  0
LTYPE
  5
30
100
AcDbSymbolTableRecord
100
AcDbLinetypeTableRecord
  2
DOT2
 70
     0
  3
...............................................
 72
    65
 73
     2
 40
0.125
 49
0.0
 74
     0
 49
-0.125
 74
     0
  0
LTYPE
  5
31
100
AcDbSymbolTableRecord
100
AcDbLinetypeTableRecord
  2
DOTX2
 70
     0
  3
.  .  .  .  .  .  .  .  .  .  .  .  .  .  .  . 
 72
    65
 73
     2
 40
0.5
 49
0.0
 74
     0
 49
-0.5
 74
     0
  0
LTYPE
  5
32
100
AcDbSymbolTableRecord
100
AcDbLinetypeTableRecord
  2
HIDDEN
 70
     0
  3
__ __ __ __ __ __ __ __ __ __ __ __ __ __ __ __
 72
    65
 73
     2
 40
0.375
 49
0.25
 74
     0
 49
-0.125
 74
     0
  0
LTYPE
  5
33
100
AcDbSymbolTableRecord
100
AcDbLinetypeTableRecord
  2
HIDDEN2
 70
     0
  3
_ _ _ _ _ _ _ _ _ _ _ _ _ _ _ _ _ _ _ _ _ _ _ _
 72
    65
 73
     2
 40
0.1875
 49
0.125
 74
     0
 49
-0.0625
 74
     0
  0
LTYPE
  5
34
100
AcDbSymbolTableRecord
100
AcDbLinetypeTableRecord
  2
HIDDENX2
 70
     0
  3
____ ____ ____ ____ ____ ____ ____ ____ ____ __
 72
    65
 73
     2
 40
0.75
 49
0.5
 74
     0
 49
-0.25
 74
     0
  0
LTYPE
  5
35
100
AcDbSymbolTableRecord
100
AcDbLinetypeTableRecord
  2
PHANTOM
 70
     0
  3
______  __  __  ______  __  __  ______  __  __ 
 72
    65
 73
     6
 40
2.5
 49
1.25
 74
     0
 49
-0.25
 74
     0
 49
0.25
 74
     0
 49
-0.25
 74
     0
 49
0.25
 74
     0
 49
-0.25
 74
     0
  0
LTYPE
  5
36
100
AcDbSymbolTableRecord
100
AcDbLinetypeTableRecord
  2
PHANTOM2
 70
     0
  3
___ _ _ ___ _ _ ___ _ _ ___ _ _ ___ _ _ ___ _ _
 72
    65
 73
     6
 40
1.25
 49
0.625
 74
     0
 49
-0.125
 74
     0
 49
0.125
 74
     0
 49
-0.125
 74
     0
 49
0.125
 74
     0
 49
-0.125
 74
     0
  0
LTYPE
  5
37
100
AcDbSymbolTableRecord
100
AcDbLinetypeTableRecord
  2
PHANTOMX2
 70
     0
  3
____________    ____    ____    ____________   
 72
    65
 73
     6
 40
5.0
 49
2.5
 74
     0
 49
-0.5
 74
     0
 49
0.5
 74
     0
 49
-0.5
 74
     0
 49
0.5
 74
     0
 49
-0.5
 74
     0
  0
ENDTAB
   0
TABLE
   2
LAYER
   5
2
 100
AcDbSymbolTable
  70
5
   0
LAYER
   5
E
 100
AcDbSymbolTableRecord
 100
AcDbLayerTableRecord
   2
0
  70
0
  62
7
   6
CONTINUOUS
 390
30
   0
LAYER
   5
39
 100
AcDbSymbolTableRecord
 100
AcDbLayerTableRecord
   2
LEVEL001
  70
0
  62
7
   6
CONTINUOUS
 390
30
   0
LAYER
   5
3A
 100
AcDbSymbolTableRecord
 100
AcDbLayerTableRecord
   2
LEVEL002
  70
0
  62
7
   6
CONTINUOUS
 390
30
   0
LAYER
   5
3B
 100
AcDbSymbolTableRecord
 100
AcDbLayerTableRecord
   2
LEVEL003
  70
0
  62
7
   6
CONTINUOUS
 390
30
   0
LAYER
   5
3C
 100
AcDbSymbolTableRecord
 100
AcDbLayerTableRecord
   2
LEVEL004
  70
0
  62
7
   6
CONTINUOUS
 390
30
   0
ENDTAB
  0
TABLE
  2
STYLE
  5
3
100
AcDbSymbolTable
  70
5
  0
STYLE
  5
F
100
AcDbSymbolTableRecord
100
AcDbTextStyleTableRecord
  2
STANDARD
 70
     0
 40
0.0
 41
1.0
 50
0.0
 71
     0
 42
0.2
  3
TXT
  4
BIGFONT
  0
STYLE
  5
38
100
AcDbSymbolTableRecord
100
AcDbTextStyleTableRecord
  2
STANDARD1
 70
     4
 40
0.0
 41
1.0
 50
0.0
 71
     0
 42
0.2
  3
TXT
  4
BIGFONT
   0
STYLE
   5
3D
 100
AcDbSymbolTableRecord
 100
AcDbTextStyleTableRecord
   2
GMM001
  70
0
  40
0.0
  41
 0.80000000000000
  50
0.0
  71
     0
  42
1.0
   3
txt.shx
   4
bigfont.shx
   0
STYLE
   5
3E
 100
AcDbSymbolTableRecord
 100
AcDbTextStyleTableRecord
   2
GMM002
  70
0
  40
0.0
  41
 1.0000000000000
  50
0.0
  71
     0
  42
1.0
   3
txt.shx
   4
bigfont.shx
   0
STYLE
   5
3F
 100
AcDbSymbolTableRecord
 100
AcDbTextStyleTableRecord
   2
GMM003
  70
0
  40
0.0
  41
 1.0714285714286
  50
0.0
  71
     0
  42
1.0
   3
txt.shx
   4
bigfont.shx
   0
ENDTAB
  0
TABLE
  2
VIEW
  5
6
100
AcDbSymbolTable
 70
     0
  0
ENDTAB
  0
TABLE
  2
UCS
  5
7
100
AcDbSymbolTable
 70
     0
  0
ENDTAB
  0
TABLE
  2
APPID
  5
9
100
AcDbSymbolTable
 70
     1
  0
APPID
  5
10
100
AcDbSymbolTableRecord
100
AcDbRegAppTableRecord
  2
ACAD
 70
     0
  0
ENDTAB
   0
TABLE
   2
DIMSTYLE
   5
A
 100
AcDbSymbolTable
  70
6
 100
AcDbDimStyleTable
  0
DIMSTYLE
105
1D
100
AcDbSymbolTableRecord
100
AcDbDimStyleTableRecord
  2
STANDARD
 70
     0
  3

  4

  5

  6

  7

 40
1.0
 41
0.18
 42
0.0625
 43
0.38
 44
0.18
 45
0.0
 46
0.0
 47
0.0
 48
0.0
140
0.18
141
0.09
142
0.0
143
25.4
144
1.0
145
0.0
146
1.0
147
0.09
 71
     0
 72
     0
 73
     1
 74
     1
 75
     0
 76
     0
 77
     0
 78
     0
170
     0
171
     2
172
     0
173
     0
174
     0
175
     0
176
     0
177
     0
178
     0
270
     2
271
     4
272
     4
273
     2
274
     2
340
F
275
     0
280
     0
281
     0
282
     0
283
     1
284
     0
285
     0
286
     0
287
     3
288
     0
   0
DIMSTYLE
 105
40
 100
AcDbSymbolTableRecord
 100
AcDbDimStyleTableRecord
   2
GMM001
  70
0
   3
%%c<>
   4

   5

   6
_DOT
   7
_DOT
  40
 1.0000000000000
  41
 4.0000000000000
  42
 10.000000000000
  43
 80.000000000000
  44
0.0
  45
0.0
  46
0.0
  47
0.0
  48
0.0
 140
 30.000000000000
 141
 10.000000000000
 142
0.0
 143
 0.39400000000000E-1
 144
 1.0000000000000
 145
0.0
 146
 0.83333333333333
 147
 10.000000000000
  71
0
  72
0
  73
0
  74
0
  75
1
  76
1
  77
3
  78
0
 170
0
 171
2
 172
1
 173
1
 174
0
 175
0
 176
8
 177
8
 178
8
 270
2
 271
0
 272
0
 273
2
 274
2
 340
3E
 275
1
 280
0
 281
0
 282
0
 283
1
 284
0
 285
0
 286
0
 287
3
 288
1
   0
DIMSTYLE
 105
41
 100
AcDbSymbolTableRecord
 100
AcDbDimStyleTableRecord
   2
GMM002
  70
0
   3

   4

   5

   6

   7

  40
 1.0000000000000
  41
 20.000000000000
  42
 10.000000000000
  43
 80.000000000000
  44
 10.000000000000
  45
0.0
  46
0.0
  47
0.0
  48
0.0
 140
 30.000000000000
 141
 10.000000000000
 142
0.0
 143
 0.39400000000000E-1
 144
 1.0000000000000
 145
0.0
 146
 0.83333333333333
 147
0.0
  71
0
  72
0
  73
0
  74
0
  75
0
  76
0
  77
1
  78
0
 170
0
 171
2
 172
1
 173
1
 174
0
 175
0
 176
8
 177
8
 178
8
 270
2
 271
0
 272
0
 273
2
 274
2
 340
3E
 275
1
 280
0
 281
0
 282
0
 283
1
 284
0
 285
0
 286
0
 287
3
 288
0
   0
DIMSTYLE
 105
42
 100
AcDbSymbolTableRecord
 100
AcDbDimStyleTableRecord
   2
GMM003
  70
0
   3

   4

   5

   6
_DOT
   7
_DOT
  40
 1.0000000000000
  41
 4.0000000000000
  42
 10.000000000000
  43
 80.000000000000
  44
 10.000000000000
  45
0.0
  46
0.0
  47
0.0
  48
0.0
 140
 30.000000000000
 141
 10.000000000000
 142
0.0
 143
 0.39400000000000E-1
 144
 1.0000000000000
 145
0.0
 146
 0.83333333333333
 147
 10.000000000000
  71
0
  72
0
  73
0
  74
0
  75
0
  76
0
  77
3
  78
0
 170
0
 171
2
 172
1
 173
1
 174
0
 175
0
 176
8
 177
8
 178
8
 270
2
 271
0
 272
0
 273
2
 274
2
 340
3E
 275
1
 280
0
 281
0
 282
0
 283
1
 284
0
 285
0
 286
0
 287
3
 288
0
   0
DIMSTYLE
 105
43
 100
AcDbSymbolTableRecord
 100
AcDbDimStyleTableRecord
   2
GMM004
  70
0
   3

   4

   5

   6
_DOT
   7
_NONE
  40
 1.0000000000000
  41
 4.0000000000000
  42
 10.000000000000
  43
 80.000000000000
  44
 10.000000000000
  45
0.0
  46
0.0
  47
0.0
  48
0.0
 140
 30.000000000000
 141
 10.000000000000
 142
0.0
 143
 0.39400000000000E-1
 144
 1.0000000000000
 145
0.0
 146
 0.83333333333333
 147
 10.000000000000
  71
0
  72
0
  73
0
  74
0
  75
0
  76
0
  77
3
  78
0
 170
0
 171
2
 172
1
 173
1
 174
0
 175
0
 176
8
 177
8
 178
8
 270
2
 271
0
 272
0
 273
2
 274
2
 340
3E
 275
1
 280
0
 281
0
 282
0
 283
1
 284
0
 285
0
 286
0
 287
3
 288
0
   0
ENDTAB
  0
TABLE
  2
BLOCK_RECORD
  5
1
100
AcDbSymbolTable
 70
     0
  0
BLOCK_RECORD
  5
18
100
AcDbSymbolTableRecord
100
AcDbBlockTableRecord
  2
*MODEL_SPACE
  0
BLOCK_RECORD
  5
15
100
AcDbSymbolTableRecord
100
AcDbBlockTableRecord
  2
*PAPER_SPACE
   0
BLOCK_RECORD
   5
44
 100
AcDbSymbolTableRecord
 100
AcDbBlockTableRecord
   2
*D1
   0
BLOCK_RECORD
   5
45
 100
AcDbSymbolTableRecord
 100
AcDbBlockTableRecord
   2
*D3
   0
BLOCK_RECORD
   5
46
 100
AcDbSymbolTableRecord
 100
AcDbBlockTableRecord
   2
*D4
   0
BLOCK_RECORD
   5
47
 100
AcDbSymbolTableRecord
 100
AcDbBlockTableRecord
   2
*D5
   0
BLOCK_RECORD
   5
48
 100
AcDbSymbolTableRecord
 100
AcDbBlockTableRecord
   2
*D6
   0
BLOCK_RECORD
   5
49
 100
AcDbSymbolTableRecord
 100
AcDbBlockTableRecord
   2
*D7
   0
BLOCK_RECORD
   5
4A
 100
AcDbSymbolTableRecord
 100
AcDbBlockTableRecord
   2
*D8
   0
BLOCK_RECORD
   5
4B
 100
AcDbSymbolTableRecord
 100
AcDbBlockTableRecord
   2
*D9
   0
BLOCK_RECORD
   5
4C
 100
AcDbSymbolTableRecord
 100
AcDbBlockTableRecord
   2
*D10
   0
BLOCK_RECORD
   5
4D
 100
AcDbSymbolTableRecord
 100
AcDbBlockTableRecord
   2
*D11
   0
BLOCK_RECORD
   5
4E
 100
AcDbSymbolTableRecord
 100
AcDbBlockTableRecord
   2
*D12
   0
BLOCK_RECORD
   5
4F
 100
AcDbSymbolTableRecord
 100
AcDbBlockTableRecord
   2
*D14
   0
BLOCK_RECORD
   5
50
 100
AcDbSymbolTableRecord
 100
AcDbBlockTableRecord
   2
*D15
   0
BLOCK_RECORD
   5
51
 100
AcDbSymbolTableRecord
 100
AcDbBlockTableRecord
   2
*D16
   0
BLOCK_RECORD
   5
52
 100
AcDbSymbolTableRecord
 100
AcDbBlockTableRecord
   2
*D17
   0
BLOCK_RECORD
   5
53
 100
AcDbSymbolTableRecord
 100
AcDbBlockTableRecord
   2
*D18
   0
BLOCK_RECORD
   5
54
 100
AcDbSymbolTableRecord
 100
AcDbBlockTableRecord
   2
*D19
   0
BLOCK_RECORD
   5
55
 100
AcDbSymbolTableRecord
 100
AcDbBlockTableRecord
   2
*D20
   0
BLOCK_RECORD
   5
56
 100
AcDbSymbolTableRecord
 100
AcDbBlockTableRecord
   2
*D21
   0
BLOCK_RECORD
   5
57
 100
AcDbSymbolTableRecord
 100
AcDbBlockTableRecord
   2
*D22
   0
BLOCK_RECORD
   5
58
 100
AcDbSymbolTableRecord
 100
AcDbBlockTableRecord
   2
_ARCHTICK
   0
BLOCK_RECORD
   5
59
 100
AcDbSymbolTableRecord
 100
AcDbBlockTableRecord
   2
_BOXBLANK
   0
BLOCK_RECORD
   5
5A
 100
AcDbSymbolTableRecord
 100
AcDbBlockTableRecord
   2
_BOXFILLED
   0
BLOCK_RECORD
   5
5B
 100
AcDbSymbolTableRecord
 100
AcDbBlockTableRecord
   2
_CLOSED
   0
BLOCK_RECORD
   5
5C
 100
AcDbSymbolTableRecord
 100
AcDbBlockTableRecord
   2
_CLOSEDBLANK
   0
BLOCK_RECORD
   5
5D
 100
AcDbSymbolTableRecord
 100
AcDbBlockTableRecord
   2
_DATUMBLANK
   0
BLOCK_RECORD
   5
5E
 100
AcDbSymbolTableRecord
 100
AcDbBlockTableRecord
   2
_DATUMFILLED
   0
BLOCK_RECORD
   5
5F
 100
AcDbSymbolTableRecord
 100
AcDbBlockTableRecord
   2
_DOT
   0
BLOCK_RECORD
   5
60
 100
AcDbSymbolTableRecord
 100
AcDbBlockTableRecord
   2
_DOTBLANK
   0
BLOCK_RECORD
   5
61
 100
AcDbSymbolTableRecord
 100
AcDbBlockTableRecord
   2
_DOTSMALL
   0
BLOCK_RECORD
   5
62
 100
AcDbSymbolTableRecord
 100
AcDbBlockTableRecord
   2
_INTEGRAL
   0
BLOCK_RECORD
   5
63
 100
AcDbSymbolTableRecord
 100
AcDbBlockTableRecord
   2
_NONE
   0
BLOCK_RECORD
   5
64
 100
AcDbSymbolTableRecord
 100
AcDbBlockTableRecord
   2
_OBLIQUE
   0
BLOCK_RECORD
   5
65
 100
AcDbSymbolTableRecord
 100
AcDbBlockTableRecord
   2
_OPEN
   0
BLOCK_RECORD
   5
66
 100
AcDbSymbolTableRecord
 100
AcDbBlockTableRecord
   2
_OPEN30
   0
BLOCK_RECORD
   5
67
 100
AcDbSymbolTableRecord
 100
AcDbBlockTableRecord
   2
_OPEN90
   0
BLOCK_RECORD
   5
68
 100
AcDbSymbolTableRecord
 100
AcDbBlockTableRecord
   2
_ORIGIN
   0
ENDTAB
   0
ENDSEC
  0
SECTION
  2
BLOCKS
  0
BLOCK
  5
19
100
AcDbEntity
  8
0
100
AcDbBlockBegin
  2
*MODEL_SPACE
 70
     0
 10
0.0
 20
0.0
 30
0.0
  3
*MODEL_SPACE
  1

  0
ENDBLK
  5
1A
100
AcDbEntity
  8
0
100
AcDbBlockEnd
  0
BLOCK
  5
16
100
AcDbEntity
 67
     1
  8
0
100
AcDbBlockBegin
  2
*PAPER_SPACE
 70
     0
 10
0.0
 20
0.0
 30
0.0
  3
*PAPER_SPACE
  1

  0
ENDBLK
  5
17
100
AcDbEntity
 67
     1
  8
0
100
AcDbBlockEnd
   0
BLOCK
   5
69
 100
AcDbEntity
   8
0
 100
AcDbBlockBegin
   2
_ARCHTICK
  70
0
  10
0.0
  20
0.0
  30
0.0
   3
_ARCHTICK
   0
POLYLINE
   5
6A
 100
AcDbEntity
   8
0
 370
-2
   6
BYBLOCK
  62
0
 100
AcDb2dPolyline
  66
1
  10
0.0
  20
0.0
  30
0.0
  70
1
  40
 0.15000000000000
  41
 0.15000000000000
   0
VERTEX
   5
6B
 100
AcDbEntity
   8
0
   6
BYBLOCK
  62
0
 100
AcDbVertex
 100
AcDb2dVertex
  10
-0.50000000000000
  20
-0.50000000000000
  30
0.0
  40
 0.15000000000000
  41
 0.15000000000000
   0
VERTEX
   5
6C
 100
AcDbEntity
   8
0
   6
BYBLOCK
  62
0
 100
AcDbVertex
 100
AcDb2dVertex
  10
 0.50000000000000
  20
 0.50000000000000
  30
0.0
  40
 0.15000000000000
  41
 0.15000000000000
   0
SEQEND
   5
6D
 100
AcDbEntity
   8
0
   6
BYBLOCK
  62
0
   0
ENDBLK
   5
6E
 100
AcDbEntity
   8
0
 100
AcDbBlockEnd
   0
BLOCK
   5
6F
 100
AcDbEntity
   8
0
 100
AcDbBlockBegin
   2
_OBLIQUE
  70
0
  10
0.0
  20
0.0
  30
0.0
   3
_OBLIQUE
   0
LINE
   5
70
 100
AcDbEntity
   8
0
 370
-2
 100
AcDbLine
   6
BYBLOCK
  62
0
  10
-0.50000000000000
  20
-0.50000000000000
  30
0.0
  11
 0.50000000000000
  21
 0.50000000000000
  31
0.0
   0
ENDBLK
   5
71
 100
AcDbEntity
   8
0
 100
AcDbBlockEnd
   0
BLOCK
   5
72
 100
AcDbEntity
   8
0
 100
AcDbBlockBegin
   2
_BOXBLANK
  70
0
  10
0.0
  20
0.0
  30
0.0
   3
_BOXBLANK
   0
LINE
   5
73
 100
AcDbEntity
   8
0
 370
-2
 100
AcDbLine
   6
BYBLOCK
  62
0
  10
-0.50000000000000
  20
-0.50000000000000
  30
0.0
  11
 0.50000000000000
  21
-0.50000000000000
  31
0.0
   0
LINE
   5
74
 100
AcDbEntity
   8
0
 370
-2
 100
AcDbLine
   6
BYBLOCK
  62
0
  10
 0.50000000000000
  20
-0.50000000000000
  30
0.0
  11
 0.50000000000000
  21
 0.50000000000000
  31
0.0
   0
LINE
   5
75
 100
AcDbEntity
   8
0
 370
-2
 100
AcDbLine
   6
BYBLOCK
  62
0
  10
 0.50000000000000
  20
 0.50000000000000
  30
0.0
  11
-0.50000000000000
  21
 0.50000000000000
  31
0.0
   0
LINE
   5
76
 100
AcDbEntity
   8
0
 370
-2
 100
AcDbLine
   6
BYBLOCK
  62
0
  10
-0.50000000000000
  20
 0.50000000000000
  30
0.0
  11
-0.50000000000000
  21
-0.50000000000000
  31
0.0
   0
LINE
   5
77
 100
AcDbEntity
   8
0
 370
-2
 100
AcDbLine
   6
BYBLOCK
  62
0
  10
-0.50000000000000
  20
0.0
  30
0.0
  11
-1.0000000000000
  21
0.0
  31
0.0
   0
ENDBLK
   5
78
 100
AcDbEntity
   8
0
 100
AcDbBlockEnd
   0
BLOCK
   5
79
 100
AcDbEntity
   8
0
 100
AcDbBlockBegin
   2
_BOXFILLED
  70
0
  10
0.0
  20
0.0
  30
0.0
   3
_BOXFILLED
   0
SOLID
   5
7A
 100
AcDbEntity
   8
0
 100
AcDbTrace
   6
BYBLOCK
  62
0
  10
-0.50000000000000
  20
 0.50000000000000
  30
0.0
  11
 0.50000000000000
  21
 0.50000000000000
  31
0.0
  12
-0.50000000000000
  22
-0.50000000000000
  32
0.0
  13
 0.50000000000000
  23
-0.50000000000000
  33
0.0
   0
LINE
   5
7B
 100
AcDbEntity
   8
0
 370
-2
 100
AcDbLine
   6
BYBLOCK
  62
0
  10
-0.50000000000000
  20
0.0
  30
0.0
  11
-1.0000000000000
  21
0.0
  31
0.0
   0
ENDBLK
   5
7C
 100
AcDbEntity
   8
0
 100
AcDbBlockEnd
   0
BLOCK
   5
7D
 100
AcDbEntity
   8
0
 100
AcDbBlockBegin
   2
_CLOSED
  70
0
  10
0.0
  20
0.0
  30
0.0
   3
_CLOSED
   0
LINE
   5
7E
 100
AcDbEntity
   8
0
 370
-2
 100
AcDbLine
   6
BYBLOCK
  62
0
  10
-1.0000000000000
  20
 0.16666666666667
  30
0.0
  11
0.0
  21
0.0
  31
0.0
   0
LINE
   5
7F
 100
AcDbEntity
   8
0
 370
-2
 100
AcDbLine
   6
BYBLOCK
  62
0
  10
0.0
  20
0.0
  30
0.0
  11
-1.0000000000000
  21
-0.16666666666667
  31
0.0
   0
LINE
   5
80
 100
AcDbEntity
   8
0
 370
-2
 100
AcDbLine
   6
BYBLOCK
  62
0
  10
-1.0000000000000
  20
 0.16666666666667
  30
0.0
  11
-1.0000000000000
  21
-0.16666666666667
  31
0.0
   0
LINE
   5
81
 100
AcDbEntity
   8
0
 370
-2
 100
AcDbLine
   6
BYBLOCK
  62
0
  10
0.0
  20
0.0
  30
0.0
  11
-1.0000000000000
  21
0.0
  31
0.0
   0
ENDBLK
   5
82
 100
AcDbEntity
   8
0
 100
AcDbBlockEnd
   0
BLOCK
   5
83
 100
AcDbEntity
   8
0
 100
AcDbBlockBegin
   2
_OPEN
  70
0
  10
0.0
  20
0.0
  30
0.0
   3
_OPEN
   0
LINE
   5
84
 100
AcDbEntity
   8
0
 370
-2
 100
AcDbLine
   6
BYBLOCK
  62
0
  10
-1.0000000000000
  20
 0.16666666666667
  30
0.0
  11
0.0
  21
0.0
  31
0.0
   0
LINE
   5
85
 100
AcDbEntity
   8
0
 370
-2
 100
AcDbLine
   6
BYBLOCK
  62
0
  10
0.0
  20
0.0
  30
0.0
  11
-1.0000000000000
  21
-0.16666666666667
  31
0.0
   0
LINE
   5
86
 100
AcDbEntity
   8
0
 370
-2
 100
AcDbLine
   6
BYBLOCK
  62
0
  10
0.0
  20
0.0
  30
0.0
  11
-1.0000000000000
  21
0.0
  31
0.0
   0
ENDBLK
   5
87
 100
AcDbEntity
   8
0
 100
AcDbBlockEnd
   0
BLOCK
   5
88
 100
AcDbEntity
   8
0
 100
AcDbBlockBegin
   2
_OPEN30
  70
0
  10
0.0
  20
0.0
  30
0.0
   3
_OPEN30
   0
LINE
   5
89
 100
AcDbEntity
   8
0
 370
-2
 100
AcDbLine
   6
BYBLOCK
  62
0
  10
-1.0000000000000
  20
 0.26794919243110
  30
0.0
  11
0.0
  21
0.0
  31
0.0
   0
LINE
   5
8A
 100
AcDbEntity
   8
0
 370
-2
 100
AcDbLine
   6
BYBLOCK
  62
0
  10
0.0
  20
0.0
  30
0.0
  11
-1.0000000000000
  21
-0.26794919243110
  31
0.0
   0
LINE
   5
8B
 100
AcDbEntity
   8
0
 370
-2
 100
AcDbLine
   6
BYBLOCK
  62
0
  10
0.0
  20
0.0
  30
0.0
  11
-1.0000000000000
  21
0.0
  31
0.0
   0
ENDBLK
   5
8C
 100
AcDbEntity
   8
0
 100
AcDbBlockEnd
   0
BLOCK
   5
8D
 100
AcDbEntity
   8
0
 100
AcDbBlockBegin
   2
_OPEN90
  70
0
  10
0.0
  20
0.0
  30
0.0
   3
_OPEN90
   0
LINE
   5
8E
 100
AcDbEntity
   8
0
 370
-2
 100
AcDbLine
   6
BYBLOCK
  62
0
  10
-0.50000000000000
  20
 0.50000000000000
  30
0.0
  11
0.0
  21
0.0
  31
0.0
   0
LINE
   5
8F
 100
AcDbEntity
   8
0
 370
-2
 100
AcDbLine
   6
BYBLOCK
  62
0
  10
0.0
  20
0.0
  30
0.0
  11
-0.50000000000000
  21
-0.50000000000000
  31
0.0
   0
LINE
   5
90
 100
AcDbEntity
   8
0
 370
-2
 100
AcDbLine
   6
BYBLOCK
  62
0
  10
0.0
  20
0.0
  30
0.0
  11
-1.0000000000000
  21
0.0
  31
0.0
   0
ENDBLK
   5
91
 100
AcDbEntity
   8
0
 100
AcDbBlockEnd
   0
BLOCK
   5
92
 100
AcDbEntity
   8
0
 100
AcDbBlockBegin
   2
_CLOSEDBLANK
  70
0
  10
0.0
  20
0.0
  30
0.0
   3
_CLOSEDBLANK
   0
LINE
   5
93
 100
AcDbEntity
   8
0
 370
-2
 100
AcDbLine
   6
BYBLOCK
  62
0
  10
-1.0000000000000
  20
 0.16666666666667
  30
0.0
  11
0.0
  21
0.0
  31
0.0
   0
LINE
   5
94
 100
AcDbEntity
   8
0
 370
-2
 100
AcDbLine
   6
BYBLOCK
  62
0
  10
0.0
  20
0.0
  30
0.0
  11
-1.0000000000000
  21
-0.16666666666667
  31
0.0
   0
LINE
   5
95
 100
AcDbEntity
   8
0
 370
-2
 100
AcDbLine
   6
BYBLOCK
  62
0
  10
-1.0000000000000
  20
 0.16666666666667
  30
0.0
  11
-1.0000000000000
  21
-0.16666666666667
  31
0.0
   0
ENDBLK
   5
96
 100
AcDbEntity
   8
0
 100
AcDbBlockEnd
   0
BLOCK
   5
97
 100
AcDbEntity
   8
0
 100
AcDbBlockBegin
   2
_DOT
  70
0
  10
0.0
  20
0.0
  30
0.0
   3
_DOT
   0
POLYLINE
   5
98
 100
AcDbEntity
   8
0
 370
-2
   6
BYBLOCK
  62
0
 100
AcDb2dPolyline
  66
1
  10
0.0
  20
0.0
  30
0.0
  70
1
  40
 0.50000000000000
  41
 0.50000000000000
   0
VERTEX
   5
99
 100
AcDbEntity
   8
0
   6
BYBLOCK
  62
0
 100
AcDbVertex
 100
AcDb2dVertex
  10
-0.25000000000000
  20
0.0
  30
0.0
  42
 1.0000000000000
  40
 0.50000000000000
  41
 0.50000000000000
   0
VERTEX
   5
9A
 100
AcDbEntity
   8
0
   6
BYBLOCK
  62
0
 100
AcDbVertex
 100
AcDb2dVertex
  10
 0.25000000000000
  20
0.0
  30
0.0
  42
 1.0000000000000
  40
 0.50000000000000
  41
 0.50000000000000
   0
SEQEND
   5
9B
 100
AcDbEntity
   8
0
   6
BYBLOCK
  62
0
   0
LINE
   5
9C
 100
AcDbEntity
   8
0
 370
-2
 100
AcDbLine
   6
BYBLOCK
  62
0
  10
-0.50000000000000
  20
0.0
  30
0.0
  11
-1.0000000000000
  21
0.0
  31
0.0
   0
ENDBLK
   5
9D
 100
AcDbEntity
   8
0
 100
AcDbBlockEnd
   0
BLOCK
   5
9E
 100
AcDbEntity
   8
0
 100
AcDbBlockBegin
   2
_DOTSMALL
  70
0
  10
0.0
  20
0.0
  30
0.0
   3
_DOTSMALL
   0
POLYLINE
   5
9F
 100
AcDbEntity
   8
0
 370
-2
   6
BYBLOCK
  62
0
 100
AcDb2dPolyline
  66
1
  10
0.0
  20
0.0
  30
0.0
  70
1
  40
 0.50000000000000
  41
 0.50000000000000
   0
VERTEX
   5
A0
 100
AcDbEntity
   8
0
   6
BYBLOCK
  62
0
 100
AcDbVertex
 100
AcDb2dVertex
  10
-0.62500000000000E-1
  20
0.0
  30
0.0
  42
 1.0000000000000
  40
 0.50000000000000
  41
 0.50000000000000
   0
VERTEX
   5
A1
 100
AcDbEntity
   8
0
   6
BYBLOCK
  62
0
 100
AcDbVertex
 100
AcDb2dVertex
  10
 0.62500000000000E-1
  20
0.0
  30
0.0
  42
 1.0000000000000
  40
 0.50000000000000
  41
 0.50000000000000
   0
SEQEND
   5
A2
 100
AcDbEntity
   8
0
   6
BYBLOCK
  62
0
   0
ENDBLK
   5
A3
 100
AcDbEntity
   8
0
 100
AcDbBlockEnd
   0
BLOCK
   5
A4
 100
AcDbEntity
   8
0
 100
AcDbBlockBegin
   2
_DATUMBLANK
  70
0
  10
0.0
  20
0.0
  30
0.0
   3
_DATUMBLANK
   0
LINE
   5
A5
 100
AcDbEntity
   8
0
 370
-2
 100
AcDbLine
   6
BYBLOCK
  62
0
  10
0.0
  20
 0.57735027000000
  30
0.0
  11
-1.0000000000000
  21
0.0
  31
0.0
   0
LINE
   5
A6
 100
AcDbEntity
   8
0
 370
-2
 100
AcDbLine
   6
BYBLOCK
  62
0
  10
-1.0000000000000
  20
0.0
  30
0.0
  11
0.0
  21
-0.57735027000000
  31
0.0
   0
LINE
   5
A7
 100
AcDbEntity
   8
0
 370
-2
 100
AcDbLine
   6
BYBLOCK
  62
0
  10
0.0
  20
-0.57735027000000
  30
0.0
  11
0.0
  21
 0.57735027000000
  31
0.0
   0
ENDBLK
   5
A8
 100
AcDbEntity
   8
0
 100
AcDbBlockEnd
   0
BLOCK
   5
A9
 100
AcDbEntity
   8
0
 100
AcDbBlockBegin
   2
_DATUMFILLED
  70
0
  10
0.0
  20
0.0
  30
0.0
   3
_DATUMFILLED
   0
SOLID
   5
AA
 100
AcDbEntity
   8
0
 100
AcDbTrace
   6
BYBLOCK
  62
0
  10
0.0
  20
 0.57735027000000
  30
0.0
  11
-1.0000000000000
  21
0.0
  31
0.0
  12
0.0
  22
-0.57735027000000
  32
0.0
  13
0.0
  23
-0.57735027000000
  33
0.0
   0
ENDBLK
   5
AB
 100
AcDbEntity
   8
0
 100
AcDbBlockEnd
   0
BLOCK
   5
AC
 100
AcDbEntity
   8
0
 100
AcDbBlockBegin
   2
_ORIGIN
  70
0
  10
0.0
  20
0.0
  30
0.0
   3
_ORIGIN
   0
CIRCLE
   5
AD
 100
AcDbEntity
   8
0
 370
-2
 100
AcDbCircle
   6
BYBLOCK
  62
0
  10
0.0
  20
0.0
  30
0.0
  40
 0.50000000000000
   0
LINE
   5
AE
 100
AcDbEntity
   8
0
 370
-2
 100
AcDbLine
   6
BYBLOCK
  62
0
  10
0.0
  20
0.0
  30
0.0
  11
-1.0000000000000
  21
0.0
  31
0.0
   0
ENDBLK
   5
AF
 100
AcDbEntity
   8
0
 100
AcDbBlockEnd
   0
BLOCK
   5
B0
 100
AcDbEntity
   8
0
 100
AcDbBlockBegin
   2
_NONE
  70
0
  10
0.0
  20
0.0
  30
0.0
   3
_NONE
   0
CIRCLE
   5
B1
 100
AcDbEntity
   8
0
 370
-2
 100
AcDbCircle
   6
BYBLOCK
  62
0
  10
0.0
  20
0.0
  30
0.0
  40
 0.25000000000000
   0
ENDBLK
   5
B2
 100
AcDbEntity
   8
0
 100
AcDbBlockEnd
   0
BLOCK
   5
B3
 100
AcDbEntity
   8
0
 100
AcDbBlockBegin
   2
_DOTBLANK
  70
0
  10
0.0
  20
0.0
  30
0.0
   3
_DOTBLANK
   0
CIRCLE
   5
B4
 100
AcDbEntity
   8
0
 370
-2
 100
AcDbCircle
   6
BYBLOCK
  62
0
  10
0.0
  20
0.0
  30
0.0
  40
 0.50000000000000
   0
LINE
   5
B5
 100
AcDbEntity
   8
0
 370
-2
 100
AcDbLine
   6
BYBLOCK
  62
0
  10
-0.50000000000000
  20
0.0
  30
0.0
  11
-1.0000000000000
  21
0.0
  31
0.0
   0
ENDBLK
   5
B6
 100
AcDbEntity
   8
0
 100
AcDbBlockEnd
   0
BLOCK
   5
B7
 100
AcDbEntity
   8
0
 100
AcDbBlockBegin
   2
_INTEGRAL
  70
0
  10
0.0
  20
0.0
  30
0.0
   3
_INTEGRAL
   0
ARC
   5
B8
 100
AcDbEntity
   8
0
 370
-2
   6
BYBLOCK
  62
0
 100
AcDbCircle
  10
 0.44488800000000
  20
-0.91335000000000E-1
  30
0.0
  40
 0.45416700000000
 100
AcDbArc
  50
 102.00000000000
  51
 168.00000000000
   0
ARC
   5
B9
 100
AcDbEntity
   8
0
 370
-2
   6
BYBLOCK
  62
0
 100
AcDbCircle
  10
-0.44488800000000
  20
 0.91335000000000E-1
  30
0.0
  40
 0.45416700000000
 100
AcDbArc
  50
 282.00000000000
  51
 348.00000000000
   0
ENDBLK
   5
BA
 100
AcDbEntity
   8
0
 100
AcDbBlockEnd
   0
BLOCK
   5
BB
 100
AcDbEntity
   8
0
 100
AcDbBlockBegin
   2
*D1
  70
65
  10
0.0
  20
0.0
  30
0.0
   3
*D1
   0
LINE
   5
BC
 100
AcDbEntity
   8
LEVEL001
 370
15
 100
AcDbLine
   6
CONTINUOUS
  62
8
  10
 867.58462288044
  20
 1640.0901869939
  30
0.0
  11
 884.58462288044
  21
 1640.0901869939
  31
0.0
   0
LINE
   5
BD
 100
AcDbEntity
   8
LEVEL001
 370
15
 100
AcDbLine
   6
CONTINUOUS
  62
8
  10
 1010.2014146567
  20
 1640.0901869939
  30
0.0
  11
 884.58462288044
  21
 1640.0901869939
  31
0.0
   0
INSERT
   5
BE
 100
AcDbEntity
   8
LEVEL001
   6
CONTINUOUS
  62
8
 100
AcDbBlockReference
   2
_DOT
  10
 867.58462288044
  20
 1640.0901869939
  30
0.0
  41
 4.0000000000000
  42
 4.0000000000000
  43
 4.0000000000000
  50
 180.00000000000
   0
INSERT
   5
BF
 100
AcDbEntity
   8
LEVEL001
   6
CONTINUOUS
  62
8
 100
AcDbBlockReference
   2
_DOT
  10
 901.58462288044
  20
 1640.0901869939
  30
0.0
  41
 4.0000000000000
  42
 4.0000000000000
  43
 4.0000000000000
  50
0.0
   0
MTEXT
   5
C0
 100
AcDbEntity
   8
LEVEL001
 370
15
  62
8
 100
AcDbMText
  10
 930.20141465669
  20
 1650.0901869939
  30
0.0
  40
 30.000000000000
  41
0.0
  71
7
  72
1
   1
\A1;%%c34
   7
GMM002
   0
ENDBLK
   5
C1
 100
AcDbEntity
   8
0
 100
AcDbBlockEnd
   0
BLOCK
   5
C2
 100
AcDbEntity
   8
0
 100
AcDbBlockBegin
   2
*D3
  70
65
  10
0.0
  20
0.0
  30
0.0
   3
*D3
   0
LINE
   5
C3
 100
AcDbEntity
   8
LEVEL001
 370
15
 100
AcDbLine
   6
CONTINUOUS
  62
8
  10
 884.58462288044
  20
 1408.9222890310
  30
0.0
  11
 884.58462288044
  21
 1216.9222890310
  31
0.0
   0
LINE
   5
C4
 100
AcDbEntity
   8
LEVEL001
 370
15
 100
AcDbLine
   6
CONTINUOUS
  62
8
  10
 1484.5846228804
  20
 1243.9222890310
  30
0.0
  11
 1484.5846228804
  21
 1216.9222890310
  31
0.0
   0
LINE
   5
C5
 100
AcDbEntity
   8
LEVEL001
 370
15
 100
AcDbLine
   6
CONTINUOUS
  62
8
  10
 884.58462288044
  20
 1226.9222890310
  30
0.0
  11
 1184.5846228804
  21
 1226.9222890310
  31
0.0
   0
LINE
   5
C6
 100
AcDbEntity
   8
LEVEL001
 370
15
 100
AcDbLine
   6
CONTINUOUS
  62
8
  10
 1484.5846228804
  20
 1226.9222890310
  30
0.0
  11
 1184.5846228804
  21
 1226.9222890310
  31
0.0
   0
INSERT
   5
C7
 100
AcDbEntity
   8
LEVEL001
   6
CONTINUOUS
  62
8
 100
AcDbBlockReference
   2
_DOT
  10
 884.58462288044
  20
 1226.9222890310
  30
0.0
  41
 4.0000000000000
  42
 4.0000000000000
  43
 4.0000000000000
  50
 180.00000000000
   0
INSERT
   5
C8
 100
AcDbEntity
   8
LEVEL001
   6
CONTINUOUS
  62
8
 100
AcDbBlockReference
   2
_DOT
  10
 1484.5846228804
  20
 1226.9222890310
  30
0.0
  41
 4.0000000000000
  42
 4.0000000000000
  43
 4.0000000000000
  50
0.0
   0
MTEXT
   5
C9
 100
AcDbEntity
   8
LEVEL001
 370
15
  62
8
 100
AcDbMText
  10
 1184.5846228804
  20
 1236.9222890310
  30
0.0
  40
 30.000000000000
  41
0.0
  71
8
  72
1
   1
\A1;600
   7
GMM002
   0
ENDBLK
   5
CA
 100
AcDbEntity
   8
0
 100
AcDbBlockEnd
   0
BLOCK
   5
CB
 100
AcDbEntity
   8
0
 100
AcDbBlockBegin
   2
*D4
  70
65
  10
0.0
  20
0.0
  30
0.0
   3
*D4
   0
LINE
   5
CC
 100
AcDbEntity
   8
LEVEL001
 370
15
 100
AcDbLine
   6
CONTINUOUS
  62
8
  10
 929.58462288044
  20
 1343.9222890310
  30
0.0
  11
 734.58462288044
  21
 1343.9222890310
  31
0.0
   0
LINE
   5
CD
 100
AcDbEntity
   8
LEVEL001
 370
15
 100
AcDbLine
   6
CONTINUOUS
  62
8
  10
 744.58462288044
  20
 1343.9222890310
  30
0.0
  11
 744.58462288044
  21
 1443.9222890310
  31
0.0
   0
LINE
   5
CE
 100
AcDbEntity
   8
LEVEL001
 370
15
 100
AcDbLine
   6
CONTINUOUS
  62
8
  10
 744.58462288044
  20
 1543.9222890310
  30
0.0
  11
 744.58462288044
  21
 1443.9222890310
  31
0.0
   0
INSERT
   5
CF
 100
AcDbEntity
   8
LEVEL001
   6
CONTINUOUS
  62
8
 100
AcDbBlockReference
   2
_DOT
  10
 744.58462288044
  20
 1343.9222890310
  30
0.0
  41
 4.0000000000000
  42
 4.0000000000000
  43
 4.0000000000000
  50
 270.00000000000
   0
MTEXT
   5
D0
 100
AcDbEntity
   8
LEVEL001
 370
15
  62
8
 100
AcDbMText
  10
 734.58462288044
  20
 1473.9222890310
  30
0.0
  40
 30.000000000000
  41
0.0
  71
8
  72
1
   1
\A1;200
   7
GMM002
  11
0.0
  21
 1.0000000000000
  31
0.0
  44
 0.79999984000003
   0
ENDBLK
   5
D1
 100
AcDbEntity
   8
0
 100
AcDbBlockEnd
   0
BLOCK
   5
D2
 100
AcDbEntity
   8
0
 100
AcDbBlockBegin
   2
*D5
  70
65
  10
0.0
  20
0.0
  30
0.0
   3
*D5
   0
LINE
   5
D3
 100
AcDbEntity
   8
LEVEL001
 370
15
 100
AcDbLine
   6
CONTINUOUS
  62
8
  10
 784.58462288044
  20
 1543.9222890310
  30
0.0
  11
 734.58462288044
  21
 1543.9222890310
  31
0.0
   0
LINE
   5
D4
 100
AcDbEntity
   8
LEVEL001
 370
15
 100
AcDbLine
   6
CONTINUOUS
  62
8
  10
 784.58462288044
  20
 2043.9222890310
  30
0.0
  11
 734.58462288044
  21
 2043.9222890310
  31
0.0
   0
LINE
   5
D5
 100
AcDbEntity
   8
LEVEL001
 370
15
 100
AcDbLine
   6
CONTINUOUS
  62
8
  10
 744.58462288044
  20
 1543.9222890310
  30
0.0
  11
 744.58462288044
  21
 1793.9222890310
  31
0.0
   0
LINE
   5
D6
 100
AcDbEntity
   8
LEVEL001
 370
15
 100
AcDbLine
   6
CONTINUOUS
  62
8
  10
 744.58462288044
  20
 2043.9222890310
  30
0.0
  11
 744.58462288044
  21
 1793.9222890310
  31
0.0
   0
INSERT
   5
D7
 100
AcDbEntity
   8
LEVEL001
   6
CONTINUOUS
  62
8
 100
AcDbBlockReference
   2
_DOT
  10
 744.58462288044
  20
 1543.9222890310
  30
0.0
  41
 4.0000000000000
  42
 4.0000000000000
  43
 4.0000000000000
  50
 270.00000000000
   0
INSERT
   5
D8
 100
AcDbEntity
   8
LEVEL001
   6
CONTINUOUS
  62
8
 100
AcDbBlockReference
   2
_DOT
  10
 744.58462288044
  20
 2043.9222890310
  30
0.0
  41
 4.0000000000000
  42
 4.0000000000000
  43
 4.0000000000000
  50
 90.000000000000
   0
MTEXT
   5
D9
 100
AcDbEntity
   8
LEVEL001
 370
15
  62
8
 100
AcDbMText
  10
 734.58462288044
  20
 1793.9222890310
  30
0.0
  40
 30.000000000000
  41
0.0
  71
8
  72
1
   1
\A1;500
   7
GMM002
  11
0.0
  21
 1.0000000000000
  31
0.0
   0
ENDBLK
   5
DA
 100
AcDbEntity
   8
0
 100
AcDbBlockEnd
   0
BLOCK
   5
DB
 100
AcDbEntity
   8
0
 100
AcDbBlockBegin
   2
*D6
  70
65
  10
0.0
  20
0.0
  30
0.0
   3
*D6
   0
LINE
   5
DC
 100
AcDbEntity
   8
LEVEL001
 370
15
 100
AcDbLine
   6
CONTINUOUS
  62
8
  10
 734.58462288044
  20
 1343.9222890310
  30
0.0
  11
 634.58462288044
  21
 1343.9222890310
  31
0.0
   0
LINE
   5
DD
 100
AcDbEntity
   8
LEVEL001
 370
15
 100
AcDbLine
   6
CONTINUOUS
  62
8
  10
 734.58462288044
  20
 2043.9222890310
  30
0.0
  11
 634.58462288044
  21
 2043.9222890310
  31
0.0
   0
LINE
   5
DE
 100
AcDbEntity
   8
LEVEL001
 370
15
 100
AcDbLine
   6
CONTINUOUS
  62
8
  10
 644.58462288044
  20
 1343.9222890310
  30
0.0
  11
 644.58462288044
  21
 1693.9222890310
  31
0.0
   0
LINE
   5
DF
 100
AcDbEntity
   8
LEVEL001
 370
15
 100
AcDbLine
   6
CONTINUOUS
  62
8
  10
 644.58462288044
  20
 2043.9222890310
  30
0.0
  11
 644.58462288044
  21
 1693.9222890310
  31
0.0
   0
INSERT
   5
E0
 100
AcDbEntity
   8
LEVEL001
   6
CONTINUOUS
  62
8
 100
AcDbBlockReference
   2
_DOT
  10
 644.58462288044
  20
 1343.9222890310
  30
0.0
  41
 4.0000000000000
  42
 4.0000000000000
  43
 4.0000000000000
  50
 270.00000000000
   0
INSERT
   5
E1
 100
AcDbEntity
   8
LEVEL001
   6
CONTINUOUS
  62
8
 100
AcDbBlockReference
   2
_DOT
  10
 644.58462288044
  20
 2043.9222890310
  30
0.0
  41
 4.0000000000000
  42
 4.0000000000000
  43
 4.0000000000000
  50
 90.000000000000
   0
MTEXT
   5
E2
 100
AcDbEntity
   8
LEVEL001
 370
15
  62
8
 100
AcDbMText
  10
 634.58462288044
  20
 1693.9222890310
  30
0.0
  40
 30.000000000000
  41
0.0
  71
8
  72
1
   1
\A1;700
   7
GMM002
  11
0.0
  21
 1.0000000000000
  31
0.0
   0
ENDBLK
   5
E3
 100
AcDbEntity
   8
0
 100
AcDbBlockEnd
   0
BLOCK
   5
E4
 100
AcDbEntity
   8
0
 100
AcDbBlockBegin
   2
*D7
  70
65
  10
0.0
  20
0.0
  30
0.0
   3
*D7
   0
LINE
   5
E5
 100
AcDbEntity
   8
LEVEL001
 370
15
 100
AcDbLine
   6
CONTINUOUS
  62
8
  10
 478.92442836890
  20
 1333.9222890310
  30
0.0
  11
 478.92442836890
  21
 1216.9222890310
  31
0.0
   0
LINE
   5
E6
 100
AcDbEntity
   8
LEVEL001
 370
15
 100
AcDbLine
   6
CONTINUOUS
  62
8
  10
 378.92442836890
  20
 1226.9222890310
  30
0.0
  11
 428.92442836890
  21
 1226.9222890310
  31
0.0
   0
LINE
   5
E7
 100
AcDbEntity
   8
LEVEL001
 370
15
 100
AcDbLine
   6
CONTINUOUS
  62
8
  10
 478.92442836890
  20
 1226.9222890310
  30
0.0
  11
 428.92442836890
  21
 1226.9222890310
  31
0.0
   0
INSERT
   5
E8
 100
AcDbEntity
   8
LEVEL001
   6
CONTINUOUS
  62
8
 100
AcDbBlockReference
   2
_DOT
  10
 378.92442836890
  20
 1226.9222890310
  30
0.0
  41
 4.0000000000000
  42
 4.0000000000000
  43
 4.0000000000000
  50
 180.00000000000
   0
INSERT
   5
E9
 100
AcDbEntity
   8
LEVEL001
   6
CONTINUOUS
  62
8
 100
AcDbBlockReference
   2
_DOT
  10
 478.92442836890
  20
 1226.9222890310
  30
0.0
  41
 4.0000000000000
  42
 4.0000000000000
  43
 4.0000000000000
  50
0.0
   0
MTEXT
   5
EA
 100
AcDbEntity
   8
LEVEL001
 370
15
  62
8
 100
AcDbMText
  10
 428.92442836890
  20
 1236.9222890310
  30
0.0
  40
 30.000000000000
  41
0.0
  71
8
  72
1
   1
\A1;100
   7
GMM002
   0
ENDBLK
   5
EB
 100
AcDbEntity
   8
0
 100
AcDbBlockEnd
   0
BLOCK
   5
EC
 100
AcDbEntity
   8
0
 100
AcDbBlockBegin
   2
*D8
  70
65
  10
0.0
  20
0.0
  30
0.0
   3
*D8
   0
LINE
   5
ED
 100
AcDbEntity
   8
LEVEL001
 370
15
 100
AcDbLine
   6
CONTINUOUS
  62
8
  10
 874.58462288044
  20
 2387.6017512511
  30
0.0
  11
 734.58462288044
  21
 2387.6017512511
  31
0.0
   0
LINE
   5
EE
 100
AcDbEntity
   8
LEVEL001
 370
15
 100
AcDbLine
   6
CONTINUOUS
  62
8
  10
 744.58462288044
  20
 2387.6017512511
  30
0.0
  11
 744.58462288044
  21
 2437.6017512511
  31
0.0
   0
LINE
   5
EF
 100
AcDbEntity
   8
LEVEL001
 370
15
 100
AcDbLine
   6
CONTINUOUS
  62
8
  10
 744.58462288044
  20
 2487.6017512511
  30
0.0
  11
 744.58462288044
  21
 2437.6017512511
  31
0.0
   0
INSERT
   5
F0
 100
AcDbEntity
   8
LEVEL001
   6
CONTINUOUS
  62
8
 100
AcDbBlockReference
   2
_DOT
  10
 744.58462288044
  20
 2387.6017512511
  30
0.0
  41
 4.0000000000000
  42
 4.0000000000000
  43
 4.0000000000000
  50
 270.00000000000
   0
INSERT
   5
F1
 100
AcDbEntity
   8
LEVEL001
   6
CONTINUOUS
  62
8
 100
AcDbBlockReference
   2
_DOT
  10
 744.58462288044
  20
 2487.6017512511
  30
0.0
  41
 4.0000000000000
  42
 4.0000000000000
  43
 4.0000000000000
  50
 90.000000000000
   0
MTEXT
   5
F2
 100
AcDbEntity
   8
LEVEL001
 370
15
  62
8
 100
AcDbMText
  10
 734.58462288044
  20
 2437.6017512511
  30
0.0
  40
 30.000000000000
  41
0.0
  71
8
  72
1
   1
\A1;100
   7
GMM002
  11
0.0
  21
 1.0000000000000
  31
0.0
   0
ENDBLK
   5
F3
 100
AcDbEntity
   8
0
 100
AcDbBlockEnd
   0
BLOCK
   5
F4
 100
AcDbEntity
   8
0
 100
AcDbBlockBegin
   2
*D9
  70
65
  10
0.0
  20
0.0
  30
0.0
   3
*D9
   0
LINE
   5
F5
 100
AcDbEntity
   8
LEVEL001
 370
15
 100
AcDbLine
   6
CONTINUOUS
  62
8
  10
 318.92442836890
  20
 1343.9222890310
  30
0.0
  11
 268.92442836890
  21
 1343.9222890310
  31
0.0
   0
LINE
   5
F6
 100
AcDbEntity
   8
LEVEL001
 370
15
 100
AcDbLine
   6
CONTINUOUS
  62
8
  10
 278.92442836890
  20
 1343.9222890310
  30
0.0
  11
 278.92442836890
  21
 1443.9222890310
  31
0.0
   0
LINE
   5
F7
 100
AcDbEntity
   8
LEVEL001
 370
15
 100
AcDbLine
   6
CONTINUOUS
  62
8
  10
 278.92442836890
  20
 1543.9222890310
  30
0.0
  11
 278.92442836890
  21
 1443.9222890310
  31
0.0
   0
INSERT
   5
F8
 100
AcDbEntity
   8
LEVEL001
   6
CONTINUOUS
  62
8
 100
AcDbBlockReference
   2
_DOT
  10
 278.92442836890
  20
 1343.9222890310
  30
0.0
  41
 4.0000000000000
  42
 4.0000000000000
  43
 4.0000000000000
  50
 270.00000000000
   0
MTEXT
   5
F9
 100
AcDbEntity
   8
LEVEL001
 370
15
  62
8
 100
AcDbMText
  10
 268.92442836890
  20
 1443.9222890310
  30
0.0
  40
 30.000000000000
  41
0.0
  71
8
  72
1
   1
\A1;200
   7
GMM002
  11
0.0
  21
 1.0000000000000
  31
0.0
   0
ENDBLK
   5
FA
 100
AcDbEntity
   8
0
 100
AcDbBlockEnd
   0
BLOCK
   5
FB
 100
AcDbEntity
   8
0
 100
AcDbBlockBegin
   2
*D10
  70
65
  10
0.0
  20
0.0
  30
0.0
   3
*D10
   0
LINE
   5
FC
 100
AcDbEntity
   8
LEVEL001
 370
15
 100
AcDbLine
   6
CONTINUOUS
  62
8
  10
 332.37729988700
  20
 1543.9222890310
  30
0.0
  11
 268.92442836890
  21
 1543.9222890310
  31
0.0
   0
LINE
   5
FD
 100
AcDbEntity
   8
LEVEL001
 370
15
 100
AcDbLine
   6
CONTINUOUS
  62
8
  10
 318.92442836890
  20
 2043.9222890310
  30
0.0
  11
 268.92442836890
  21
 2043.9222890310
  31
0.0
   0
LINE
   5
FE
 100
AcDbEntity
   8
LEVEL001
 370
15
 100
AcDbLine
   6
CONTINUOUS
  62
8
  10
 278.92442836890
  20
 1543.9222890310
  30
0.0
  11
 278.92442836890
  21
 1793.9222890310
  31
0.0
   0
LINE
   5
FF
 100
AcDbEntity
   8
LEVEL001
 370
15
 100
AcDbLine
   6
CONTINUOUS
  62
8
  10
 278.92442836890
  20
 2043.9222890310
  30
0.0
  11
 278.92442836890
  21
 1793.9222890310
  31
0.0
   0
INSERT
   5
100
 100
AcDbEntity
   8
LEVEL001
   6
CONTINUOUS
  62
8
 100
AcDbBlockReference
   2
_DOT
  10
 278.92442836890
  20
 1543.9222890310
  30
0.0
  41
 4.0000000000000
  42
 4.0000000000000
  43
 4.0000000000000
  50
 270.00000000000
   0
INSERT
   5
101
 100
AcDbEntity
   8
LEVEL001
   6
CONTINUOUS
  62
8
 100
AcDbBlockReference
   2
_DOT
  10
 278.92442836890
  20
 2043.9222890310
  30
0.0
  41
 4.0000000000000
  42
 4.0000000000000
  43
 4.0000000000000
  50
 90.000000000000
   0
MTEXT
   5
102
 100
AcDbEntity
   8
LEVEL001
 370
15
  62
8
 100
AcDbMText
  10
 268.92442836890
  20
 1793.9222890310
  30
0.0
  40
 30.000000000000
  41
0.0
  71
8
  72
1
   1
\A1;500
   7
GMM002
  11
0.0
  21
 1.0000000000000
  31
0.0
   0
ENDBLK
   5
103
 100
AcDbEntity
   8
0
 100
AcDbBlockEnd
   0
BLOCK
   5
104
 100
AcDbEntity
   8
0
 100
AcDbBlockBegin
   2
*D11
  70
65
  10
0.0
  20
0.0
  30
0.0
   3
*D11
   0
LINE
   5
105
 100
AcDbEntity
   8
LEVEL001
 370
15
 100
AcDbLine
   6
CONTINUOUS
  62
8
  10
 268.92442836890
  20
 1343.9222890310
  30
0.0
  11
 208.91048066492
  21
 1343.9222890310
  31
0.0
   0
LINE
   5
106
 100
AcDbEntity
   8
LEVEL001
 370
15
 100
AcDbLine
   6
CONTINUOUS
  62
8
  10
 268.92442836890
  20
 2043.9222890310
  30
0.0
  11
 208.91048066492
  21
 2043.9222890310
  31
0.0
   0
LINE
   5
107
 100
AcDbEntity
   8
LEVEL001
 370
15
 100
AcDbLine
   6
CONTINUOUS
  62
8
  10
 218.91048066492
  20
 1343.9222890310
  30
0.0
  11
 218.91048066492
  21
 1693.9222890310
  31
0.0
   0
LINE
   5
108
 100
AcDbEntity
   8
LEVEL001
 370
15
 100
AcDbLine
   6
CONTINUOUS
  62
8
  10
 218.91048066492
  20
 2043.9222890310
  30
0.0
  11
 218.91048066492
  21
 1693.9222890310
  31
0.0
   0
INSERT
   5
109
 100
AcDbEntity
   8
LEVEL001
   6
CONTINUOUS
  62
8
 100
AcDbBlockReference
   2
_DOT
  10
 218.91048066492
  20
 1343.9222890310
  30
0.0
  41
 4.0000000000000
  42
 4.0000000000000
  43
 4.0000000000000
  50
 270.00000000000
   0
INSERT
   5
10A
 100
AcDbEntity
   8
LEVEL001
   6
CONTINUOUS
  62
8
 100
AcDbBlockReference
   2
_DOT
  10
 218.91048066492
  20
 2043.9222890310
  30
0.0
  41
 4.0000000000000
  42
 4.0000000000000
  43
 4.0000000000000
  50
 90.000000000000
   0
MTEXT
   5
10B
 100
AcDbEntity
   8
LEVEL001
 370
15
  62
8
 100
AcDbMText
  10
 208.91048066492
  20
 1693.9222890310
  30
0.0
  40
 30.000000000000
  41
0.0
  71
8
  72
1
   1
\A1;700
   7
GMM002
  11
0.0
  21
 1.0000000000000
  31
0.0
   0
ENDBLK
   5
10C
 100
AcDbEntity
   8
0
 100
AcDbBlockEnd
   0
BLOCK
   5
10D
 100
AcDbEntity
   8
0
 100
AcDbBlockBegin
   2
*D12
  70
65
  10
0.0
  20
0.0
  30
0.0
   3
*D12
   0
LINE
   5
10E
 100
AcDbEntity
   8
LEVEL001
 370
15
 100
AcDbLine
   6
CONTINUOUS
  62
8
  10
 2332.4153771186
  20
 1640.0901869939
  30
0.0
  11
 2315.4153771186
  21
 1640.0901869939
  31
0.0
   0
LINE
   5
10F
 100
AcDbEntity
   8
LEVEL001
 370
15
 100
AcDbLine
   6
CONTINUOUS
  62
8
  10
 2189.7985853423
  20
 1640.0901869939
  30
0.0
  11
 2315.4153771186
  21
 1640.0901869939
  31
0.0
   0
INSERT
   5
110
 100
AcDbEntity
   8
LEVEL001
   6
CONTINUOUS
  62
8
 100
AcDbBlockReference
   2
_DOT
  10
 2332.4153771186
  20
 1640.0901869939
  30
0.0
  41
 4.0000000000000
  42
 4.0000000000000
  43
 4.0000000000000
  50
0.0
   0
INSERT
   5
111
 100
AcDbEntity
   8
LEVEL001
   6
CONTINUOUS
  62
8
 100
AcDbBlockReference
   2
_DOT
  10
 2298.4153771186
  20
 1640.0901869939
  30
0.0
  41
 4.0000000000000
  42
 4.0000000000000
  43
 4.0000000000000
  50
 180.00000000000
   0
MTEXT
   5
112
 100
AcDbEntity
   8
LEVEL001
 370
15
  62
8
 100
AcDbMText
  10
 2269.7985853423
  20
 1650.0901869939
  30
0.0
  40
 30.000000000000
  41
0.0
  71
9
  72
1
   1
\A1;%%c34
   7
GMM002
   0
ENDBLK
   5
113
 100
AcDbEntity
   8
0
 100
AcDbBlockEnd
   0
BLOCK
   5
114
 100
AcDbEntity
   8
0
 100
AcDbBlockBegin
   2
*D14
  70
65
  10
0.0
  20
0.0
  30
0.0
   3
*D14
   0
LINE
   5
115
 100
AcDbEntity
   8
LEVEL001
 370
15
 100
AcDbLine
   6
CONTINUOUS
  62
8
  10
 2315.4153771186
  20
 1408.9222890310
  30
0.0
  11
 2315.4153771186
  21
 1216.9222890310
  31
0.0
   0
LINE
   5
116
 100
AcDbEntity
   8
LEVEL001
 370
15
 100
AcDbLine
   6
CONTINUOUS
  62
8
  10
 1715.4153771186
  20
 1243.9222890310
  30
0.0
  11
 1715.4153771186
  21
 1216.9222890310
  31
0.0
   0
LINE
   5
117
 100
AcDbEntity
   8
LEVEL001
 370
15
 100
AcDbLine
   6
CONTINUOUS
  62
8
  10
 2315.4153771186
  20
 1226.9222890310
  30
0.0
  11
 2015.4153771186
  21
 1226.9222890310
  31
0.0
   0
LINE
   5
118
 100
AcDbEntity
   8
LEVEL001
 370
15
 100
AcDbLine
   6
CONTINUOUS
  62
8
  10
 1715.4153771186
  20
 1226.9222890310
  30
0.0
  11
 2015.4153771186
  21
 1226.9222890310
  31
0.0
   0
INSERT
   5
119
 100
AcDbEntity
   8
LEVEL001
   6
CONTINUOUS
  62
8
 100
AcDbBlockReference
   2
_DOT
  10
 2315.4153771186
  20
 1226.9222890310
  30
0.0
  41
 4.0000000000000
  42
 4.0000000000000
  43
 4.0000000000000
  50
0.0
   0
INSERT
   5
11A
 100
AcDbEntity
   8
LEVEL001
   6
CONTINUOUS
  62
8
 100
AcDbBlockReference
   2
_DOT
  10
 1715.4153771186
  20
 1226.9222890310
  30
0.0
  41
 4.0000000000000
  42
 4.0000000000000
  43
 4.0000000000000
  50
 180.00000000000
   0
MTEXT
   5
11B
 100
AcDbEntity
   8
LEVEL001
 370
15
  62
8
 100
AcDbMText
  10
 2015.4153771186
  20
 1236.9222890310
  30
0.0
  40
 30.000000000000
  41
0.0
  71
8
  72
1
   1
\A1;600
   7
GMM002
   0
ENDBLK
   5
11C
 100
AcDbEntity
   8
0
 100
AcDbBlockEnd
   0
BLOCK
   5
11D
 100
AcDbEntity
   8
0
 100
AcDbBlockBegin
   2
*D15
  70
65
  10
0.0
  20
0.0
  30
0.0
   3
*D15
   0
LINE
   5
11E
 100
AcDbEntity
   8
LEVEL001
 370
15
 100
AcDbLine
   6
CONTINUOUS
  62
8
  10
 2270.4153771186
  20
 1343.9222890310
  30
0.0
  11
 2465.4153771186
  21
 1343.9222890310
  31
0.0
   0
LINE
   5
11F
 100
AcDbEntity
   8
LEVEL001
 370
15
 100
AcDbLine
   6
CONTINUOUS
  62
8
  10
 2455.4153771186
  20
 1343.9222890310
  30
0.0
  11
 2455.4153771186
  21
 1443.9222890310
  31
0.0
   0
LINE
   5
120
 100
AcDbEntity
   8
LEVEL001
 370
15
 100
AcDbLine
   6
CONTINUOUS
  62
8
  10
 2455.4153771186
  20
 1543.9222890310
  30
0.0
  11
 2455.4153771186
  21
 1443.9222890310
  31
0.0
   0
INSERT
   5
121
 100
AcDbEntity
   8
LEVEL001
   6
CONTINUOUS
  62
8
 100
AcDbBlockReference
   2
_DOT
  10
 2455.4153771186
  20
 1343.9222890310
  30
0.0
  41
 4.0000000000000
  42
 4.0000000000000
  43
 4.0000000000000
  50
 270.00000000000
   0
MTEXT
   5
122
 100
AcDbEntity
   8
LEVEL001
 370
15
  62
8
 100
AcDbMText
  10
 2445.4153771186
  20
 1443.9222890310
  30
0.0
  40
 30.000000000000
  41
0.0
  71
8
  72
1
   1
\A1;200
   7
GMM002
  11
0.0
  21
 1.0000000000000
  31
0.0
   0
ENDBLK
   5
123
 100
AcDbEntity
   8
0
 100
AcDbBlockEnd
   0
BLOCK
   5
124
 100
AcDbEntity
   8
0
 100
AcDbBlockBegin
   2
*D16
  70
65
  10
0.0
  20
0.0
  30
0.0
   3
*D16
   0
LINE
   5
125
 100
AcDbEntity
   8
LEVEL001
 370
15
 100
AcDbLine
   6
CONTINUOUS
  62
8
  10
 2415.4153771186
  20
 1543.9222890310
  30
0.0
  11
 2465.4153771186
  21
 1543.9222890310
  31
0.0
   0
LINE
   5
126
 100
AcDbEntity
   8
LEVEL001
 370
15
 100
AcDbLine
   6
CONTINUOUS
  62
8
  10
 2415.4153771186
  20
 2043.9222890310
  30
0.0
  11
 2465.4153771186
  21
 2043.9222890310
  31
0.0
   0
LINE
   5
127
 100
AcDbEntity
   8
LEVEL001
 370
15
 100
AcDbLine
   6
CONTINUOUS
  62
8
  10
 2455.4153771186
  20
 1543.9222890310
  30
0.0
  11
 2455.4153771186
  21
 1793.9222890310
  31
0.0
   0
LINE
   5
128
 100
AcDbEntity
   8
LEVEL001
 370
15
 100
AcDbLine
   6
CONTINUOUS
  62
8
  10
 2455.4153771186
  20
 2043.9222890310
  30
0.0
  11
 2455.4153771186
  21
 1793.9222890310
  31
0.0
   0
INSERT
   5
129
 100
AcDbEntity
   8
LEVEL001
   6
CONTINUOUS
  62
8
 100
AcDbBlockReference
   2
_DOT
  10
 2455.4153771186
  20
 1543.9222890310
  30
0.0
  41
 4.0000000000000
  42
 4.0000000000000
  43
 4.0000000000000
  50
 270.00000000000
   0
INSERT
   5
12A
 100
AcDbEntity
   8
LEVEL001
   6
CONTINUOUS
  62
8
 100
AcDbBlockReference
   2
_DOT
  10
 2455.4153771186
  20
 2043.9222890310
  30
0.0
  41
 4.0000000000000
  42
 4.0000000000000
  43
 4.0000000000000
  50
 90.000000000000
   0
MTEXT
   5
12B
 100
AcDbEntity
   8
LEVEL001
 370
15
  62
8
 100
AcDbMText
  10
 2445.4153771186
  20
 1793.9222890310
  30
0.0
  40
 30.000000000000
  41
0.0
  71
8
  72
1
   1
\A1;500
   7
GMM002
  11
0.0
  21
 1.0000000000000
  31
0.0
   0
ENDBLK
   5
12C
 100
AcDbEntity
   8
0
 100
AcDbBlockEnd
   0
BLOCK
   5
12D
 100
AcDbEntity
   8
0
 100
AcDbBlockBegin
   2
*D17
  70
65
  10
0.0
  20
0.0
  30
0.0
   3
*D17
   0
LINE
   5
12E
 100
AcDbEntity
   8
LEVEL001
 370
15
 100
AcDbLine
   6
CONTINUOUS
  62
8
  10
 2465.4153771186
  20
 1343.9222890310
  30
0.0
  11
 2565.4153771186
  21
 1343.9222890310
  31
0.0
   0
LINE
   5
12F
 100
AcDbEntity
   8
LEVEL001
 370
15
 100
AcDbLine
   6
CONTINUOUS
  62
8
  10
 2465.4153771186
  20
 2043.9222890310
  30
0.0
  11
 2565.4153771186
  21
 2043.9222890310
  31
0.0
   0
LINE
   5
130
 100
AcDbEntity
   8
LEVEL001
 370
15
 100
AcDbLine
   6
CONTINUOUS
  62
8
  10
 2555.4153771186
  20
 1343.9222890310
  30
0.0
  11
 2555.4153771186
  21
 1693.9222890310
  31
0.0
   0
LINE
   5
131
 100
AcDbEntity
   8
LEVEL001
 370
15
 100
AcDbLine
   6
CONTINUOUS
  62
8
  10
 2555.4153771186
  20
 2043.9222890310
  30
0.0
  11
 2555.4153771186
  21
 1693.9222890310
  31
0.0
   0
INSERT
   5
132
 100
AcDbEntity
   8
LEVEL001
   6
CONTINUOUS
  62
8
 100
AcDbBlockReference
   2
_DOT
  10
 2555.4153771186
  20
 1343.9222890310
  30
0.0
  41
 4.0000000000000
  42
 4.0000000000000
  43
 4.0000000000000
  50
 270.00000000000
   0
INSERT
   5
133
 100
AcDbEntity
   8
LEVEL001
   6
CONTINUOUS
  62
8
 100
AcDbBlockReference
   2
_DOT
  10
 2555.4153771186
  20
 2043.9222890310
  30
0.0
  41
 4.0000000000000
  42
 4.0000000000000
  43
 4.0000000000000
  50
 90.000000000000
   0
MTEXT
   5
134
 100
AcDbEntity
   8
LEVEL001
 370
15
  62
8
 100
AcDbMText
  10
 2545.4153771186
  20
 1693.9222890310
  30
0.0
  40
 30.000000000000
  41
0.0
  71
8
  72
1
   1
\A1;700
   7
GMM002
  11
0.0
  21
 1.0000000000000
  31
0.0
   0
ENDBLK
   5
135
 100
AcDbEntity
   8
0
 100
AcDbBlockEnd
   0
BLOCK
   5
136
 100
AcDbEntity
   8
0
 100
AcDbBlockBegin
   2
*D18
  70
65
  10
0.0
  20
0.0
  30
0.0
   3
*D18
   0
LINE
   5
137
 100
AcDbEntity
   8
LEVEL001
 370
15
 100
AcDbLine
   6
CONTINUOUS
  62
8
  10
 2721.0755716301
  20
 1333.9222890310
  30
0.0
  11
 2721.0755716301
  21
 1216.9222890310
  31
0.0
   0
LINE
   5
138
 100
AcDbEntity
   8
LEVEL001
 370
15
 100
AcDbLine
   6
CONTINUOUS
  62
8
  10
 2821.0755716301
  20
 1226.9222890310
  30
0.0
  11
 2771.0755716301
  21
 1226.9222890310
  31
0.0
   0
LINE
   5
139
 100
AcDbEntity
   8
LEVEL001
 370
15
 100
AcDbLine
   6
CONTINUOUS
  62
8
  10
 2721.0755716301
  20
 1226.9222890310
  30
0.0
  11
 2771.0755716301
  21
 1226.9222890310
  31
0.0
   0
INSERT
   5
13A
 100
AcDbEntity
   8
LEVEL001
   6
CONTINUOUS
  62
8
 100
AcDbBlockReference
   2
_DOT
  10
 2821.0755716301
  20
 1226.9222890310
  30
0.0
  41
 4.0000000000000
  42
 4.0000000000000
  43
 4.0000000000000
  50
0.0
   0
INSERT
   5
13B
 100
AcDbEntity
   8
LEVEL001
   6
CONTINUOUS
  62
8
 100
AcDbBlockReference
   2
_DOT
  10
 2721.0755716301
  20
 1226.9222890310
  30
0.0
  41
 4.0000000000000
  42
 4.0000000000000
  43
 4.0000000000000
  50
 180.00000000000
   0
MTEXT
   5
13C
 100
AcDbEntity
   8
LEVEL001
 370
15
  62
8
 100
AcDbMText
  10
 2771.0755716301
  20
 1236.9222890310
  30
0.0
  40
 30.000000000000
  41
0.0
  71
8
  72
1
   1
\A1;100
   7
GMM002
   0
ENDBLK
   5
13D
 100
AcDbEntity
   8
0
 100
AcDbBlockEnd
   0
BLOCK
   5
13E
 100
AcDbEntity
   8
0
 100
AcDbBlockBegin
   2
*D19
  70
65
  10
0.0
  20
0.0
  30
0.0
   3
*D19
   0
LINE
   5
13F
 100
AcDbEntity
   8
LEVEL001
 370
15
 100
AcDbLine
   6
CONTINUOUS
  62
8
  10
 2325.4153771186
  20
 2387.6017512511
  30
0.0
  11
 2465.4153771186
  21
 2387.6017512511
  31
0.0
   0
LINE
   5
140
 100
AcDbEntity
   8
LEVEL001
 370
15
 100
AcDbLine
   6
CONTINUOUS
  62
8
  10
 2455.4153771186
  20
 2387.6017512511
  30
0.0
  11
 2455.4153771186
  21
 2437.6017512511
  31
0.0
   0
LINE
   5
141
 100
AcDbEntity
   8
LEVEL001
 370
15
 100
AcDbLine
   6
CONTINUOUS
  62
8
  10
 2455.4153771186
  20
 2487.6017512511
  30
0.0
  11
 2455.4153771186
  21
 2437.6017512511
  31
0.0
   0
INSERT
   5
142
 100
AcDbEntity
   8
LEVEL001
   6
CONTINUOUS
  62
8
 100
AcDbBlockReference
   2
_DOT
  10
 2455.4153771186
  20
 2387.6017512511
  30
0.0
  41
 4.0000000000000
  42
 4.0000000000000
  43
 4.0000000000000
  50
 270.00000000000
   0
INSERT
   5
143
 100
AcDbEntity
   8
LEVEL001
   6
CONTINUOUS
  62
8
 100
AcDbBlockReference
   2
_DOT
  10
 2455.4153771186
  20
 2487.6017512511
  30
0.0
  41
 4.0000000000000
  42
 4.0000000000000
  43
 4.0000000000000
  50
 90.000000000000
   0
MTEXT
   5
144
 100
AcDbEntity
   8
LEVEL001
 370
15
  62
8
 100
AcDbMText
  10
 2445.4153771186
  20
 2437.6017512511
  30
0.0
  40
 30.000000000000
  41
0.0
  71
8
  72
1
   1
\A1;100
   7
GMM002
  11
0.0
  21
 1.0000000000000
  31
0.0
   0
ENDBLK
   5
145
 100
AcDbEntity
   8
0
 100
AcDbBlockEnd
   0
BLOCK
   5
146
 100
AcDbEntity
   8
0
 100
AcDbBlockBegin
   2
*D20
  70
65
  10
0.0
  20
0.0
  30
0.0
   3
*D20
   0
LINE
   5
147
 100
AcDbEntity
   8
LEVEL001
 370
15
 100
AcDbLine
   6
CONTINUOUS
  62
8
  10
 2881.0755716301
  20
 1343.9222890310
  30
0.0
  11
 2931.0755716301
  21
 1343.9222890310
  31
0.0
   0
LINE
   5
148
 100
AcDbEntity
   8
LEVEL001
 370
15
 100
AcDbLine
   6
CONTINUOUS
  62
8
  10
 2921.0755716301
  20
 1343.9222890310
  30
0.0
  11
 2921.0755716301
  21
 1443.9222890310
  31
0.0
   0
LINE
   5
149
 100
AcDbEntity
   8
LEVEL001
 370
15
 100
AcDbLine
   6
CONTINUOUS
  62
8
  10
 2921.0755716301
  20
 1543.9222890310
  30
0.0
  11
 2921.0755716301
  21
 1443.9222890310
  31
0.0
   0
INSERT
   5
14A
 100
AcDbEntity
   8
LEVEL001
   6
CONTINUOUS
  62
8
 100
AcDbBlockReference
   2
_DOT
  10
 2921.0755716301
  20
 1343.9222890310
  30
0.0
  41
 4.0000000000000
  42
 4.0000000000000
  43
 4.0000000000000
  50
 270.00000000000
   0
MTEXT
   5
14B
 100
AcDbEntity
   8
LEVEL001
 370
15
  62
8
 100
AcDbMText
  10
 2911.0755716301
  20
 1443.9222890310
  30
0.0
  40
 30.000000000000
  41
0.0
  71
8
  72
1
   1
\A1;200
   7
GMM002
  11
0.0
  21
 1.0000000000000
  31
0.0
   0
ENDBLK
   5
14C
 100
AcDbEntity
   8
0
 100
AcDbBlockEnd
   0
BLOCK
   5
14D
 100
AcDbEntity
   8
0
 100
AcDbBlockBegin
   2
*D21
  70
65
  10
0.0
  20
0.0
  30
0.0
   3
*D21
   0
LINE
   5
14E
 100
AcDbEntity
   8
LEVEL001
 370
15
 100
AcDbLine
   6
CONTINUOUS
  62
8
  10
 2867.6227001120
  20
 1543.9222890310
  30
0.0
  11
 2931.0755716301
  21
 1543.9222890310
  31
0.0
   0
LINE
   5
14F
 100
AcDbEntity
   8
LEVEL001
 370
15
 100
AcDbLine
   6
CONTINUOUS
  62
8
  10
 2881.0755716301
  20
 2043.9222890310
  30
0.0
  11
 2931.0755716301
  21
 2043.9222890310
  31
0.0
   0
LINE
   5
150
 100
AcDbEntity
   8
LEVEL001
 370
15
 100
AcDbLine
   6
CONTINUOUS
  62
8
  10
 2921.0755716301
  20
 1543.9222890310
  30
0.0
  11
 2921.0755716301
  21
 1793.9222890310
  31
0.0
   0
LINE
   5
151
 100
AcDbEntity
   8
LEVEL001
 370
15
 100
AcDbLine
   6
CONTINUOUS
  62
8
  10
 2921.0755716301
  20
 2043.9222890310
  30
0.0
  11
 2921.0755716301
  21
 1793.9222890310
  31
0.0
   0
INSERT
   5
152
 100
AcDbEntity
   8
LEVEL001
   6
CONTINUOUS
  62
8
 100
AcDbBlockReference
   2
_DOT
  10
 2921.0755716301
  20
 1543.9222890310
  30
0.0
  41
 4.0000000000000
  42
 4.0000000000000
  43
 4.0000000000000
  50
 270.00000000000
   0
INSERT
   5
153
 100
AcDbEntity
   8
LEVEL001
   6
CONTINUOUS
  62
8
 100
AcDbBlockReference
   2
_DOT
  10
 2921.0755716301
  20
 2043.9222890310
  30
0.0
  41
 4.0000000000000
  42
 4.0000000000000
  43
 4.0000000000000
  50
 90.000000000000
   0
MTEXT
   5
154
 100
AcDbEntity
   8
LEVEL001
 370
15
  62
8
 100
AcDbMText
  10
 2911.0755716301
  20
 1793.9222890310
  30
0.0
  40
 30.000000000000
  41
0.0
  71
8
  72
1
   1
\A1;500
   7
GMM002
  11
0.0
  21
 1.0000000000000
  31
0.0
   0
ENDBLK
   5
155
 100
AcDbEntity
   8
0
 100
AcDbBlockEnd
   0
BLOCK
   5
156
 100
AcDbEntity
   8
0
 100
AcDbBlockBegin
   2
*D22
  70
65
  10
0.0
  20
0.0
  30
0.0
   3
*D22
   0
LINE
   5
157
 100
AcDbEntity
   8
LEVEL001
 370
15
 100
AcDbLine
   6
CONTINUOUS
  62
8
  10
 2931.0755716301
  20
 1343.9222890310
  30
0.0
  11
 2991.0895193341
  21
 1343.9222890310
  31
0.0
   0
LINE
   5
158
 100
AcDbEntity
   8
LEVEL001
 370
15
 100
AcDbLine
   6
CONTINUOUS
  62
8
  10
 2931.0755716301
  20
 2043.9222890310
  30
0.0
  11
 2991.0895193341
  21
 2043.9222890310
  31
0.0
   0
LINE
   5
159
 100
AcDbEntity
   8
LEVEL001
 370
15
 100
AcDbLine
   6
CONTINUOUS
  62
8
  10
 2981.0895193341
  20
 1343.9222890310
  30
0.0
  11
 2981.0895193341
  21
 1693.9222890310
  31
0.0
   0
LINE
   5
15A
 100
AcDbEntity
   8
LEVEL001
 370
15
 100
AcDbLine
   6
CONTINUOUS
  62
8
  10
 2981.0895193341
  20
 2043.9222890310
  30
0.0
  11
 2981.0895193341
  21
 1693.9222890310
  31
0.0
   0
INSERT
   5
15B
 100
AcDbEntity
   8
LEVEL001
   6
CONTINUOUS
  62
8
 100
AcDbBlockReference
   2
_DOT
  10
 2981.0895193341
  20
 1343.9222890310
  30
0.0
  41
 4.0000000000000
  42
 4.0000000000000
  43
 4.0000000000000
  50
 270.00000000000
   0
INSERT
   5
15C
 100
AcDbEntity
   8
LEVEL001
   6
CONTINUOUS
  62
8
 100
AcDbBlockReference
   2
_DOT
  10
 2981.0895193341
  20
 2043.9222890310
  30
0.0
  41
 4.0000000000000
  42
 4.0000000000000
  43
 4.0000000000000
  50
 90.000000000000
   0
MTEXT
   5
15D
 100
AcDbEntity
   8
LEVEL001
 370
15
  62
8
 100
AcDbMText
  10
 2971.0895193341
  20
 1693.9222890310
  30
0.0
  40
 30.000000000000
  41
0.0
  71
8
  72
1
   1
\A1;700
   7
GMM002
  11
0.0
  21
 1.0000000000000
  31
0.0
   0
ENDBLK
   5
15E
 100
AcDbEntity
   8
0
 100
AcDbBlockEnd
   0
ENDSEC
   0
SECTION
   2
ENTITIES
   0
LINE
   5
15F
 100
AcDbEntity
   8
LEVEL002
 370
30
 100
AcDbLine
   6
CONTINUOUS
  62
7
  10
 3441.5000000000
  20
 2720.7500000000
  30
0.0
  11
 3369.5000000000
  21
 2720.7500000000
  31
0.0
   0
LINE
   5
160
 100
AcDbEntity
   8
LEVEL002
 370
30
 100
AcDbLine
   6
CONTINUOUS
  62
7
  10
 3369.5000000000
  20
 2720.7500000000
  30
0.0
  11
 3369.5000000000
  21
 2612.7500000000
  31
0.0
   0
LINE
   5
161
 100
AcDbEntity
   8
LEVEL002
 370
30
 100
AcDbLine
   6
CONTINUOUS
  62
7
  10
 3369.5000000000
  20
 2612.7500000000
  30
0.0
  11
 3405.5000000000
  21
 2612.7500000000
  31
0.0
   0
LINE
   5
162
 100
AcDbEntity
   8
LEVEL002
 370
30
 100
AcDbLine
   6
CONTINUOUS
  62
7
  10
 3405.5000000000
  20
 2612.7500000000
  30
0.0
  11
 3405.5000000000
  21
 2630.7500000000
  31
0.0
   0
LINE
   5
163
 100
AcDbEntity
   8
LEVEL002
 370
30
 100
AcDbLine
   6
CONTINUOUS
  62
7
  10
 3405.5000000000
  20
 2630.7500000000
  30
0.0
  11
 3441.5000000000
  21
 2630.7500000000
  31
0.0
   0
ARC
   5
164
 100
AcDbEntity
   8
LEVEL002
 370
30
   6
CONTINUOUS
  62
7
 100
AcDbCircle
  10
 3441.5000000000
  20
 2675.7500000000
  30
0.0
  40
 45.000000000000
 100
AcDbArc
  50
 270.00000000000
  51
 90.000000000000
   0
LINE
   5
165
 100
AcDbEntity
   8
LEVEL002
 370
30
 100
AcDbLine
   6
CONTINUOUS
  62
7
  10
 3405.5000000000
  20
 2666.7500000000
  30
0.0
  11
 3441.5000000000
  21
 2666.7500000000
  31
0.0
   0
ARC
   5
166
 100
AcDbEntity
   8
LEVEL002
 370
30
   6
CONTINUOUS
  62
7
 100
AcDbCircle
  10
 3441.5000000000
  20
 2675.7500000000
  30
0.0
  40
 9.0000000000000
 100
AcDbArc
  50
 270.00000000000
  51
 90.000000000000
   0
LINE
   5
167
 100
AcDbEntity
   8
LEVEL002
 370
30
 100
AcDbLine
   6
CONTINUOUS
  62
7
  10
 3441.5000000000
  20
 2684.7500000000
  30
0.0
  11
 3405.5000000000
  21
 2684.7500000000
  31
0.0
   0
LINE
   5
168
 100
AcDbEntity
   8
LEVEL002
 370
30
 100
AcDbLine
   6
CONTINUOUS
  62
7
  10
 3405.5000000000
  20
 2684.7500000000
  30
0.0
  11
 3405.5000000000
  21
 2666.7500000000
  31
0.0
   0
LINE
   5
169
 100
AcDbEntity
   8
LEVEL002
 370
30
 100
AcDbLine
   6
CONTINUOUS
  62
7
  10
 3459.5000000000
  20
 2612.7500000000
  30
0.0
  11
 3531.5000000000
  21
 2720.7500000000
  31
0.0
   0
LINE
   5
16A
 100
AcDbEntity
   8
LEVEL002
 370
30
 100
AcDbLine
   6
CONTINUOUS
  62
7
  10
 3531.5000000000
  20
 2720.7500000000
  30
0.0
  11
 3621.5000000000
  21
 2720.7500000000
  31
0.0
   0
LINE
   5
16B
 100
AcDbEntity
   8
LEVEL002
 370
30
 100
AcDbLine
   6
CONTINUOUS
  62
7
  10
 3621.5000000000
  20
 2720.7500000000
  30
0.0
  11
 3621.5000000000
  21
 2648.7500000000
  31
0.0
   0
LINE
   5
16C
 100
AcDbEntity
   8
LEVEL002
 370
30
 100
AcDbLine
   6
CONTINUOUS
  62
7
  10
 3621.5000000000
  20
 2648.7500000000
  30
0.0
  11
 3675.5000000000
  21
 2648.7500000000
  31
0.0
   0
LINE
   5
16D
 100
AcDbEntity
   8
LEVEL002
 370
30
 100
AcDbLine
   6
CONTINUOUS
  62
7
  10
 3675.5000000000
  20
 2648.7500000000
  30
0.0
  11
 3675.5000000000
  21
 2684.7500000000
  31
0.0
   0
LINE
   5
16E
 100
AcDbEntity
   8
LEVEL002
 370
30
 100
AcDbLine
   6
CONTINUOUS
  62
7
  10
 3675.5000000000
  20
 2684.7500000000
  30
0.0
  11
 3639.5000000000
  21
 2684.7500000000
  31
0.0
   0
LINE
   5
16F
 100
AcDbEntity
   8
LEVEL002
 370
30
 100
AcDbLine
   6
CONTINUOUS
  62
7
  10
 3639.5000000000
  20
 2684.7500000000
  30
0.0
  11
 3639.5000000000
  21
 2720.7500000000
  31
0.0
   0
LINE
   5
170
 100
AcDbEntity
   8
LEVEL002
 370
30
 100
AcDbLine
   6
CONTINUOUS
  62
7
  10
 3639.5000000000
  20
 2720.7500000000
  30
0.0
  11
 3855.5000000000
  21
 2720.7500000000
  31
0.0
   0
LINE
   5
171
 100
AcDbEntity
   8
LEVEL002
 370
30
 100
AcDbLine
   6
CONTINUOUS
  62
7
  10
 3855.5000000000
  20
 2720.7500000000
  30
0.0
  11
 3855.5000000000
  21
 2684.7500000000
  31
0.0
   0
LINE
   5
172
 100
AcDbEntity
   8
LEVEL002
 370
30
 100
AcDbLine
   6
CONTINUOUS
  62
7
  10
 3855.5000000000
  20
 2684.7500000000
  30
0.0
  11
 3783.5000000000
  21
 2684.7500000000
  31
0.0
   0
LINE
   5
173
 100
AcDbEntity
   8
LEVEL002
 370
30
 100
AcDbLine
   6
CONTINUOUS
  62
7
  10
 3783.5000000000
  20
 2684.7500000000
  30
0.0
  11
 3783.5000000000
  21
 2675.7500000000
  31
0.0
   0
LINE
   5
174
 100
AcDbEntity
   8
LEVEL002
 370
30
 100
AcDbLine
   6
CONTINUOUS
  62
7
  10
 3783.5000000000
  20
 2675.7500000000
  30
0.0
  11
 3846.5000000000
  21
 2675.7500000000
  31
0.0
   0
LINE
   5
175
 100
AcDbEntity
   8
LEVEL002
 370
30
 100
AcDbLine
   6
CONTINUOUS
  62
7
  10
 3846.5000000000
  20
 2675.7500000000
  30
0.0
  11
 3846.5000000000
  21
 2657.7500000000
  31
0.0
   0
LINE
   5
176
 100
AcDbEntity
   8
LEVEL002
 370
30
 100
AcDbLine
   6
CONTINUOUS
  62
7
  10
 3846.5000000000
  20
 2657.7500000000
  30
0.0
  11
 3783.5000000000
  21
 2657.7500000000
  31
0.0
   0
LINE
   5
177
 100
AcDbEntity
   8
LEVEL002
 370
30
 100
AcDbLine
   6
CONTINUOUS
  62
7
  10
 3783.5000000000
  20
 2657.7500000000
  30
0.0
  11
 3783.5000000000
  21
 2648.7500000000
  31
0.0
   0
LINE
   5
178
 100
AcDbEntity
   8
LEVEL002
 370
30
 100
AcDbLine
   6
CONTINUOUS
  62
7
  10
 3783.5000000000
  20
 2648.7500000000
  30
0.0
  11
 3855.5000000000
  21
 2648.7500000000
  31
0.0
   0
LINE
   5
179
 100
AcDbEntity
   8
LEVEL002
 370
30
 100
AcDbLine
   6
CONTINUOUS
  62
7
  10
 3855.5000000000
  20
 2648.7500000000
  30
0.0
  11
 3855.5000000000
  21
 2612.7500000000
  31
0.0
   0
LINE
   5
17A
 100
AcDbEntity
   8
LEVEL002
 370
30
 100
AcDbLine
   6
CONTINUOUS
  62
7
  10
 3855.5000000000
  20
 2612.7500000000
  30
0.0
  11
 3747.5000000000
  21
 2612.7500000000
  31
0.0
   0
LINE
   5
17B
 100
AcDbEntity
   8
LEVEL002
 370
30
 100
AcDbLine
   6
CONTINUOUS
  62
7
  10
 3747.5000000000
  20
 2612.7500000000
  30
0.0
  11
 3747.5000000000
  21
 2684.7500000000
  31
0.0
   0
LINE
   5
17C
 100
AcDbEntity
   8
LEVEL002
 370
30
 100
AcDbLine
   6
CONTINUOUS
  62
7
  10
 3747.5000000000
  20
 2684.7500000000
  30
0.0
  11
 3711.5000000000
  21
 2684.7500000000
  31
0.0
   0
LINE
   5
17D
 100
AcDbEntity
   8
LEVEL002
 370
30
 100
AcDbLine
   6
CONTINUOUS
  62
7
  10
 3711.5000000000
  20
 2684.7500000000
  30
0.0
  11
 3711.5000000000
  21
 2612.7500000000
  31
0.0
   0
LINE
   5
17E
 100
AcDbEntity
   8
LEVEL002
 370
30
 100
AcDbLine
   6
CONTINUOUS
  62
7
  10
 3711.5000000000
  20
 2612.7500000000
  30
0.0
  11
 3585.5000000000
  21
 2612.7500000000
  31
0.0
   0
LINE
   5
17F
 100
AcDbEntity
   8
LEVEL002
 370
30
 100
AcDbLine
   6
CONTINUOUS
  62
7
  10
 3585.5000000000
  20
 2612.7500000000
  30
0.0
  11
 3585.5000000000
  21
 2720.7500000000
  31
0.0
   0
LINE
   5
180
 100
AcDbEntity
   8
LEVEL002
 370
30
 100
AcDbLine
   6
CONTINUOUS
  62
7
  10
 3585.5000000000
  20
 2720.7500000000
  30
0.0
  11
 3513.5000000000
  21
 2612.7500000000
  31
0.0
   0
LINE
   5
181
 100
AcDbEntity
   8
LEVEL002
 370
30
 100
AcDbLine
   6
CONTINUOUS
  62
7
  10
 3513.5000000000
  20
 2612.7500000000
  30
0.0
  11
 3459.5000000000
  21
 2612.7500000000
  31
0.0
   0
LINE
   5
182
 100
AcDbEntity
   8
LEVEL002
 370
30
 100
AcDbLine
   6
CONTINUOUS
  62
7
  10
 3573.5000000000
  20
 2681.1166923470
  30
0.0
  11
 3527.9222051020
  21
 2612.7500000000
  31
0.0
   0
LINE
   5
183
 100
AcDbEntity
   8
LEVEL002
 370
30
 100
AcDbLine
   6
CONTINUOUS
  62
7
  10
 3527.9222051020
  20
 2612.7500000000
  30
0.0
  11
 3573.5000000000
  21
 2612.7500000000
  31
0.0
   0
LINE
   5
184
 100
AcDbEntity
   8
LEVEL002
 370
30
 100
AcDbLine
   6
CONTINUOUS
  62
7
  10
 3573.5000000000
  20
 2612.7500000000
  30
0.0
  11
 3573.5000000000
  21
 2681.1166923470
  31
0.0
   0
ARC
   5
185
 100
AcDbEntity
   8
LEVEL002
 370
30
   6
CONTINUOUS
  62
7
 100
AcDbCircle
  10
 3909.5000000000
  20
 2666.7500000000
  30
0.0
  40
 54.000000000000
 100
AcDbArc
  50
 90.000000000000
  51
 270.00000000000
   0
ARC
   5
186
 100
AcDbEntity
   8
LEVEL002
 370
30
   6
CONTINUOUS
  62
7
 100
AcDbCircle
  10
 3909.5000000000
  20
 2666.7500000000
  30
0.0
  40
 18.000000000000
 100
AcDbArc
  50
 90.000000000000
  51
 270.00000000000
   0
LINE
   5
187
 100
AcDbEntity
   8
LEVEL002
 370
30
 100
AcDbLine
   6
CONTINUOUS
  62
7
  10
 3909.5000000000
  20
 2720.7500000000
  30
0.0
  11
 3963.5000000000
  21
 2720.7500000000
  31
0.0
   0
LINE
   5
188
 100
AcDbEntity
   8
LEVEL002
 370
30
 100
AcDbLine
   6
CONTINUOUS
  62
7
  10
 3963.5000000000
  20
 2720.7500000000
  30
0.0
  11
 3963.5000000000
  21
 2684.7500000000
  31
0.0
   0
LINE
   5
189
 100
AcDbEntity
   8
LEVEL002
 370
30
 100
AcDbLine
   6
CONTINUOUS
  62
7
  10
 3963.5000000000
  20
 2684.7500000000
  30
0.0
  11
 3909.5000000000
  21
 2684.7500000000
  31
0.0
   0
LINE
   5
18A
 100
AcDbEntity
   8
LEVEL002
 370
30
 100
AcDbLine
   6
CONTINUOUS
  62
7
  10
 3369.5000000000
  20
 2720.7500000000
  30
0.0
  11
 3369.5000000000
  21
 2612.7500000000
  31
0.0
   0
LINE
   5
18B
 100
AcDbEntity
   8
LEVEL002
 370
30
 100
AcDbLine
   6
CONTINUOUS
  62
7
  10
 3369.5000000000
  20
 2612.7500000000
  30
0.0
  11
 3405.5000000000
  21
 2612.7500000000
  31
0.0
   0
LINE
   5
18C
 100
AcDbEntity
   8
LEVEL002
 370
30
 100
AcDbLine
   6
CONTINUOUS
  62
7
  10
 3405.5000000000
  20
 2612.7500000000
  30
0.0
  11
 3405.5000000000
  21
 2630.7500000000
  31
0.0
   0
LINE
   5
18D
 100
AcDbEntity
   8
LEVEL002
 370
30
 100
AcDbLine
   6
CONTINUOUS
  62
7
  10
 3405.5000000000
  20
 2630.7500000000
  30
0.0
  11
 3441.5000000000
  21
 2630.7500000000
  31
0.0
   0
ARC
   5
18E
 100
AcDbEntity
   8
LEVEL002
 370
30
   6
CONTINUOUS
  62
7
 100
AcDbCircle
  10
 3441.5000000000
  20
 2675.7500000000
  30
0.0
  40
 45.000000000000
 100
AcDbArc
  50
 270.00000000000
  51
 90.000000000000
   0
LINE
   5
18F
 100
AcDbEntity
   8
LEVEL002
 370
30
 100
AcDbLine
   6
CONTINUOUS
  62
7
  10
 3441.5000000000
  20
 2720.7500000000
  30
0.0
  11
 3369.5000000000
  21
 2720.7500000000
  31
0.0
   0
LINE
   5
190
 100
AcDbEntity
   8
LEVEL002
 370
30
 100
AcDbLine
   6
CONTINUOUS
  62
7
  10
 3405.5000000000
  20
 2684.7500000000
  30
0.0
  11
 3405.5000000000
  21
 2666.7500000000
  31
0.0
   0
LINE
   5
191
 100
AcDbEntity
   8
LEVEL002
 370
30
 100
AcDbLine
   6
CONTINUOUS
  62
7
  10
 3405.5000000000
  20
 2666.7500000000
  30
0.0
  11
 3441.5000000000
  21
 2666.7500000000
  31
0.0
   0
ARC
   5
192
 100
AcDbEntity
   8
LEVEL002
 370
30
   6
CONTINUOUS
  62
7
 100
AcDbCircle
  10
 3441.5000000000
  20
 2675.7500000000
  30
0.0
  40
 9.0000000000000
 100
AcDbArc
  50
 270.00000000000
  51
 90.000000000000
   0
LINE
   5
193
 100
AcDbEntity
   8
LEVEL002
 370
30
 100
AcDbLine
   6
CONTINUOUS
  62
7
  10
 3441.5000000000
  20
 2684.7500000000
  30
0.0
  11
 3405.5000000000
  21
 2684.7500000000
  31
0.0
   0
LINE
   5
194
 100
AcDbEntity
   8
LEVEL002
 370
30
 100
AcDbLine
   6
CONTINUOUS
  62
7
  10
 3531.5000000000
  20
 2720.7500000000
  30
0.0
  11
 3459.5000000000
  21
 2612.7500000000
  31
0.0
   0
LINE
   5
195
 100
AcDbEntity
   8
LEVEL002
 370
30
 100
AcDbLine
   6
CONTINUOUS
  62
7
  10
 3459.5000000000
  20
 2612.7500000000
  30
0.0
  11
 3513.5000000000
  21
 2612.7500000000
  31
0.0
   0
LINE
   5
196
 100
AcDbEntity
   8
LEVEL002
 370
30
 100
AcDbLine
   6
CONTINUOUS
  62
7
  10
 3513.5000000000
  20
 2612.7500000000
  30
0.0
  11
 3585.5000000000
  21
 2720.7500000000
  31
0.0
   0
LINE
   5
197
 100
AcDbEntity
   8
LEVEL002
 370
30
 100
AcDbLine
   6
CONTINUOUS
  62
7
  10
 3585.5000000000
  20
 2720.7500000000
  30
0.0
  11
 3531.5000000000
  21
 2720.7500000000
  31
0.0
   0
LINE
   5
198
 100
AcDbEntity
   8
LEVEL002
 370
30
 100
AcDbLine
   6
CONTINUOUS
  62
7
  10
 3573.5000000000
  20
 2612.7500000000
  30
0.0
  11
 3573.5000000000
  21
 2681.1166923470
  31
0.0
   0
LINE
   5
199
 100
AcDbEntity
   8
LEVEL002
 370
30
 100
AcDbLine
   6
CONTINUOUS
  62
7
  10
 3573.5000000000
  20
 2681.1166923470
  30
0.0
  11
 3527.9222051020
  21
 2612.7500000000
  31
0.0
   0
LINE
   5
19A
 100
AcDbEntity
   8
LEVEL002
 370
30
 100
AcDbLine
   6
CONTINUOUS
  62
7
  10
 3527.9222051020
  20
 2612.7500000000
  30
0.0
  11
 3573.5000000000
  21
 2612.7500000000
  31
0.0
   0
LINE
   5
19B
 100
AcDbEntity
   8
LEVEL002
 370
30
 100
AcDbLine
   6
CONTINUOUS
  62
7
  10
 3585.5000000000
  20
 2612.7500000000
  30
0.0
  11
 3711.5000000000
  21
 2612.7500000000
  31
0.0
   0
LINE
   5
19C
 100
AcDbEntity
   8
LEVEL002
 370
30
 100
AcDbLine
   6
CONTINUOUS
  62
7
  10
 3711.5000000000
  20
 2612.7500000000
  30
0.0
  11
 3711.5000000000
  21
 2684.7500000000
  31
0.0
   0
LINE
   5
19D
 100
AcDbEntity
   8
LEVEL002
 370
30
 100
AcDbLine
   6
CONTINUOUS
  62
7
  10
 3711.5000000000
  20
 2684.7500000000
  30
0.0
  11
 3747.5000000000
  21
 2684.7500000000
  31
0.0
   0
LINE
   5
19E
 100
AcDbEntity
   8
LEVEL002
 370
30
 100
AcDbLine
   6
CONTINUOUS
  62
7
  10
 3747.5000000000
  20
 2684.7500000000
  30
0.0
  11
 3747.5000000000
  21
 2612.7500000000
  31
0.0
   0
LINE
   5
19F
 100
AcDbEntity
   8
LEVEL002
 370
30
 100
AcDbLine
   6
CONTINUOUS
  62
7
  10
 3747.5000000000
  20
 2612.7500000000
  30
0.0
  11
 3855.5000000000
  21
 2612.7500000000
  31
0.0
   0
LINE
   5
1A0
 100
AcDbEntity
   8
LEVEL002
 370
30
 100
AcDbLine
   6
CONTINUOUS
  62
7
  10
 3855.5000000000
  20
 2612.7500000000
  30
0.0
  11
 3855.5000000000
  21
 2648.7500000000
  31
0.0
   0
LINE
   5
1A1
 100
AcDbEntity
   8
LEVEL002
 370
30
 100
AcDbLine
   6
CONTINUOUS
  62
7
  10
 3855.5000000000
  20
 2648.7500000000
  30
0.0
  11
 3783.5000000000
  21
 2648.7500000000
  31
0.0
   0
LINE
   5
1A2
 100
AcDbEntity
   8
LEVEL002
 370
30
 100
AcDbLine
   6
CONTINUOUS
  62
7
  10
 3783.5000000000
  20
 2648.7500000000
  30
0.0
  11
 3783.5000000000
  21
 2657.7500000000
  31
0.0
   0
LINE
   5
1A3
 100
AcDbEntity
   8
LEVEL002
 370
30
 100
AcDbLine
   6
CONTINUOUS
  62
7
  10
 3783.5000000000
  20
 2657.7500000000
  30
0.0
  11
 3846.5000000000
  21
 2657.7500000000
  31
0.0
   0
LINE
   5
1A4
 100
AcDbEntity
   8
LEVEL002
 370
30
 100
AcDbLine
   6
CONTINUOUS
  62
7
  10
 3846.5000000000
  20
 2657.7500000000
  30
0.0
  11
 3846.5000000000
  21
 2675.7500000000
  31
0.0
   0
LINE
   5
1A5
 100
AcDbEntity
   8
LEVEL002
 370
30
 100
AcDbLine
   6
CONTINUOUS
  62
7
  10
 3846.5000000000
  20
 2675.7500000000
  30
0.0
  11
 3783.5000000000
  21
 2675.7500000000
  31
0.0
   0
LINE
   5
1A6
 100
AcDbEntity
   8
LEVEL002
 370
30
 100
AcDbLine
   6
CONTINUOUS
  62
7
  10
 3783.5000000000
  20
 2675.7500000000
  30
0.0
  11
 3783.5000000000
  21
 2684.7500000000
  31
0.0
   0
LINE
   5
1A7
 100
AcDbEntity
   8
LEVEL002
 370
30
 100
AcDbLine
   6
CONTINUOUS
  62
7
  10
 3783.5000000000
  20
 2684.7500000000
  30
0.0
  11
 3855.5000000000
  21
 2684.7500000000
  31
0.0
   0
LINE
   5
1A8
 100
AcDbEntity
   8
LEVEL002
 370
30
 100
AcDbLine
   6
CONTINUOUS
  62
7
  10
 3855.5000000000
  20
 2684.7500000000
  30
0.0
  11
 3855.5000000000
  21
 2720.7500000000
  31
0.0
   0
LINE
   5
1A9
 100
AcDbEntity
   8
LEVEL002
 370
30
 100
AcDbLine
   6
CONTINUOUS
  62
7
  10
 3855.5000000000
  20
 2720.7500000000
  30
0.0
  11
 3639.5000000000
  21
 2720.7500000000
  31
0.0
   0
LINE
   5
1AA
 100
AcDbEntity
   8
LEVEL002
 370
30
 100
AcDbLine
   6
CONTINUOUS
  62
7
  10
 3639.5000000000
  20
 2720.7500000000
  30
0.0
  11
 3639.5000000000
  21
 2684.7500000000
  31
0.0
   0
LINE
   5
1AB
 100
AcDbEntity
   8
LEVEL002
 370
30
 100
AcDbLine
   6
CONTINUOUS
  62
7
  10
 3639.5000000000
  20
 2684.7500000000
  30
0.0
  11
 3675.5000000000
  21
 2684.7500000000
  31
0.0
   0
LINE
   5
1AC
 100
AcDbEntity
   8
LEVEL002
 370
30
 100
AcDbLine
   6
CONTINUOUS
  62
7
  10
 3675.5000000000
  20
 2684.7500000000
  30
0.0
  11
 3675.5000000000
  21
 2648.7500000000
  31
0.0
   0
LINE
   5
1AD
 100
AcDbEntity
   8
LEVEL002
 370
30
 100
AcDbLine
   6
CONTINUOUS
  62
7
  10
 3675.5000000000
  20
 2648.7500000000
  30
0.0
  11
 3621.5000000000
  21
 2648.7500000000
  31
0.0
   0
LINE
   5
1AE
 100
AcDbEntity
   8
LEVEL002
 370
30
 100
AcDbLine
   6
CONTINUOUS
  62
7
  10
 3621.5000000000
  20
 2648.7500000000
  30
0.0
  11
 3621.5000000000
  21
 2720.7500000000
  31
0.0
   0
LINE
   5
1AF
 100
AcDbEntity
   8
LEVEL002
 370
30
 100
AcDbLine
   6
CONTINUOUS
  62
7
  10
 3621.5000000000
  20
 2720.7500000000
  30
0.0
  11
 3585.5000000000
  21
 2720.7500000000
  31
0.0
   0
LINE
   5
1B0
 100
AcDbEntity
   8
LEVEL002
 370
30
 100
AcDbLine
   6
CONTINUOUS
  62
7
  10
 3585.5000000000
  20
 2720.7500000000
  30
0.0
  11
 3585.5000000000
  21
 2612.7500000000
  31
0.0
   0
LINE
   5
1B1
 100
AcDbEntity
   8
LEVEL002
 370
30
 100
AcDbLine
   6
CONTINUOUS
  62
7
  10
 3909.5000000000
  20
 2612.7500000000
  30
0.0
  11
 3963.5000000000
  21
 2612.7500000000
  31
0.0
   0
LINE
   5
1B2
 100
AcDbEntity
   8
LEVEL002
 370
30
 100
AcDbLine
   6
CONTINUOUS
  62
7
  10
 3963.5000000000
  20
 2612.7500000000
  30
0.0
  11
 3963.5000000000
  21
 2648.7500000000
  31
0.0
   0
LINE
   5
1B3
 100
AcDbEntity
   8
LEVEL002
 370
30
 100
AcDbLine
   6
CONTINUOUS
  62
7
  10
 3963.5000000000
  20
 2648.7500000000
  30
0.0
  11
 3909.5000000000
  21
 2648.7500000000
  31
0.0
   0
ARC
   5
1B4
 100
AcDbEntity
   8
LEVEL002
 370
30
   6
CONTINUOUS
  62
7
 100
AcDbCircle
  10
 3909.5000000000
  20
 2666.7500000000
  30
0.0
  40
 18.000000000000
 100
AcDbArc
  50
 90.000000000000
  51
 270.00000000000
   0
LINE
   5
1B5
 100
AcDbEntity
   8
LEVEL002
 370
30
 100
AcDbLine
   6
CONTINUOUS
  62
7
  10
 3909.5000000000
  20
 2684.7500000000
  30
0.0
  11
 3963.5000000000
  21
 2684.7500000000
  31
0.0
   0
LINE
   5
1B6
 100
AcDbEntity
   8
LEVEL002
 370
30
 100
AcDbLine
   6
CONTINUOUS
  62
7
  10
 3963.5000000000
  20
 2684.7500000000
  30
0.0
  11
 3963.5000000000
  21
 2720.7500000000
  31
0.0
   0
LINE
   5
1B7
 100
AcDbEntity
   8
LEVEL002
 370
30
 100
AcDbLine
   6
CONTINUOUS
  62
7
  10
 3963.5000000000
  20
 2720.7500000000
  30
0.0
  11
 3909.5000000000
  21
 2720.7500000000
  31
0.0
   0
ARC
   5
1B8
 100
AcDbEntity
   8
LEVEL002
 370
30
   6
CONTINUOUS
  62
7
 100
AcDbCircle
  10
 3909.5000000000
  20
 2666.7500000000
  30
0.0
  40
 54.000000000000
 100
AcDbArc
  50
 90.000000000000
  51
 270.00000000000
   0
MTEXT
   5
1BA
 100
AcDbEntity
   8
LEVEL002
 370
30
  62
7
 100
AcDbMText
  10
 3369.5000000000
  20
 2738.7500000000
  30
0.0
  40
 37.500000000000
  41
0.0
  71
7
  72
1
   1
\T1.000000;ケージーパルテック株式会社
   7
GMM001
  44
 0.79999984000003
   0
LINE
   5
1BB
 100
AcDbEntity
   8
LEVEL002
 370
30
 100
AcDbLine
   6
CONTINUOUS
  62
7
  10
 3333.5000000000
  20
 2636.7500000000
  30
0.0
  11
 3288.5000000000
  21
 2708.7500000000
  31
0.0
   0
LINE
   5
1BC
 100
AcDbEntity
   8
LEVEL002
 370
30
 100
AcDbLine
   6
CONTINUOUS
  62
7
  10
 3288.5000000000
  20
 2708.7500000000
  30
0.0
  11
 3333.5000000000
  21
 2708.7500000000
  31
0.0
   0
LINE
   5
1BD
 100
AcDbEntity
   8
LEVEL002
 370
30
 100
AcDbLine
   6
CONTINUOUS
  62
7
  10
 3333.5000000000
  20
 2708.7500000000
  30
0.0
  11
 3333.5000000000
  21
 2636.7500000000
  31
0.0
   0
LINE
   5
1BE
 100
AcDbEntity
   8
LEVEL002
 370
30
 100
AcDbLine
   6
CONTINUOUS
  62
7
  10
 3288.5000000000
  20
 2708.7500000000
  30
0.0
  11
 3333.5000000000
  21
 2636.7500000000
  31
0.0
   0
LINE
   5
1BF
 100
AcDbEntity
   8
LEVEL002
 370
30
 100
AcDbLine
   6
CONTINUOUS
  62
7
  10
 3333.5000000000
  20
 2636.7500000000
  30
0.0
  11
 3333.5000000000
  21
 2708.7500000000
  31
0.0
   0
LINE
   5
1C0
 100
AcDbEntity
   8
LEVEL002
 370
30
 100
AcDbLine
   6
CONTINUOUS
  62
7
  10
 3333.5000000000
  20
 2708.7500000000
  30
0.0
  11
 3288.5000000000
  21
 2708.7500000000
  31
0.0
   0
LINE
   5
1C1
 100
AcDbEntity
   8
LEVEL002
 370
30
 100
AcDbLine
   6
CONTINUOUS
  62
7
  10
 3190.5000000000
  20
 2804.7500000000
  30
0.0
  11
 3126.5000000000
  21
 2708.7500000000
  31
0.0
   0
LINE
   5
1C2
 100
AcDbEntity
   8
LEVEL002
 370
30
 100
AcDbLine
   6
CONTINUOUS
  62
7
  10
 3126.5000000000
  20
 2708.7500000000
  30
0.0
  11
 3190.5000000000
  21
 2612.7500000000
  31
0.0
   0
LINE
   5
1C3
 100
AcDbEntity
   8
LEVEL002
 370
30
 100
AcDbLine
   6
CONTINUOUS
  62
7
  10
 3244.5000000000
  20
 2612.7500000000
  30
0.0
  11
 3180.5000000000
  21
 2708.7500000000
  31
0.0
   0
LINE
   5
1C4
 100
AcDbEntity
   8
LEVEL002
 370
30
 100
AcDbLine
   6
CONTINUOUS
  62
7
  10
 3180.5000000000
  20
 2708.7500000000
  30
0.0
  11
 3244.5000000000
  21
 2804.7500000000
  31
0.0
   0
LINE
   5
1C5
 100
AcDbEntity
   8
LEVEL002
 370
30
 100
AcDbLine
   6
CONTINUOUS
  62
7
  10
 3271.5000000000
  20
 2804.7500000000
  30
0.0
  11
 3207.5000000000
  21
 2708.7500000000
  31
0.0
   0
LINE
   5
1C6
 100
AcDbEntity
   8
LEVEL002
 370
30
 100
AcDbLine
   6
CONTINUOUS
  62
7
  10
 3207.5000000000
  20
 2708.7500000000
  30
0.0
  11
 3271.5000000000
  21
 2612.7500000000
  31
0.0
   0
LINE
   5
1C7
 100
AcDbEntity
   8
LEVEL002
 370
30
 100
AcDbLine
   6
CONTINUOUS
  62
7
  10
 3325.5000000000
  20
 2612.7500000000
  30
0.0
  11
 3261.5000000000
  21
 2708.7500000000
  31
0.0
   0
LINE
   5
1C8
 100
AcDbEntity
   8
LEVEL002
 370
30
 100
AcDbLine
   6
CONTINUOUS
  62
7
  10
 3261.5000000000
  20
 2708.7500000000
  30
0.0
  11
 3325.5000000000
  21
 2804.7500000000
  31
0.0
   0
LINE
   5
1C9
 100
AcDbEntity
   8
LEVEL002
 370
30
 100
AcDbLine
   6
CONTINUOUS
  62
7
  10
 3190.5000000000
  20
 2612.7500000000
  30
0.0
  11
 3126.5000000000
  21
 2708.7500000000
  31
0.0
   0
LINE
   5
1CA
 100
AcDbEntity
   8
LEVEL002
 370
30
 100
AcDbLine
   6
CONTINUOUS
  62
7
  10
 3126.5000000000
  20
 2708.7500000000
  30
0.0
  11
 3190.5000000000
  21
 2804.7500000000
  31
0.0
   0
LINE
   5
1CB
 100
AcDbEntity
   8
LEVEL002
 370
30
 100
AcDbLine
   6
CONTINUOUS
  62
7
  10
 3190.5000000000
  20
 2804.7500000000
  30
0.0
  11
 3244.5000000000
  21
 2804.7500000000
  31
0.0
   0
LINE
   5
1CC
 100
AcDbEntity
   8
LEVEL002
 370
30
 100
AcDbLine
   6
CONTINUOUS
  62
7
  10
 3244.5000000000
  20
 2804.7500000000
  30
0.0
  11
 3180.5000000000
  21
 2708.7500000000
  31
0.0
   0
LINE
   5
1CD
 100
AcDbEntity
   8
LEVEL002
 370
30
 100
AcDbLine
   6
CONTINUOUS
  62
7
  10
 3180.5000000000
  20
 2708.7500000000
  30
0.0
  11
 3244.5000000000
  21
 2612.7500000000
  31
0.0
   0
LINE
   5
1CE
 100
AcDbEntity
   8
LEVEL002
 370
30
 100
AcDbLine
   6
CONTINUOUS
  62
7
  10
 3244.5000000000
  20
 2612.7500000000
  30
0.0
  11
 3190.5000000000
  21
 2612.7500000000
  31
0.0
   0
LINE
   5
1CF
 100
AcDbEntity
   8
LEVEL002
 370
30
 100
AcDbLine
   6
CONTINUOUS
  62
7
  10
 3271.5000000000
  20
 2612.7500000000
  30
0.0
  11
 3207.5000000000
  21
 2708.7500000000
  31
0.0
   0
LINE
   5
1D0
 100
AcDbEntity
   8
LEVEL002
 370
30
 100
AcDbLine
   6
CONTINUOUS
  62
7
  10
 3207.5000000000
  20
 2708.7500000000
  30
0.0
  11
 3271.5000000000
  21
 2804.7500000000
  31
0.0
   0
LINE
   5
1D1
 100
AcDbEntity
   8
LEVEL002
 370
30
 100
AcDbLine
   6
CONTINUOUS
  62
7
  10
 3271.5000000000
  20
 2804.7500000000
  30
0.0
  11
 3325.5000000000
  21
 2804.7500000000
  31
0.0
   0
LINE
   5
1D2
 100
AcDbEntity
   8
LEVEL002
 370
30
 100
AcDbLine
   6
CONTINUOUS
  62
7
  10
 3325.5000000000
  20
 2804.7500000000
  30
0.0
  11
 3261.5000000000
  21
 2708.7500000000
  31
0.0
   0
LINE
   5
1D3
 100
AcDbEntity
   8
LEVEL002
 370
30
 100
AcDbLine
   6
CONTINUOUS
  62
7
  10
 3261.5000000000
  20
 2708.7500000000
  30
0.0
  11
 3325.5000000000
  21
 2612.7500000000
  31
0.0
   0
LINE
   5
1D4
 100
AcDbEntity
   8
LEVEL002
 370
30
 100
AcDbLine
   6
CONTINUOUS
  62
7
  10
 3325.5000000000
  20
 2612.7500000000
  30
0.0
  11
 3271.5000000000
  21
 2612.7500000000
  31
0.0
   0
LINE
   5
1D5
 100
AcDbEntity
   8
LEVEL001
 370
30
 100
AcDbLine
   6
DOT
  62
7
  10
0.0
  20
0.0
  30
0.0
  11
 4200.0000000000
  21
0.0
  31
0.0
   0
LINE
   5
1D6
 100
AcDbEntity
   8
LEVEL001
 370
30
 100
AcDbLine
   6
DOT
  62
7
  10
 4200.0000000000
  20
0.0
  30
0.0
  11
 4200.0000000000
  21
 2970.0000000000
  31
0.0
   0
LINE
   5
1D7
 100
AcDbEntity
   8
LEVEL001
 370
30
 100
AcDbLine
   6
DOT
  62
7
  10
 4200.0000000000
  20
 2970.0000000000
  30
0.0
  11
0.0
  21
 2970.0000000000
  31
0.0
   0
LINE
   5
1D8
 100
AcDbEntity
   8
LEVEL001
 370
30
 100
AcDbLine
   6
DOT
  62
7
  10
0.0
  20
 2970.0000000000
  30
0.0
  11
0.0
  21
0.0
  31
0.0
   0
LINE
   5
1D9
 100
AcDbEntity
   8
LEVEL002
 370
40
 100
AcDbLine
   6
CONTINUOUS
  62
3
  10
 154.99999999950
  20
 2750.0000000000
  30
0.0
  11
 3044.9999999995
  21
 2750.0000000000
  31
0.0
   0
LINE
   5
1DA
 100
AcDbEntity
   8
LEVEL002
 370
40
 100
AcDbLine
   6
CONTINUOUS
  62
3
  10
 3044.9999999995
  20
 2567.5000000000
  30
0.0
  11
 4044.9999999995
  21
 2567.5000000000
  31
0.0
   0
LINE
   5
1DB
 100
AcDbEntity
   8
LEVEL002
 370
40
 100
AcDbLine
   6
CONTINUOUS
  62
3
  10
 3044.9999999995
  20
 2367.5000000000
  30
0.0
  11
 4044.9999999995
  21
 2367.5000000000
  31
0.0
   0
LINE
   5
1DC
 100
AcDbEntity
   8
LEVEL002
 370
40
 100
AcDbLine
   6
CONTINUOUS
  62
3
  10
 3044.9999999995
  20
 2167.5000000000
  30
0.0
  11
 4044.9999999995
  21
 2167.5000000000
  31
0.0
   0
LINE
   5
1DD
 100
AcDbEntity
   8
LEVEL002
 370
40
 100
AcDbLine
   6
CONTINUOUS
  62
3
  10
 3044.9999999995
  20
 720.00000000010
  30
0.0
  11
 4044.9999999995
  21
 720.00000000010
  31
0.0
   0
LINE
   5
1DE
 100
AcDbEntity
   8
LEVEL002
 370
40
 100
AcDbLine
   6
CONTINUOUS
  62
3
  10
 3044.9999999995
  20
 520.00000000010
  30
0.0
  11
 4044.9999999995
  21
 520.00000000010
  31
0.0
   0
LINE
   5
1DF
 100
AcDbEntity
   8
LEVEL002
 370
40
 100
AcDbLine
   6
CONTINUOUS
  62
3
  10
 3044.9999999995
  20
 320.00000000010
  30
0.0
  11
 4044.9999999995
  21
 320.00000000010
  31
0.0
   0
LINE
   5
1E0
 100
AcDbEntity
   8
LEVEL002
 370
40
 100
AcDbLine
   6
CONTINUOUS
  62
3
  10
 3544.9999999995
  20
 520.00000000010
  30
0.0
  11
 3544.9999999995
  21
 120.00000000010
  31
0.0
   0
LINE
   5
1E1
 100
AcDbEntity
   8
LEVEL002
 370
40
 100
AcDbLine
   6
CONTINUOUS
  62
3
  10
 3544.9999999995
  20
 386.66666666680
  30
0.0
  11
 4044.9999999995
  21
 386.66666666680
  31
0.0
   0
LINE
   5
1E2
 100
AcDbEntity
   8
LEVEL002
 370
40
 100
AcDbLine
   6
CONTINUOUS
  62
3
  10
 3544.9999999995
  20
 453.33333333345
  30
0.0
  11
 4044.9999999995
  21
 453.33333333345
  31
0.0
   0
LINE
   5
1E3
 100
AcDbEntity
   8
LEVEL002
 370
50
 100
AcDbLine
   6
CONTINUOUS
  62
4
  10
 4044.9999999995
  20
 2850.0000000000
  30
0.0
  11
 154.99999999950
  21
 2850.0000000000
  31
0.0
   0
LINE
   5
1E4
 100
AcDbEntity
   8
LEVEL002
 370
50
 100
AcDbLine
   6
CONTINUOUS
  62
4
  10
 3044.9999999995
  20
 2850.0000000000
  30
0.0
  11
 3044.9999999995
  21
 120.00000000010
  31
0.0
   0
LINE
   5
1E5
 100
AcDbEntity
   8
LEVEL002
 370
50
 100
AcDbLine
   6
CONTINUOUS
  62
4
  10
 4044.9999999995
  20
 120.00000000010
  30
0.0
  11
 4044.9999999995
  21
 2850.0000000000
  31
0.0
   0
LINE
   5
1E6
 100
AcDbEntity
   8
LEVEL002
 370
50
 100
AcDbLine
   6
CONTINUOUS
  62
4
  10
 154.99999999950
  20
 2850.0000000000
  30
0.0
  11
 154.99999999950
  21
 120.00000000010
  31
0.0
   0
LINE
   5
1E7
 100
AcDbEntity
   8
LEVEL002
 370
50
 100
AcDbLine
   6
CONTINUOUS
  62
4
  10
 154.99999999950
  20
 120.00000000010
  30
0.0
  11
 4044.9999999995
  21
 120.00000000010
  31
0.0
   0
HATCH
   5
1E8
 100
AcDbEntity
   8
LEVEL001
  62
1
 100
AcDbHatch
  10
0.0
  20
0.0
  30
0.0
 210
0.0
 220
0.0
 230
 1.0000000000000
   2
SOLID
  70
1
  71
1
  91
7
  92
1
  93
6
  72
1
  10
 3244.5000000000
  20
 2804.7500000000
  11
 3180.5000000000
  21
 2708.7500000000
  72
1
  10
 3180.5000000000
  20
 2708.7500000000
  11
 3244.5000000000
  21
 2612.7500000000
  72
1
  10
 3244.5000000000
  20
 2612.7500000000
  11
 3190.5000000000
  21
 2612.7500000000
  72
1
  10
 3190.5000000000
  20
 2612.7500000000
  11
 3126.5000000000
  21
 2708.7500000000
  72
1
  10
 3126.5000000000
  20
 2708.7500000000
  11
 3190.5000000000
  21
 2804.7500000000
  72
1
  10
 3190.5000000000
  20
 2804.7500000000
  11
 3244.5000000000
  21
 2804.7500000000
  97
1
 330

  92
16
  93
6
  72
1
  10
 3271.5000000000
  20
 2804.7500000000
  11
 3325.5000000000
  21
 2804.7500000000
  72
1
  10
 3325.5000000000
  20
 2804.7500000000
  11
 3261.5000000000
  21
 2708.7500000000
  72
1
  10
 3261.5000000000
  20
 2708.7500000000
  11
 3325.5000000000
  21
 2612.7500000000
  72
1
  10
 3325.5000000000
  20
 2612.7500000000
  11
 3271.5000000000
  21
 2612.7500000000
  72
1
  10
 3271.5000000000
  20
 2612.7500000000
  11
 3207.5000000000
  21
 2708.7500000000
  72
1
  10
 3207.5000000000
  20
 2708.7500000000
  11
 3271.5000000000
  21
 2804.7500000000
  97
1
 330

  92
16
  93
3
  72
1
  10
 3333.5000000000
  20
 2708.7500000000
  11
 3288.5000000000
  21
 2708.7500000000
  72
1
  10
 3288.5000000000
  20
 2708.7500000000
  11
 3333.5000000000
  21
 2636.7500000000
  72
1
  10
 3333.5000000000
  20
 2636.7500000000
  11
 3333.5000000000
  21
 2708.7500000000
  97
1
 330

  92
16
  93
6
  72
1
  10
 3369.5000000000
  20
 2720.7500000000
  11
 3441.5000000000
  21
 2720.7500000000
  72
2
  10
 3441.5000000000
  20
 2675.7500000000
  40
 45.000000000000
  50
 270.00000000000
  51
 90.000000000000
  73
0
  72
1
  10
 3441.5000000000
  20
 2630.7500000000
  11
 3405.5000000000
  21
 2630.7500000000
  72
1
  10
 3405.5000000000
  20
 2630.7500000000
  11
 3405.5000000000
  21
 2612.7500000000
  72
1
  10
 3405.5000000000
  20
 2612.7500000000
  11
 3369.5000000000
  21
 2612.7500000000
  72
1
  10
 3369.5000000000
  20
 2612.7500000000
  11
 3369.5000000000
  21
 2720.7500000000
  97
1
 330

  92
16
  93
4
  72
1
  10
 3441.5000000000
  20
 2684.7500000000
  11
 3405.5000000000
  21
 2684.7500000000
  72
1
  10
 3405.5000000000
  20
 2684.7500000000
  11
 3405.5000000000
  21
 2666.7500000000
  72
1
  10
 3405.5000000000
  20
 2666.7500000000
  11
 3441.5000000000
  21
 2666.7500000000
  72
2
  10
 3441.5000000000
  20
 2675.7500000000
  40
 9.0000000000000
  50
 270.00000000000
  51
 90.000000000000
  73
1
  97
1
 330

  92
16
  93
4
  72
1
  10
 3459.5000000000
  20
 2612.7500000000
  11
 3531.5000000000
  21
 2720.7500000000
  72
1
  10
 3531.5000000000
  20
 2720.7500000000
  11
 3585.5000000000
  21
 2720.7500000000
  72
1
  10
 3585.5000000000
  20
 2720.7500000000
  11
 3513.5000000000
  21
 2612.7500000000
  72
1
  10
 3513.5000000000
  20
 2612.7500000000
  11
 3459.5000000000
  21
 2612.7500000000
  97
1
 330

  92
16
  93
3
  72
1
  10
 3573.5000000000
  20
 2681.1166923470
  11
 3527.9222051020
  21
 2612.7500000000
  72
1
  10
 3527.9222051020
  20
 2612.7500000000
  11
 3573.5000000000
  21
 2612.7500000000
  72
1
  10
 3573.5000000000
  20
 2612.7500000000
  11
 3573.5000000000
  21
 2681.1166923470
  97
1
 330

  75
0
  76
1
  98
1
  10
0.0
  20
0.0
   0
HATCH
   5
1E9
 100
AcDbEntity
   8
LEVEL001
  62
1
 100
AcDbHatch
  10
0.0
  20
0.0
  30
0.0
 210
0.0
 220
0.0
 230
 1.0000000000000
   2
SOLID
  70
1
  71
1
  91
1
  92
1
  93
22
  72
1
  10
 3585.5000000000
  20
 2720.7500000000
  11
 3621.5000000000
  21
 2720.7500000000
  72
1
  10
 3621.5000000000
  20
 2720.7500000000
  11
 3621.5000000000
  21
 2648.7500000000
  72
1
  10
 3621.5000000000
  20
 2648.7500000000
  11
 3675.5000000000
  21
 2648.7500000000
  72
1
  10
 3675.5000000000
  20
 2648.7500000000
  11
 3675.5000000000
  21
 2684.7500000000
  72
1
  10
 3675.5000000000
  20
 2684.7500000000
  11
 3639.5000000000
  21
 2684.7500000000
  72
1
  10
 3639.5000000000
  20
 2684.7500000000
  11
 3639.5000000000
  21
 2720.7500000000
  72
1
  10
 3639.5000000000
  20
 2720.7500000000
  11
 3855.5000000000
  21
 2720.7500000000
  72
1
  10
 3855.5000000000
  20
 2720.7500000000
  11
 3855.5000000000
  21
 2684.7500000000
  72
1
  10
 3855.5000000000
  20
 2684.7500000000
  11
 3783.5000000000
  21
 2684.7500000000
  72
1
  10
 3783.5000000000
  20
 2684.7500000000
  11
 3783.5000000000
  21
 2675.7500000000
  72
1
  10
 3783.5000000000
  20
 2675.7500000000
  11
 3846.5000000000
  21
 2675.7500000000
  72
1
  10
 3846.5000000000
  20
 2675.7500000000
  11
 3846.5000000000
  21
 2657.7500000000
  72
1
  10
 3846.5000000000
  20
 2657.7500000000
  11
 3783.5000000000
  21
 2657.7500000000
  72
1
  10
 3783.5000000000
  20
 2657.7500000000
  11
 3783.5000000000
  21
 2648.7500000000
  72
1
  10
 3783.5000000000
  20
 2648.7500000000
  11
 3855.5000000000
  21
 2648.7500000000
  72
1
  10
 3855.5000000000
  20
 2648.7500000000
  11
 3855.5000000000
  21
 2612.7500000000
  72
1
  10
 3855.5000000000
  20
 2612.7500000000
  11
 3747.5000000000
  21
 2612.7500000000
  72
1
  10
 3747.5000000000
  20
 2612.7500000000
  11
 3747.5000000000
  21
 2684.7500000000
  72
1
  10
 3747.5000000000
  20
 2684.7500000000
  11
 3711.5000000000
  21
 2684.7500000000
  72
1
  10
 3711.5000000000
  20
 2684.7500000000
  11
 3711.5000000000
  21
 2612.7500000000
  72
1
  10
 3711.5000000000
  20
 2612.7500000000
  11
 3585.5000000000
  21
 2612.7500000000
  72
1
  10
 3585.5000000000
  20
 2612.7500000000
  11
 3585.5000000000
  21
 2720.7500000000
  97
1
 330

  75
0
  76
1
  98
1
  10
0.0
  20
0.0
   0
HATCH
   5
1EA
 100
AcDbEntity
   8
LEVEL001
  62
1
 100
AcDbHatch
  10
0.0
  20
0.0
  30
0.0
 210
0.0
 220
0.0
 230
 1.0000000000000
   2
SOLID
  70
1
  71
1
  91
1
  92
1
  93
8
  72
1
  10
 3963.5000000000
  20
 2720.7500000000
  11
 3909.5000000000
  21
 2720.7500000000
  72
2
  10
 3909.5000000000
  20
 2666.7500000000
  40
 54.000000000000
  50
 90.000000000000
  51
 270.00000000000
  73
1
  72
1
  10
 3909.5000000000
  20
 2612.7500000000
  11
 3963.5000000000
  21
 2612.7500000000
  72
1
  10
 3963.5000000000
  20
 2612.7500000000
  11
 3963.5000000000
  21
 2648.7500000000
  72
1
  10
 3963.5000000000
  20
 2648.7500000000
  11
 3909.5000000000
  21
 2648.7500000000
  72
2
  10
 3909.5000000000
  20
 2666.7500000000
  40
 18.000000000000
  50
 90.000000000000
  51
 270.00000000000
  73
0
  72
1
  10
 3909.5000000000
  20
 2684.7500000000
  11
 3963.5000000000
  21
 2684.7500000000
  72
1
  10
 3963.5000000000
  20
 2684.7500000000
  11
 3963.5000000000
  21
 2720.7500000000
  97
1
 330

  75
0
  76
1
  98
1
  10
0.0
  20
0.0
   0
MTEXT
   5
1EC
 100
AcDbEntity
   8
LEVEL002
 370
15
  62
8
 100
AcDbMText
  10
 3107.9999999995
  20
 282.50000000010
  30
0.0
  40
 30.000000000000
  41
0.0
  71
5
  72
1
   1
\T1.000000;サイズ：
   7
GMM002
  44
 0.79999984000003
   0
MTEXT
   5
1EE
 100
AcDbEntity
   8
LEVEL002
 370
15
  62
8
 100
AcDbMText
  10
 3092.9999999995
  20
 482.50000000010
  30
0.0
  40
 30.000000000000
  41
0.0
  71
5
  72
1
   1
\T1.000000;縮尺：
   7
GMM002
  44
 0.79999984000003
   0
MTEXT
   5
1F0
 100
AcDbEntity
   8
LEVEL002
 370
15
  62
8
 100
AcDbMText
  10
 3122.9999999995
  20
 682.50000000010
  30
0.0
  40
 30.000000000000
  41
0.0
  71
5
  72
1
   1
\T1.000000;図面名称：
   7
GMM002
  44
 0.79999984000003
   0
MTEXT
   5
1F2
 100
AcDbEntity
   8
LEVEL002
 370
15
  62
8
 100
AcDbMText
  10
 3637.9999999995
  20
 282.50000000010
  30
0.0
  40
 30.000000000000
  41
0.0
  71
5
  72
1
   1
\T1.000000;ファイル名：
   7
GMM002
  44
 0.79999984000003
   0
MTEXT
   5
1F4
 100
AcDbEntity
   8
LEVEL002
 370
15
  62
8
 100
AcDbMText
  10
 3622.9999999995
  20
 486.66666666680
  30
0.0
  40
 28.000000000000
  41
0.0
  71
5
  72
1
   1
\T1.000000;作成日付：
   7
GMM003
  44
 0.79999984000003
   0
MTEXT
   5
1F6
 100
AcDbEntity
   8
LEVEL002
 370
15
  62
8
 100
AcDbMText
  10
 3622.9999999995
  20
 420.00000000010
  30
0.0
  40
 28.000000000000
  41
0.0
  71
5
  72
1
   1
\T1.000000;変更日付：
   7
GMM003
  44
 0.79999984000003
   0
MTEXT
   5
1F8
 100
AcDbEntity
   8
LEVEL002
 370
15
  62
8
 100
AcDbMText
  10
 3294.9999999995
  20
 182.50000000010
  30
0.0
  40
 37.500000000000
  41
0.0
  71
5
  72
1
   1
\T1.000000;Ａ３
   7
GMM002
  44
 0.79999984000003
   0
MTEXT
   5
1FA
 100
AcDbEntity
   8
LEVEL002
 370
15
  62
8
 100
AcDbMText
  10
 3092.9999999995
  20
 2130.0000000000
  30
0.0
  40
 30.000000000000
  41
0.0
  71
5
  72
1
   1
\T1.000000;仕様：
   7
GMM002
  44
 0.79999984000003
   0
MTEXT
   5
1FC
 100
AcDbEntity
   8
LEVEL002
 370
15
  62
8
 100
AcDbMText
  10
 3092.9999999995
  20
 2330.0000000000
  30
0.0
  40
 30.000000000000
  41
0.0
  71
5
  72
1
   1
\T1.000000;形式：
   7
GMM002
  44
 0.79999984000003
   0
MTEXT
   5
1FE
 100
AcDbEntity
   8
LEVEL002
 370
15
  62
8
 100
AcDbMText
  10
 3107.9999999995
  20
 2530.0000000000
  30
0.0
  40
 30.000000000000
  41
0.0
  71
5
  72
1
   1
\T1.000000;商品名：
   7
GMM002
  44
 0.79999984000003
   0
MTEXT
   5
200
 100
AcDbEntity
   8
LEVEL002
 370
15
  62
8
 100
AcDbMText
  10
 3468.9999999995
  20
 768.70803459012
  30
0.0
  40
 40.000000000000
  41
0.0
  71
5
  72
1
   1
\T1.000000;　※本製品は予告無しに変更する事があります。
   7
GMM002
  44
 0.79999984000003
   0
MTEXT
   5
202
 100
AcDbEntity
   8
LEVEL002
 370
15
  62
8
 100
AcDbMText
  10
 3544.9999999995
  20
 582.50000000010
  30
0.0
  40
 37.500000000000
  41
0.0
  71
5
  72
1
   1
\T1.000000;三面図
   7
GMM002
  44
 0.79999984000003
   0
MTEXT
   5
204
 100
AcDbEntity
   8
LEVEL002
 370
15
  62
8
 100
AcDbMText
  10
 3872.1508456075
  20
 420.00000000010
  30
0.0
  40
 30.000000000000
  41
0.0
  71
5
  72
1
   1
\T1.000000;令和　　年　　月　　日
   7
GMM002
  44
 0.79999984000003
   0
MTEXT
   5
206
 100
AcDbEntity
   8
LEVEL002
 370
15
  62
8
 100
AcDbMText
  10
 3872.1508456075
  20
 353.33333333345
  30
0.0
  40
 30.000000000000
  41
0.0
  71
5
  72
1
   1
\T1.000000;令和　　年　　月　　日
   7
GMM002
  44
 0.79999984000003
   0
MTEXT
   5
208
 100
AcDbEntity
   8
LEVEL002
 370
15
  62
8
 100
AcDbMText
  10
 3294.9999999995
  20
 382.50000000010
  30
0.0
  40
 37.500000000000
  41
0.0
  71
5
  72
1
   1
\T1.000000;Ｓ＝１：１０
   7
GMM002
  44
 0.79999984000003
   0
LINE
   5
209
 100
AcDbEntity
   8
LEVEL001
 370
40
 100
AcDbLine
   6
CONTINUOUS
  62
3
  10
 1599.9999999995
  20
 2850.0000000000
  30
0.0
  11
 1599.9999999995
  21
 120.00000000010
  31
0.0
   0
MTEXT
   5
20B
 100
AcDbEntity
   8
LEVEL002
 370
15
  62
8
 100
AcDbMText
  10
 3364.9999999995
  20
 2475.0000000000
  30
0.0
  40
 45.000000000000
  41
0.0
  71
4
  72
1
   1
{\T1.000000;ジャンティサポート}\P{\T1.000000;トイレ用（Ｌ型）}
   7
GMM002
  44
 0.79999984000003
   0
MTEXT
   5
20D
 100
AcDbEntity
   8
LEVEL002
 370
15
  62
8
 100
AcDbMText
  10
 3544.9999999995
  20
 2267.5000000000
  30
0.0
  40
 40.000000000000
  41
0.0
  71
5
  72
1
   1
\T1.000000;ＰＪ２１Ｌ・Ｒタイプ
   7
GMM002
  44
 0.79999984000003
   0
MTEXT
   5
20F
 100
AcDbEntity
   8
LEVEL002
 370
15
  62
8
 100
AcDbMText
  10
 3872.1508456075
  20
 486.66666666680
  30
0.0
  40
 30.000000000000
  41
0.0
  71
5
  72
1
   1
\T1.000000;令和０５年０６月１９日
   7
GMM002
  44
 0.79999984000003
   0
MTEXT
   5
211
 100
AcDbEntity
   8
LEVEL002
 370
15
  62
8
 100
AcDbMText
  10
 3794.9999999995
  20
 200.83333333345
  30
0.0
  40
 25.000000000000
  41
0.0
  71
5
  72
1
   1
\T1.000000;ＰＪ－２１
   7
GMM002
  44
 0.79999984000003
   0
MTEXT
   5
213
 100
AcDbEntity
   8
LEVEL001
 370
15
  62
8
 100
AcDbMText
  10
 157.99999999950
  20
 2800.0000000000
  30
0.0
  40
 30.000000000000
  41
0.0
  71
4
  72
1
   1
\W0.500000;\T1.000000; \W1.000000;\T1.000000;　ＰＪ２１－Ｌ
   7
GMM002
  44
 0.79999984000003
   0
MTEXT
   5
215
 100
AcDbEntity
   8
LEVEL001
 370
15
  62
8
 100
AcDbMText
  10
 1602.9999999995
  20
 2800.0000000000
  30
0.0
  40
 30.000000000000
  41
0.0
  71
4
  72
1
   1
\W0.500000;\T1.000000; \W1.000000;\T1.000000;　ＰＪ２１－Ｒ
   7
GMM002
  44
 0.79999984000003
   0
ARC
   5
216
 100
AcDbEntity
   8
LEVEL003
 370
30
   6
CONTINUOUS
  62
7
 100
AcDbCircle
  10
 884.58462288044
  20
 1543.9222890310
  30
0.0
  40
 40.000000000000
 100
AcDbArc
  50
 295.15066341255
  51
 64.849336587451
   0
ARC
   5
217
 100
AcDbEntity
   8
LEVEL003
 370
30
   6
CONTINUOUS
  62
7
 100
AcDbCircle
  10
 884.58462288044
  20
 1543.9222890310
  30
0.0
  40
 40.000000000000
 100
AcDbArc
  50
 115.15066341254
  51
 244.84933658746
   0
ARC
   5
218
 100
AcDbEntity
   8
LEVEL003
 370
30
   6
CONTINUOUS
  62
7
 100
AcDbCircle
  10
 959.58462288044
  20
 1418.9222890310
  30
0.0
  40
 58.000000000000
 100
AcDbArc
  50
 180.00000000000
  51
 270.00000000000
   0
ARC
   5
219
 100
AcDbEntity
   8
LEVEL003
 370
30
   6
CONTINUOUS
  62
7
 100
AcDbCircle
  10
 959.58462288044
  20
 1418.9222890310
  30
0.0
  40
 92.000000000000
 100
AcDbArc
  50
 180.00000000000
  51
 270.00000000000
   0
ARC
   5
21A
 100
AcDbEntity
   8
LEVEL003
 370
30
   6
CONTINUOUS
  62
7
 100
AcDbCircle
  10
 884.58462288043
  20
 1543.9222890310
  30
0.0
  40
 25.000000000000
 100
AcDbArc
  50
 132.84364304360
  51
 227.15635695640
   0
ARC
   5
21B
 100
AcDbEntity
   8
LEVEL003
 370
30
   6
CONTINUOUS
  62
7
 100
AcDbCircle
  10
 884.58462288044
  20
 1543.9222890310
  30
0.0
  40
 25.000000000000
 100
AcDbArc
  50
 312.84364304359
  51
 47.156356956403
   0
LINE
   5
21C
 100
AcDbEntity
   8
LEVEL003
 370
15
 100
AcDbLine
   6
DASHDOT
  62
8
  10
 794.58462288044
  20
 1543.9222890310
  30
0.0
  11
 974.58462288044
  21
 1543.9222890310
  31
0.0
   0
ARC
   5
21D
 100
AcDbEntity
   8
LEVEL003
 370
15
   6
DASHDOT
  62
8
 100
AcDbCircle
  10
 959.58462288044
  20
 1418.9222890310
  30
0.0
  40
 75.000000000000
 100
AcDbArc
  50
 180.00000000000
  51
 270.00000000000
   0
DIMENSION
   5
21E
 100
AcDbEntity
   8
LEVEL001
 370
15
   6
CONTINUOUS
  62
8
 100
AcDbDimension
   2
*D1
  10
 901.58462288044
  20
 1640.0901869939
  30
0.0
  11
 930.20141465669
  21
 1640.0901869939
  31
0.0
  70
128
   3
GMM001
 100
AcDbAlignedDimension
  13
 867.58462288044
  23
 1640.0901869939
  33
0.0
  14
 901.58462288044
  24
 1640.0901869939
  34
0.0
 100
AcDbRotatedDimension
   0
LEADER
   5
21F
 100
AcDbEntity
   8
LEVEL001
 370
15
   6
CONTINUOUS
  62
8
 100
AcDbLeader
   3
GMM002
  73
0
  74
0
  75
0
  40
 30.000000000000
  41
 477.50000000000
  76
2
  10
 901.58462288044
  20
 1714.2201801579
  30
0.0
  10
 993.81587248802
  20
 1793.7382524471
  30
0.0
  77
8
 340
220
 213
0.0
 223
-10.000000000000
 233
0.0
   0
MTEXT
   5
220
 102
{ACAD_REACTORS
 330
21F
 102
}
 100
AcDbEntity
   8
LEVEL001
 370
15
  62
8
 100
AcDbMText
  10
 993.81587248802
  20
 1803.7382524471
  30
0.0
  40
 30.000000000000
  41
0.0
  71
7
  72
1
   1
\A1;芯材：ステンレスパイプ   %%c27.2×1.5t\P表面材：軟質塩ビ被膜（抗菌材入り）%%c34
   7
GMM002
   0
ARC
   5
221
 100
AcDbEntity
   8
LEVEL003
 370
30
   6
CONTINUOUS
  62
7
 100
AcDbCircle
  10
 1484.5846228804
  20
 1343.9222890310
  30
0.0
  40
 40.000000000000
 100
AcDbArc
  50
 205.15066341254
  51
 154.84933658746
   0
LINE
   5
222
 100
AcDbEntity
   8
LEVEL003
 370
15
 100
AcDbLine
   6
DASHDOT
  62
8
  10
 1484.5846228804
  20
 1253.9222890310
  30
0.0
  11
 1484.5846228804
  21
 1433.9222890310
  31
0.0
   0
ARC
   5
223
 100
AcDbEntity
   8
LEVEL003
 370
30
   6
CONTINUOUS
  62
7
 100
AcDbCircle
  10
 1484.5846228804
  20
 1343.9222890310
  30
0.0
  40
 17.000000000000
 100
AcDbArc
  50
 270.00000000000
  51
 90.000000000000
   0
LINE
   5
224
 100
AcDbEntity
   8
LEVEL003
 370
15
 100
AcDbLine
   6
DASHDOT
  62
8
  10
 959.58462288044
  20
 1343.9222890310
  30
0.0
  11
 1543.1450921620
  21
 1343.9222890310
  31
0.0
   0
LINE
   5
225
 100
AcDbEntity
   8
LEVEL003
 370
30
 100
AcDbLine
   6
CONTINUOUS
  62
7
  10
 959.58462288044
  20
 1360.9222890310
  30
0.0
  11
 1484.5846228804
  21
 1360.9222890310
  31
0.0
   0
LINE
   5
226
 100
AcDbEntity
   8
LEVEL003
 370
30
 100
AcDbLine
   6
CONTINUOUS
  62
7
  10
 959.58462288044
  20
 1326.9222890310
  30
0.0
  11
 1484.5846228804
  21
 1326.9222890310
  31
0.0
   0
DIMENSION
   5
227
 100
AcDbEntity
   8
LEVEL001
 370
15
   6
CONTINUOUS
  62
8
 100
AcDbDimension
   2
*D3
  10
 1484.5846228804
  20
 1226.9222890310
  30
0.0
  11
 1184.5846228804
  21
 1226.9222890310
  31
0.0
  70
0
   3
GMM003
 100
AcDbAlignedDimension
  13
 884.58462288044
  23
 1418.9222890310
  33
0.0
  14
 1484.5846228804
  24
 1253.9222890310
  34
0.0
 100
AcDbRotatedDimension
   0
ARC
   5
228
 100
AcDbEntity
   8
LEVEL003
 370
30
   6
CONTINUOUS
  62
7
 100
AcDbCircle
  10
 884.58462288044
  20
 2043.9222890310
  30
0.0
  40
 17.000000000000
 100
AcDbArc
  50
0.0
  51
 180.00000000000
   0
ARC
   5
229
 100
AcDbEntity
   8
LEVEL003
 370
30
   6
CONTINUOUS
  62
7
 100
AcDbCircle
  10
 884.58462288044
  20
 2043.9222890310
  30
0.0
  40
 40.000000000000
 100
AcDbArc
  50
 295.15066341255
  51
 244.84933658746
   0
ARC
   5
22A
 100
AcDbEntity
   8
LEVEL003
 370
30
   6
CONTINUOUS
  62
7
 100
AcDbCircle
  10
 884.58462288044
  20
 2043.9222890310
  30
0.0
  40
 25.000000000000
 100
AcDbArc
  50
 312.84364304360
  51
 227.15635695641
   0
LINE
   5
22B
 100
AcDbEntity
   8
LEVEL003
 370
15
 100
AcDbLine
   6
DASHDOT
  62
8
  10
 794.58462288044
  20
 2043.9222890310
  30
0.0
  11
 974.58462288044
  21
 2043.9222890310
  31
0.0
   0
LINE
   5
22C
 100
AcDbEntity
   8
LEVEL003
 370
15
 100
AcDbLine
   6
DASHDOT
  62
8
  10
 884.58462288044
  20
 1418.9222890310
  30
0.0
  11
 884.58462288044
  21
 2108.4997402653
  31
0.0
   0
DIMENSION
   5
22D
 100
AcDbEntity
   8
LEVEL001
 370
15
   6
CONTINUOUS
  62
8
 100
AcDbDimension
   2
*D4
  10
 744.58462288044
  20
 1543.9222890310
  30
0.0
  11
 744.58462288044
  21
 1443.9222890310
  31
0.0
  70
0
   3
GMM004
 100
AcDbAlignedDimension
  13
 939.58462288044
  23
 1343.9222890310
  33
0.0
  14
 794.58462288044
  24
 1543.9222890310
  34
0.0
  50
 90.000000000000
 100
AcDbRotatedDimension
   0
DIMENSION
   5
22E
 100
AcDbEntity
   8
LEVEL001
 370
15
   6
CONTINUOUS
  62
8
 100
AcDbDimension
   2
*D5
  10
 744.58462288044
  20
 2043.9222890310
  30
0.0
  11
 744.58462288044
  21
 1793.9222890310
  31
0.0
  70
0
   3
GMM003
 100
AcDbAlignedDimension
  13
 794.58462288044
  23
 1543.9222890310
  33
0.0
  14
 794.58462288044
  24
 2043.9222890310
  34
0.0
  50
 90.000000000000
 100
AcDbRotatedDimension
   0
DIMENSION
   5
22F
 100
AcDbEntity
   8
LEVEL001
 370
15
   6
CONTINUOUS
  62
8
 100
AcDbDimension
   2
*D6
  10
 644.58462288044
  20
 2043.9222890310
  30
0.0
  11
 644.58462288044
  21
 1693.9222890310
  31
0.0
  70
0
   3
GMM003
 100
AcDbAlignedDimension
  13
 744.58462288044
  23
 1343.9222890310
  33
0.0
  14
 744.58462288044
  24
 2043.9222890310
  34
0.0
  50
 90.000000000000
 100
AcDbRotatedDimension
   0
LINE
   5
230
 100
AcDbEntity
   8
LEVEL003
 370
30
 100
AcDbLine
   6
CONTINUOUS
  62
7
  10
 867.58462288044
  20
 1418.9222890310
  30
0.0
  11
 867.58462288044
  21
 2043.9222890310
  31
0.0
   0
LINE
   5
231
 100
AcDbEntity
   8
LEVEL003
 370
30
 100
AcDbLine
   6
CONTINUOUS
  62
7
  10
 901.58462288044
  20
 1418.9222890310
  30
0.0
  11
 901.58462288044
  21
 2043.9222890310
  31
0.0
   0
LINE
   5
232
 100
AcDbEntity
   8
LEVEL003
 370
40
 100
AcDbLine
   6
CONTINUOUS
  62
3
  10
 378.92442836890
  20
 2317.3256604049
  30
0.0
  11
 378.92442836890
  21
 1063.1516413689
  31
0.0
   0
LINE
   5
233
 100
AcDbEntity
   8
LEVEL003
 370
30
 100
AcDbLine
   6
CONTINUOUS
  62
7
  10
 385.92442836890
  20
 1580.4222890310
  30
0.0
  11
 385.92442836890
  21
 1507.4222890310
  31
0.0
   0
LINE
   5
234
 100
AcDbEntity
   8
LEVEL003
 370
30
 100
AcDbLine
   6
CONTINUOUS
  62
7
  10
 385.92442836890
  20
 1507.4222890310
  30
0.0
  11
 396.42442836890
  21
 1520.1722890310
  31
0.0
   0
LINE
   5
235
 100
AcDbEntity
   8
LEVEL003
 370
30
 100
AcDbLine
   6
CONTINUOUS
  62
7
  10
 378.92442836890
  20
 1580.4222890310
  30
0.0
  11
 378.92442836890
  21
 1507.4222890310
  31
0.0
   0
LINE
   5
236
 100
AcDbEntity
   8
LEVEL003
 370
30
 100
AcDbLine
   6
CONTINUOUS
  62
7
  10
 378.92442836890
  20
 1507.4222890310
  30
0.0
  11
 385.92442836890
  21
 1507.4222890310
  31
0.0
   0
LINE
   5
237
 100
AcDbEntity
   8
LEVEL003
 370
30
 100
AcDbLine
   6
CONTINUOUS
  62
7
  10
 385.92442836890
  20
 1580.4222890310
  30
0.0
  11
 396.42442836890
  21
 1567.6722890310
  31
0.0
   0
LINE
   5
238
 100
AcDbEntity
   8
LEVEL003
 370
30
 100
AcDbLine
   6
CONTINUOUS
  62
7
  10
 396.42442836890
  20
 1520.1722890310
  30
0.0
  11
 396.42442836890
  21
 1525.1722890310
  31
0.0
   0
LINE
   5
239
 100
AcDbEntity
   8
LEVEL003
 370
30
 100
AcDbLine
   6
HIDDEN
  62
7
  10
 397.92442836890
  20
 1520.9222890310
  30
0.0
  11
 396.42442836890
  21
 1520.9222890310
  31
0.0
   0
LINE
   5
23A
 100
AcDbEntity
   8
LEVEL003
 370
30
 100
AcDbLine
   6
CONTINUOUS
  62
7
  10
 397.92442836890
  20
 1520.9222890310
  30
0.0
  11
 396.42442836890
  21
 1520.9222890310
  31
0.0
   0
LINE
   5
23B
 100
AcDbEntity
   8
LEVEL003
 370
30
 100
AcDbLine
   6
CONTINUOUS
  62
7
  10
 396.42442836890
  20
 1567.6722890310
  30
0.0
  11
 396.42442836890
  21
 1562.6722890310
  31
0.0
   0
LINE
   5
23C
 100
AcDbEntity
   8
LEVEL003
 370
30
 100
AcDbLine
   6
HIDDEN
  62
7
  10
 397.92442836890
  20
 1566.9222890310
  30
0.0
  11
 396.42442836890
  21
 1566.9222890310
  31
0.0
   0
LINE
   5
23D
 100
AcDbEntity
   8
LEVEL003
 370
30
 100
AcDbLine
   6
CONTINUOUS
  62
7
  10
 397.92442836890
  20
 1566.9222890310
  30
0.0
  11
 396.42442836890
  21
 1566.9222890310
  31
0.0
   0
LINE
   5
23E
 100
AcDbEntity
   8
LEVEL003
 370
30
 100
AcDbLine
   6
HIDDEN
  62
7
  10
 397.92442836890
  20
 1520.9222890310
  30
0.0
  11
 396.42442836890
  21
 1520.9222890310
  31
0.0
   0
LINE
   5
23F
 100
AcDbEntity
   8
LEVEL003
 370
30
 100
AcDbLine
   6
CONTINUOUS
  62
7
  10
 397.92442836890
  20
 1520.9222890310
  30
0.0
  11
 396.42442836890
  21
 1520.9222890310
  31
0.0
   0
LINE
   5
240
 100
AcDbEntity
   8
LEVEL003
 370
30
 100
AcDbLine
   6
CONTINUOUS
  62
7
  10
 397.92442836890
  20
 1566.9222890310
  30
0.0
  11
 397.92442836890
  21
 1520.9222890310
  31
0.0
   0
LINE
   5
241
 100
AcDbEntity
   8
LEVEL003
 370
30
 100
AcDbLine
   6
CONTINUOUS
  62
7
  10
 396.42442836890
  20
 1566.9222890310
  30
0.0
  11
 396.42442836890
  21
 1520.9222890310
  31
0.0
   0
LINE
   5
242
 100
AcDbEntity
   8
LEVEL003
 370
30
 100
AcDbLine
   6
CONTINUOUS
  62
7
  10
 378.92442836890
  20
 1580.4222890310
  30
0.0
  11
 385.92442836890
  21
 1580.4222890310
  31
0.0
   0
LINE
   5
243
 100
AcDbEntity
   8
LEVEL003
 370
30
 100
AcDbLine
   6
CONTINUOUS
  62
7
  10
 385.92442836890
  20
 1380.4222890310
  30
0.0
  11
 385.92442836890
  21
 1307.4222890310
  31
0.0
   0
LINE
   5
244
 100
AcDbEntity
   8
LEVEL003
 370
30
 100
AcDbLine
   6
CONTINUOUS
  62
7
  10
 378.92442836890
  20
 1380.4222890310
  30
0.0
  11
 378.92442836890
  21
 1307.4222890310
  31
0.0
   0
LINE
   5
245
 100
AcDbEntity
   8
LEVEL003
 370
30
 100
AcDbLine
   6
CONTINUOUS
  62
7
  10
 397.92442836890
  20
 1366.9222890310
  30
0.0
  11
 397.92442836890
  21
 1320.9222890310
  31
0.0
   0
LINE
   5
246
 100
AcDbEntity
   8
LEVEL003
 370
30
 100
AcDbLine
   6
CONTINUOUS
  62
7
  10
 396.42442836890
  20
 1366.9222890310
  30
0.0
  11
 396.42442836890
  21
 1320.9222890310
  31
0.0
   0
LINE
   5
247
 100
AcDbEntity
   8
LEVEL003
 370
30
 100
AcDbLine
   6
CONTINUOUS
  62
7
  10
 385.92442836890
  20
 1307.4222890310
  30
0.0
  11
 396.42442836890
  21
 1320.1722890310
  31
0.0
   0
LINE
   5
248
 100
AcDbEntity
   8
LEVEL003
 370
30
 100
AcDbLine
   6
CONTINUOUS
  62
7
  10
 378.92442836890
  20
 1307.4222890310
  30
0.0
  11
 385.92442836890
  21
 1307.4222890310
  31
0.0
   0
LINE
   5
249
 100
AcDbEntity
   8
LEVEL003
 370
30
 100
AcDbLine
   6
CONTINUOUS
  62
7
  10
 396.42442836890
  20
 1320.1722890310
  30
0.0
  11
 396.42442836890
  21
 1325.1722890310
  31
0.0
   0
LINE
   5
24A
 100
AcDbEntity
   8
LEVEL003
 370
30
 100
AcDbLine
   6
HIDDEN
  62
7
  10
 397.92442836890
  20
 1320.9222890310
  30
0.0
  11
 396.42442836890
  21
 1320.9222890310
  31
0.0
   0
LINE
   5
24B
 100
AcDbEntity
   8
LEVEL003
 370
30
 100
AcDbLine
   6
CONTINUOUS
  62
7
  10
 397.92442836890
  20
 1320.9222890310
  30
0.0
  11
 396.42442836890
  21
 1320.9222890310
  31
0.0
   0
LINE
   5
24C
 100
AcDbEntity
   8
LEVEL003
 370
30
 100
AcDbLine
   6
HIDDEN
  62
7
  10
 397.92442836890
  20
 1320.9222890310
  30
0.0
  11
 396.42442836890
  21
 1320.9222890310
  31
0.0
   0
LINE
   5
24D
 100
AcDbEntity
   8
LEVEL003
 370
30
 100
AcDbLine
   6
CONTINUOUS
  62
7
  10
 397.92442836890
  20
 1320.9222890310
  30
0.0
  11
 396.42442836890
  21
 1320.9222890310
  31
0.0
   0
LINE
   5
24E
 100
AcDbEntity
   8
LEVEL003
 370
30
 100
AcDbLine
   6
CONTINUOUS
  62
7
  10
 378.92442836890
  20
 1380.4222890310
  30
0.0
  11
 385.92442836890
  21
 1380.4222890310
  31
0.0
   0
LINE
   5
24F
 100
AcDbEntity
   8
LEVEL003
 370
30
 100
AcDbLine
   6
CONTINUOUS
  62
7
  10
 385.92442836890
  20
 1380.4222890310
  30
0.0
  11
 396.42442836890
  21
 1367.6722890310
  31
0.0
   0
LINE
   5
250
 100
AcDbEntity
   8
LEVEL003
 370
30
 100
AcDbLine
   6
CONTINUOUS
  62
7
  10
 396.42442836890
  20
 1367.6722890310
  30
0.0
  11
 396.42442836890
  21
 1362.6722890310
  31
0.0
   0
LINE
   5
251
 100
AcDbEntity
   8
LEVEL003
 370
30
 100
AcDbLine
   6
HIDDEN
  62
7
  10
 397.92442836890
  20
 1366.9222890310
  30
0.0
  11
 396.42442836890
  21
 1366.9222890310
  31
0.0
   0
LINE
   5
252
 100
AcDbEntity
   8
LEVEL003
 370
30
 100
AcDbLine
   6
CONTINUOUS
  62
7
  10
 397.92442836890
  20
 1366.9222890310
  30
0.0
  11
 396.42442836890
  21
 1366.9222890310
  31
0.0
   0
ARC
   5
253
 100
AcDbEntity
   8
LEVEL003
 370
30
   6
CONTINUOUS
  62
7
 100
AcDbCircle
  10
 478.92442836890
  20
 1343.9222890310
  30
0.0
  40
 17.000000000000
 100
AcDbArc
  50
 270.00000000000
  51
 90.000000000000
   0
LINE
   5
254
 100
AcDbEntity
   8
LEVEL003
 370
30
 100
AcDbLine
   6
CONTINUOUS
  62
7
  10
 461.92442836890
  20
 1360.9222890310
  30
0.0
  11
 461.92442836890
  21
 1526.9222890310
  31
0.0
   0
LINE
   5
255
 100
AcDbEntity
   8
LEVEL004
 370
30
 100
AcDbLine
   6
CONTINUOUS
  62
7
  10
 438.12469158390
  20
 1524.4222890310
  30
0.0
  11
 456.12469158390
  21
 1524.4222890310
  31
0.0
   0
LINE
   5
256
 100
AcDbEntity
   8
LEVEL004
 370
30
 100
AcDbLine
   6
CONTINUOUS
  62
7
  10
 438.12469158390
  20
 1563.4222890310
  30
0.0
  11
 456.12469158390
  21
 1563.4222890310
  31
0.0
   0
LINE
   5
257
 100
AcDbEntity
   8
LEVEL004
 370
30
 100
AcDbLine
   6
CONTINUOUS
  62
7
  10
 437.12469158390
  20
 1562.4222890310
  30
0.0
  11
 437.12469158390
  21
 1525.4222890310
  31
0.0
   0
ARC
   5
258
 100
AcDbEntity
   8
LEVEL004
 370
30
   6
CONTINUOUS
  62
7
 100
AcDbCircle
  10
 438.12469158390
  20
 1525.4222890310
  30
0.0
  40
 1.0000000000000
 100
AcDbArc
  50
 180.00000000417
  51
 270.00000000000
   0
ARC
   5
259
 100
AcDbEntity
   8
LEVEL004
 370
30
   6
CONTINUOUS
  62
7
 100
AcDbCircle
  10
 438.12469158390
  20
 1562.4222890310
  30
0.0
  40
 1.0000000000000
 100
AcDbArc
  50
 89.999999999166
  51
 180.00000000000
   0
LINE
   5
25A
 100
AcDbEntity
   8
LEVEL004
 370
30
 100
AcDbLine
   6
CONTINUOUS
  62
7
  10
 461.92442836890
  20
 1560.7150766407
  30
0.0
  11
 470.08671172890
  21
 1550.9876461226
  31
0.0
   0
LINE
   5
25B
 100
AcDbEntity
   8
LEVEL004
 370
30
 100
AcDbLine
   6
CONTINUOUS
  62
7
  10
 461.62469158390
  20
 1560.9569116443
  30
0.0
  11
 461.62469158390
  21
 1560.9222890310
  31
0.0
   0
LINE
   5
25C
 100
AcDbEntity
   8
LEVEL004
 370
30
 100
AcDbLine
   6
CONTINUOUS
  62
7
  10
 457.12469158390
  20
 1562.4222890310
  30
0.0
  11
 457.12469158390
  21
 1525.4222890310
  31
0.0
   0
LINE
   5
25D
 100
AcDbEntity
   8
LEVEL004
 370
30
 100
AcDbLine
   6
CONTINUOUS
  62
7
  10
 458.42469158390
  20
 1526.7722890310
  30
0.0
  11
 460.85864714080
  21
 1526.7722890310
  31
0.0
   0
LINE
   5
25E
 100
AcDbEntity
   8
LEVEL004
 370
30
 100
AcDbLine
   6
CONTINUOUS
  62
7
  10
 457.12469158390
  20
 1525.4222890310
  30
0.0
  11
 457.12469158390
  21
 1525.4722890310
  31
0.0
   0
ARC
   5
25F
 100
AcDbEntity
   8
LEVEL004
 370
30
   6
CONTINUOUS
  62
7
 100
AcDbCircle
  10
 458.42469158390
  20
 1525.4722890310
  30
0.0
  40
 1.3000000000000
 100
AcDbArc
  50
 89.999999999198
  51
 180.00000000000
   0
ARC
   5
260
 100
AcDbEntity
   8
LEVEL004
 370
30
   6
CONTINUOUS
  62
7
 100
AcDbCircle
  10
 456.12469158400
  20
 1525.4222890310
  30
0.0
  40
 1.0000000000000
 100
AcDbArc
  50
 269.99999999604
  51
0.0
   0
ARC
   5
261
 100
AcDbEntity
   8
LEVEL004
 370
30
   6
CONTINUOUS
  62
7
 100
AcDbCircle
  10
 460.85864714070
  20
 1527.7722890310
  30
0.0
  40
 1.0000000000000
 100
AcDbArc
  50
 270.00000000438
  51
 320.00000000275
   0
LINE
   5
262
 100
AcDbEntity
   8
LEVEL004
 370
30
 100
AcDbLine
   6
CONTINUOUS
  62
7
  10
 461.62469158390
  20
 1527.1295014213
  30
0.0
  11
 470.08671172890
  21
 1537.2141443297
  31
0.0
   0
ARC
   5
263
 100
AcDbEntity
   8
LEVEL004
 370
30
   6
CONTINUOUS
  62
7
 100
AcDbCircle
  10
 461.11172322420
  20
 1544.1008952261
  30
0.0
  40
 11.312725426261
 100
AcDbArc
  50
 322.50000000000
  51
 37.500000000005
   0
LINE
   5
264
 100
AcDbEntity
   8
LEVEL004
 370
30
 100
AcDbLine
   6
CONTINUOUS
  62
7
  10
 458.42469158390
  20
 1561.0722890310
  30
0.0
  11
 461.15838392580
  21
 1561.0722890310
  31
0.0
   0
LINE
   5
265
 100
AcDbEntity
   8
LEVEL004
 370
30
 100
AcDbLine
   6
CONTINUOUS
  62
7
  10
 457.12469158390
  20
 1562.4222890310
  30
0.0
  11
 457.12469158390
  21
 1562.3722890310
  31
0.0
   0
ARC
   5
266
 100
AcDbEntity
   8
LEVEL004
 370
30
   6
CONTINUOUS
  62
7
 100
AcDbCircle
  10
 458.42469158390
  20
 1562.3722890310
  30
0.0
  40
 1.3000000000000
 100
AcDbArc
  50
 179.99999999916
  51
 270.00000000000
   0
ARC
   5
267
 100
AcDbEntity
   8
LEVEL004
 370
30
   6
CONTINUOUS
  62
7
 100
AcDbCircle
  10
 456.12469158390
  20
 1562.4222890310
  30
0.0
  40
 1.0000000000000
 100
AcDbArc
  50
0.0
  51
 90.000000000000
   0
ARC
   5
268
 100
AcDbEntity
   8
LEVEL004
 370
30
   6
CONTINUOUS
  62
7
 100
AcDbCircle
  10
 461.15838392580
  20
 1560.0722890309
  30
0.0
  40
 1.0000000000000
 100
AcDbArc
  50
 40.000000004353
  51
 90.000000002710
   0
LINE
   5
269
 100
AcDbEntity
   8
LEVEL003
 370
30
 100
AcDbLine
   6
CONTINUOUS
  62
7
  10
 461.38542982850
  20
 1526.9222890310
  30
0.0
  11
 461.92442836890
  21
 1526.9222890310
  31
0.0
   0
LINE
   5
26A
 100
AcDbEntity
   8
LEVEL003
 370
30
 100
AcDbLine
   6
CONTINUOUS
  62
7
  10
 461.62469158390
  20
 1560.9222890310
  30
0.0
  11
 461.92442836890
  21
 1560.9222890310
  31
0.0
   0
LINE
   5
26B
 100
AcDbEntity
   8
LEVEL003
 370
15
 100
AcDbLine
   6
DASHDOT
  62
8
  10
 478.92442836890
  20
 1343.9222890310
  30
0.0
  11
 188.92442836890
  21
 1343.9222890310
  31
0.0
   0
LINE
   5
26C
 100
AcDbEntity
   8
LEVEL003
 370
30
 100
AcDbLine
   6
CONTINUOUS
  62
7
  10
 397.92442836890
  20
 1560.9222890310
  30
0.0
  11
 437.12469158390
  21
 1560.9222890310
  31
0.0
   0
LINE
   5
26D
 100
AcDbEntity
   8
LEVEL003
 370
30
 100
AcDbLine
   6
CONTINUOUS
  62
7
  10
 397.92442836890
  20
 1526.9222890310
  30
0.0
  11
 437.12469158390
  21
 1526.9222890310
  31
0.0
   0
LINE
   5
26E
 100
AcDbEntity
   8
LEVEL003
 370
30
 100
AcDbLine
   6
CONTINUOUS
  62
7
  10
 397.92442836890
  20
 1360.9222890310
  30
0.0
  11
 478.92442836890
  21
 1360.9222890310
  31
0.0
   0
LINE
   5
26F
 100
AcDbEntity
   8
LEVEL003
 370
30
 100
AcDbLine
   6
CONTINUOUS
  62
7
  10
 397.92442836890
  20
 1326.9222890310
  30
0.0
  11
 478.92442836890
  21
 1326.9222890310
  31
0.0
   0
DIMENSION
   5
270
 100
AcDbEntity
   8
LEVEL001
 370
15
   6
CONTINUOUS
  62
8
 100
AcDbDimension
   2
*D7
  10
 478.92442836890
  20
 1226.9222890310
  30
0.0
  11
 428.92442836890
  21
 1226.9222890310
  31
0.0
  70
0
   3
GMM003
 100
AcDbAlignedDimension
  13
 378.92442836890
  23
 1226.9222890310
  33
0.0
  14
 478.92442836890
  24
 1343.9222890310
  34
0.0
 100
AcDbRotatedDimension
   0
LINE
   5
271
 100
AcDbEntity
   8
LEVEL003
 370
30
 100
AcDbLine
   6
CONTINUOUS
  62
7
  10
 385.92442836890
  20
 2080.4222890310
  30
0.0
  11
 385.92442836890
  21
 2007.4222890310
  31
0.0
   0
LINE
   5
272
 100
AcDbEntity
   8
LEVEL003
 370
30
 100
AcDbLine
   6
CONTINUOUS
  62
7
  10
 397.92442836890
  20
 2066.9222890310
  30
0.0
  11
 397.92442836890
  21
 2020.9222890310
  31
0.0
   0
LINE
   5
273
 100
AcDbEntity
   8
LEVEL003
 370
30
 100
AcDbLine
   6
CONTINUOUS
  62
7
  10
 396.42442836890
  20
 2066.9222890310
  30
0.0
  11
 396.42442836890
  21
 2020.9222890310
  31
0.0
   0
LINE
   5
274
 100
AcDbEntity
   8
LEVEL003
 370
30
 100
AcDbLine
   6
CONTINUOUS
  62
7
  10
 378.92442836890
  20
 2080.4222890310
  30
0.0
  11
 378.92442836890
  21
 2007.4222890310
  31
0.0
   0
LINE
   5
275
 100
AcDbEntity
   8
LEVEL003
 370
30
 100
AcDbLine
   6
CONTINUOUS
  62
7
  10
 396.42442836890
  20
 2020.1722890310
  30
0.0
  11
 396.42442836890
  21
 2025.1722890310
  31
0.0
   0
LINE
   5
276
 100
AcDbEntity
   8
LEVEL003
 370
30
 100
AcDbLine
   6
CONTINUOUS
  62
7
  10
 385.92442836890
  20
 2007.4222890310
  30
0.0
  11
 396.42442836890
  21
 2020.1722890310
  31
0.0
   0
LINE
   5
277
 100
AcDbEntity
   8
LEVEL003
 370
30
 100
AcDbLine
   6
CONTINUOUS
  62
7
  10
 378.92442836890
  20
 2007.4222890310
  30
0.0
  11
 385.92442836890
  21
 2007.4222890310
  31
0.0
   0
LINE
   5
278
 100
AcDbEntity
   8
LEVEL003
 370
30
 100
AcDbLine
   6
HIDDEN
  62
7
  10
 397.92442836890
  20
 2020.9222890310
  30
0.0
  11
 396.42442836890
  21
 2020.9222890310
  31
0.0
   0
LINE
   5
279
 100
AcDbEntity
   8
LEVEL003
 370
30
 100
AcDbLine
   6
CONTINUOUS
  62
7
  10
 397.92442836890
  20
 2020.9222890310
  30
0.0
  11
 396.42442836890
  21
 2020.9222890310
  31
0.0
   0
LINE
   5
27A
 100
AcDbEntity
   8
LEVEL003
 370
30
 100
AcDbLine
   6
HIDDEN
  62
7
  10
 397.92442836890
  20
 2020.9222890310
  30
0.0
  11
 396.42442836890
  21
 2020.9222890310
  31
0.0
   0
LINE
   5
27B
 100
AcDbEntity
   8
LEVEL003
 370
30
 100
AcDbLine
   6
CONTINUOUS
  62
7
  10
 397.92442836890
  20
 2020.9222890310
  30
0.0
  11
 396.42442836890
  21
 2020.9222890310
  31
0.0
   0
LINE
   5
27C
 100
AcDbEntity
   8
LEVEL003
 370
30
 100
AcDbLine
   6
CONTINUOUS
  62
7
  10
 396.42442836890
  20
 2067.6722890310
  30
0.0
  11
 396.42442836890
  21
 2062.6722890310
  31
0.0
   0
LINE
   5
27D
 100
AcDbEntity
   8
LEVEL003
 370
30
 100
AcDbLine
   6
CONTINUOUS
  62
7
  10
 385.92442836890
  20
 2080.4222890310
  30
0.0
  11
 396.42442836890
  21
 2067.6722890310
  31
0.0
   0
LINE
   5
27E
 100
AcDbEntity
   8
LEVEL003
 370
30
 100
AcDbLine
   6
CONTINUOUS
  62
7
  10
 378.92442836890
  20
 2080.4222890310
  30
0.0
  11
 385.92442836890
  21
 2080.4222890310
  31
0.0
   0
LINE
   5
27F
 100
AcDbEntity
   8
LEVEL003
 370
30
 100
AcDbLine
   6
HIDDEN
  62
7
  10
 397.92442836890
  20
 2066.9222890310
  30
0.0
  11
 396.42442836890
  21
 2066.9222890310
  31
0.0
   0
LINE
   5
280
 100
AcDbEntity
   8
LEVEL003
 370
30
 100
AcDbLine
   6
CONTINUOUS
  62
7
  10
 397.92442836890
  20
 2066.9222890310
  30
0.0
  11
 396.42442836890
  21
 2066.9222890310
  31
0.0
   0
ARC
   5
281
 100
AcDbEntity
   8
LEVEL003
 370
30
   6
CONTINUOUS
  62
7
 100
AcDbCircle
  10
 403.92442836890
  20
 1968.9222890310
  30
0.0
  40
 92.000000000000
 100
AcDbArc
  50
0.0
  51
 90.000000000000
   0
ARC
   5
282
 100
AcDbEntity
   8
LEVEL003
 370
30
   6
CONTINUOUS
  62
7
 100
AcDbCircle
  10
 403.92442836890
  20
 1968.9222890310
  30
0.0
  40
 58.000000000000
 100
AcDbArc
  50
0.0
  51
 90.000000000000
   0
LINE
   5
283
 100
AcDbEntity
   8
LEVEL003
 370
30
 100
AcDbLine
   6
CONTINUOUS
  62
7
  10
 461.92442836890
  20
 1458.9029842208
  30
0.0
  11
 461.92442836890
  21
 1968.9222890310
  31
0.0
   0
LINE
   5
284
 100
AcDbEntity
   8
LEVEL003
 370
30
 100
AcDbLine
   6
CONTINUOUS
  62
7
  10
 403.92442836890
  20
 2026.9222890310
  30
0.0
  11
 397.92442836890
  21
 2026.9222890310
  31
0.0
   0
LINE
   5
285
 100
AcDbEntity
   8
LEVEL003
 370
30
 100
AcDbLine
   6
CONTINUOUS
  62
7
  10
 403.92442836890
  20
 2060.9222890310
  30
0.0
  11
 397.92442836890
  21
 2060.9222890310
  31
0.0
   0
ARC
   5
286
 100
AcDbEntity
   8
LEVEL003
 370
15
   6
DASHDOT
  62
8
 100
AcDbCircle
  10
 403.92442836890
  20
 1968.9222890310
  30
0.0
  40
 75.000000000000
 100
AcDbArc
  50
0.0
  51
 90.000000000000
   0
LINE
   5
287
 100
AcDbEntity
   8
LEVEL003
 370
15
 100
AcDbLine
   6
DASHDOT
  62
8
  10
 403.92442836890
  20
 2043.9222890310
  30
0.0
  11
 328.92442836890
  21
 2043.9222890310
  31
0.0
   0
LINE
   5
288
 100
AcDbEntity
   8
LEVEL003
 370
15
 100
AcDbLine
   6
DASHDOT
  62
8
  10
 478.92442836890
  20
 1968.9222890310
  30
0.0
  11
 478.92442836890
  21
 1343.9222890310
  31
0.0
   0
LINE
   5
289
 100
AcDbEntity
   8
LEVEL003
 370
30
 100
AcDbLine
   6
CONTINUOUS
  62
7
  10
 495.92442836890
  20
 1343.9222890310
  30
0.0
  11
 495.92442836890
  21
 1968.9222890310
  31
0.0
   0
LINE
   5
28A
 100
AcDbEntity
   8
LEVEL003
 370
30
 100
AcDbLine
   6
CONTINUOUS
  62
7
  10
 848.08462288044
  20
 2480.6017512511
  30
0.0
  11
 921.08462288044
  21
 2480.6017512511
  31
0.0
   0
LINE
   5
28B
 100
AcDbEntity
   8
LEVEL003
 370
30
 100
AcDbLine
   6
CONTINUOUS
  62
7
  10
 861.58462288044
  20
 2468.6017512511
  30
0.0
  11
 907.58462288044
  21
 2468.6017512511
  31
0.0
   0
LINE
   5
28C
 100
AcDbEntity
   8
LEVEL003
 370
30
 100
AcDbLine
   6
CONTINUOUS
  62
7
  10
 861.58462288044
  20
 2470.1017512511
  30
0.0
  11
 907.58462288044
  21
 2470.1017512511
  31
0.0
   0
LINE
   5
28D
 100
AcDbEntity
   8
LEVEL003
 370
30
 100
AcDbLine
   6
CONTINUOUS
  62
7
  10
 848.08462288044
  20
 2487.6017512511
  30
0.0
  11
 921.08462288044
  21
 2487.6017512511
  31
0.0
   0
LINE
   5
28E
 100
AcDbEntity
   8
LEVEL003
 370
30
 100
AcDbLine
   6
CONTINUOUS
  62
7
  10
 908.33462288044
  20
 2470.1017512511
  30
0.0
  11
 903.33462288044
  21
 2470.1017512511
  31
0.0
   0
LINE
   5
28F
 100
AcDbEntity
   8
LEVEL003
 370
30
 100
AcDbLine
   6
CONTINUOUS
  62
7
  10
 921.08462288044
  20
 2480.6017512511
  30
0.0
  11
 908.33462288044
  21
 2470.1017512511
  31
0.0
   0
LINE
   5
290
 100
AcDbEntity
   8
LEVEL003
 370
30
 100
AcDbLine
   6
CONTINUOUS
  62
7
  10
 921.08462288044
  20
 2487.6017512511
  30
0.0
  11
 921.08462288044
  21
 2480.6017512511
  31
0.0
   0
LINE
   5
291
 100
AcDbEntity
   8
LEVEL003
 370
30
 100
AcDbLine
   6
HIDDEN
  62
7
  10
 907.58462288044
  20
 2468.6017512511
  30
0.0
  11
 907.58462288044
  21
 2470.1017512511
  31
0.0
   0
LINE
   5
292
 100
AcDbEntity
   8
LEVEL003
 370
30
 100
AcDbLine
   6
CONTINUOUS
  62
7
  10
 907.58462288044
  20
 2468.6017512511
  30
0.0
  11
 907.58462288044
  21
 2470.1017512511
  31
0.0
   0
LINE
   5
293
 100
AcDbEntity
   8
LEVEL003
 370
30
 100
AcDbLine
   6
HIDDEN
  62
7
  10
 907.58462288044
  20
 2468.6017512511
  30
0.0
  11
 907.58462288044
  21
 2470.1017512511
  31
0.0
   0
LINE
   5
294
 100
AcDbEntity
   8
LEVEL003
 370
30
 100
AcDbLine
   6
CONTINUOUS
  62
7
  10
 907.58462288044
  20
 2468.6017512511
  30
0.0
  11
 907.58462288044
  21
 2470.1017512511
  31
0.0
   0
LINE
   5
295
 100
AcDbEntity
   8
LEVEL003
 370
30
 100
AcDbLine
   6
CONTINUOUS
  62
7
  10
 860.83462288044
  20
 2470.1017512511
  30
0.0
  11
 865.83462288044
  21
 2470.1017512511
  31
0.0
   0
LINE
   5
296
 100
AcDbEntity
   8
LEVEL003
 370
30
 100
AcDbLine
   6
CONTINUOUS
  62
7
  10
 848.08462288044
  20
 2480.6017512511
  30
0.0
  11
 860.83462288044
  21
 2470.1017512511
  31
0.0
   0
LINE
   5
297
 100
AcDbEntity
   8
LEVEL003
 370
30
 100
AcDbLine
   6
CONTINUOUS
  62
7
  10
 848.08462288044
  20
 2487.6017512511
  30
0.0
  11
 848.08462288044
  21
 2480.6017512511
  31
0.0
   0
LINE
   5
298
 100
AcDbEntity
   8
LEVEL003
 370
30
 100
AcDbLine
   6
HIDDEN
  62
7
  10
 861.58462288044
  20
 2468.6017512511
  30
0.0
  11
 861.58462288044
  21
 2470.1017512511
  31
0.0
   0
LINE
   5
299
 100
AcDbEntity
   8
LEVEL003
 370
30
 100
AcDbLine
   6
CONTINUOUS
  62
7
  10
 861.58462288044
  20
 2468.6017512511
  30
0.0
  11
 861.58462288044
  21
 2470.1017512511
  31
0.0
   0
ARC
   5
29A
 100
AcDbEntity
   8
LEVEL003
 370
30
   6
CONTINUOUS
  62
7
 100
AcDbCircle
  10
 884.58462288044
  20
 2387.6017512511
  30
0.0
  40
 17.000000000000
 100
AcDbArc
  50
 180.00000000000
  51
0.0
   0
LINE
   5
29B
 100
AcDbEntity
   8
LEVEL003
 370
15
 100
AcDbLine
   6
DASHDOT
  62
8
  10
 884.58462288044
  20
 2547.0178183207
  30
0.0
  11
 884.58462288044
  21
 2387.6017512511
  31
0.0
   0
LINE
   5
29C
 100
AcDbEntity
   8
LEVEL003
 370
30
 100
AcDbLine
   6
CONTINUOUS
  62
7
  10
 867.58462288044
  20
 2470.1017512511
  30
0.0
  11
 867.58462288044
  21
 2387.6017512511
  31
0.0
   0
LINE
   5
29D
 100
AcDbEntity
   8
LEVEL003
 370
30
 100
AcDbLine
   6
CONTINUOUS
  62
7
  10
 901.58462288044
  20
 2468.6017512511
  30
0.0
  11
 901.58462288044
  21
 2387.6017512511
  31
0.0
   0
DIMENSION
   5
29E
 100
AcDbEntity
   8
LEVEL001
 370
15
   6
CONTINUOUS
  62
8
 100
AcDbDimension
   2
*D8
  10
 744.58462288044
  20
 2487.6017512511
  30
0.0
  11
 744.58462288044
  21
 2437.6017512511
  31
0.0
  70
0
   3
GMM003
 100
AcDbAlignedDimension
  13
 884.58462288044
  23
 2387.6017512511
  33
0.0
  14
 744.58462288044
  24
 2487.6017512511
  34
0.0
  50
 90.000000000000
 100
AcDbRotatedDimension
   0
LINE
   5
29F
 100
AcDbEntity
   8
LEVEL003
 370
30
 100
AcDbLine
   6
CONTINUOUS
  62
7
  10
 1448.0846228804
  20
 2480.6017512511
  30
0.0
  11
 1521.0846228804
  21
 2480.6017512511
  31
0.0
   0
LINE
   5
2A0
 100
AcDbEntity
   8
LEVEL003
 370
30
 100
AcDbLine
   6
CONTINUOUS
  62
7
  10
 1521.0846228804
  20
 2480.6017512511
  30
0.0
  11
 1508.3346228804
  21
 2470.1017512511
  31
0.0
   0
LINE
   5
2A1
 100
AcDbEntity
   8
LEVEL003
 370
30
 100
AcDbLine
   6
CONTINUOUS
  62
7
  10
 1448.0846228804
  20
 2487.6017512511
  30
0.0
  11
 1521.0846228804
  21
 2487.6017512511
  31
0.0
   0
LINE
   5
2A2
 100
AcDbEntity
   8
LEVEL003
 370
30
 100
AcDbLine
   6
CONTINUOUS
  62
7
  10
 1521.0846228804
  20
 2487.6017512511
  30
0.0
  11
 1521.0846228804
  21
 2480.6017512511
  31
0.0
   0
LINE
   5
2A3
 100
AcDbEntity
   8
LEVEL003
 370
30
 100
AcDbLine
   6
CONTINUOUS
  62
7
  10
 1448.0846228804
  20
 2480.6017512511
  30
0.0
  11
 1460.8346228804
  21
 2470.1017512511
  31
0.0
   0
LINE
   5
2A4
 100
AcDbEntity
   8
LEVEL003
 370
30
 100
AcDbLine
   6
CONTINUOUS
  62
7
  10
 1508.3346228804
  20
 2470.1017512511
  30
0.0
  11
 1503.3346228804
  21
 2470.1017512511
  31
0.0
   0
LINE
   5
2A5
 100
AcDbEntity
   8
LEVEL003
 370
30
 100
AcDbLine
   6
HIDDEN
  62
7
  10
 1507.5846228804
  20
 2468.6017512511
  30
0.0
  11
 1507.5846228804
  21
 2470.1017512511
  31
0.0
   0
LINE
   5
2A6
 100
AcDbEntity
   8
LEVEL003
 370
30
 100
AcDbLine
   6
CONTINUOUS
  62
7
  10
 1507.5846228804
  20
 2468.6017512511
  30
0.0
  11
 1507.5846228804
  21
 2470.1017512511
  31
0.0
   0
LINE
   5
2A7
 100
AcDbEntity
   8
LEVEL003
 370
30
 100
AcDbLine
   6
CONTINUOUS
  62
7
  10
 1460.8346228804
  20
 2470.1017512511
  30
0.0
  11
 1465.8346228804
  21
 2470.1017512511
  31
0.0
   0
LINE
   5
2A8
 100
AcDbEntity
   8
LEVEL003
 370
30
 100
AcDbLine
   6
HIDDEN
  62
7
  10
 1461.5846228804
  20
 2468.6017512511
  30
0.0
  11
 1461.5846228804
  21
 2470.1017512511
  31
0.0
   0
LINE
   5
2A9
 100
AcDbEntity
   8
LEVEL003
 370
30
 100
AcDbLine
   6
CONTINUOUS
  62
7
  10
 1461.5846228804
  20
 2468.6017512511
  30
0.0
  11
 1461.5846228804
  21
 2470.1017512511
  31
0.0
   0
LINE
   5
2AA
 100
AcDbEntity
   8
LEVEL003
 370
30
 100
AcDbLine
   6
HIDDEN
  62
7
  10
 1507.5846228804
  20
 2468.6017512511
  30
0.0
  11
 1507.5846228804
  21
 2470.1017512511
  31
0.0
   0
LINE
   5
2AB
 100
AcDbEntity
   8
LEVEL003
 370
30
 100
AcDbLine
   6
CONTINUOUS
  62
7
  10
 1507.5846228804
  20
 2468.6017512511
  30
0.0
  11
 1507.5846228804
  21
 2470.1017512511
  31
0.0
   0
LINE
   5
2AC
 100
AcDbEntity
   8
LEVEL003
 370
30
 100
AcDbLine
   6
CONTINUOUS
  62
7
  10
 1461.5846228804
  20
 2468.6017512511
  30
0.0
  11
 1507.5846228804
  21
 2468.6017512511
  31
0.0
   0
LINE
   5
2AD
 100
AcDbEntity
   8
LEVEL003
 370
30
 100
AcDbLine
   6
CONTINUOUS
  62
7
  10
 1461.5846228804
  20
 2470.1017512511
  30
0.0
  11
 1507.5846228804
  21
 2470.1017512511
  31
0.0
   0
LINE
   5
2AE
 100
AcDbEntity
   8
LEVEL003
 370
30
 100
AcDbLine
   6
CONTINUOUS
  62
7
  10
 1448.0846228804
  20
 2487.6017512511
  30
0.0
  11
 1448.0846228804
  21
 2480.6017512511
  31
0.0
   0
ARC
   5
2AF
 100
AcDbEntity
   8
LEVEL003
 370
30
   6
CONTINUOUS
  62
7
 100
AcDbCircle
  10
 1409.5846228804
  20
 2462.6017512511
  30
0.0
  40
 58.000000000000
 100
AcDbArc
  50
 270.00000000000
  51
0.0
   0
ARC
   5
2B0
 100
AcDbEntity
   8
LEVEL003
 370
30
   6
CONTINUOUS
  62
7
 100
AcDbCircle
  10
 1409.5846228804
  20
 2462.6017512511
  30
0.0
  40
 92.000000000000
 100
AcDbArc
  50
 270.00000000000
  51
0.0
   0
LINE
   5
2B1
 100
AcDbEntity
   8
LEVEL003
 370
30
 100
AcDbLine
   6
CONTINUOUS
  62
7
  10
 1467.5846228804
  20
 2462.6017512511
  30
0.0
  11
 1467.5846228804
  21
 2468.6017512511
  31
0.0
   0
LINE
   5
2B2
 100
AcDbEntity
   8
LEVEL003
 370
30
 100
AcDbLine
   6
CONTINUOUS
  62
7
  10
 1501.5846228804
  20
 2462.6017512511
  30
0.0
  11
 1501.5846228804
  21
 2468.6017512511
  31
0.0
   0
LINE
   5
2B3
 100
AcDbEntity
   8
LEVEL003
 370
15
 100
AcDbLine
   6
DASHDOT
  62
8
  10
 1484.5846228804
  20
 2537.6017512511
  30
0.0
  11
 1484.5846228804
  21
 2462.6017512511
  31
0.0
   0
ARC
   5
2B4
 100
AcDbEntity
   8
LEVEL003
 370
15
   6
DASHDOT
  62
8
 100
AcDbCircle
  10
 1409.5846228804
  20
 2462.6017512511
  30
0.0
  40
 75.000000000000
 100
AcDbArc
  50
 270.00000000000
  51
0.0
   0
LINE
   5
2B5
 100
AcDbEntity
   8
LEVEL003
 370
30
 100
AcDbLine
   6
CONTINUOUS
  62
7
  10
 901.58462288044
  20
 2404.6017512511
  30
0.0
  11
 1409.5846228804
  21
 2404.6017512511
  31
0.0
   0
LINE
   5
2B6
 100
AcDbEntity
   8
LEVEL003
 370
15
 100
AcDbLine
   6
DASHDOT
  62
8
  10
 884.58462288044
  20
 2387.6017512511
  30
0.0
  11
 1409.5846228804
  21
 2387.6017512511
  31
0.0
   0
LINE
   5
2B7
 100
AcDbEntity
   8
LEVEL003
 370
30
 100
AcDbLine
   6
CONTINUOUS
  62
7
  10
 884.58462288044
  20
 2370.6017512511
  30
0.0
  11
 1409.5846228804
  21
 2370.6017512511
  31
0.0
   0
LINE
   5
2B8
 100
AcDbEntity
   8
LEVEL003
 370
40
 100
AcDbLine
   6
CONTINUOUS
  62
3
  10
 679.92878730149
  20
 2487.6017512511
  30
0.0
  11
 1567.9837072108
  21
 2487.6017512511
  31
0.0
   0
LINE
   5
2B9
 100
AcDbEntity
   8
LEVEL003
 370
15
 100
AcDbLine
   6
DASHDOT
  62
8
  10
 514.30937651096
  20
 1543.9222890310
  30
0.0
  11
 342.37729988700
  21
 1543.9222890310
  31
0.0
   0
DIMENSION
   5
2BA
 100
AcDbEntity
   8
LEVEL001
 370
15
   6
CONTINUOUS
  62
8
 100
AcDbDimension
   2
*D9
  10
 278.92442836890
  20
 1543.9222890310
  30
0.0
  11
 278.92442836890
  21
 1443.9222890310
  31
0.0
  70
0
   3
GMM004
 100
AcDbAlignedDimension
  13
 328.92442836890
  23
 1343.9222890310
  33
0.0
  14
 342.37729988700
  24
 1543.9222890310
  34
0.0
  50
 90.000000000000
 100
AcDbRotatedDimension
   0
DIMENSION
   5
2BB
 100
AcDbEntity
   8
LEVEL001
 370
15
   6
CONTINUOUS
  62
8
 100
AcDbDimension
   2
*D10
  10
 278.92442836890
  20
 2043.9222890310
  30
0.0
  11
 278.92442836890
  21
 1793.9222890310
  31
0.0
  70
0
   3
GMM003
 100
AcDbAlignedDimension
  13
 342.37729988700
  23
 1543.9222890310
  33
0.0
  14
 328.92442836890
  24
 2043.9222890310
  34
0.0
  50
 90.000000000000
 100
AcDbRotatedDimension
   0
DIMENSION
   5
2BC
 100
AcDbEntity
   8
LEVEL001
 370
15
   6
CONTINUOUS
  62
8
 100
AcDbDimension
   2
*D11
  10
 218.91048066492
  20
 2043.9222890310
  30
0.0
  11
 218.91048066492
  21
 1693.9222890310
  31
0.0
  70
0
   3
GMM003
 100
AcDbAlignedDimension
  13
 278.92442836890
  23
 1343.9222890310
  33
0.0
  14
 278.92442836890
  24
 2043.9222890310
  34
0.0
  50
 90.000000000000
 100
AcDbRotatedDimension
   0
ARC
   5
2BD
 100
AcDbEntity
   8
LEVEL003
 370
30
   6
CONTINUOUS
  62
7
 100
AcDbCircle
  10
 2315.4153771186
  20
 1543.9222890310
  30
0.0
  40
 40.000000000000
 100
AcDbArc
  50
 115.15066341255
  51
 244.84933658745
   0
ARC
   5
2BE
 100
AcDbEntity
   8
LEVEL003
 370
30
   6
CONTINUOUS
  62
7
 100
AcDbCircle
  10
 2315.4153771186
  20
 1543.9222890310
  30
0.0
  40
 40.000000000000
 100
AcDbArc
  50
 295.15066341254
  51
 64.849336587456
   0
ARC
   5
2BF
 100
AcDbEntity
   8
LEVEL003
 370
30
   6
CONTINUOUS
  62
7
 100
AcDbCircle
  10
 2240.4153771186
  20
 1418.9222890310
  30
0.0
  40
 58.000000000000
 100
AcDbArc
  50
 270.00000000000
  51
0.0
   0
ARC
   5
2C0
 100
AcDbEntity
   8
LEVEL003
 370
30
   6
CONTINUOUS
  62
7
 100
AcDbCircle
  10
 2240.4153771186
  20
 1418.9222890310
  30
0.0
  40
 92.000000000000
 100
AcDbArc
  50
 270.00000000000
  51
0.0
   0
ARC
   5
2C1
 100
AcDbEntity
   8
LEVEL003
 370
30
   6
CONTINUOUS
  62
7
 100
AcDbCircle
  10
 2315.4153771186
  20
 1543.9222890310
  30
0.0
  40
 25.000000000000
 100
AcDbArc
  50
 312.84364304360
  51
 47.156356956402
   0
ARC
   5
2C2
 100
AcDbEntity
   8
LEVEL003
 370
30
   6
CONTINUOUS
  62
7
 100
AcDbCircle
  10
 2315.4153771186
  20
 1543.9222890310
  30
0.0
  40
 25.000000000000
 100
AcDbArc
  50
 132.84364304360
  51
 227.15635695641
   0
LINE
   5
2C3
 100
AcDbEntity
   8
LEVEL003
 370
15
 100
AcDbLine
   6
DASHDOT
  62
8
  10
 2405.4153771186
  20
 1543.9222890310
  30
0.0
  11
 2225.4153771186
  21
 1543.9222890310
  31
0.0
   0
ARC
   5
2C4
 100
AcDbEntity
   8
LEVEL003
 370
15
   6
DASHDOT
  62
8
 100
AcDbCircle
  10
 2240.4153771186
  20
 1418.9222890310
  30
0.0
  40
 75.000000000000
 100
AcDbArc
  50
 270.00000000000
  51
0.0
   0
DIMENSION
   5
2C5
 100
AcDbEntity
   8
LEVEL001
 370
15
   6
CONTINUOUS
  62
8
 100
AcDbDimension
   2
*D12
  10
 2298.4153771186
  20
 1640.0901869939
  30
0.0
  11
 2269.7985853423
  21
 1640.0901869939
  31
0.0
  70
128
   3
GMM001
 100
AcDbAlignedDimension
  13
 2332.4153771186
  23
 1640.0901869939
  33
0.0
  14
 2298.4153771186
  24
 1640.0901869939
  34
0.0
  50
 180.00000000000
 100
AcDbRotatedDimension
   0
LEADER
   5
2C6
 100
AcDbEntity
   8
LEVEL001
 370
15
   6
CONTINUOUS
  62
8
 100
AcDbLeader
   3
GMM002
  73
0
  74
1
  75
0
  40
 30.000000000000
  41
 477.50000000000
  76
2
  10
 2298.4153771186
  20
 1714.2201801579
  30
0.0
  10
 2206.1841275110
  20
 1793.7382524471
  30
0.0
  77
8
 340
2C7
 213
0.0
 223
-10.000000000000
 233
0.0
   0
MTEXT
   5
2C7
 102
{ACAD_REACTORS
 330
2C6
 102
}
 100
AcDbEntity
   8
LEVEL001
 370
15
  62
8
 100
AcDbMText
  10
 1728.6841275110
  20
 1803.7382524471
  30
0.0
  40
 30.000000000000
  41
0.0
  71
7
  72
1
   1
\A1;芯材：ステンレスパイプ   %%c27.2×1.5t\P表面材：軟質塩ビ被膜（抗菌材入り）%%c34
   7
GMM002
   0
ARC
   5
2C8
 100
AcDbEntity
   8
LEVEL003
 370
30
   6
CONTINUOUS
  62
7
 100
AcDbCircle
  10
 1715.4153771186
  20
 1343.9222890310
  30
0.0
  40
 40.000000000000
 100
AcDbArc
  50
 25.150663412545
  51
 334.84933658746
   0
LINE
   5
2C9
 100
AcDbEntity
   8
LEVEL003
 370
15
 100
AcDbLine
   6
DASHDOT
  62
8
  10
 1715.4153771186
  20
 1253.9222890310
  30
0.0
  11
 1715.4153771186
  21
 1433.9222890310
  31
0.0
   0
ARC
   5
2CA
 100
AcDbEntity
   8
LEVEL003
 370
30
   6
CONTINUOUS
  62
7
 100
AcDbCircle
  10
 1715.4153771186
  20
 1343.9222890310
  30
0.0
  40
 17.000000000000
 100
AcDbArc
  50
 90.000000000000
  51
 270.00000000000
   0
LINE
   5
2CB
 100
AcDbEntity
   8
LEVEL003
 370
15
 100
AcDbLine
   6
DASHDOT
  62
8
  10
 2240.4153771186
  20
 1343.9222890310
  30
0.0
  11
 1656.8549078370
  21
 1343.9222890310
  31
0.0
   0
LINE
   5
2CC
 100
AcDbEntity
   8
LEVEL003
 370
30
 100
AcDbLine
   6
CONTINUOUS
  62
7
  10
 2240.4153771186
  20
 1360.9222890310
  30
0.0
  11
 1715.4153771186
  21
 1360.9222890310
  31
0.0
   0
LINE
   5
2CD
 100
AcDbEntity
   8
LEVEL003
 370
30
 100
AcDbLine
   6
CONTINUOUS
  62
7
  10
 2240.4153771186
  20
 1326.9222890310
  30
0.0
  11
 1715.4153771186
  21
 1326.9222890310
  31
0.0
   0
DIMENSION
   5
2CE
 100
AcDbEntity
   8
LEVEL001
 370
15
   6
CONTINUOUS
  62
8
 100
AcDbDimension
   2
*D14
  10
 1715.4153771186
  20
 1226.9222890310
  30
0.0
  11
 2015.4153771186
  21
 1226.9222890310
  31
0.0
  70
0
   3
GMM003
 100
AcDbAlignedDimension
  13
 2315.4153771186
  23
 1418.9222890310
  33
0.0
  14
 1715.4153771186
  24
 1253.9222890310
  34
0.0
  50
 180.00000000000
 100
AcDbRotatedDimension
   0
ARC
   5
2CF
 100
AcDbEntity
   8
LEVEL003
 370
30
   6
CONTINUOUS
  62
7
 100
AcDbCircle
  10
 2315.4153771186
  20
 2043.9222890310
  30
0.0
  40
 17.000000000000
 100
AcDbArc
  50
0.0
  51
 180.00000000000
   0
ARC
   5
2D0
 100
AcDbEntity
   8
LEVEL003
 370
30
   6
CONTINUOUS
  62
7
 100
AcDbCircle
  10
 2315.4153771186
  20
 2043.9222890310
  30
0.0
  40
 40.000000000000
 100
AcDbArc
  50
 295.15066341254
  51
 244.84933658745
   0
ARC
   5
2D1
 100
AcDbEntity
   8
LEVEL003
 370
30
   6
CONTINUOUS
  62
7
 100
AcDbCircle
  10
 2315.4153771186
  20
 2043.9222890310
  30
0.0
  40
 25.000000000000
 100
AcDbArc
  50
 312.84364304359
  51
 227.15635695640
   0
LINE
   5
2D2
 100
AcDbEntity
   8
LEVEL003
 370
15
 100
AcDbLine
   6
DASHDOT
  62
8
  10
 2405.4153771186
  20
 2043.9222890310
  30
0.0
  11
 2225.4153771186
  21
 2043.9222890310
  31
0.0
   0
LINE
   5
2D3
 100
AcDbEntity
   8
LEVEL003
 370
15
 100
AcDbLine
   6
DASHDOT
  62
8
  10
 2315.4153771186
  20
 1418.9222890310
  30
0.0
  11
 2315.4153771186
  21
 2108.4997402653
  31
0.0
   0
DIMENSION
   5
2D4
 100
AcDbEntity
   8
LEVEL001
 370
15
   6
CONTINUOUS
  62
8
 100
AcDbDimension
   2
*D15
  10
 2455.4153771186
  20
 1543.9222890310
  30
0.0
  11
 2455.4153771186
  21
 1443.9222890310
  31
0.0
  70
0
   3
GMM004
 100
AcDbAlignedDimension
  13
 2260.4153771186
  23
 1343.9222890310
  33
0.0
  14
 2405.4153771186
  24
 1543.9222890310
  34
0.0
  50
 90.000000000000
 100
AcDbRotatedDimension
   0
DIMENSION
   5
2D5
 100
AcDbEntity
   8
LEVEL001
 370
15
   6
CONTINUOUS
  62
8
 100
AcDbDimension
   2
*D16
  10
 2455.4153771186
  20
 2043.9222890310
  30
0.0
  11
 2455.4153771186
  21
 1793.9222890310
  31
0.0
  70
0
   3
GMM003
 100
AcDbAlignedDimension
  13
 2405.4153771186
  23
 1543.9222890310
  33
0.0
  14
 2405.4153771186
  24
 2043.9222890310
  34
0.0
  50
 90.000000000000
 100
AcDbRotatedDimension
   0
DIMENSION
   5
2D6
 100
AcDbEntity
   8
LEVEL001
 370
15
   6
CONTINUOUS
  62
8
 100
AcDbDimension
   2
*D17
  10
 2555.4153771186
  20
 2043.9222890310
  30
0.0
  11
 2555.4153771186
  21
 1693.9222890310
  31
0.0
  70
0
   3
GMM003
 100
AcDbAlignedDimension
  13
 2455.4153771186
  23
 1343.9222890310
  33
0.0
  14
 2455.4153771186
  24
 2043.9222890310
  34
0.0
  50
 90.000000000000
 100
AcDbRotatedDimension
   0
LINE
   5
2D7
 100
AcDbEntity
   8
LEVEL003
 370
30
 100
AcDbLine
   6
CONTINUOUS
  62
7
  10
 2332.4153771186
  20
 1418.9222890310
  30
0.0
  11
 2332.4153771186
  21
 2043.9222890310
  31
0.0
   0
LINE
   5
2D8
 100
AcDbEntity
   8
LEVEL003
 370
30
 100
AcDbLine
   6
CONTINUOUS
  62
7
  10
 2298.4153771186
  20
 1418.9222890310
  30
0.0
  11
 2298.4153771186
  21
 2043.9222890310
  31
0.0
   0
LINE
   5
2D9
 100
AcDbEntity
   8
LEVEL003
 370
40
 100
AcDbLine
   6
CONTINUOUS
  62
3
  10
 2821.0755716301
  20
 2317.3256604049
  30
0.0
  11
 2821.0755716301
  21
 1063.1516413689
  31
0.0
   0
LINE
   5
2DA
 100
AcDbEntity
   8
LEVEL003
 370
30
 100
AcDbLine
   6
CONTINUOUS
  62
7
  10
 2814.0755716301
  20
 1580.4222890310
  30
0.0
  11
 2814.0755716301
  21
 1507.4222890310
  31
0.0
   0
LINE
   5
2DB
 100
AcDbEntity
   8
LEVEL003
 370
30
 100
AcDbLine
   6
CONTINUOUS
  62
7
  10
 2814.0755716301
  20
 1507.4222890310
  30
0.0
  11
 2803.5755716301
  21
 1520.1722890310
  31
0.0
   0
LINE
   5
2DC
 100
AcDbEntity
   8
LEVEL003
 370
30
 100
AcDbLine
   6
CONTINUOUS
  62
7
  10
 2821.0755716301
  20
 1580.4222890310
  30
0.0
  11
 2821.0755716301
  21
 1507.4222890310
  31
0.0
   0
LINE
   5
2DD
 100
AcDbEntity
   8
LEVEL003
 370
30
 100
AcDbLine
   6
CONTINUOUS
  62
7
  10
 2821.0755716301
  20
 1507.4222890310
  30
0.0
  11
 2814.0755716301
  21
 1507.4222890310
  31
0.0
   0
LINE
   5
2DE
 100
AcDbEntity
   8
LEVEL003
 370
30
 100
AcDbLine
   6
CONTINUOUS
  62
7
  10
 2814.0755716301
  20
 1580.4222890310
  30
0.0
  11
 2803.5755716301
  21
 1567.6722890310
  31
0.0
   0
LINE
   5
2DF
 100
AcDbEntity
   8
LEVEL003
 370
30
 100
AcDbLine
   6
CONTINUOUS
  62
7
  10
 2803.5755716301
  20
 1520.1722890310
  30
0.0
  11
 2803.5755716301
  21
 1525.1722890310
  31
0.0
   0
LINE
   5
2E0
 100
AcDbEntity
   8
LEVEL003
 370
30
 100
AcDbLine
   6
HIDDEN
  62
7
  10
 2802.0755716301
  20
 1520.9222890310
  30
0.0
  11
 2803.5755716301
  21
 1520.9222890310
  31
0.0
   0
LINE
   5
2E1
 100
AcDbEntity
   8
LEVEL003
 370
30
 100
AcDbLine
   6
CONTINUOUS
  62
7
  10
 2802.0755716301
  20
 1520.9222890310
  30
0.0
  11
 2803.5755716301
  21
 1520.9222890310
  31
0.0
   0
LINE
   5
2E2
 100
AcDbEntity
   8
LEVEL003
 370
30
 100
AcDbLine
   6
CONTINUOUS
  62
7
  10
 2803.5755716301
  20
 1567.6722890310
  30
0.0
  11
 2803.5755716301
  21
 1562.6722890310
  31
0.0
   0
LINE
   5
2E3
 100
AcDbEntity
   8
LEVEL003
 370
30
 100
AcDbLine
   6
HIDDEN
  62
7
  10
 2802.0755716301
  20
 1566.9222890310
  30
0.0
  11
 2803.5755716301
  21
 1566.9222890310
  31
0.0
   0
LINE
   5
2E4
 100
AcDbEntity
   8
LEVEL003
 370
30
 100
AcDbLine
   6
CONTINUOUS
  62
7
  10
 2802.0755716301
  20
 1566.9222890310
  30
0.0
  11
 2803.5755716301
  21
 1566.9222890310
  31
0.0
   0
LINE
   5
2E5
 100
AcDbEntity
   8
LEVEL003
 370
30
 100
AcDbLine
   6
HIDDEN
  62
7
  10
 2802.0755716301
  20
 1520.9222890310
  30
0.0
  11
 2803.5755716301
  21
 1520.9222890310
  31
0.0
   0
LINE
   5
2E6
 100
AcDbEntity
   8
LEVEL003
 370
30
 100
AcDbLine
   6
CONTINUOUS
  62
7
  10
 2802.0755716301
  20
 1520.9222890310
  30
0.0
  11
 2803.5755716301
  21
 1520.9222890310
  31
0.0
   0
LINE
   5
2E7
 100
AcDbEntity
   8
LEVEL003
 370
30
 100
AcDbLine
   6
CONTINUOUS
  62
7
  10
 2802.0755716301
  20
 1566.9222890310
  30
0.0
  11
 2802.0755716301
  21
 1520.9222890310
  31
0.0
   0
LINE
   5
2E8
 100
AcDbEntity
   8
LEVEL003
 370
30
 100
AcDbLine
   6
CONTINUOUS
  62
7
  10
 2803.5755716301
  20
 1566.9222890310
  30
0.0
  11
 2803.5755716301
  21
 1520.9222890310
  31
0.0
   0
LINE
   5
2E9
 100
AcDbEntity
   8
LEVEL003
 370
30
 100
AcDbLine
   6
CONTINUOUS
  62
7
  10
 2821.0755716301
  20
 1580.4222890310
  30
0.0
  11
 2814.0755716301
  21
 1580.4222890310
  31
0.0
   0
LINE
   5
2EA
 100
AcDbEntity
   8
LEVEL003
 370
30
 100
AcDbLine
   6
CONTINUOUS
  62
7
  10
 2814.0755716301
  20
 1380.4222890310
  30
0.0
  11
 2814.0755716301
  21
 1307.4222890310
  31
0.0
   0
LINE
   5
2EB
 100
AcDbEntity
   8
LEVEL003
 370
30
 100
AcDbLine
   6
CONTINUOUS
  62
7
  10
 2821.0755716301
  20
 1380.4222890310
  30
0.0
  11
 2821.0755716301
  21
 1307.4222890310
  31
0.0
   0
LINE
   5
2EC
 100
AcDbEntity
   8
LEVEL003
 370
30
 100
AcDbLine
   6
CONTINUOUS
  62
7
  10
 2802.0755716301
  20
 1366.9222890310
  30
0.0
  11
 2802.0755716301
  21
 1320.9222890310
  31
0.0
   0
LINE
   5
2ED
 100
AcDbEntity
   8
LEVEL003
 370
30
 100
AcDbLine
   6
CONTINUOUS
  62
7
  10
 2803.5755716301
  20
 1366.9222890310
  30
0.0
  11
 2803.5755716301
  21
 1320.9222890310
  31
0.0
   0
LINE
   5
2EE
 100
AcDbEntity
   8
LEVEL003
 370
30
 100
AcDbLine
   6
CONTINUOUS
  62
7
  10
 2814.0755716301
  20
 1307.4222890310
  30
0.0
  11
 2803.5755716301
  21
 1320.1722890310
  31
0.0
   0
LINE
   5
2EF
 100
AcDbEntity
   8
LEVEL003
 370
30
 100
AcDbLine
   6
CONTINUOUS
  62
7
  10
 2821.0755716301
  20
 1307.4222890310
  30
0.0
  11
 2814.0755716301
  21
 1307.4222890310
  31
0.0
   0
LINE
   5
2F0
 100
AcDbEntity
   8
LEVEL003
 370
30
 100
AcDbLine
   6
CONTINUOUS
  62
7
  10
 2803.5755716301
  20
 1320.1722890310
  30
0.0
  11
 2803.5755716301
  21
 1325.1722890310
  31
0.0
   0
LINE
   5
2F1
 100
AcDbEntity
   8
LEVEL003
 370
30
 100
AcDbLine
   6
HIDDEN
  62
7
  10
 2802.0755716301
  20
 1320.9222890310
  30
0.0
  11
 2803.5755716301
  21
 1320.9222890310
  31
0.0
   0
LINE
   5
2F2
 100
AcDbEntity
   8
LEVEL003
 370
30
 100
AcDbLine
   6
CONTINUOUS
  62
7
  10
 2802.0755716301
  20
 1320.9222890310
  30
0.0
  11
 2803.5755716301
  21
 1320.9222890310
  31
0.0
   0
LINE
   5
2F3
 100
AcDbEntity
   8
LEVEL003
 370
30
 100
AcDbLine
   6
HIDDEN
  62
7
  10
 2802.0755716301
  20
 1320.9222890310
  30
0.0
  11
 2803.5755716301
  21
 1320.9222890310
  31
0.0
   0
LINE
   5
2F4
 100
AcDbEntity
   8
LEVEL003
 370
30
 100
AcDbLine
   6
CONTINUOUS
  62
7
  10
 2802.0755716301
  20
 1320.9222890310
  30
0.0
  11
 2803.5755716301
  21
 1320.9222890310
  31
0.0
   0
LINE
   5
2F5
 100
AcDbEntity
   8
LEVEL003
 370
30
 100
AcDbLine
   6
CONTINUOUS
  62
7
  10
 2821.0755716301
  20
 1380.4222890310
  30
0.0
  11
 2814.0755716301
  21
 1380.4222890310
  31
0.0
   0
LINE
   5
2F6
 100
AcDbEntity
   8
LEVEL003
 370
30
 100
AcDbLine
   6
CONTINUOUS
  62
7
  10
 2814.0755716301
  20
 1380.4222890310
  30
0.0
  11
 2803.5755716301
  21
 1367.6722890310
  31
0.0
   0
LINE
   5
2F7
 100
AcDbEntity
   8
LEVEL003
 370
30
 100
AcDbLine
   6
CONTINUOUS
  62
7
  10
 2803.5755716301
  20
 1367.6722890310
  30
0.0
  11
 2803.5755716301
  21
 1362.6722890310
  31
0.0
   0
LINE
   5
2F8
 100
AcDbEntity
   8
LEVEL003
 370
30
 100
AcDbLine
   6
HIDDEN
  62
7
  10
 2802.0755716301
  20
 1366.9222890310
  30
0.0
  11
 2803.5755716301
  21
 1366.9222890310
  31
0.0
   0
LINE
   5
2F9
 100
AcDbEntity
   8
LEVEL003
 370
30
 100
AcDbLine
   6
CONTINUOUS
  62
7
  10
 2802.0755716301
  20
 1366.9222890310
  30
0.0
  11
 2803.5755716301
  21
 1366.9222890310
  31
0.0
   0
ARC
   5
2FA
 100
AcDbEntity
   8
LEVEL003
 370
30
   6
CONTINUOUS
  62
7
 100
AcDbCircle
  10
 2721.0755716301
  20
 1343.9222890310
  30
0.0
  40
 17.000000000000
 100
AcDbArc
  50
 90.000000000000
  51
 270.00000000000
   0
LINE
   5
2FB
 100
AcDbEntity
   8
LEVEL003
 370
30
 100
AcDbLine
   6
CONTINUOUS
  62
7
  10
 2738.0755716301
  20
 1360.9222890310
  30
0.0
  11
 2738.0755716301
  21
 1526.9222890310
  31
0.0
   0
LINE
   5
2FC
 100
AcDbEntity
   8
LEVEL004
 370
30
 100
AcDbLine
   6
CONTINUOUS
  62
7
  10
 2761.8753084151
  20
 1524.4222890310
  30
0.0
  11
 2743.8753084151
  21
 1524.4222890310
  31
0.0
   0
LINE
   5
2FD
 100
AcDbEntity
   8
LEVEL004
 370
30
 100
AcDbLine
   6
CONTINUOUS
  62
7
  10
 2761.8753084151
  20
 1563.4222890310
  30
0.0
  11
 2743.8753084151
  21
 1563.4222890310
  31
0.0
   0
LINE
   5
2FE
 100
AcDbEntity
   8
LEVEL004
 370
30
 100
AcDbLine
   6
CONTINUOUS
  62
7
  10
 2762.8753084151
  20
 1562.4222890310
  30
0.0
  11
 2762.8753084151
  21
 1525.4222890310
  31
0.0
   0
ARC
   5
2FF
 100
AcDbEntity
   8
LEVEL004
 370
30
   6
CONTINUOUS
  62
7
 100
AcDbCircle
  10
 2761.8753084151
  20
 1525.4222890310
  30
0.0
  40
 1.0000000000000
 100
AcDbArc
  50
 270.00000000000
  51
0.0
   0
ARC
   5
300
 100
AcDbEntity
   8
LEVEL004
 370
30
   6
CONTINUOUS
  62
7
 100
AcDbCircle
  10
 2761.8753084151
  20
 1562.4222890310
  30
0.0
  40
 1.0000000000000
 100
AcDbArc
  50
0.0
  51
 90.000000000834
   0
LINE
   5
301
 100
AcDbEntity
   8
LEVEL004
 370
30
 100
AcDbLine
   6
CONTINUOUS
  62
7
  10
 2738.0755716301
  20
 1560.7150766407
  30
0.0
  11
 2729.9132882701
  21
 1550.9876461226
  31
0.0
   0
LINE
   5
302
 100
AcDbEntity
   8
LEVEL004
 370
30
 100
AcDbLine
   6
CONTINUOUS
  62
7
  10
 2738.3753084151
  20
 1560.9569116443
  30
0.0
  11
 2738.3753084151
  21
 1560.9222890310
  31
0.0
   0
LINE
   5
303
 100
AcDbEntity
   8
LEVEL004
 370
30
 100
AcDbLine
   6
CONTINUOUS
  62
7
  10
 2742.8753084151
  20
 1562.4222890310
  30
0.0
  11
 2742.8753084151
  21
 1525.4222890310
  31
0.0
   0
LINE
   5
304
 100
AcDbEntity
   8
LEVEL004
 370
30
 100
AcDbLine
   6
CONTINUOUS
  62
7
  10
 2741.5753084151
  20
 1526.7722890310
  30
0.0
  11
 2739.1413528582
  21
 1526.7722890310
  31
0.0
   0
LINE
   5
305
 100
AcDbEntity
   8
LEVEL004
 370
30
 100
AcDbLine
   6
CONTINUOUS
  62
7
  10
 2742.8753084151
  20
 1525.4222890310
  30
0.0
  11
 2742.8753084151
  21
 1525.4722890310
  31
0.0
   0
ARC
   5
306
 100
AcDbEntity
   8
LEVEL004
 370
30
   6
CONTINUOUS
  62
7
 100
AcDbCircle
  10
 2741.5753084151
  20
 1525.4722890310
  30
0.0
  40
 1.3000000000000
 100
AcDbArc
  50
0.0
  51
 90.000000000802
   0
ARC
   5
307
 100
AcDbEntity
   8
LEVEL004
 370
30
   6
CONTINUOUS
  62
7
 100
AcDbCircle
  10
 2743.8753084150
  20
 1525.4222890310
  30
0.0
  40
 1.0000000000000
 100
AcDbArc
  50
 180.00000000000
  51
 270.00000000396
   0
ARC
   5
308
 100
AcDbEntity
   8
LEVEL004
 370
30
   6
CONTINUOUS
  62
7
 100
AcDbCircle
  10
 2739.1413528583
  20
 1527.7722890310
  30
0.0
  40
 1.0000000000000
 100
AcDbArc
  50
 219.99999999725
  51
 269.99999999562
   0
LINE
   5
309
 100
AcDbEntity
   8
LEVEL004
 370
30
 100
AcDbLine
   6
CONTINUOUS
  62
7
  10
 2738.3753084151
  20
 1527.1295014213
  30
0.0
  11
 2729.9132882701
  21
 1537.2141443297
  31
0.0
   0
ARC
   5
30A
 100
AcDbEntity
   8
LEVEL004
 370
30
   6
CONTINUOUS
  62
7
 100
AcDbCircle
  10
 2738.8882767748
  20
 1544.1008952261
  30
0.0
  40
 11.312725426261
 100
AcDbArc
  50
 142.50000000000
  51
 217.50000000000
   0
LINE
   5
30B
 100
AcDbEntity
   8
LEVEL004
 370
30
 100
AcDbLine
   6
CONTINUOUS
  62
7
  10
 2741.5753084151
  20
 1561.0722890310
  30
0.0
  11
 2738.8416160732
  21
 1561.0722890310
  31
0.0
   0
LINE
   5
30C
 100
AcDbEntity
   8
LEVEL004
 370
30
 100
AcDbLine
   6
CONTINUOUS
  62
7
  10
 2742.8753084151
  20
 1562.4222890310
  30
0.0
  11
 2742.8753084151
  21
 1562.3722890310
  31
0.0
   0
ARC
   5
30D
 100
AcDbEntity
   8
LEVEL004
 370
30
   6
CONTINUOUS
  62
7
 100
AcDbCircle
  10
 2741.5753084151
  20
 1562.3722890310
  30
0.0
  40
 1.3000000000000
 100
AcDbArc
  50
 270.00000000000
  51
 0.84178028147975E-9
   0
ARC
   5
30E
 100
AcDbEntity
   8
LEVEL004
 370
30
   6
CONTINUOUS
  62
7
 100
AcDbCircle
  10
 2743.8753084151
  20
 1562.4222890310
  30
0.0
  40
 1.0000000000000
 100
AcDbArc
  50
 90.000000000000
  51
 180.00000000000
   0
ARC
   5
30F
 100
AcDbEntity
   8
LEVEL004
 370
30
   6
CONTINUOUS
  62
7
 100
AcDbCircle
  10
 2738.8416160732
  20
 1560.0722890309
  30
0.0
  40
 1.0000000000000
 100
AcDbArc
  50
 89.999999997290
  51
 139.99999999565
   0
LINE
   5
310
 100
AcDbEntity
   8
LEVEL003
 370
30
 100
AcDbLine
   6
CONTINUOUS
  62
7
  10
 2738.6145701705
  20
 1526.9222890310
  30
0.0
  11
 2738.0755716301
  21
 1526.9222890310
  31
0.0
   0
LINE
   5
311
 100
AcDbEntity
   8
LEVEL003
 370
30
 100
AcDbLine
   6
CONTINUOUS
  62
7
  10
 2738.3753084151
  20
 1560.9222890310
  30
0.0
  11
 2738.0755716301
  21
 1560.9222890310
  31
0.0
   0
LINE
   5
312
 100
AcDbEntity
   8
LEVEL003
 370
15
 100
AcDbLine
   6
DASHDOT
  62
8
  10
 2721.0755716301
  20
 1343.9222890310
  30
0.0
  11
 3011.0755716301
  21
 1343.9222890310
  31
0.0
   0
LINE
   5
313
 100
AcDbEntity
   8
LEVEL003
 370
30
 100
AcDbLine
   6
CONTINUOUS
  62
7
  10
 2802.0755716301
  20
 1560.9222890310
  30
0.0
  11
 2762.8753084151
  21
 1560.9222890310
  31
0.0
   0
LINE
   5
314
 100
AcDbEntity
   8
LEVEL003
 370
30
 100
AcDbLine
   6
CONTINUOUS
  62
7
  10
 2802.0755716301
  20
 1526.9222890310
  30
0.0
  11
 2762.8753084151
  21
 1526.9222890310
  31
0.0
   0
LINE
   5
315
 100
AcDbEntity
   8
LEVEL003
 370
30
 100
AcDbLine
   6
CONTINUOUS
  62
7
  10
 2802.0755716301
  20
 1360.9222890310
  30
0.0
  11
 2721.0755716301
  21
 1360.9222890310
  31
0.0
   0
LINE
   5
316
 100
AcDbEntity
   8
LEVEL003
 370
30
 100
AcDbLine
   6
CONTINUOUS
  62
7
  10
 2802.0755716301
  20
 1326.9222890310
  30
0.0
  11
 2721.0755716301
  21
 1326.9222890310
  31
0.0
   0
DIMENSION
   5
317
 100
AcDbEntity
   8
LEVEL001
 370
15
   6
CONTINUOUS
  62
8
 100
AcDbDimension
   2
*D18
  10
 2721.0755716301
  20
 1226.9222890310
  30
0.0
  11
 2771.0755716301
  21
 1226.9222890310
  31
0.0
  70
0
   3
GMM003
 100
AcDbAlignedDimension
  13
 2821.0755716301
  23
 1226.9222890310
  33
0.0
  14
 2721.0755716301
  24
 1343.9222890310
  34
0.0
  50
 180.00000000000
 100
AcDbRotatedDimension
   0
LINE
   5
318
 100
AcDbEntity
   8
LEVEL003
 370
30
 100
AcDbLine
   6
CONTINUOUS
  62
7
  10
 2814.0755716301
  20
 2080.4222890310
  30
0.0
  11
 2814.0755716301
  21
 2007.4222890310
  31
0.0
   0
LINE
   5
319
 100
AcDbEntity
   8
LEVEL003
 370
30
 100
AcDbLine
   6
CONTINUOUS
  62
7
  10
 2802.0755716301
  20
 2066.9222890310
  30
0.0
  11
 2802.0755716301
  21
 2020.9222890310
  31
0.0
   0
LINE
   5
31A
 100
AcDbEntity
   8
LEVEL003
 370
30
 100
AcDbLine
   6
CONTINUOUS
  62
7
  10
 2803.5755716301
  20
 2066.9222890310
  30
0.0
  11
 2803.5755716301
  21
 2020.9222890310
  31
0.0
   0
LINE
   5
31B
 100
AcDbEntity
   8
LEVEL003
 370
30
 100
AcDbLine
   6
CONTINUOUS
  62
7
  10
 2821.0755716301
  20
 2080.4222890310
  30
0.0
  11
 2821.0755716301
  21
 2007.4222890310
  31
0.0
   0
LINE
   5
31C
 100
AcDbEntity
   8
LEVEL003
 370
30
 100
AcDbLine
   6
CONTINUOUS
  62
7
  10
 2803.5755716301
  20
 2020.1722890310
  30
0.0
  11
 2803.5755716301
  21
 2025.1722890310
  31
0.0
   0
LINE
   5
31D
 100
AcDbEntity
   8
LEVEL003
 370
30
 100
AcDbLine
   6
CONTINUOUS
  62
7
  10
 2814.0755716301
  20
 2007.4222890310
  30
0.0
  11
 2803.5755716301
  21
 2020.1722890310
  31
0.0
   0
LINE
   5
31E
 100
AcDbEntity
   8
LEVEL003
 370
30
 100
AcDbLine
   6
CONTINUOUS
  62
7
  10
 2821.0755716301
  20
 2007.4222890310
  30
0.0
  11
 2814.0755716301
  21
 2007.4222890310
  31
0.0
   0
LINE
   5
31F
 100
AcDbEntity
   8
LEVEL003
 370
30
 100
AcDbLine
   6
HIDDEN
  62
7
  10
 2802.0755716301
  20
 2020.9222890310
  30
0.0
  11
 2803.5755716301
  21
 2020.9222890310
  31
0.0
   0
LINE
   5
320
 100
AcDbEntity
   8
LEVEL003
 370
30
 100
AcDbLine
   6
CONTINUOUS
  62
7
  10
 2802.0755716301
  20
 2020.9222890310
  30
0.0
  11
 2803.5755716301
  21
 2020.9222890310
  31
0.0
   0
LINE
   5
321
 100
AcDbEntity
   8
LEVEL003
 370
30
 100
AcDbLine
   6
HIDDEN
  62
7
  10
 2802.0755716301
  20
 2020.9222890310
  30
0.0
  11
 2803.5755716301
  21
 2020.9222890310
  31
0.0
   0
LINE
   5
322
 100
AcDbEntity
   8
LEVEL003
 370
30
 100
AcDbLine
   6
CONTINUOUS
  62
7
  10
 2802.0755716301
  20
 2020.9222890310
  30
0.0
  11
 2803.5755716301
  21
 2020.9222890310
  31
0.0
   0
LINE
   5
323
 100
AcDbEntity
   8
LEVEL003
 370
30
 100
AcDbLine
   6
CONTINUOUS
  62
7
  10
 2803.5755716301
  20
 2067.6722890310
  30
0.0
  11
 2803.5755716301
  21
 2062.6722890310
  31
0.0
   0
LINE
   5
324
 100
AcDbEntity
   8
LEVEL003
 370
30
 100
AcDbLine
   6
CONTINUOUS
  62
7
  10
 2814.0755716301
  20
 2080.4222890310
  30
0.0
  11
 2803.5755716301
  21
 2067.6722890310
  31
0.0
   0
LINE
   5
325
 100
AcDbEntity
   8
LEVEL003
 370
30
 100
AcDbLine
   6
CONTINUOUS
  62
7
  10
 2821.0755716301
  20
 2080.4222890310
  30
0.0
  11
 2814.0755716301
  21
 2080.4222890310
  31
0.0
   0
LINE
   5
326
 100
AcDbEntity
   8
LEVEL003
 370
30
 100
AcDbLine
   6
HIDDEN
  62
7
  10
 2802.0755716301
  20
 2066.9222890310
  30
0.0
  11
 2803.5755716301
  21
 2066.9222890310
  31
0.0
   0
LINE
   5
327
 100
AcDbEntity
   8
LEVEL003
 370
30
 100
AcDbLine
   6
CONTINUOUS
  62
7
  10
 2802.0755716301
  20
 2066.9222890310
  30
0.0
  11
 2803.5755716301
  21
 2066.9222890310
  31
0.0
   0
ARC
   5
328
 100
AcDbEntity
   8
LEVEL003
 370
30
   6
CONTINUOUS
  62
7
 100
AcDbCircle
  10
 2796.0755716301
  20
 1968.9222890310
  30
0.0
  40
 92.000000000000
 100
AcDbArc
  50
 90.000000000000
  51
 180.00000000000
   0
ARC
   5
329
 100
AcDbEntity
   8
LEVEL003
 370
30
   6
CONTINUOUS
  62
7
 100
AcDbCircle
  10
 2796.0755716301
  20
 1968.9222890310
  30
0.0
  40
 58.000000000000
 100
AcDbArc
  50
 90.000000000000
  51
 180.00000000000
   0
LINE
   5
32A
 100
AcDbEntity
   8
LEVEL003
 370
30
 100
AcDbLine
   6
CONTINUOUS
  62
7
  10
 2738.0755716301
  20
 1458.9029842208
  30
0.0
  11
 2738.0755716301
  21
 1968.9222890310
  31
0.0
   0
LINE
   5
32B
 100
AcDbEntity
   8
LEVEL003
 370
30
 100
AcDbLine
   6
CONTINUOUS
  62
7
  10
 2796.0755716301
  20
 2026.9222890310
  30
0.0
  11
 2802.0755716301
  21
 2026.9222890310
  31
0.0
   0
LINE
   5
32C
 100
AcDbEntity
   8
LEVEL003
 370
30
 100
AcDbLine
   6
CONTINUOUS
  62
7
  10
 2796.0755716301
  20
 2060.9222890310
  30
0.0
  11
 2802.0755716301
  21
 2060.9222890310
  31
0.0
   0
ARC
   5
32D
 100
AcDbEntity
   8
LEVEL003
 370
15
   6
DASHDOT
  62
8
 100
AcDbCircle
  10
 2796.0755716301
  20
 1968.9222890310
  30
0.0
  40
 75.000000000000
 100
AcDbArc
  50
 90.000000000000
  51
 180.00000000000
   0
LINE
   5
32E
 100
AcDbEntity
   8
LEVEL003
 370
15
 100
AcDbLine
   6
DASHDOT
  62
8
  10
 2796.0755716301
  20
 2043.9222890310
  30
0.0
  11
 2871.0755716301
  21
 2043.9222890310
  31
0.0
   0
LINE
   5
32F
 100
AcDbEntity
   8
LEVEL003
 370
15
 100
AcDbLine
   6
DASHDOT
  62
8
  10
 2721.0755716301
  20
 1968.9222890310
  30
0.0
  11
 2721.0755716301
  21
 1343.9222890310
  31
0.0
   0
LINE
   5
330
 100
AcDbEntity
   8
LEVEL003
 370
30
 100
AcDbLine
   6
CONTINUOUS
  62
7
  10
 2704.0755716301
  20
 1343.9222890310
  30
0.0
  11
 2704.0755716301
  21
 1968.9222890310
  31
0.0
   0
LINE
   5
331
 100
AcDbEntity
   8
LEVEL003
 370
30
 100
AcDbLine
   6
CONTINUOUS
  62
7
  10
 2351.9153771186
  20
 2480.6017512511
  30
0.0
  11
 2278.9153771186
  21
 2480.6017512511
  31
0.0
   0
LINE
   5
332
 100
AcDbEntity
   8
LEVEL003
 370
30
 100
AcDbLine
   6
CONTINUOUS
  62
7
  10
 2338.4153771186
  20
 2468.6017512511
  30
0.0
  11
 2292.4153771186
  21
 2468.6017512511
  31
0.0
   0
LINE
   5
333
 100
AcDbEntity
   8
LEVEL003
 370
30
 100
AcDbLine
   6
CONTINUOUS
  62
7
  10
 2338.4153771186
  20
 2470.1017512511
  30
0.0
  11
 2292.4153771186
  21
 2470.1017512511
  31
0.0
   0
LINE
   5
334
 100
AcDbEntity
   8
LEVEL003
 370
30
 100
AcDbLine
   6
CONTINUOUS
  62
7
  10
 2351.9153771186
  20
 2487.6017512511
  30
0.0
  11
 2278.9153771186
  21
 2487.6017512511
  31
0.0
   0
LINE
   5
335
 100
AcDbEntity
   8
LEVEL003
 370
30
 100
AcDbLine
   6
CONTINUOUS
  62
7
  10
 2291.6653771186
  20
 2470.1017512511
  30
0.0
  11
 2296.6653771186
  21
 2470.1017512511
  31
0.0
   0
LINE
   5
336
 100
AcDbEntity
   8
LEVEL003
 370
30
 100
AcDbLine
   6
CONTINUOUS
  62
7
  10
 2278.9153771186
  20
 2480.6017512511
  30
0.0
  11
 2291.6653771186
  21
 2470.1017512511
  31
0.0
   0
LINE
   5
337
 100
AcDbEntity
   8
LEVEL003
 370
30
 100
AcDbLine
   6
CONTINUOUS
  62
7
  10
 2278.9153771186
  20
 2487.6017512511
  30
0.0
  11
 2278.9153771186
  21
 2480.6017512511
  31
0.0
   0
LINE
   5
338
 100
AcDbEntity
   8
LEVEL003
 370
30
 100
AcDbLine
   6
HIDDEN
  62
7
  10
 2292.4153771186
  20
 2468.6017512511
  30
0.0
  11
 2292.4153771186
  21
 2470.1017512511
  31
0.0
   0
LINE
   5
339
 100
AcDbEntity
   8
LEVEL003
 370
30
 100
AcDbLine
   6
CONTINUOUS
  62
7
  10
 2292.4153771186
  20
 2468.6017512511
  30
0.0
  11
 2292.4153771186
  21
 2470.1017512511
  31
0.0
   0
LINE
   5
33A
 100
AcDbEntity
   8
LEVEL003
 370
30
 100
AcDbLine
   6
HIDDEN
  62
7
  10
 2292.4153771186
  20
 2468.6017512511
  30
0.0
  11
 2292.4153771186
  21
 2470.1017512511
  31
0.0
   0
LINE
   5
33B
 100
AcDbEntity
   8
LEVEL003
 370
30
 100
AcDbLine
   6
CONTINUOUS
  62
7
  10
 2292.4153771186
  20
 2468.6017512511
  30
0.0
  11
 2292.4153771186
  21
 2470.1017512511
  31
0.0
   0
LINE
   5
33C
 100
AcDbEntity
   8
LEVEL003
 370
30
 100
AcDbLine
   6
CONTINUOUS
  62
7
  10
 2339.1653771186
  20
 2470.1017512511
  30
0.0
  11
 2334.1653771186
  21
 2470.1017512511
  31
0.0
   0
LINE
   5
33D
 100
AcDbEntity
   8
LEVEL003
 370
30
 100
AcDbLine
   6
CONTINUOUS
  62
7
  10
 2351.9153771186
  20
 2480.6017512511
  30
0.0
  11
 2339.1653771186
  21
 2470.1017512511
  31
0.0
   0
LINE
   5
33E
 100
AcDbEntity
   8
LEVEL003
 370
30
 100
AcDbLine
   6
CONTINUOUS
  62
7
  10
 2351.9153771186
  20
 2487.6017512511
  30
0.0
  11
 2351.9153771186
  21
 2480.6017512511
  31
0.0
   0
LINE
   5
33F
 100
AcDbEntity
   8
LEVEL003
 370
30
 100
AcDbLine
   6
HIDDEN
  62
7
  10
 2338.4153771186
  20
 2468.6017512511
  30
0.0
  11
 2338.4153771186
  21
 2470.1017512511
  31
0.0
   0
LINE
   5
340
 100
AcDbEntity
   8
LEVEL003
 370
30
 100
AcDbLine
   6
CONTINUOUS
  62
7
  10
 2338.4153771186
  20
 2468.6017512511
  30
0.0
  11
 2338.4153771186
  21
 2470.1017512511
  31
0.0
   0
ARC
   5
341
 100
AcDbEntity
   8
LEVEL003
 370
30
   6
CONTINUOUS
  62
7
 100
AcDbCircle
  10
 2315.4153771186
  20
 2387.6017512511
  30
0.0
  40
 17.000000000000
 100
AcDbArc
  50
 180.00000000000
  51
0.0
   0
LINE
   5
342
 100
AcDbEntity
   8
LEVEL003
 370
15
 100
AcDbLine
   6
DASHDOT
  62
8
  10
 2315.4153771186
  20
 2547.0178183207
  30
0.0
  11
 2315.4153771186
  21
 2387.6017512511
  31
0.0
   0
LINE
   5
343
 100
AcDbEntity
   8
LEVEL003
 370
30
 100
AcDbLine
   6
CONTINUOUS
  62
7
  10
 2332.4153771186
  20
 2470.1017512511
  30
0.0
  11
 2332.4153771186
  21
 2387.6017512511
  31
0.0
   0
LINE
   5
344
 100
AcDbEntity
   8
LEVEL003
 370
30
 100
AcDbLine
   6
CONTINUOUS
  62
7
  10
 2298.4153771186
  20
 2468.6017512511
  30
0.0
  11
 2298.4153771186
  21
 2387.6017512511
  31
0.0
   0
DIMENSION
   5
345
 100
AcDbEntity
   8
LEVEL001
 370
15
   6
CONTINUOUS
  62
8
 100
AcDbDimension
   2
*D19
  10
 2455.4153771186
  20
 2487.6017512511
  30
0.0
  11
 2455.4153771186
  21
 2437.6017512511
  31
0.0
  70
0
   3
GMM003
 100
AcDbAlignedDimension
  13
 2315.4153771186
  23
 2387.6017512511
  33
0.0
  14
 2455.4153771186
  24
 2487.6017512511
  34
0.0
  50
 90.000000000000
 100
AcDbRotatedDimension
   0
LINE
   5
346
 100
AcDbEntity
   8
LEVEL003
 370
30
 100
AcDbLine
   6
CONTINUOUS
  62
7
  10
 1751.9153771186
  20
 2480.6017512511
  30
0.0
  11
 1678.9153771186
  21
 2480.6017512511
  31
0.0
   0
LINE
   5
347
 100
AcDbEntity
   8
LEVEL003
 370
30
 100
AcDbLine
   6
CONTINUOUS
  62
7
  10
 1678.9153771186
  20
 2480.6017512511
  30
0.0
  11
 1691.6653771186
  21
 2470.1017512511
  31
0.0
   0
LINE
   5
348
 100
AcDbEntity
   8
LEVEL003
 370
30
 100
AcDbLine
   6
CONTINUOUS
  62
7
  10
 1751.9153771186
  20
 2487.6017512511
  30
0.0
  11
 1678.9153771186
  21
 2487.6017512511
  31
0.0
   0
LINE
   5
349
 100
AcDbEntity
   8
LEVEL003
 370
30
 100
AcDbLine
   6
CONTINUOUS
  62
7
  10
 1678.9153771186
  20
 2487.6017512511
  30
0.0
  11
 1678.9153771186
  21
 2480.6017512511
  31
0.0
   0
LINE
   5
34A
 100
AcDbEntity
   8
LEVEL003
 370
30
 100
AcDbLine
   6
CONTINUOUS
  62
7
  10
 1751.9153771186
  20
 2480.6017512511
  30
0.0
  11
 1739.1653771186
  21
 2470.1017512511
  31
0.0
   0
LINE
   5
34B
 100
AcDbEntity
   8
LEVEL003
 370
30
 100
AcDbLine
   6
CONTINUOUS
  62
7
  10
 1691.6653771186
  20
 2470.1017512511
  30
0.0
  11
 1696.6653771186
  21
 2470.1017512511
  31
0.0
   0
LINE
   5
34C
 100
AcDbEntity
   8
LEVEL003
 370
30
 100
AcDbLine
   6
HIDDEN
  62
7
  10
 1692.4153771186
  20
 2468.6017512511
  30
0.0
  11
 1692.4153771186
  21
 2470.1017512511
  31
0.0
   0
LINE
   5
34D
 100
AcDbEntity
   8
LEVEL003
 370
30
 100
AcDbLine
   6
CONTINUOUS
  62
7
  10
 1692.4153771186
  20
 2468.6017512511
  30
0.0
  11
 1692.4153771186
  21
 2470.1017512511
  31
0.0
   0
LINE
   5
34E
 100
AcDbEntity
   8
LEVEL003
 370
30
 100
AcDbLine
   6
CONTINUOUS
  62
7
  10
 1739.1653771186
  20
 2470.1017512511
  30
0.0
  11
 1734.1653771186
  21
 2470.1017512511
  31
0.0
   0
LINE
   5
34F
 100
AcDbEntity
   8
LEVEL003
 370
30
 100
AcDbLine
   6
HIDDEN
  62
7
  10
 1738.4153771186
  20
 2468.6017512511
  30
0.0
  11
 1738.4153771186
  21
 2470.1017512511
  31
0.0
   0
LINE
   5
350
 100
AcDbEntity
   8
LEVEL003
 370
30
 100
AcDbLine
   6
CONTINUOUS
  62
7
  10
 1738.4153771186
  20
 2468.6017512511
  30
0.0
  11
 1738.4153771186
  21
 2470.1017512511
  31
0.0
   0
LINE
   5
351
 100
AcDbEntity
   8
LEVEL003
 370
30
 100
AcDbLine
   6
HIDDEN
  62
7
  10
 1692.4153771186
  20
 2468.6017512511
  30
0.0
  11
 1692.4153771186
  21
 2470.1017512511
  31
0.0
   0
LINE
   5
352
 100
AcDbEntity
   8
LEVEL003
 370
30
 100
AcDbLine
   6
CONTINUOUS
  62
7
  10
 1692.4153771186
  20
 2468.6017512511
  30
0.0
  11
 1692.4153771186
  21
 2470.1017512511
  31
0.0
   0
LINE
   5
353
 100
AcDbEntity
   8
LEVEL003
 370
30
 100
AcDbLine
   6
CONTINUOUS
  62
7
  10
 1738.4153771186
  20
 2468.6017512511
  30
0.0
  11
 1692.4153771186
  21
 2468.6017512511
  31
0.0
   0
LINE
   5
354
 100
AcDbEntity
   8
LEVEL003
 370
30
 100
AcDbLine
   6
CONTINUOUS
  62
7
  10
 1738.4153771186
  20
 2470.1017512511
  30
0.0
  11
 1692.4153771186
  21
 2470.1017512511
  31
0.0
   0
LINE
   5
355
 100
AcDbEntity
   8
LEVEL003
 370
30
 100
AcDbLine
   6
CONTINUOUS
  62
7
  10
 1751.9153771186
  20
 2487.6017512511
  30
0.0
  11
 1751.9153771186
  21
 2480.6017512511
  31
0.0
   0
ARC
   5
356
 100
AcDbEntity
   8
LEVEL003
 370
30
   6
CONTINUOUS
  62
7
 100
AcDbCircle
  10
 1790.4153771186
  20
 2462.6017512511
  30
0.0
  40
 58.000000000000
 100
AcDbArc
  50
 180.00000000000
  51
 270.00000000000
   0
ARC
   5
357
 100
AcDbEntity
   8
LEVEL003
 370
30
   6
CONTINUOUS
  62
7
 100
AcDbCircle
  10
 1790.4153771186
  20
 2462.6017512511
  30
0.0
  40
 92.000000000000
 100
AcDbArc
  50
 180.00000000000
  51
 270.00000000000
   0
LINE
   5
358
 100
AcDbEntity
   8
LEVEL003
 370
30
 100
AcDbLine
   6
CONTINUOUS
  62
7
  10
 1732.4153771186
  20
 2462.6017512511
  30
0.0
  11
 1732.4153771186
  21
 2468.6017512511
  31
0.0
   0
LINE
   5
359
 100
AcDbEntity
   8
LEVEL003
 370
30
 100
AcDbLine
   6
CONTINUOUS
  62
7
  10
 1698.4153771186
  20
 2462.6017512511
  30
0.0
  11
 1698.4153771186
  21
 2468.6017512511
  31
0.0
   0
LINE
   5
35A
 100
AcDbEntity
   8
LEVEL003
 370
15
 100
AcDbLine
   6
DASHDOT
  62
8
  10
 1715.4153771186
  20
 2537.6017512511
  30
0.0
  11
 1715.4153771186
  21
 2462.6017512511
  31
0.0
   0
ARC
   5
35B
 100
AcDbEntity
   8
LEVEL003
 370
15
   6
DASHDOT
  62
8
 100
AcDbCircle
  10
 1790.4153771186
  20
 2462.6017512511
  30
0.0
  40
 75.000000000000
 100
AcDbArc
  50
 180.00000000000
  51
 270.00000000000
   0
LINE
   5
35C
 100
AcDbEntity
   8
LEVEL003
 370
30
 100
AcDbLine
   6
CONTINUOUS
  62
7
  10
 2298.4153771186
  20
 2404.6017512511
  30
0.0
  11
 1790.4153771186
  21
 2404.6017512511
  31
0.0
   0
LINE
   5
35D
 100
AcDbEntity
   8
LEVEL003
 370
15
 100
AcDbLine
   6
DASHDOT
  62
8
  10
 2315.4153771186
  20
 2387.6017512511
  30
0.0
  11
 1790.4153771186
  21
 2387.6017512511
  31
0.0
   0
LINE
   5
35E
 100
AcDbEntity
   8
LEVEL003
 370
30
 100
AcDbLine
   6
CONTINUOUS
  62
7
  10
 2315.4153771186
  20
 2370.6017512511
  30
0.0
  11
 1790.4153771186
  21
 2370.6017512511
  31
0.0
   0
LINE
   5
35F
 100
AcDbEntity
   8
LEVEL003
 370
40
 100
AcDbLine
   6
CONTINUOUS
  62
3
  10
 2520.0712126975
  20
 2487.6017512511
  30
0.0
  11
 1632.0162927882
  21
 2487.6017512511
  31
0.0
   0
LINE
   5
360
 100
AcDbEntity
   8
LEVEL003
 370
15
 100
AcDbLine
   6
DASHDOT
  62
8
  10
 2685.6906234880
  20
 1543.9222890310
  30
0.0
  11
 2857.6227001120
  21
 1543.9222890310
  31
0.0
   0
DIMENSION
   5
361
 100
AcDbEntity
   8
LEVEL001
 370
15
   6
CONTINUOUS
  62
8
 100
AcDbDimension
   2
*D20
  10
 2921.0755716301
  20
 1543.9222890310
  30
0.0
  11
 2921.0755716301
  21
 1443.9222890310
  31
0.0
  70
0
   3
GMM004
 100
AcDbAlignedDimension
  13
 2871.0755716301
  23
 1343.9222890310
  33
0.0
  14
 2857.6227001120
  24
 1543.9222890310
  34
0.0
  50
 90.000000000000
 100
AcDbRotatedDimension
   0
DIMENSION
   5
362
 100
AcDbEntity
   8
LEVEL001
 370
15
   6
CONTINUOUS
  62
8
 100
AcDbDimension
   2
*D21
  10
 2921.0755716301
  20
 2043.9222890310
  30
0.0
  11
 2921.0755716301
  21
 1793.9222890310
  31
0.0
  70
0
   3
GMM003
 100
AcDbAlignedDimension
  13
 2857.6227001120
  23
 1543.9222890310
  33
0.0
  14
 2871.0755716301
  24
 2043.9222890310
  34
0.0
  50
 90.000000000000
 100
AcDbRotatedDimension
   0
DIMENSION
   5
363
 100
AcDbEntity
   8
LEVEL001
 370
15
   6
CONTINUOUS
  62
8
 100
AcDbDimension
   2
*D22
  10
 2981.0895193341
  20
 2043.9222890310
  30
0.0
  11
 2981.0895193341
  21
 1693.9222890310
  31
0.0
  70
0
   3
GMM003
 100
AcDbAlignedDimension
  13
 2921.0755716301
  23
 1343.9222890310
  33
0.0
  14
 2921.0755716301
  24
 2043.9222890310
  34
0.0
  50
 90.000000000000
 100
AcDbRotatedDimension
   0
MTEXT
   5
365
 100
AcDbEntity
   8
LEVEL002
 370
15
  62
8
 100
AcDbMText
  10
 196.81684697801
  20
 806.18789536643
  30
0.0
  40
 40.000000000000
  41
0.0
  71
7
  72
1
   1
\W0.500000;\T1.000000; \W1.000000;\T1.000000;※\W0.500000;\T1.000000;(\W1.000000;\T1.000000;Ｌ\W0.500000;\T1.000000;)\W1.000000;\T1.000000;は便座に向い合った状態で左側に取付ける場合
   7
GMM002
  44
 0.79999984000003
   0
MTEXT
   5
367
 100
AcDbEntity
   8
LEVEL002
 370
15
  62
8
 100
AcDbMText
  10
 1662.3299152693
  20
 806.18789536643
  30
0.0
  40
 40.000000000000
  41
0.0
  71
7
  72
1
   1
\W0.500000;\T1.000000; \W1.000000;\T1.000000;※\W0.500000;\T1.000000;(\W1.000000;\T1.000000;Ｒ\W0.500000;\T1.000000;)\W1.000000;\T1.000000;は便座に向い合った状態で右側に取付ける場合
   7
GMM002
  44
 0.79999984000003
   0
MTEXT
   5
369
 100
AcDbEntity
   8
LEVEL002
 370
15
  62
8
 100
AcDbMText
  10
 3122.5057208233
  20
 2079.1666666670
  30
0.0
  40
 35.000000000000
  41
0.0
  71
1
  72
1
   3
{\W0.500000;\T1.000000;･\W1.000000;\T1.000000;手摺本体\W0.500000;\T1.000000;(\W1.000000;\T1.000000;笠木%%c３４\W0.500000;\T1.000000;) }\P{\W1.000000;\T1.000000;表面材：軟質塩ビ被膜（抗菌材入り）}\P{\W1.000000;\T1.000000;芯　材：ステンレスパイプ　%%c
   3
２７\W0.500000;\T1.000000;.\W1.000000;\T1.000000;２×１\W0.500000;\T1.000000;.\W1.000000;\T1.000000;５ｔ}\P{\W1.000000;\T1.000000;　　　　}\P\P{\W1.000000;\T1.000000;・ＰＪタイプ}\P{\W1.000000;\T1.000000;　色　：ＢＵ　ベージュ}\P{\W1.000000;\T1.00000
   3
0;　　　　ＣＰ　ピンク}\P{\W1.000000;\T1.000000;　　　　ＬＧ　ライトグリーン}\P{\W1.000000;\T1.000000;　　　　ＲＣ　カーディナルレッド}\P{\W1.000000;\T1.000000;　　　　ＡＷ　アイボリーホワイト}\P{\W1.000000;\T1.000000;　　　}\P{\W1.000000;\T1.000000;
   3
　　（木目調）}\P{\W1.000000;\T1.000000;　　　　ＮＡ　ナチュラル}\P{\W1.000000;\T1.000000;　　　　ＬＴ　ライト}\P\P{\W0.500000;\T1.000000;･\W1.000000;\T1.000000;樹脂製化粧カバー（ＡＢＳ）}\P{\W0.500000;\T1.000000;･\W1.000000;\T1.000000;固定クリップ（
   1
ＡＢＳ）}\P{\W0.500000;\T1.000000;･\W1.000000;\T1.000000;ステンレス取付座金（ｔ＝３\W0.500000;\T1.000000;.\W1.000000;\T1.000000;０）}\P\P{\W0.500000;\T1.000000; }
   7
GMM002
  44
 0.79999984000003
   0
ENDSEC
  0
SECTION
  2
OBJECTS
  0
DICTIONARY
  5
C
100
AcDbDictionary
  3
ACAD_GROUP
350
D
  3
ACAD_MLINESTYLE
350
1B
  3
DWGPROPS
350
1C
  0
DICTIONARY
  5
D
102
{ACAD_REACTORS
330
C
102
}
100
AcDbDictionary
  0
DICTIONARY
  5
1B
102
{ACAD_REACTORS
330
C
102
}
100
AcDbDictionary
  3
STANDARD
350
1D
  0
MLINESTYLE
  5
1D
102
{ACAD_REACTORS
330
1B
102
}
100
AcDbMlineStyle
  2
STANDARD
 70
     0
  3

 62
   256
 51
90.0
 52
90.0
 71
     2
 49
0.5
 62
   256
  6
BYLAYER
 49
-0.5
 62
   256
  6
BYLAYER
   0
XRECORD
   5
1C
 102
{ACAD_REACTORS
 330
C
 102
}
 330
C
 100
AcDbXrecord
 280
1
   1
DWGPROPS COOKIE
   2
 
   3
 
   4
 
   6
 
   7
00000000.DRW
   8
 
   9

 300
 = 
 301
 = 
 302
 = 
 303
 = 
 304
 = 
 305
 = 
 306
 = 
 307
 = 
 308
 = 
 309
 = 
  40
0.0
  41
 2460200.5000000
  42
 2460200.5000000
   1

  90
10
   0
ENDSEC
   0
EOF
