   0
SECTION
   2
HEADER
   9
$ACADVER
   1
AC1015
   9
$DWGCODEPAGE
   3
ANSI_932
   9
$LIMMIN
  10
0.0
  20
0.0
   9
$LIMMAX
  10
 840.00000000000
  20
 594.00000000000
   9
$EXTMIN
  10
0.0
  20
0.0
  30
0.0
   9
$EXTMAX
  10
 840.00000000000
  20
 594.00000000000
  30
0.0
   9
$LTSCALE
  40
 16.800000000000
   9
$HANDSEED
   5
537
   0
ENDSEC
   0
SECTION
   2
TABLES
  0
TABLE
  2
VPORT
  5
8
100
AcDbSymbolTable
 70
     1
  0
VPORT
  5
536
100
AcDbSymbolTableRecord
100
AcDbViewportTableRecord
  2
*ACTIVE
 70
     0
 10
0.0
 20
0.0
 11
1.0
 21
1.0
  12
 420.00000000000
  22
 297.00000000000
 13
0.0
 23
0.0
 14
1.0
 24
1.0
 15
0.0
 25
0.0
 16
0.0
 26
0.0
 36
1.0
 17
0.0
 27
0.0
 37
0.0
  40
 840.00000000000
  41
 1.4787878787879
 42
50.0
 43
0.0
 44
0.0
 50
0.0
 51
0.0
 71
     0
 72
   100
 73
     1
 74
     1
 75
     0
 76
     0
 77
     0
 78
     0
  0
ENDTAB
  0
TABLE
  2
LTYPE
  5
5
100
AcDbSymbolTable
 70
    25
  0
LTYPE
  5
12
100
AcDbSymbolTableRecord
100
AcDbLinetypeTableRecord
  2
BYBLOCK
 70
     0
  3

 72
    65
 73
     0
 40
0.0
  0
LTYPE
  5
13
100
AcDbSymbolTableRecord
100
AcDbLinetypeTableRecord
  2
BYLAYER
 70
     0
  3

 72
    65
 73
     0
 40
0.0
  0
LTYPE
  5
14
100
AcDbSymbolTableRecord
100
AcDbLinetypeTableRecord
  2
CONTINUOUS
 70
     0
  3
Solid line
 72
    65
 73
     0
 40
0.0
  0
LTYPE
  5
20
100
AcDbSymbolTableRecord
100
AcDbLinetypeTableRecord
  2
BORDER
 70
     0
  3
__ __ . __ __ . __ __ . __ __ . __ __ . __ __ .
 72
    65
 73
     6
 40
1.75
 49
0.5
 74
     0
 49
-0.25
 74
     0
 49
0.5
 74
     0
 49
-0.25
 74
     0
 49
0.0
 74
     0
 49
-0.25
 74
     0
  0
LTYPE
  5
21
100
AcDbSymbolTableRecord
100
AcDbLinetypeTableRecord
  2
BORDER2
 70
     0
  3
__.__.__.__.__.__.__.__.__.__.__.__.__.__.__.__
 72
    65
 73
     6
 40
0.875
 49
0.25
 74
     0
 49
-0.125
 74
     0
 49
0.25
 74
     0
 49
-0.125
 74
     0
 49
0.0
 74
     0
 49
-0.125
 74
     0
  0
LTYPE
  5
22
100
AcDbSymbolTableRecord
100
AcDbLinetypeTableRecord
  2
BORDERX2
 70
     0
  3
____  ____  .  ____  ____  .  ____  ____  .  __
 72
    65
 73
     6
 40
3.5
 49
1.0
 74
     0
 49
-0.5
 74
     0
 49
1.0
 74
     0
 49
-0.5
 74
     0
 49
0.0
 74
     0
 49
-0.5
 74
     0
  0
LTYPE
  5
23
100
AcDbSymbolTableRecord
100
AcDbLinetypeTableRecord
  2
CENTER
 70
     0
  3
____ _ ____ _ ____ _ ____ _ ____ _ ____ _ ____ 
 72
    65
 73
     4
 40
2.0
 49
1.25
 74
     0
 49
-0.25
 74
     0
 49
0.25
 74
     0
 49
-0.25
 74
     0
  0
LTYPE
  5
24
100
AcDbSymbolTableRecord
100
AcDbLinetypeTableRecord
  2
CENTER2
 70
     0
  3
___ _ ___ _ ___ _ ___ _ ___ _ ___ _ ___ _ ___ _
 72
    65
 73
     4
 40
1.125
 49
0.75
 74
     0
 49
-0.125
 74
     0
 49
0.125
 74
     0
 49
-0.125
 74
     0
  0
LTYPE
  5
25
100
AcDbSymbolTableRecord
100
AcDbLinetypeTableRecord
  2
CENTERX2
 70
     0
  3
________  __  ________  __  ________  __  _____
 72
    65
 73
     4
 40
4.0
 49
2.5
 74
     0
 49
-0.5
 74
     0
 49
0.5
 74
     0
 49
-0.5
 74
     0
  0
LTYPE
  5
26
100
AcDbSymbolTableRecord
100
AcDbLinetypeTableRecord
  2
DASHDOT
 70
     0
  3
__ . __ . __ . __ . __ . __ . __ . __ . __ . __
 72
    65
 73
     4
 40
1.0
 49
0.5
 74
     0
 49
-0.25
 74
     0
 49
0.0
 74
     0
 49
-0.25
 74
     0
  0
LTYPE
  5
27
100
AcDbSymbolTableRecord
100
AcDbLinetypeTableRecord
  2
DASHDOT2
 70
     0
  3
_._._._._._._._._._._._._._._._._._._._._._._._
 72
    65
 73
     4
 40
0.5
 49
0.25
 74
     0
 49
-0.125
 74
     0
 49
0.0
 74
     0
 49
-0.125
 74
     0
  0
LTYPE
  5
28
100
AcDbSymbolTableRecord
100
AcDbLinetypeTableRecord
  2
DASHDOTX2
 70
     0
  3
____  .  ____  .  ____  .  ____  .  ____  .  __
 72
    65
 73
     4
 40
2.0
 49
1.0
 74
     0
 49
-0.5
 74
     0
 49
0.0
 74
     0
 49
-0.5
 74
     0
  0
LTYPE
  5
29
100
AcDbSymbolTableRecord
100
AcDbLinetypeTableRecord
  2
DASHED
 70
     0
  3
__ __ __ __ __ __ __ __ __ __ __ __ __ __ __ __
 72
    65
 73
     2
 40
0.75
 49
0.5
 74
     0
 49
-0.25
 74
     0
  0
LTYPE
  5
2A
100
AcDbSymbolTableRecord
100
AcDbLinetypeTableRecord
  2
DASHED2
 70
     0
  3
_ _ _ _ _ _ _ _ _ _ _ _ _ _ _ _ _ _ _ _ _ _ _ _
 72
    65
 73
     2
 40
0.375
 49
0.25
 74
     0
 49
-0.125
 74
     0
  0
LTYPE
  5
2B
100
AcDbSymbolTableRecord
100
AcDbLinetypeTableRecord
  2
DASHEDX2
 70
     0
  3
____  ____  ____  ____  ____  ____  ____  ____ 
 72
    65
 73
     2
 40
1.5
 49
1.0
 74
     0
 49
-0.5
 74
     0
  0
LTYPE
  5
2C
100
AcDbSymbolTableRecord
100
AcDbLinetypeTableRecord
  2
DIVIDE
 70
     0
  3
____ . . ____ . . ____ . . ____ . . ____ . . __
 72
    65
 73
     6
 40
1.25
 49
0.5
 74
     0
 49
-0.25
 74
     0
 49
0.0
 74
     0
 49
-0.25
 74
     0
 49
0.0
 74
     0
 49
-0.25
 74
     0
  0
LTYPE
  5
2D
100
AcDbSymbolTableRecord
100
AcDbLinetypeTableRecord
  2
DIVIDE2
 70
     0
  3
__..__..__..__..__..__..__..__..__..__..__..__.
 72
    65
 73
     6
 40
0.625
 49
0.25
 74
     0
 49
-0.125
 74
     0
 49
0.0
 74
     0
 49
-0.125
 74
     0
 49
0.0
 74
     0
 49
-0.125
 74
     0
  0
LTYPE
  5
2E
100
AcDbSymbolTableRecord
100
AcDbLinetypeTableRecord
  2
DIVIDEX2
 70
     0
  3
________  .  .  ________  .  .  ________  .  . 
 72
    65
 73
     6
 40
2.5
 49
1.0
 74
     0
 49
-0.5
 74
     0
 49
0.0
 74
     0
 49
-0.5
 74
     0
 49
0.0
 74
     0
 49
-0.5
 74
     0
  0
LTYPE
  5
2F
100
AcDbSymbolTableRecord
100
AcDbLinetypeTableRecord
  2
DOT
 70
     0
  3
. . . . . . . . . . . . . . . . . . . . . . . .
 72
    65
 73
     2
 40
0.25
 49
0.0
 74
     0
 49
-0.25
 74
     0
  0
LTYPE
  5
30
100
AcDbSymbolTableRecord
100
AcDbLinetypeTableRecord
  2
DOT2
 70
     0
  3
...............................................
 72
    65
 73
     2
 40
0.125
 49
0.0
 74
     0
 49
-0.125
 74
     0
  0
LTYPE
  5
31
100
AcDbSymbolTableRecord
100
AcDbLinetypeTableRecord
  2
DOTX2
 70
     0
  3
.  .  .  .  .  .  .  .  .  .  .  .  .  .  .  . 
 72
    65
 73
     2
 40
0.5
 49
0.0
 74
     0
 49
-0.5
 74
     0
  0
LTYPE
  5
32
100
AcDbSymbolTableRecord
100
AcDbLinetypeTableRecord
  2
HIDDEN
 70
     0
  3
__ __ __ __ __ __ __ __ __ __ __ __ __ __ __ __
 72
    65
 73
     2
 40
0.375
 49
0.25
 74
     0
 49
-0.125
 74
     0
  0
LTYPE
  5
33
100
AcDbSymbolTableRecord
100
AcDbLinetypeTableRecord
  2
HIDDEN2
 70
     0
  3
_ _ _ _ _ _ _ _ _ _ _ _ _ _ _ _ _ _ _ _ _ _ _ _
 72
    65
 73
     2
 40
0.1875
 49
0.125
 74
     0
 49
-0.0625
 74
     0
  0
LTYPE
  5
34
100
AcDbSymbolTableRecord
100
AcDbLinetypeTableRecord
  2
HIDDENX2
 70
     0
  3
____ ____ ____ ____ ____ ____ ____ ____ ____ __
 72
    65
 73
     2
 40
0.75
 49
0.5
 74
     0
 49
-0.25
 74
     0
  0
LTYPE
  5
35
100
AcDbSymbolTableRecord
100
AcDbLinetypeTableRecord
  2
PHANTOM
 70
     0
  3
______  __  __  ______  __  __  ______  __  __ 
 72
    65
 73
     6
 40
2.5
 49
1.25
 74
     0
 49
-0.25
 74
     0
 49
0.25
 74
     0
 49
-0.25
 74
     0
 49
0.25
 74
     0
 49
-0.25
 74
     0
  0
LTYPE
  5
36
100
AcDbSymbolTableRecord
100
AcDbLinetypeTableRecord
  2
PHANTOM2
 70
     0
  3
___ _ _ ___ _ _ ___ _ _ ___ _ _ ___ _ _ ___ _ _
 72
    65
 73
     6
 40
1.25
 49
0.625
 74
     0
 49
-0.125
 74
     0
 49
0.125
 74
     0
 49
-0.125
 74
     0
 49
0.125
 74
     0
 49
-0.125
 74
     0
  0
LTYPE
  5
37
100
AcDbSymbolTableRecord
100
AcDbLinetypeTableRecord
  2
PHANTOMX2
 70
     0
  3
____________    ____    ____    ____________   
 72
    65
 73
     6
 40
5.0
 49
2.5
 74
     0
 49
-0.5
 74
     0
 49
0.5
 74
     0
 49
-0.5
 74
     0
 49
0.5
 74
     0
 49
-0.5
 74
     0
  0
ENDTAB
   0
TABLE
   2
LAYER
   5
2
 100
AcDbSymbolTable
  70
5
   0
LAYER
   5
E
 100
AcDbSymbolTableRecord
 100
AcDbLayerTableRecord
   2
0
  70
0
  62
7
   6
CONTINUOUS
 390
30
   0
LAYER
   5
39
 100
AcDbSymbolTableRecord
 100
AcDbLayerTableRecord
   2
LEVEL001
  70
0
  62
7
   6
CONTINUOUS
 390
30
   0
LAYER
   5
3A
 100
AcDbSymbolTableRecord
 100
AcDbLayerTableRecord
   2
LEVEL002
  70
0
  62
7
   6
CONTINUOUS
 390
30
   0
LAYER
   5
3B
 100
AcDbSymbolTableRecord
 100
AcDbLayerTableRecord
   2
LEVEL003
  70
0
  62
7
   6
CONTINUOUS
 390
30
   0
LAYER
   5
3C
 100
AcDbSymbolTableRecord
 100
AcDbLayerTableRecord
   2
LEVEL004
  70
0
  62
7
   6
CONTINUOUS
 390
30
   0
ENDTAB
  0
TABLE
  2
STYLE
  5
3
100
AcDbSymbolTable
  70
6
  0
STYLE
  5
F
100
AcDbSymbolTableRecord
100
AcDbTextStyleTableRecord
  2
STANDARD
 70
     0
 40
0.0
 41
1.0
 50
0.0
 71
     0
 42
0.2
  3
TXT
  4
BIGFONT
  0
STYLE
  5
38
100
AcDbSymbolTableRecord
100
AcDbTextStyleTableRecord
  2
STANDARD1
 70
     4
 40
0.0
 41
1.0
 50
0.0
 71
     0
 42
0.2
  3
TXT
  4
BIGFONT
   0
STYLE
   5
3D
 100
AcDbSymbolTableRecord
 100
AcDbTextStyleTableRecord
   2
GMM001
  70
0
  40
0.0
  41
 0.80000000000000
  50
0.0
  71
     0
  42
1.0
   3
txt.shx
   4
bigfont.shx
   0
STYLE
   5
3E
 100
AcDbSymbolTableRecord
 100
AcDbTextStyleTableRecord
   2
GMM002
  70
0
  40
0.0
  41
 1.0000000000000
  50
0.0
  71
     0
  42
1.0
   3
txt.shx
   4
bigfont.shx
   0
STYLE
   5
3F
 100
AcDbSymbolTableRecord
 100
AcDbTextStyleTableRecord
   2
GMM003
  70
0
  40
0.0
  41
 1.0714285714286
  50
0.0
  71
     0
  42
1.0
   3
txt.shx
   4
bigfont.shx
   0
STYLE
   5
40
 100
AcDbSymbolTableRecord
 100
AcDbTextStyleTableRecord
   2
GMM004
  70
0
  40
0.0
  41
 0.88888888888889
  50
0.0
  71
     0
  42
1.0
   3
txt.shx
   4
bigfont.shx
   0
ENDTAB
  0
TABLE
  2
VIEW
  5
6
100
AcDbSymbolTable
 70
     0
  0
ENDTAB
  0
TABLE
  2
UCS
  5
7
100
AcDbSymbolTable
 70
     0
  0
ENDTAB
  0
TABLE
  2
APPID
  5
9
100
AcDbSymbolTable
 70
     1
  0
APPID
  5
10
100
AcDbSymbolTableRecord
100
AcDbRegAppTableRecord
  2
ACAD
 70
     0
  0
ENDTAB
   0
TABLE
   2
DIMSTYLE
   5
A
 100
AcDbSymbolTable
  70
7
 100
AcDbDimStyleTable
  0
DIMSTYLE
105
1D
100
AcDbSymbolTableRecord
100
AcDbDimStyleTableRecord
  2
STANDARD
 70
     0
  3

  4

  5

  6

  7

 40
1.0
 41
0.18
 42
0.0625
 43
0.38
 44
0.18
 45
0.0
 46
0.0
 47
0.0
 48
0.0
140
0.18
141
0.09
142
0.0
143
25.4
144
1.0
145
0.0
146
1.0
147
0.09
 71
     0
 72
     0
 73
     1
 74
     1
 75
     0
 76
     0
 77
     0
 78
     0
170
     0
171
     2
172
     0
173
     0
174
     0
175
     0
176
     0
177
     0
178
     0
270
     2
271
     4
272
     4
273
     2
274
     2
340
F
275
     0
280
     0
281
     0
282
     0
283
     1
284
     0
285
     0
286
     0
287
     3
288
     0
   0
DIMSTYLE
 105
41
 100
AcDbSymbolTableRecord
 100
AcDbDimStyleTableRecord
   2
GMM001
  70
0
   3

   4

   5

   6
_DOT
   7
_DOT
  40
 1.0000000000000
  41
 0.80000000000000
  42
 2.0000000000000
  43
 16.000000000000
  44
 2.0000000000000
  45
0.0
  46
0.0
  47
0.0
  48
0.0
 140
 6.0000000000000
 141
 2.0000000000000
 142
0.0
 143
 0.39400000000000E-1
 144
 1.0000000000000
 145
0.0
 146
 0.83333333333333
 147
 2.0000000000000
  71
0
  72
0
  73
0
  74
0
  75
0
  76
0
  77
3
  78
8
 170
0
 171
2
 172
1
 173
1
 174
0
 175
0
 176
8
 177
8
 178
8
 270
2
 271
6
 272
0
 273
2
 274
2
 340
3E
 275
1
 280
0
 281
0
 282
0
 283
1
 284
0
 285
0
 286
0
 287
3
 288
0
   0
DIMSTYLE
 105
42
 100
AcDbSymbolTableRecord
 100
AcDbDimStyleTableRecord
   2
GMM002
  70
0
   3

   4

   5

   6
_DOT
   7
_DOT
  40
 1.0000000000000
  41
 0.80000000000000
  42
 2.0000000000000
  43
 16.000000000000
  44
 2.0000000000000
  45
0.0
  46
0.0
  47
0.0
  48
0.0
 140
 6.0000000000000
 141
 2.0000000000000
 142
0.0
 143
 0.39400000000000E-1
 144
 1.0000000000000
 145
0.0
 146
 0.83333333333333
 147
 1.9219952976052
  71
0
  72
0
  73
0
  74
0
  75
0
  76
0
  77
3
  78
8
 170
0
 171
2
 172
1
 173
1
 174
0
 175
0
 176
8
 177
8
 178
8
 270
2
 271
6
 272
0
 273
2
 274
2
 340
3E
 275
1
 280
0
 281
0
 282
0
 283
1
 284
0
 285
0
 286
0
 287
3
 288
1
   0
DIMSTYLE
 105
43
 100
AcDbSymbolTableRecord
 100
AcDbDimStyleTableRecord
   2
GMM003
  70
0
   3

   4

   5

   6

   7

  40
 1.0000000000000
  41
 4.0000000000000
  42
 2.0000000000000
  43
 16.000000000000
  44
 2.0000000000000
  45
0.0
  46
0.0
  47
0.0
  48
0.0
 140
 6.0000000000000
 141
 2.0000000000000
 142
0.0
 143
 0.39400000000000E-1
 144
 1.0000000000000
 145
0.0
 146
 0.83333333333333
 147
0.0
  71
0
  72
0
  73
0
  74
0
  75
0
  76
0
  77
1
  78
8
 170
0
 171
2
 172
1
 173
1
 174
0
 175
0
 176
8
 177
8
 178
8
 270
2
 271
6
 272
0
 273
2
 274
2
 340
3E
 275
1
 280
0
 281
0
 282
0
 283
1
 284
0
 285
0
 286
0
 287
3
 288
0
   0
DIMSTYLE
 105
44
 100
AcDbSymbolTableRecord
 100
AcDbDimStyleTableRecord
   2
GMM004
  70
0
   3

   4

   5

   6
_DOT
   7
_DOT
  40
 1.0000000000000
  41
 0.80000000000000
  42
 2.0000000000000
  43
 16.000000000000
  44
 2.0000000000000
  45
0.0
  46
0.0
  47
0.0
  48
0.0
 140
 6.0000000000000
 141
 2.0000000000000
 142
0.0
 143
 0.39400000000000E-1
 144
 1.0000000000000
 145
0.0
 146
 0.83333333333333
 147
 2.1424250938398
  71
0
  72
0
  73
0
  74
0
  75
0
  76
0
  77
3
  78
8
 170
0
 171
2
 172
1
 173
1
 174
0
 175
0
 176
8
 177
8
 178
8
 270
2
 271
6
 272
0
 273
2
 274
2
 340
3E
 275
1
 280
0
 281
0
 282
0
 283
1
 284
0
 285
0
 286
0
 287
3
 288
1
   0
DIMSTYLE
 105
45
 100
AcDbSymbolTableRecord
 100
AcDbDimStyleTableRecord
   2
GMM005
  70
0
   3

   4

   5

   6
_DOT
   7
_DOT
  40
 1.0000000000000
  41
 0.80000000000000
  42
 2.0000000000000
  43
 16.000000000000
  44
 2.0000000000000
  45
0.0
  46
0.0
  47
0.0
  48
0.0
 140
 6.0000000000000
 141
 2.0000000000000
 142
0.0
 143
 0.39400000000000E-1
 144
 1.0000000000000
 145
0.0
 146
 0.83333333333333
 147
 1.8361121206206
  71
0
  72
0
  73
0
  74
0
  75
0
  76
0
  77
3
  78
8
 170
0
 171
2
 172
1
 173
1
 174
0
 175
0
 176
8
 177
8
 178
8
 270
2
 271
6
 272
0
 273
2
 274
2
 340
3E
 275
1
 280
0
 281
0
 282
0
 283
1
 284
0
 285
0
 286
0
 287
3
 288
1
   0
ENDTAB
  0
TABLE
  2
BLOCK_RECORD
  5
1
100
AcDbSymbolTable
 70
     0
  0
BLOCK_RECORD
  5
18
100
AcDbSymbolTableRecord
100
AcDbBlockTableRecord
  2
*MODEL_SPACE
  0
BLOCK_RECORD
  5
15
100
AcDbSymbolTableRecord
100
AcDbBlockTableRecord
  2
*PAPER_SPACE
   0
BLOCK_RECORD
   5
46
 100
AcDbSymbolTableRecord
 100
AcDbBlockTableRecord
   2
*D1
   0
BLOCK_RECORD
   5
47
 100
AcDbSymbolTableRecord
 100
AcDbBlockTableRecord
   2
*D2
   0
BLOCK_RECORD
   5
48
 100
AcDbSymbolTableRecord
 100
AcDbBlockTableRecord
   2
*D3
   0
BLOCK_RECORD
   5
49
 100
AcDbSymbolTableRecord
 100
AcDbBlockTableRecord
   2
*D10
   0
BLOCK_RECORD
   5
4A
 100
AcDbSymbolTableRecord
 100
AcDbBlockTableRecord
   2
*D11
   0
BLOCK_RECORD
   5
4B
 100
AcDbSymbolTableRecord
 100
AcDbBlockTableRecord
   2
*D12
   0
BLOCK_RECORD
   5
4C
 100
AcDbSymbolTableRecord
 100
AcDbBlockTableRecord
   2
*D13
   0
BLOCK_RECORD
   5
4D
 100
AcDbSymbolTableRecord
 100
AcDbBlockTableRecord
   2
*D14
   0
BLOCK_RECORD
   5
4E
 100
AcDbSymbolTableRecord
 100
AcDbBlockTableRecord
   2
*D17
   0
BLOCK_RECORD
   5
4F
 100
AcDbSymbolTableRecord
 100
AcDbBlockTableRecord
   2
*D18
   0
BLOCK_RECORD
   5
50
 100
AcDbSymbolTableRecord
 100
AcDbBlockTableRecord
   2
*D19
   0
BLOCK_RECORD
   5
51
 100
AcDbSymbolTableRecord
 100
AcDbBlockTableRecord
   2
*D20
   0
BLOCK_RECORD
   5
52
 100
AcDbSymbolTableRecord
 100
AcDbBlockTableRecord
   2
*D23
   0
BLOCK_RECORD
   5
53
 100
AcDbSymbolTableRecord
 100
AcDbBlockTableRecord
   2
*D24
   0
BLOCK_RECORD
   5
54
 100
AcDbSymbolTableRecord
 100
AcDbBlockTableRecord
   2
*D25
   0
BLOCK_RECORD
   5
55
 100
AcDbSymbolTableRecord
 100
AcDbBlockTableRecord
   2
*D28
   0
BLOCK_RECORD
   5
56
 100
AcDbSymbolTableRecord
 100
AcDbBlockTableRecord
   2
*D29
   0
BLOCK_RECORD
   5
57
 100
AcDbSymbolTableRecord
 100
AcDbBlockTableRecord
   2
*D30
   0
BLOCK_RECORD
   5
58
 100
AcDbSymbolTableRecord
 100
AcDbBlockTableRecord
   2
*D33
   0
BLOCK_RECORD
   5
59
 100
AcDbSymbolTableRecord
 100
AcDbBlockTableRecord
   2
*D34
   0
BLOCK_RECORD
   5
5A
 100
AcDbSymbolTableRecord
 100
AcDbBlockTableRecord
   2
*D35
   0
BLOCK_RECORD
   5
5B
 100
AcDbSymbolTableRecord
 100
AcDbBlockTableRecord
   2
*D36
   0
BLOCK_RECORD
   5
5C
 100
AcDbSymbolTableRecord
 100
AcDbBlockTableRecord
   2
*D39
   0
BLOCK_RECORD
   5
5D
 100
AcDbSymbolTableRecord
 100
AcDbBlockTableRecord
   2
_ARCHTICK
   0
BLOCK_RECORD
   5
5E
 100
AcDbSymbolTableRecord
 100
AcDbBlockTableRecord
   2
_BOXBLANK
   0
BLOCK_RECORD
   5
5F
 100
AcDbSymbolTableRecord
 100
AcDbBlockTableRecord
   2
_BOXFILLED
   0
BLOCK_RECORD
   5
60
 100
AcDbSymbolTableRecord
 100
AcDbBlockTableRecord
   2
_CLOSED
   0
BLOCK_RECORD
   5
61
 100
AcDbSymbolTableRecord
 100
AcDbBlockTableRecord
   2
_CLOSEDBLANK
   0
BLOCK_RECORD
   5
62
 100
AcDbSymbolTableRecord
 100
AcDbBlockTableRecord
   2
_DATUMBLANK
   0
BLOCK_RECORD
   5
63
 100
AcDbSymbolTableRecord
 100
AcDbBlockTableRecord
   2
_DATUMFILLED
   0
BLOCK_RECORD
   5
64
 100
AcDbSymbolTableRecord
 100
AcDbBlockTableRecord
   2
_DOT
   0
BLOCK_RECORD
   5
65
 100
AcDbSymbolTableRecord
 100
AcDbBlockTableRecord
   2
_DOTBLANK
   0
BLOCK_RECORD
   5
66
 100
AcDbSymbolTableRecord
 100
AcDbBlockTableRecord
   2
_DOTSMALL
   0
BLOCK_RECORD
   5
67
 100
AcDbSymbolTableRecord
 100
AcDbBlockTableRecord
   2
_INTEGRAL
   0
BLOCK_RECORD
   5
68
 100
AcDbSymbolTableRecord
 100
AcDbBlockTableRecord
   2
_NONE
   0
BLOCK_RECORD
   5
69
 100
AcDbSymbolTableRecord
 100
AcDbBlockTableRecord
   2
_OBLIQUE
   0
BLOCK_RECORD
   5
6A
 100
AcDbSymbolTableRecord
 100
AcDbBlockTableRecord
   2
_OPEN
   0
BLOCK_RECORD
   5
6B
 100
AcDbSymbolTableRecord
 100
AcDbBlockTableRecord
   2
_OPEN30
   0
BLOCK_RECORD
   5
6C
 100
AcDbSymbolTableRecord
 100
AcDbBlockTableRecord
   2
_OPEN90
   0
BLOCK_RECORD
   5
6D
 100
AcDbSymbolTableRecord
 100
AcDbBlockTableRecord
   2
_ORIGIN
   0
ENDTAB
   0
ENDSEC
  0
SECTION
  2
BLOCKS
  0
BLOCK
  5
19
100
AcDbEntity
  8
0
100
AcDbBlockBegin
  2
*MODEL_SPACE
 70
     0
 10
0.0
 20
0.0
 30
0.0
  3
*MODEL_SPACE
  1

  0
ENDBLK
  5
1A
100
AcDbEntity
  8
0
100
AcDbBlockEnd
  0
BLOCK
  5
16
100
AcDbEntity
 67
     1
  8
0
100
AcDbBlockBegin
  2
*PAPER_SPACE
 70
     0
 10
0.0
 20
0.0
 30
0.0
  3
*PAPER_SPACE
  1

  0
ENDBLK
  5
17
100
AcDbEntity
 67
     1
  8
0
100
AcDbBlockEnd
   0
BLOCK
   5
6E
 100
AcDbEntity
   8
0
 100
AcDbBlockBegin
   2
_ARCHTICK
  70
0
  10
0.0
  20
0.0
  30
0.0
   3
_ARCHTICK
   0
POLYLINE
   5
6F
 100
AcDbEntity
   8
0
 370
-2
   6
BYBLOCK
  62
0
 100
AcDb2dPolyline
  66
1
  10
0.0
  20
0.0
  30
0.0
  70
1
  40
 0.15000000000000
  41
 0.15000000000000
   0
VERTEX
   5
70
 100
AcDbEntity
   8
0
   6
BYBLOCK
  62
0
 100
AcDbVertex
 100
AcDb2dVertex
  10
-0.50000000000000
  20
-0.50000000000000
  30
0.0
  40
 0.15000000000000
  41
 0.15000000000000
   0
VERTEX
   5
71
 100
AcDbEntity
   8
0
   6
BYBLOCK
  62
0
 100
AcDbVertex
 100
AcDb2dVertex
  10
 0.50000000000000
  20
 0.50000000000000
  30
0.0
  40
 0.15000000000000
  41
 0.15000000000000
   0
SEQEND
   5
72
 100
AcDbEntity
   8
0
   6
BYBLOCK
  62
0
   0
ENDBLK
   5
73
 100
AcDbEntity
   8
0
 100
AcDbBlockEnd
   0
BLOCK
   5
74
 100
AcDbEntity
   8
0
 100
AcDbBlockBegin
   2
_OBLIQUE
  70
0
  10
0.0
  20
0.0
  30
0.0
   3
_OBLIQUE
   0
LINE
   5
75
 100
AcDbEntity
   8
0
 370
-2
 100
AcDbLine
   6
BYBLOCK
  62
0
  10
-0.50000000000000
  20
-0.50000000000000
  30
0.0
  11
 0.50000000000000
  21
 0.50000000000000
  31
0.0
   0
ENDBLK
   5
76
 100
AcDbEntity
   8
0
 100
AcDbBlockEnd
   0
BLOCK
   5
77
 100
AcDbEntity
   8
0
 100
AcDbBlockBegin
   2
_BOXBLANK
  70
0
  10
0.0
  20
0.0
  30
0.0
   3
_BOXBLANK
   0
LINE
   5
78
 100
AcDbEntity
   8
0
 370
-2
 100
AcDbLine
   6
BYBLOCK
  62
0
  10
-0.50000000000000
  20
-0.50000000000000
  30
0.0
  11
 0.50000000000000
  21
-0.50000000000000
  31
0.0
   0
LINE
   5
79
 100
AcDbEntity
   8
0
 370
-2
 100
AcDbLine
   6
BYBLOCK
  62
0
  10
 0.50000000000000
  20
-0.50000000000000
  30
0.0
  11
 0.50000000000000
  21
 0.50000000000000
  31
0.0
   0
LINE
   5
7A
 100
AcDbEntity
   8
0
 370
-2
 100
AcDbLine
   6
BYBLOCK
  62
0
  10
 0.50000000000000
  20
 0.50000000000000
  30
0.0
  11
-0.50000000000000
  21
 0.50000000000000
  31
0.0
   0
LINE
   5
7B
 100
AcDbEntity
   8
0
 370
-2
 100
AcDbLine
   6
BYBLOCK
  62
0
  10
-0.50000000000000
  20
 0.50000000000000
  30
0.0
  11
-0.50000000000000
  21
-0.50000000000000
  31
0.0
   0
LINE
   5
7C
 100
AcDbEntity
   8
0
 370
-2
 100
AcDbLine
   6
BYBLOCK
  62
0
  10
-0.50000000000000
  20
0.0
  30
0.0
  11
-1.0000000000000
  21
0.0
  31
0.0
   0
ENDBLK
   5
7D
 100
AcDbEntity
   8
0
 100
AcDbBlockEnd
   0
BLOCK
   5
7E
 100
AcDbEntity
   8
0
 100
AcDbBlockBegin
   2
_BOXFILLED
  70
0
  10
0.0
  20
0.0
  30
0.0
   3
_BOXFILLED
   0
SOLID
   5
7F
 100
AcDbEntity
   8
0
 100
AcDbTrace
   6
BYBLOCK
  62
0
  10
-0.50000000000000
  20
 0.50000000000000
  30
0.0
  11
 0.50000000000000
  21
 0.50000000000000
  31
0.0
  12
-0.50000000000000
  22
-0.50000000000000
  32
0.0
  13
 0.50000000000000
  23
-0.50000000000000
  33
0.0
   0
LINE
   5
80
 100
AcDbEntity
   8
0
 370
-2
 100
AcDbLine
   6
BYBLOCK
  62
0
  10
-0.50000000000000
  20
0.0
  30
0.0
  11
-1.0000000000000
  21
0.0
  31
0.0
   0
ENDBLK
   5
81
 100
AcDbEntity
   8
0
 100
AcDbBlockEnd
   0
BLOCK
   5
82
 100
AcDbEntity
   8
0
 100
AcDbBlockBegin
   2
_CLOSED
  70
0
  10
0.0
  20
0.0
  30
0.0
   3
_CLOSED
   0
LINE
   5
83
 100
AcDbEntity
   8
0
 370
-2
 100
AcDbLine
   6
BYBLOCK
  62
0
  10
-1.0000000000000
  20
 0.16666666666667
  30
0.0
  11
0.0
  21
0.0
  31
0.0
   0
LINE
   5
84
 100
AcDbEntity
   8
0
 370
-2
 100
AcDbLine
   6
BYBLOCK
  62
0
  10
0.0
  20
0.0
  30
0.0
  11
-1.0000000000000
  21
-0.16666666666667
  31
0.0
   0
LINE
   5
85
 100
AcDbEntity
   8
0
 370
-2
 100
AcDbLine
   6
BYBLOCK
  62
0
  10
-1.0000000000000
  20
 0.16666666666667
  30
0.0
  11
-1.0000000000000
  21
-0.16666666666667
  31
0.0
   0
LINE
   5
86
 100
AcDbEntity
   8
0
 370
-2
 100
AcDbLine
   6
BYBLOCK
  62
0
  10
0.0
  20
0.0
  30
0.0
  11
-1.0000000000000
  21
0.0
  31
0.0
   0
ENDBLK
   5
87
 100
AcDbEntity
   8
0
 100
AcDbBlockEnd
   0
BLOCK
   5
88
 100
AcDbEntity
   8
0
 100
AcDbBlockBegin
   2
_OPEN
  70
0
  10
0.0
  20
0.0
  30
0.0
   3
_OPEN
   0
LINE
   5
89
 100
AcDbEntity
   8
0
 370
-2
 100
AcDbLine
   6
BYBLOCK
  62
0
  10
-1.0000000000000
  20
 0.16666666666667
  30
0.0
  11
0.0
  21
0.0
  31
0.0
   0
LINE
   5
8A
 100
AcDbEntity
   8
0
 370
-2
 100
AcDbLine
   6
BYBLOCK
  62
0
  10
0.0
  20
0.0
  30
0.0
  11
-1.0000000000000
  21
-0.16666666666667
  31
0.0
   0
LINE
   5
8B
 100
AcDbEntity
   8
0
 370
-2
 100
AcDbLine
   6
BYBLOCK
  62
0
  10
0.0
  20
0.0
  30
0.0
  11
-1.0000000000000
  21
0.0
  31
0.0
   0
ENDBLK
   5
8C
 100
AcDbEntity
   8
0
 100
AcDbBlockEnd
   0
BLOCK
   5
8D
 100
AcDbEntity
   8
0
 100
AcDbBlockBegin
   2
_OPEN30
  70
0
  10
0.0
  20
0.0
  30
0.0
   3
_OPEN30
   0
LINE
   5
8E
 100
AcDbEntity
   8
0
 370
-2
 100
AcDbLine
   6
BYBLOCK
  62
0
  10
-1.0000000000000
  20
 0.26794919243110
  30
0.0
  11
0.0
  21
0.0
  31
0.0
   0
LINE
   5
8F
 100
AcDbEntity
   8
0
 370
-2
 100
AcDbLine
   6
BYBLOCK
  62
0
  10
0.0
  20
0.0
  30
0.0
  11
-1.0000000000000
  21
-0.26794919243110
  31
0.0
   0
LINE
   5
90
 100
AcDbEntity
   8
0
 370
-2
 100
AcDbLine
   6
BYBLOCK
  62
0
  10
0.0
  20
0.0
  30
0.0
  11
-1.0000000000000
  21
0.0
  31
0.0
   0
ENDBLK
   5
91
 100
AcDbEntity
   8
0
 100
AcDbBlockEnd
   0
BLOCK
   5
92
 100
AcDbEntity
   8
0
 100
AcDbBlockBegin
   2
_OPEN90
  70
0
  10
0.0
  20
0.0
  30
0.0
   3
_OPEN90
   0
LINE
   5
93
 100
AcDbEntity
   8
0
 370
-2
 100
AcDbLine
   6
BYBLOCK
  62
0
  10
-0.50000000000000
  20
 0.50000000000000
  30
0.0
  11
0.0
  21
0.0
  31
0.0
   0
LINE
   5
94
 100
AcDbEntity
   8
0
 370
-2
 100
AcDbLine
   6
BYBLOCK
  62
0
  10
0.0
  20
0.0
  30
0.0
  11
-0.50000000000000
  21
-0.50000000000000
  31
0.0
   0
LINE
   5
95
 100
AcDbEntity
   8
0
 370
-2
 100
AcDbLine
   6
BYBLOCK
  62
0
  10
0.0
  20
0.0
  30
0.0
  11
-1.0000000000000
  21
0.0
  31
0.0
   0
ENDBLK
   5
96
 100
AcDbEntity
   8
0
 100
AcDbBlockEnd
   0
BLOCK
   5
97
 100
AcDbEntity
   8
0
 100
AcDbBlockBegin
   2
_CLOSEDBLANK
  70
0
  10
0.0
  20
0.0
  30
0.0
   3
_CLOSEDBLANK
   0
LINE
   5
98
 100
AcDbEntity
   8
0
 370
-2
 100
AcDbLine
   6
BYBLOCK
  62
0
  10
-1.0000000000000
  20
 0.16666666666667
  30
0.0
  11
0.0
  21
0.0
  31
0.0
   0
LINE
   5
99
 100
AcDbEntity
   8
0
 370
-2
 100
AcDbLine
   6
BYBLOCK
  62
0
  10
0.0
  20
0.0
  30
0.0
  11
-1.0000000000000
  21
-0.16666666666667
  31
0.0
   0
LINE
   5
9A
 100
AcDbEntity
   8
0
 370
-2
 100
AcDbLine
   6
BYBLOCK
  62
0
  10
-1.0000000000000
  20
 0.16666666666667
  30
0.0
  11
-1.0000000000000
  21
-0.16666666666667
  31
0.0
   0
ENDBLK
   5
9B
 100
AcDbEntity
   8
0
 100
AcDbBlockEnd
   0
BLOCK
   5
9C
 100
AcDbEntity
   8
0
 100
AcDbBlockBegin
   2
_DOT
  70
0
  10
0.0
  20
0.0
  30
0.0
   3
_DOT
   0
POLYLINE
   5
9D
 100
AcDbEntity
   8
0
 370
-2
   6
BYBLOCK
  62
0
 100
AcDb2dPolyline
  66
1
  10
0.0
  20
0.0
  30
0.0
  70
1
  40
 0.50000000000000
  41
 0.50000000000000
   0
VERTEX
   5
9E
 100
AcDbEntity
   8
0
   6
BYBLOCK
  62
0
 100
AcDbVertex
 100
AcDb2dVertex
  10
-0.25000000000000
  20
0.0
  30
0.0
  42
 1.0000000000000
  40
 0.50000000000000
  41
 0.50000000000000
   0
VERTEX
   5
9F
 100
AcDbEntity
   8
0
   6
BYBLOCK
  62
0
 100
AcDbVertex
 100
AcDb2dVertex
  10
 0.25000000000000
  20
0.0
  30
0.0
  42
 1.0000000000000
  40
 0.50000000000000
  41
 0.50000000000000
   0
SEQEND
   5
A0
 100
AcDbEntity
   8
0
   6
BYBLOCK
  62
0
   0
LINE
   5
A1
 100
AcDbEntity
   8
0
 370
-2
 100
AcDbLine
   6
BYBLOCK
  62
0
  10
-0.50000000000000
  20
0.0
  30
0.0
  11
-1.0000000000000
  21
0.0
  31
0.0
   0
ENDBLK
   5
A2
 100
AcDbEntity
   8
0
 100
AcDbBlockEnd
   0
BLOCK
   5
A3
 100
AcDbEntity
   8
0
 100
AcDbBlockBegin
   2
_DOTSMALL
  70
0
  10
0.0
  20
0.0
  30
0.0
   3
_DOTSMALL
   0
POLYLINE
   5
A4
 100
AcDbEntity
   8
0
 370
-2
   6
BYBLOCK
  62
0
 100
AcDb2dPolyline
  66
1
  10
0.0
  20
0.0
  30
0.0
  70
1
  40
 0.50000000000000
  41
 0.50000000000000
   0
VERTEX
   5
A5
 100
AcDbEntity
   8
0
   6
BYBLOCK
  62
0
 100
AcDbVertex
 100
AcDb2dVertex
  10
-0.62500000000000E-1
  20
0.0
  30
0.0
  42
 1.0000000000000
  40
 0.50000000000000
  41
 0.50000000000000
   0
VERTEX
   5
A6
 100
AcDbEntity
   8
0
   6
BYBLOCK
  62
0
 100
AcDbVertex
 100
AcDb2dVertex
  10
 0.62500000000000E-1
  20
0.0
  30
0.0
  42
 1.0000000000000
  40
 0.50000000000000
  41
 0.50000000000000
   0
SEQEND
   5
A7
 100
AcDbEntity
   8
0
   6
BYBLOCK
  62
0
   0
ENDBLK
   5
A8
 100
AcDbEntity
   8
0
 100
AcDbBlockEnd
   0
BLOCK
   5
A9
 100
AcDbEntity
   8
0
 100
AcDbBlockBegin
   2
_DATUMBLANK
  70
0
  10
0.0
  20
0.0
  30
0.0
   3
_DATUMBLANK
   0
LINE
   5
AA
 100
AcDbEntity
   8
0
 370
-2
 100
AcDbLine
   6
BYBLOCK
  62
0
  10
0.0
  20
 0.57735027000000
  30
0.0
  11
-1.0000000000000
  21
0.0
  31
0.0
   0
LINE
   5
AB
 100
AcDbEntity
   8
0
 370
-2
 100
AcDbLine
   6
BYBLOCK
  62
0
  10
-1.0000000000000
  20
0.0
  30
0.0
  11
0.0
  21
-0.57735027000000
  31
0.0
   0
LINE
   5
AC
 100
AcDbEntity
   8
0
 370
-2
 100
AcDbLine
   6
BYBLOCK
  62
0
  10
0.0
  20
-0.57735027000000
  30
0.0
  11
0.0
  21
 0.57735027000000
  31
0.0
   0
ENDBLK
   5
AD
 100
AcDbEntity
   8
0
 100
AcDbBlockEnd
   0
BLOCK
   5
AE
 100
AcDbEntity
   8
0
 100
AcDbBlockBegin
   2
_DATUMFILLED
  70
0
  10
0.0
  20
0.0
  30
0.0
   3
_DATUMFILLED
   0
SOLID
   5
AF
 100
AcDbEntity
   8
0
 100
AcDbTrace
   6
BYBLOCK
  62
0
  10
0.0
  20
 0.57735027000000
  30
0.0
  11
-1.0000000000000
  21
0.0
  31
0.0
  12
0.0
  22
-0.57735027000000
  32
0.0
  13
0.0
  23
-0.57735027000000
  33
0.0
   0
ENDBLK
   5
B0
 100
AcDbEntity
   8
0
 100
AcDbBlockEnd
   0
BLOCK
   5
B1
 100
AcDbEntity
   8
0
 100
AcDbBlockBegin
   2
_ORIGIN
  70
0
  10
0.0
  20
0.0
  30
0.0
   3
_ORIGIN
   0
CIRCLE
   5
B2
 100
AcDbEntity
   8
0
 370
-2
 100
AcDbCircle
   6
BYBLOCK
  62
0
  10
0.0
  20
0.0
  30
0.0
  40
 0.50000000000000
   0
LINE
   5
B3
 100
AcDbEntity
   8
0
 370
-2
 100
AcDbLine
   6
BYBLOCK
  62
0
  10
0.0
  20
0.0
  30
0.0
  11
-1.0000000000000
  21
0.0
  31
0.0
   0
ENDBLK
   5
B4
 100
AcDbEntity
   8
0
 100
AcDbBlockEnd
   0
BLOCK
   5
B5
 100
AcDbEntity
   8
0
 100
AcDbBlockBegin
   2
_NONE
  70
0
  10
0.0
  20
0.0
  30
0.0
   3
_NONE
   0
CIRCLE
   5
B6
 100
AcDbEntity
   8
0
 370
-2
 100
AcDbCircle
   6
BYBLOCK
  62
0
  10
0.0
  20
0.0
  30
0.0
  40
 0.25000000000000
   0
ENDBLK
   5
B7
 100
AcDbEntity
   8
0
 100
AcDbBlockEnd
   0
BLOCK
   5
B8
 100
AcDbEntity
   8
0
 100
AcDbBlockBegin
   2
_DOTBLANK
  70
0
  10
0.0
  20
0.0
  30
0.0
   3
_DOTBLANK
   0
CIRCLE
   5
B9
 100
AcDbEntity
   8
0
 370
-2
 100
AcDbCircle
   6
BYBLOCK
  62
0
  10
0.0
  20
0.0
  30
0.0
  40
 0.50000000000000
   0
LINE
   5
BA
 100
AcDbEntity
   8
0
 370
-2
 100
AcDbLine
   6
BYBLOCK
  62
0
  10
-0.50000000000000
  20
0.0
  30
0.0
  11
-1.0000000000000
  21
0.0
  31
0.0
   0
ENDBLK
   5
BB
 100
AcDbEntity
   8
0
 100
AcDbBlockEnd
   0
BLOCK
   5
BC
 100
AcDbEntity
   8
0
 100
AcDbBlockBegin
   2
_INTEGRAL
  70
0
  10
0.0
  20
0.0
  30
0.0
   3
_INTEGRAL
   0
ARC
   5
BD
 100
AcDbEntity
   8
0
 370
-2
   6
BYBLOCK
  62
0
 100
AcDbCircle
  10
 0.44488800000000
  20
-0.91335000000000E-1
  30
0.0
  40
 0.45416700000000
 100
AcDbArc
  50
 102.00000000000
  51
 168.00000000000
   0
ARC
   5
BE
 100
AcDbEntity
   8
0
 370
-2
   6
BYBLOCK
  62
0
 100
AcDbCircle
  10
-0.44488800000000
  20
 0.91335000000000E-1
  30
0.0
  40
 0.45416700000000
 100
AcDbArc
  50
 282.00000000000
  51
 348.00000000000
   0
ENDBLK
   5
BF
 100
AcDbEntity
   8
0
 100
AcDbBlockEnd
   0
BLOCK
   5
C0
 100
AcDbEntity
   8
0
 100
AcDbBlockBegin
   2
*D1
  70
65
  10
0.0
  20
0.0
  30
0.0
   3
*D1
   0
LINE
   5
C1
 100
AcDbEntity
   8
LEVEL001
 370
15
 100
AcDbLine
   6
CONTINUOUS
  62
8
  10
 90.254711529590
  20
 441.50000000000
  30
0.0
  11
 78.999999999900
  21
 441.50000000000
  31
0.0
   0
LINE
   5
C2
 100
AcDbEntity
   8
LEVEL001
 370
15
 100
AcDbLine
   6
CONTINUOUS
  62
8
  10
 89.783493323432
  20
 459.50000000000
  30
0.0
  11
 78.999999999900
  21
 459.50000000000
  31
0.0
   0
LINE
   5
C3
 100
AcDbEntity
   8
LEVEL001
 370
15
 100
AcDbLine
   6
CONTINUOUS
  62
8
  10
 80.999999999900
  20
 441.50000000000
  30
0.0
  11
 80.999999999900
  21
 450.50000000000
  31
0.0
   0
LINE
   5
C4
 100
AcDbEntity
   8
LEVEL001
 370
15
 100
AcDbLine
   6
CONTINUOUS
  62
8
  10
 80.999999999900
  20
 459.50000000000
  30
0.0
  11
 80.999999999900
  21
 450.50000000000
  31
0.0
   0
INSERT
   5
C5
 100
AcDbEntity
   8
LEVEL001
   6
CONTINUOUS
  62
8
 100
AcDbBlockReference
   2
_DOT
  10
 80.999999999900
  20
 441.50000000000
  30
0.0
  41
 0.80000000000000
  42
 0.80000000000000
  43
 0.80000000000000
  50
 270.00000000000
   0
INSERT
   5
C6
 100
AcDbEntity
   8
LEVEL001
   6
CONTINUOUS
  62
8
 100
AcDbBlockReference
   2
_DOT
  10
 80.999999999900
  20
 459.50000000000
  30
0.0
  41
 0.80000000000000
  42
 0.80000000000000
  43
 0.80000000000000
  50
 90.000000000000
   0
MTEXT
   5
C7
 100
AcDbEntity
   8
LEVEL001
 370
15
  62
8
 100
AcDbMText
  10
 78.999999999900
  20
 456.50000000000
  30
0.0
  40
 6.0000000000000
  41
0.0
  71
8
  72
1
   1
\A1;18
   7
GMM002
  11
0.0
  21
 1.0000000000000
  31
0.0
  44
 0.79999984000003
   0
ENDBLK
   5
C8
 100
AcDbEntity
   8
0
 100
AcDbBlockEnd
   0
BLOCK
   5
C9
 100
AcDbEntity
   8
0
 100
AcDbBlockBegin
   2
*D2
  70
65
  10
0.0
  20
0.0
  30
0.0
   3
*D2
   0
LINE
   5
CA
 100
AcDbEntity
   8
LEVEL001
 370
15
 100
AcDbLine
   6
CONTINUOUS
  62
8
  10
 90.999999999900
  20
 463.50000000000
  30
0.0
  11
 90.999999999900
  21
 471.49674943660
  31
0.0
   0
LINE
   5
CB
 100
AcDbEntity
   8
LEVEL001
 370
15
 100
AcDbLine
   6
CONTINUOUS
  62
8
  10
 125.99999999990
  20
 460.43768146858
  30
0.0
  11
 125.99999999990
  21
 471.49674943660
  31
0.0
   0
LINE
   5
CC
 100
AcDbEntity
   8
LEVEL001
 370
15
 100
AcDbLine
   6
CONTINUOUS
  62
8
  10
 90.999999999900
  20
 469.49674943660
  30
0.0
  11
 108.49999999990
  21
 469.49674943660
  31
0.0
   0
LINE
   5
CD
 100
AcDbEntity
   8
LEVEL001
 370
15
 100
AcDbLine
   6
CONTINUOUS
  62
8
  10
 125.99999999990
  20
 469.49674943660
  30
0.0
  11
 108.49999999990
  21
 469.49674943660
  31
0.0
   0
INSERT
   5
CE
 100
AcDbEntity
   8
LEVEL001
   6
CONTINUOUS
  62
8
 100
AcDbBlockReference
   2
_DOT
  10
 90.999999999900
  20
 469.49674943660
  30
0.0
  41
 0.80000000000000
  42
 0.80000000000000
  43
 0.80000000000000
  50
 180.00000000000
   0
INSERT
   5
CF
 100
AcDbEntity
   8
LEVEL001
   6
CONTINUOUS
  62
8
 100
AcDbBlockReference
   2
_DOT
  10
 125.99999999990
  20
 469.49674943660
  30
0.0
  41
 0.80000000000000
  42
 0.80000000000000
  43
 0.80000000000000
  50
0.0
   0
MTEXT
   5
D0
 100
AcDbEntity
   8
LEVEL001
 370
15
  62
8
 100
AcDbMText
  10
 108.49999999990
  20
 471.49674943660
  30
0.0
  40
 6.0000000000000
  41
0.0
  71
8
  72
1
   1
\A1;35
   7
GMM002
   0
ENDBLK
   5
D1
 100
AcDbEntity
   8
0
 100
AcDbBlockEnd
   0
BLOCK
   5
D2
 100
AcDbEntity
   8
0
 100
AcDbBlockBegin
   2
*D3
  70
65
  10
0.0
  20
0.0
  30
0.0
   3
*D3
   0
LINE
   5
D3
 100
AcDbEntity
   8
LEVEL001
 370
15
 100
AcDbLine
   6
CONTINUOUS
  62
8
  10
 126.67452411327
  20
 459.49674943660
  30
0.0
  11
 139.99999999990
  21
 459.49674943660
  31
0.0
   0
LINE
   5
D4
 100
AcDbEntity
   8
LEVEL001
 370
15
 100
AcDbLine
   6
CONTINUOUS
  62
8
  10
 127.14574231943
  20
 454.49674943660
  30
0.0
  11
 139.99999999990
  21
 454.49674943660
  31
0.0
   0
LINE
   5
D5
 100
AcDbEntity
   8
LEVEL001
 370
15
 100
AcDbLine
   6
CONTINUOUS
  62
8
  10
 137.99999999990
  20
 466.22831065198
  30
0.0
  11
 137.99999999990
  21
 456.99674943660
  31
0.0
   0
LINE
   5
D6
 100
AcDbEntity
   8
LEVEL001
 370
15
 100
AcDbLine
   6
CONTINUOUS
  62
8
  10
 137.99999999990
  20
 454.49674943660
  30
0.0
  11
 137.99999999990
  21
 456.99674943660
  31
0.0
   0
INSERT
   5
D7
 100
AcDbEntity
   8
LEVEL001
   6
CONTINUOUS
  62
8
 100
AcDbBlockReference
   2
_DOT
  10
 137.99999999990
  20
 459.49674943660
  30
0.0
  41
 0.80000000000000
  42
 0.80000000000000
  43
 0.80000000000000
  50
 90.000000000000
   0
INSERT
   5
D8
 100
AcDbEntity
   8
LEVEL001
   6
CONTINUOUS
  62
8
 100
AcDbBlockReference
   2
_DOT
  10
 137.99999999990
  20
 454.49674943660
  30
0.0
  41
 0.80000000000000
  42
 0.80000000000000
  43
 0.80000000000000
  50
 270.00000000000
   0
MTEXT
   5
D9
 100
AcDbEntity
   8
LEVEL001
 370
15
  62
8
 100
AcDbMText
  10
 136.07800470229
  20
 460.22831065198
  30
0.0
  40
 6.0000000000000
  41
0.0
  71
7
  72
1
   1
\A1;5
   7
GMM002
  11
0.0
  21
 1.0000000000000
  31
0.0
   0
ENDBLK
   5
DA
 100
AcDbEntity
   8
0
 100
AcDbBlockEnd
   0
BLOCK
   5
DB
 100
AcDbEntity
   8
0
 100
AcDbBlockBegin
   2
*D10
  70
65
  10
0.0
  20
0.0
  30
0.0
   3
*D10
   0
LINE
   5
DC
 100
AcDbEntity
   8
LEVEL001
 370
15
 100
AcDbLine
   6
CONTINUOUS
  62
8
  10
 133.49999999990
  20
 323.00000000000
  30
0.0
  11
 145.49999999990
  21
 323.00000000000
  31
0.0
   0
LINE
   5
DD
 100
AcDbEntity
   8
LEVEL001
 370
15
 100
AcDbLine
   6
CONTINUOUS
  62
8
  10
 133.49999999990
  20
 318.00000000000
  30
0.0
  11
 145.49999999990
  21
 318.00000000000
  31
0.0
   0
LINE
   5
DE
 100
AcDbEntity
   8
LEVEL001
 370
15
 100
AcDbLine
   6
CONTINUOUS
  62
8
  10
 143.49999999990
  20
 323.00000000000
  30
0.0
  11
 143.49999999990
  21
 320.50000000000
  31
0.0
   0
LINE
   5
DF
 100
AcDbEntity
   8
LEVEL001
 370
15
 100
AcDbLine
   6
CONTINUOUS
  62
8
  10
 143.49999999990
  20
 318.00000000000
  30
0.0
  11
 143.49999999990
  21
 320.50000000000
  31
0.0
   0
INSERT
   5
E0
 100
AcDbEntity
   8
LEVEL001
   6
CONTINUOUS
  62
8
 100
AcDbBlockReference
   2
_DOT
  10
 143.49999999990
  20
 323.00000000000
  30
0.0
  41
 0.80000000000000
  42
 0.80000000000000
  43
 0.80000000000000
  50
 90.000000000000
   0
INSERT
   5
E1
 100
AcDbEntity
   8
LEVEL001
   6
CONTINUOUS
  62
8
 100
AcDbBlockReference
   2
_DOT
  10
 143.49999999990
  20
 318.00000000000
  30
0.0
  41
 0.80000000000000
  42
 0.80000000000000
  43
 0.80000000000000
  50
 270.00000000000
   0
MTEXT
   5
E2
 100
AcDbEntity
   8
LEVEL001
 370
15
  62
8
 100
AcDbMText
  10
 141.49999999990
  20
 320.50000000000
  30
0.0
  40
 6.0000000000000
  41
0.0
  71
8
  72
1
   1
\A1;5
   7
GMM002
  11
0.0
  21
 1.0000000000000
  31
0.0
   0
ENDBLK
   5
E3
 100
AcDbEntity
   8
0
 100
AcDbBlockEnd
   0
BLOCK
   5
E4
 100
AcDbEntity
   8
0
 100
AcDbBlockBegin
   2
*D11
  70
65
  10
0.0
  20
0.0
  30
0.0
   3
*D11
   0
LINE
   5
E5
 100
AcDbEntity
   8
LEVEL001
 370
15
 100
AcDbLine
   6
CONTINUOUS
  62
8
  10
 90.999999999900
  20
 327.41238928740
  30
0.0
  11
 90.999999999900
  21
 335.00000000000
  31
0.0
   0
LINE
   5
E6
 100
AcDbEntity
   8
LEVEL001
 370
15
 100
AcDbLine
   6
CONTINUOUS
  62
8
  10
 131.49999999990
  20
 326.59340126406
  30
0.0
  11
 131.49999999990
  21
 335.00000000000
  31
0.0
   0
LINE
   5
E7
 100
AcDbEntity
   8
LEVEL001
 370
15
 100
AcDbLine
   6
CONTINUOUS
  62
8
  10
 90.999999999900
  20
 333.00000000000
  30
0.0
  11
 111.24999999990
  21
 333.00000000000
  31
0.0
   0
LINE
   5
E8
 100
AcDbEntity
   8
LEVEL001
 370
15
 100
AcDbLine
   6
CONTINUOUS
  62
8
  10
 131.49999999990
  20
 333.00000000000
  30
0.0
  11
 111.24999999990
  21
 333.00000000000
  31
0.0
   0
INSERT
   5
E9
 100
AcDbEntity
   8
LEVEL001
   6
CONTINUOUS
  62
8
 100
AcDbBlockReference
   2
_DOT
  10
 90.999999999900
  20
 333.00000000000
  30
0.0
  41
 0.80000000000000
  42
 0.80000000000000
  43
 0.80000000000000
  50
 180.00000000000
   0
INSERT
   5
EA
 100
AcDbEntity
   8
LEVEL001
   6
CONTINUOUS
  62
8
 100
AcDbBlockReference
   2
_DOT
  10
 131.49999999990
  20
 333.00000000000
  30
0.0
  41
 0.80000000000000
  42
 0.80000000000000
  43
 0.80000000000000
  50
0.0
   0
MTEXT
   5
EB
 100
AcDbEntity
   8
LEVEL001
 370
15
  62
8
 100
AcDbMText
  10
 111.24999999990
  20
 335.00000000000
  30
0.0
  40
 6.0000000000000
  41
0.0
  71
8
  72
1
   1
\A1;40.5
   7
GMM002
   0
ENDBLK
   5
EC
 100
AcDbEntity
   8
0
 100
AcDbBlockEnd
   0
BLOCK
   5
ED
 100
AcDbEntity
   8
0
 100
AcDbBlockBegin
   2
*D12
  70
65
  10
0.0
  20
0.0
  30
0.0
   3
*D12
   0
LINE
   5
EE
 100
AcDbEntity
   8
LEVEL001
 370
15
 100
AcDbLine
   6
CONTINUOUS
  62
8
  10
 88.999999999900
  20
 323.00000000000
  30
0.0
  11
 78.999999999900
  21
 323.00000000000
  31
0.0
   0
LINE
   5
EF
 100
AcDbEntity
   8
LEVEL001
 370
15
 100
AcDbLine
   6
CONTINUOUS
  62
8
  10
 88.999999999900
  20
 305.00000000000
  30
0.0
  11
 78.999999999900
  21
 305.00000000000
  31
0.0
   0
LINE
   5
F0
 100
AcDbEntity
   8
LEVEL001
 370
15
 100
AcDbLine
   6
CONTINUOUS
  62
8
  10
 80.999999999900
  20
 323.00000000000
  30
0.0
  11
 80.999999999900
  21
 314.00000000000
  31
0.0
   0
LINE
   5
F1
 100
AcDbEntity
   8
LEVEL001
 370
15
 100
AcDbLine
   6
CONTINUOUS
  62
8
  10
 80.999999999900
  20
 305.00000000000
  30
0.0
  11
 80.999999999900
  21
 314.00000000000
  31
0.0
   0
INSERT
   5
F2
 100
AcDbEntity
   8
LEVEL001
   6
CONTINUOUS
  62
8
 100
AcDbBlockReference
   2
_DOT
  10
 80.999999999900
  20
 323.00000000000
  30
0.0
  41
 0.80000000000000
  42
 0.80000000000000
  43
 0.80000000000000
  50
 90.000000000000
   0
INSERT
   5
F3
 100
AcDbEntity
   8
LEVEL001
   6
CONTINUOUS
  62
8
 100
AcDbBlockReference
   2
_DOT
  10
 80.999999999900
  20
 305.00000000000
  30
0.0
  41
 0.80000000000000
  42
 0.80000000000000
  43
 0.80000000000000
  50
 270.00000000000
   0
MTEXT
   5
F4
 100
AcDbEntity
   8
LEVEL001
 370
15
  62
8
 100
AcDbMText
  10
 78.999999999900
  20
 314.00000000000
  30
0.0
  40
 6.0000000000000
  41
0.0
  71
8
  72
1
   1
\A1;18
   7
GMM002
  11
0.0
  21
 1.0000000000000
  31
0.0
   0
ENDBLK
   5
F5
 100
AcDbEntity
   8
0
 100
AcDbBlockEnd
   0
BLOCK
   5
F6
 100
AcDbEntity
   8
0
 100
AcDbBlockBegin
   2
*D13
  70
65
  10
0.0
  20
0.0
  30
0.0
   3
*D13
   0
LINE
   5
F7
 100
AcDbEntity
   8
LEVEL001
 370
15
 100
AcDbLine
   6
CONTINUOUS
  62
8
  10
 235.49999999989
  20
 327.00000000000
  30
0.0
  11
 235.49999999989
  21
 335.00000000000
  31
0.0
   0
LINE
   5
F8
 100
AcDbEntity
   8
LEVEL001
 370
15
 100
AcDbLine
   6
CONTINUOUS
  62
8
  10
 275.99999999989
  20
 329.60000000000
  30
0.0
  11
 275.99999999989
  21
 335.00000000000
  31
0.0
   0
LINE
   5
F9
 100
AcDbEntity
   8
LEVEL001
 370
15
 100
AcDbLine
   6
CONTINUOUS
  62
8
  10
 235.49999999989
  20
 333.00000000000
  30
0.0
  11
 255.74999999989
  21
 333.00000000000
  31
0.0
   0
LINE
   5
FA
 100
AcDbEntity
   8
LEVEL001
 370
15
 100
AcDbLine
   6
CONTINUOUS
  62
8
  10
 275.99999999989
  20
 333.00000000000
  30
0.0
  11
 255.74999999989
  21
 333.00000000000
  31
0.0
   0
INSERT
   5
FB
 100
AcDbEntity
   8
LEVEL001
   6
CONTINUOUS
  62
8
 100
AcDbBlockReference
   2
_DOT
  10
 235.49999999989
  20
 333.00000000000
  30
0.0
  41
 0.80000000000000
  42
 0.80000000000000
  43
 0.80000000000000
  50
 180.00000000000
   0
INSERT
   5
FC
 100
AcDbEntity
   8
LEVEL001
   6
CONTINUOUS
  62
8
 100
AcDbBlockReference
   2
_DOT
  10
 275.99999999989
  20
 333.00000000000
  30
0.0
  41
 0.80000000000000
  42
 0.80000000000000
  43
 0.80000000000000
  50
0.0
   0
MTEXT
   5
FD
 100
AcDbEntity
   8
LEVEL001
 370
15
  62
8
 100
AcDbMText
  10
 255.74999999989
  20
 335.00000000000
  30
0.0
  40
 6.0000000000000
  41
0.0
  71
8
  72
1
   1
\A1;40.5
   7
GMM002
   0
ENDBLK
   5
FE
 100
AcDbEntity
   8
0
 100
AcDbBlockEnd
   0
BLOCK
   5
FF
 100
AcDbEntity
   8
0
 100
AcDbBlockBegin
   2
*D14
  70
65
  10
0.0
  20
0.0
  30
0.0
   3
*D14
   0
LINE
   5
100
 100
AcDbEntity
   8
LEVEL001
 370
15
 100
AcDbLine
   6
CONTINUOUS
  62
8
  10
 231.49999999989
  20
 323.00000000000
  30
0.0
  11
 223.49999999989
  21
 323.00000000000
  31
0.0
   0
LINE
   5
101
 100
AcDbEntity
   8
LEVEL001
 370
15
 100
AcDbLine
   6
CONTINUOUS
  62
8
  10
 231.49999999989
  20
 305.00000000000
  30
0.0
  11
 223.49999999989
  21
 305.00000000000
  31
0.0
   0
LINE
   5
102
 100
AcDbEntity
   8
LEVEL001
 370
15
 100
AcDbLine
   6
CONTINUOUS
  62
8
  10
 225.49999999989
  20
 323.00000000000
  30
0.0
  11
 225.49999999989
  21
 314.00000000000
  31
0.0
   0
LINE
   5
103
 100
AcDbEntity
   8
LEVEL001
 370
15
 100
AcDbLine
   6
CONTINUOUS
  62
8
  10
 225.49999999989
  20
 305.00000000000
  30
0.0
  11
 225.49999999989
  21
 314.00000000000
  31
0.0
   0
INSERT
   5
104
 100
AcDbEntity
   8
LEVEL001
   6
CONTINUOUS
  62
8
 100
AcDbBlockReference
   2
_DOT
  10
 225.49999999989
  20
 323.00000000000
  30
0.0
  41
 0.80000000000000
  42
 0.80000000000000
  43
 0.80000000000000
  50
 90.000000000000
   0
INSERT
   5
105
 100
AcDbEntity
   8
LEVEL001
   6
CONTINUOUS
  62
8
 100
AcDbBlockReference
   2
_DOT
  10
 225.49999999989
  20
 305.00000000000
  30
0.0
  41
 0.80000000000000
  42
 0.80000000000000
  43
 0.80000000000000
  50
 270.00000000000
   0
MTEXT
   5
106
 100
AcDbEntity
   8
LEVEL001
 370
15
  62
8
 100
AcDbMText
  10
 223.49999999989
  20
 314.00000000000
  30
0.0
  40
 6.0000000000000
  41
0.0
  71
8
  72
1
   1
\A1;18
   7
GMM002
  11
0.0
  21
 1.0000000000000
  31
0.0
   0
ENDBLK
   5
107
 100
AcDbEntity
   8
0
 100
AcDbBlockEnd
   0
BLOCK
   5
108
 100
AcDbEntity
   8
0
 100
AcDbBlockBegin
   2
*D17
  70
65
  10
0.0
  20
0.0
  30
0.0
   3
*D17
   0
LINE
   5
109
 100
AcDbEntity
   8
LEVEL001
 370
15
 100
AcDbLine
   6
CONTINUOUS
  62
8
  10
 379.99999999989
  20
 327.00000000000
  30
0.0
  11
 379.99999999989
  21
 335.00000000000
  31
0.0
   0
LINE
   5
10A
 100
AcDbEntity
   8
LEVEL001
 370
15
 100
AcDbLine
   6
CONTINUOUS
  62
8
  10
 434.37505587429
  20
 323.16414461421
  30
0.0
  11
 434.37505587429
  21
 335.00000000000
  31
0.0
   0
LINE
   5
10B
 100
AcDbEntity
   8
LEVEL001
 370
15
 100
AcDbLine
   6
CONTINUOUS
  62
8
  10
 379.99999999989
  20
 333.00000000000
  30
0.0
  11
 407.18752793709
  21
 333.00000000000
  31
0.0
   0
LINE
   5
10C
 100
AcDbEntity
   8
LEVEL001
 370
15
 100
AcDbLine
   6
CONTINUOUS
  62
8
  10
 434.37505587429
  20
 333.00000000000
  30
0.0
  11
 407.18752793709
  21
 333.00000000000
  31
0.0
   0
INSERT
   5
10D
 100
AcDbEntity
   8
LEVEL001
   6
CONTINUOUS
  62
8
 100
AcDbBlockReference
   2
_DOT
  10
 379.99999999989
  20
 333.00000000000
  30
0.0
  41
 0.80000000000000
  42
 0.80000000000000
  43
 0.80000000000000
  50
 180.00000000000
   0
INSERT
   5
10E
 100
AcDbEntity
   8
LEVEL001
   6
CONTINUOUS
  62
8
 100
AcDbBlockReference
   2
_DOT
  10
 434.37505587429
  20
 333.00000000000
  30
0.0
  41
 0.80000000000000
  42
 0.80000000000000
  43
 0.80000000000000
  50
0.0
   0
MTEXT
   5
10F
 100
AcDbEntity
   8
LEVEL001
 370
15
  62
8
 100
AcDbMText
  10
 407.18752793709
  20
 335.00000000000
  30
0.0
  40
 6.0000000000000
  41
0.0
  71
8
  72
1
   1
\A1;55
   7
GMM002
   0
ENDBLK
   5
110
 100
AcDbEntity
   8
0
 100
AcDbBlockEnd
   0
BLOCK
   5
111
 100
AcDbEntity
   8
0
 100
AcDbBlockBegin
   2
*D18
  70
65
  10
0.0
  20
0.0
  30
0.0
   3
*D18
   0
LINE
   5
112
 100
AcDbEntity
   8
LEVEL001
 370
15
 100
AcDbLine
   6
CONTINUOUS
  62
8
  10
 438.37505587429
  20
 323.00000000000
  30
0.0
  11
 448.37505587429
  21
 323.00000000000
  31
0.0
   0
LINE
   5
113
 100
AcDbEntity
   8
LEVEL001
 370
15
 100
AcDbLine
   6
CONTINUOUS
  62
8
  10
 438.37505587429
  20
 318.00000000000
  30
0.0
  11
 448.37505587429
  21
 318.00000000000
  31
0.0
   0
LINE
   5
114
 100
AcDbEntity
   8
LEVEL001
 370
15
 100
AcDbLine
   6
CONTINUOUS
  62
8
  10
 446.37505587429
  20
 323.00000000000
  30
0.0
  11
 446.37505587429
  21
 320.50000000000
  31
0.0
   0
LINE
   5
115
 100
AcDbEntity
   8
LEVEL001
 370
15
 100
AcDbLine
   6
CONTINUOUS
  62
8
  10
 446.37505587429
  20
 318.00000000000
  30
0.0
  11
 446.37505587429
  21
 320.50000000000
  31
0.0
   0
INSERT
   5
116
 100
AcDbEntity
   8
LEVEL001
   6
CONTINUOUS
  62
8
 100
AcDbBlockReference
   2
_DOT
  10
 446.37505587429
  20
 323.00000000000
  30
0.0
  41
 0.80000000000000
  42
 0.80000000000000
  43
 0.80000000000000
  50
 90.000000000000
   0
INSERT
   5
117
 100
AcDbEntity
   8
LEVEL001
   6
CONTINUOUS
  62
8
 100
AcDbBlockReference
   2
_DOT
  10
 446.37505587429
  20
 318.00000000000
  30
0.0
  41
 0.80000000000000
  42
 0.80000000000000
  43
 0.80000000000000
  50
 270.00000000000
   0
MTEXT
   5
118
 100
AcDbEntity
   8
LEVEL001
 370
15
  62
8
 100
AcDbMText
  10
 444.37505587429
  20
 326.50000000000
  30
0.0
  40
 6.0000000000000
  41
0.0
  71
8
  72
1
   1
\A1;5
   7
GMM002
  11
0.0
  21
 1.0000000000000
  31
0.0
  44
 0.79999984000003
   0
ENDBLK
   5
119
 100
AcDbEntity
   8
0
 100
AcDbBlockEnd
   0
BLOCK
   5
11A
 100
AcDbEntity
   8
0
 100
AcDbBlockBegin
   2
*D19
  70
65
  10
0.0
  20
0.0
  30
0.0
   3
*D19
   0
LINE
   5
11B
 100
AcDbEntity
   8
LEVEL001
 370
15
 100
AcDbLine
   6
CONTINUOUS
  62
8
  10
 448.37505587429
  20
 318.00000000000
  30
0.0
  11
 460.37505587429
  21
 318.00000000000
  31
0.0
   0
LINE
   5
11C
 100
AcDbEntity
   8
LEVEL001
 370
15
 100
AcDbLine
   6
CONTINUOUS
  62
8
  10
 438.37505587429
  20
 328.00000000000
  30
0.0
  11
 460.37505587429
  21
 328.00000000000
  31
0.0
   0
LINE
   5
11D
 100
AcDbEntity
   8
LEVEL001
 370
15
 100
AcDbLine
   6
CONTINUOUS
  62
8
  10
 458.37505587429
  20
 318.00000000000
  30
0.0
  11
 458.37505587429
  21
 323.00000000000
  31
0.0
   0
LINE
   5
11E
 100
AcDbEntity
   8
LEVEL001
 370
15
 100
AcDbLine
   6
CONTINUOUS
  62
8
  10
 458.37505587429
  20
 328.00000000000
  30
0.0
  11
 458.37505587429
  21
 323.00000000000
  31
0.0
   0
INSERT
   5
11F
 100
AcDbEntity
   8
LEVEL001
   6
CONTINUOUS
  62
8
 100
AcDbBlockReference
   2
_DOT
  10
 458.37505587429
  20
 318.00000000000
  30
0.0
  41
 0.80000000000000
  42
 0.80000000000000
  43
 0.80000000000000
  50
 270.00000000000
   0
INSERT
   5
120
 100
AcDbEntity
   8
LEVEL001
   6
CONTINUOUS
  62
8
 100
AcDbBlockReference
   2
_DOT
  10
 458.37505587429
  20
 328.00000000000
  30
0.0
  41
 0.80000000000000
  42
 0.80000000000000
  43
 0.80000000000000
  50
 90.000000000000
   0
MTEXT
   5
121
 100
AcDbEntity
   8
LEVEL001
 370
15
  62
8
 100
AcDbMText
  10
 456.37505587429
  20
 323.00000000000
  30
0.0
  40
 6.0000000000000
  41
0.0
  71
8
  72
1
   1
\A1;10
   7
GMM002
  11
0.0
  21
 1.0000000000000
  31
0.0
   0
ENDBLK
   5
122
 100
AcDbEntity
   8
0
 100
AcDbBlockEnd
   0
BLOCK
   5
123
 100
AcDbEntity
   8
0
 100
AcDbBlockBegin
   2
*D20
  70
65
  10
0.0
  20
0.0
  30
0.0
   3
*D20
   0
LINE
   5
124
 100
AcDbEntity
   8
LEVEL001
 370
15
 100
AcDbLine
   6
CONTINUOUS
  62
8
  10
 375.99999999989
  20
 305.00000000000
  30
0.0
  11
 367.99999999989
  21
 305.00000000000
  31
0.0
   0
LINE
   5
125
 100
AcDbEntity
   8
LEVEL001
 370
15
 100
AcDbLine
   6
CONTINUOUS
  62
8
  10
 375.99999999989
  20
 323.00000000000
  30
0.0
  11
 367.99999999989
  21
 323.00000000000
  31
0.0
   0
LINE
   5
126
 100
AcDbEntity
   8
LEVEL001
 370
15
 100
AcDbLine
   6
CONTINUOUS
  62
8
  10
 369.99999999989
  20
 305.00000000000
  30
0.0
  11
 369.99999999989
  21
 314.00000000000
  31
0.0
   0
LINE
   5
127
 100
AcDbEntity
   8
LEVEL001
 370
15
 100
AcDbLine
   6
CONTINUOUS
  62
8
  10
 369.99999999989
  20
 323.00000000000
  30
0.0
  11
 369.99999999989
  21
 314.00000000000
  31
0.0
   0
INSERT
   5
128
 100
AcDbEntity
   8
LEVEL001
   6
CONTINUOUS
  62
8
 100
AcDbBlockReference
   2
_DOT
  10
 369.99999999989
  20
 305.00000000000
  30
0.0
  41
 0.80000000000000
  42
 0.80000000000000
  43
 0.80000000000000
  50
 270.00000000000
   0
INSERT
   5
129
 100
AcDbEntity
   8
LEVEL001
   6
CONTINUOUS
  62
8
 100
AcDbBlockReference
   2
_DOT
  10
 369.99999999989
  20
 323.00000000000
  30
0.0
  41
 0.80000000000000
  42
 0.80000000000000
  43
 0.80000000000000
  50
 90.000000000000
   0
MTEXT
   5
12A
 100
AcDbEntity
   8
LEVEL001
 370
15
  62
8
 100
AcDbMText
  10
 367.99999999989
  20
 314.00000000000
  30
0.0
  40
 6.0000000000000
  41
0.0
  71
8
  72
1
   1
\A1;18
   7
GMM002
  11
0.0
  21
 1.0000000000000
  31
0.0
   0
ENDBLK
   5
12B
 100
AcDbEntity
   8
0
 100
AcDbBlockEnd
   0
BLOCK
   5
12C
 100
AcDbEntity
   8
0
 100
AcDbBlockBegin
   2
*D23
  70
65
  10
0.0
  20
0.0
  30
0.0
   3
*D23
   0
LINE
   5
12D
 100
AcDbEntity
   8
LEVEL001
 370
15
 100
AcDbLine
   6
CONTINUOUS
  62
8
  10
 90.999999999900
  20
 194.50000000000
  30
0.0
  11
 90.999999999900
  21
 202.50000000000
  31
0.0
   0
LINE
   5
12E
 100
AcDbEntity
   8
LEVEL001
 370
15
 100
AcDbLine
   6
CONTINUOUS
  62
8
  10
 140.99999999990
  20
 194.50000000000
  30
0.0
  11
 140.99999999990
  21
 202.50000000000
  31
0.0
   0
LINE
   5
12F
 100
AcDbEntity
   8
LEVEL001
 370
15
 100
AcDbLine
   6
CONTINUOUS
  62
8
  10
 90.999999999900
  20
 200.50000000000
  30
0.0
  11
 115.99999999990
  21
 200.50000000000
  31
0.0
   0
LINE
   5
130
 100
AcDbEntity
   8
LEVEL001
 370
15
 100
AcDbLine
   6
CONTINUOUS
  62
8
  10
 140.99999999990
  20
 200.50000000000
  30
0.0
  11
 115.99999999990
  21
 200.50000000000
  31
0.0
   0
INSERT
   5
131
 100
AcDbEntity
   8
LEVEL001
   6
CONTINUOUS
  62
8
 100
AcDbBlockReference
   2
_DOT
  10
 90.999999999900
  20
 200.50000000000
  30
0.0
  41
 0.80000000000000
  42
 0.80000000000000
  43
 0.80000000000000
  50
 180.00000000000
   0
INSERT
   5
132
 100
AcDbEntity
   8
LEVEL001
   6
CONTINUOUS
  62
8
 100
AcDbBlockReference
   2
_DOT
  10
 140.99999999990
  20
 200.50000000000
  30
0.0
  41
 0.80000000000000
  42
 0.80000000000000
  43
 0.80000000000000
  50
0.0
   0
MTEXT
   5
133
 100
AcDbEntity
   8
LEVEL001
 370
15
  62
8
 100
AcDbMText
  10
 115.99999999990
  20
 202.50000000000
  30
0.0
  40
 6.0000000000000
  41
0.0
  71
8
  72
1
   1
\A1;50
   7
GMM002
   0
ENDBLK
   5
134
 100
AcDbEntity
   8
0
 100
AcDbBlockEnd
   0
BLOCK
   5
135
 100
AcDbEntity
   8
0
 100
AcDbBlockBegin
   2
*D24
  70
65
  10
0.0
  20
0.0
  30
0.0
   3
*D24
   0
LINE
   5
136
 100
AcDbEntity
   8
LEVEL001
 370
15
 100
AcDbLine
   6
CONTINUOUS
  62
8
  10
 86.999999999900
  20
 190.50000000000
  30
0.0
  11
 78.999999999900
  21
 190.50000000000
  31
0.0
   0
LINE
   5
137
 100
AcDbEntity
   8
LEVEL001
 370
15
 100
AcDbLine
   6
CONTINUOUS
  62
8
  10
 86.999999999900
  20
 168.50000000000
  30
0.0
  11
 78.999999999900
  21
 168.50000000000
  31
0.0
   0
LINE
   5
138
 100
AcDbEntity
   8
LEVEL001
 370
15
 100
AcDbLine
   6
CONTINUOUS
  62
8
  10
 80.999999999900
  20
 190.50000000000
  30
0.0
  11
 80.999999999900
  21
 179.50000000000
  31
0.0
   0
LINE
   5
139
 100
AcDbEntity
   8
LEVEL001
 370
15
 100
AcDbLine
   6
CONTINUOUS
  62
8
  10
 80.999999999900
  20
 168.50000000000
  30
0.0
  11
 80.999999999900
  21
 179.50000000000
  31
0.0
   0
INSERT
   5
13A
 100
AcDbEntity
   8
LEVEL001
   6
CONTINUOUS
  62
8
 100
AcDbBlockReference
   2
_DOT
  10
 80.999999999900
  20
 190.50000000000
  30
0.0
  41
 0.80000000000000
  42
 0.80000000000000
  43
 0.80000000000000
  50
 90.000000000000
   0
INSERT
   5
13B
 100
AcDbEntity
   8
LEVEL001
   6
CONTINUOUS
  62
8
 100
AcDbBlockReference
   2
_DOT
  10
 80.999999999900
  20
 168.50000000000
  30
0.0
  41
 0.80000000000000
  42
 0.80000000000000
  43
 0.80000000000000
  50
 270.00000000000
   0
MTEXT
   5
13C
 100
AcDbEntity
   8
LEVEL001
 370
15
  62
8
 100
AcDbMText
  10
 78.999999999900
  20
 179.50000000000
  30
0.0
  40
 6.0000000000000
  41
0.0
  71
8
  72
1
   1
\A1;22
   7
GMM002
  11
0.0
  21
 1.0000000000000
  31
0.0
   0
ENDBLK
   5
13D
 100
AcDbEntity
   8
0
 100
AcDbBlockEnd
   0
BLOCK
   5
13E
 100
AcDbEntity
   8
0
 100
AcDbBlockBegin
   2
*D25
  70
65
  10
0.0
  20
0.0
  30
0.0
   3
*D25
   0
LINE
   5
13F
 100
AcDbEntity
   8
LEVEL001
 370
15
 100
AcDbLine
   6
CONTINUOUS
  62
8
  10
 144.99999999990
  20
 190.50000000000
  30
0.0
  11
 154.99999999990
  21
 190.50000000000
  31
0.0
   0
LINE
   5
140
 100
AcDbEntity
   8
LEVEL001
 370
15
 100
AcDbLine
   6
CONTINUOUS
  62
8
  10
 144.99999999990
  20
 185.50000000000
  30
0.0
  11
 154.99999999990
  21
 185.50000000000
  31
0.0
   0
LINE
   5
141
 100
AcDbEntity
   8
LEVEL001
 370
15
 100
AcDbLine
   6
CONTINUOUS
  62
8
  10
 152.99999999990
  20
 190.50000000000
  30
0.0
  11
 152.99999999990
  21
 188.00000000000
  31
0.0
   0
LINE
   5
142
 100
AcDbEntity
   8
LEVEL001
 370
15
 100
AcDbLine
   6
CONTINUOUS
  62
8
  10
 152.99999999990
  20
 185.50000000000
  30
0.0
  11
 152.99999999990
  21
 188.00000000000
  31
0.0
   0
INSERT
   5
143
 100
AcDbEntity
   8
LEVEL001
   6
CONTINUOUS
  62
8
 100
AcDbBlockReference
   2
_DOT
  10
 152.99999999990
  20
 190.50000000000
  30
0.0
  41
 0.80000000000000
  42
 0.80000000000000
  43
 0.80000000000000
  50
 90.000000000000
   0
INSERT
   5
144
 100
AcDbEntity
   8
LEVEL001
   6
CONTINUOUS
  62
8
 100
AcDbBlockReference
   2
_DOT
  10
 152.99999999990
  20
 185.50000000000
  30
0.0
  41
 0.80000000000000
  42
 0.80000000000000
  43
 0.80000000000000
  50
 270.00000000000
   0
MTEXT
   5
145
 100
AcDbEntity
   8
LEVEL001
 370
15
  62
8
 100
AcDbMText
  10
 150.99999999990
  20
 188.00000000000
  30
0.0
  40
 6.0000000000000
  41
0.0
  71
8
  72
1
   1
\A1;5
   7
GMM002
  11
0.0
  21
 1.0000000000000
  31
0.0
   0
ENDBLK
   5
146
 100
AcDbEntity
   8
0
 100
AcDbBlockEnd
   0
BLOCK
   5
147
 100
AcDbEntity
   8
0
 100
AcDbBlockBegin
   2
*D28
  70
65
  10
0.0
  20
0.0
  30
0.0
   3
*D28
   0
LINE
   5
148
 100
AcDbEntity
   8
LEVEL001
 370
15
 100
AcDbLine
   6
CONTINUOUS
  62
8
  10
 235.48294652983
  20
 463.66992656065
  30
0.0
  11
 235.48294652983
  21
 471.49674943660
  31
0.0
   0
LINE
   5
149
 100
AcDbEntity
   8
LEVEL001
 370
15
 100
AcDbLine
   6
CONTINUOUS
  62
8
  10
 270.48294652983
  20
 464.49674943660
  30
0.0
  11
 270.48294652983
  21
 471.49674943660
  31
0.0
   0
LINE
   5
14A
 100
AcDbEntity
   8
LEVEL001
 370
15
 100
AcDbLine
   6
CONTINUOUS
  62
8
  10
 235.48294652983
  20
 469.49674943660
  30
0.0
  11
 252.98294652983
  21
 469.49674943660
  31
0.0
   0
LINE
   5
14B
 100
AcDbEntity
   8
LEVEL001
 370
15
 100
AcDbLine
   6
CONTINUOUS
  62
8
  10
 270.48294652983
  20
 469.49674943660
  30
0.0
  11
 252.98294652983
  21
 469.49674943660
  31
0.0
   0
INSERT
   5
14C
 100
AcDbEntity
   8
LEVEL001
   6
CONTINUOUS
  62
8
 100
AcDbBlockReference
   2
_DOT
  10
 235.48294652983
  20
 469.49674943660
  30
0.0
  41
 0.80000000000000
  42
 0.80000000000000
  43
 0.80000000000000
  50
 180.00000000000
   0
INSERT
   5
14D
 100
AcDbEntity
   8
LEVEL001
   6
CONTINUOUS
  62
8
 100
AcDbBlockReference
   2
_DOT
  10
 270.48294652983
  20
 469.49674943660
  30
0.0
  41
 0.80000000000000
  42
 0.80000000000000
  43
 0.80000000000000
  50
0.0
   0
MTEXT
   5
14E
 100
AcDbEntity
   8
LEVEL001
 370
15
  62
8
 100
AcDbMText
  10
 252.98294652983
  20
 477.49674943660
  30
0.0
  40
 6.0000000000000
  41
0.0
  71
8
  72
1
   1
\A1;35
   7
GMM002
  44
 0.79999984000003
   0
ENDBLK
   5
14F
 100
AcDbEntity
   8
0
 100
AcDbBlockEnd
   0
BLOCK
   5
150
 100
AcDbEntity
   8
0
 100
AcDbBlockBegin
   2
*D29
  70
65
  10
0.0
  20
0.0
  30
0.0
   3
*D29
   0
LINE
   5
151
 100
AcDbEntity
   8
LEVEL001
 370
15
 100
AcDbLine
   6
CONTINUOUS
  62
8
  10
 274.48294652983
  20
 454.49674943660
  30
0.0
  11
 284.48294652983
  21
 454.49674943660
  31
0.0
   0
LINE
   5
152
 100
AcDbEntity
   8
LEVEL001
 370
15
 100
AcDbLine
   6
CONTINUOUS
  62
8
  10
 272.18010773747
  20
 461.29674943660
  30
0.0
  11
 284.48294652983
  21
 461.29674943660
  31
0.0
   0
LINE
   5
153
 100
AcDbEntity
   8
LEVEL001
 370
15
 100
AcDbLine
   6
CONTINUOUS
  62
8
  10
 282.48294652983
  20
 454.49674943660
  30
0.0
  11
 282.48294652983
  21
 457.89674943660
  31
0.0
   0
LINE
   5
154
 100
AcDbEntity
   8
LEVEL001
 370
15
 100
AcDbLine
   6
CONTINUOUS
  62
8
  10
 282.48294652983
  20
 475.70742711785
  30
0.0
  11
 282.48294652983
  21
 457.89674943660
  31
0.0
   0
INSERT
   5
155
 100
AcDbEntity
   8
LEVEL001
   6
CONTINUOUS
  62
8
 100
AcDbBlockReference
   2
_DOT
  10
 282.48294652983
  20
 454.49674943660
  30
0.0
  41
 0.80000000000000
  42
 0.80000000000000
  43
 0.80000000000000
  50
 270.00000000000
   0
INSERT
   5
156
 100
AcDbEntity
   8
LEVEL001
   6
CONTINUOUS
  62
8
 100
AcDbBlockReference
   2
_DOT
  10
 282.48294652983
  20
 461.29674943660
  30
0.0
  41
 0.80000000000000
  42
 0.80000000000000
  43
 0.80000000000000
  50
 90.000000000000
   0
MTEXT
   5
157
 100
AcDbEntity
   8
LEVEL001
 370
15
  62
8
 100
AcDbMText
  10
 280.34052143599
  20
 468.20742711785
  30
0.0
  40
 6.0000000000000
  41
0.0
  71
7
  72
1
   1
\A1;6.5
   7
GMM002
  11
0.0
  21
 1.0000000000000
  31
0.0
  44
 0.79999984000003
   0
ENDBLK
   5
158
 100
AcDbEntity
   8
0
 100
AcDbBlockEnd
   0
BLOCK
   5
159
 100
AcDbEntity
   8
0
 100
AcDbBlockBegin
   2
*D30
  70
65
  10
0.0
  20
0.0
  30
0.0
   3
*D30
   0
LINE
   5
15A
 100
AcDbEntity
   8
LEVEL001
 370
15
 100
AcDbLine
   6
CONTINUOUS
  62
8
  10
 234.73765805952
  20
 441.50000000000
  30
0.0
  11
 223.48294652983
  21
 441.50000000000
  31
0.0
   0
LINE
   5
15B
 100
AcDbEntity
   8
LEVEL001
 370
15
 100
AcDbLine
   6
CONTINUOUS
  62
8
  10
 234.26643985336
  20
 459.50000000000
  30
0.0
  11
 223.48294652983
  21
 459.50000000000
  31
0.0
   0
LINE
   5
15C
 100
AcDbEntity
   8
LEVEL001
 370
15
 100
AcDbLine
   6
CONTINUOUS
  62
8
  10
 225.48294652983
  20
 441.50000000000
  30
0.0
  11
 225.48294652983
  21
 450.50000000000
  31
0.0
   0
LINE
   5
15D
 100
AcDbEntity
   8
LEVEL001
 370
15
 100
AcDbLine
   6
CONTINUOUS
  62
8
  10
 225.48294652983
  20
 459.50000000000
  30
0.0
  11
 225.48294652983
  21
 450.50000000000
  31
0.0
   0
INSERT
   5
15E
 100
AcDbEntity
   8
LEVEL001
   6
CONTINUOUS
  62
8
 100
AcDbBlockReference
   2
_DOT
  10
 225.48294652983
  20
 441.50000000000
  30
0.0
  41
 0.80000000000000
  42
 0.80000000000000
  43
 0.80000000000000
  50
 270.00000000000
   0
INSERT
   5
15F
 100
AcDbEntity
   8
LEVEL001
   6
CONTINUOUS
  62
8
 100
AcDbBlockReference
   2
_DOT
  10
 225.48294652983
  20
 459.50000000000
  30
0.0
  41
 0.80000000000000
  42
 0.80000000000000
  43
 0.80000000000000
  50
 90.000000000000
   0
MTEXT
   5
160
 100
AcDbEntity
   8
LEVEL001
 370
15
  62
8
 100
AcDbMText
  10
 223.48294652983
  20
 450.50000000000
  30
0.0
  40
 6.0000000000000
  41
0.0
  71
8
  72
1
   1
\A1;18
   7
GMM002
  11
0.0
  21
 1.0000000000000
  31
0.0
   0
ENDBLK
   5
161
 100
AcDbEntity
   8
0
 100
AcDbBlockEnd
   0
BLOCK
   5
162
 100
AcDbEntity
   8
0
 100
AcDbBlockBegin
   2
*D33
  70
65
  10
0.0
  20
0.0
  30
0.0
   3
*D33
   0
LINE
   5
163
 100
AcDbEntity
   8
LEVEL001
 370
15
 100
AcDbLine
   6
CONTINUOUS
  62
8
  10
 379.99999999990
  20
 463.50000000002
  30
0.0
  11
 379.99999999990
  21
 471.49674943662
  31
0.0
   0
LINE
   5
164
 100
AcDbEntity
   8
LEVEL001
 370
15
 100
AcDbLine
   6
CONTINUOUS
  62
8
  10
 430.69854204096
  20
 459.89988758612
  30
0.0
  11
 430.69854204096
  21
 471.49674943662
  31
0.0
   0
LINE
   5
165
 100
AcDbEntity
   8
LEVEL001
 370
15
 100
AcDbLine
   6
CONTINUOUS
  62
8
  10
 379.99999999990
  20
 469.49674943662
  30
0.0
  11
 405.34927102043
  21
 469.49674943662
  31
0.0
   0
LINE
   5
166
 100
AcDbEntity
   8
LEVEL001
 370
15
 100
AcDbLine
   6
CONTINUOUS
  62
8
  10
 430.69854204096
  20
 469.49674943662
  30
0.0
  11
 405.34927102043
  21
 469.49674943662
  31
0.0
   0
INSERT
   5
167
 100
AcDbEntity
   8
LEVEL001
   6
CONTINUOUS
  62
8
 100
AcDbBlockReference
   2
_DOT
  10
 379.99999999990
  20
 469.49674943662
  30
0.0
  41
 0.80000000000000
  42
 0.80000000000000
  43
 0.80000000000000
  50
 180.00000000000
   0
INSERT
   5
168
 100
AcDbEntity
   8
LEVEL001
   6
CONTINUOUS
  62
8
 100
AcDbBlockReference
   2
_DOT
  10
 430.69854204096
  20
 469.49674943662
  30
0.0
  41
 0.80000000000000
  42
 0.80000000000000
  43
 0.80000000000000
  50
0.0
   0
MTEXT
   5
169
 100
AcDbEntity
   8
LEVEL001
 370
15
  62
8
 100
AcDbMText
  10
 405.34927102043
  20
 471.49674943662
  30
0.0
  40
 6.0000000000000
  41
0.0
  71
8
  72
1
   1
\A1;50
   7
GMM002
   0
ENDBLK
   5
16A
 100
AcDbEntity
   8
0
 100
AcDbBlockEnd
   0
BLOCK
   5
16B
 100
AcDbEntity
   8
0
 100
AcDbBlockBegin
   2
*D34
  70
65
  10
0.0
  20
0.0
  30
0.0
   3
*D34
   0
LINE
   5
16C
 100
AcDbEntity
   8
LEVEL001
 370
15
 100
AcDbLine
   6
CONTINUOUS
  62
8
  10
 434.69854204096
  20
 454.49674943662
  30
0.0
  11
 444.69854204096
  21
 454.49674943662
  31
0.0
   0
LINE
   5
16D
 100
AcDbEntity
   8
LEVEL001
 370
15
 100
AcDbLine
   6
CONTINUOUS
  62
8
  10
 434.69854204096
  20
 459.49674943662
  30
0.0
  11
 444.69854204096
  21
 459.49674943662
  31
0.0
   0
LINE
   5
16E
 100
AcDbEntity
   8
LEVEL001
 370
15
 100
AcDbLine
   6
CONTINUOUS
  62
8
  10
 442.69854204096
  20
 446.89973884300
  30
0.0
  11
 442.69854204096
  21
 456.99674943662
  31
0.0
   0
LINE
   5
16F
 100
AcDbEntity
   8
LEVEL001
 370
15
 100
AcDbLine
   6
CONTINUOUS
  62
8
  10
 442.69854204096
  20
 459.49674943662
  30
0.0
  11
 442.69854204096
  21
 456.99674943662
  31
0.0
   0
INSERT
   5
170
 100
AcDbEntity
   8
LEVEL001
   6
CONTINUOUS
  62
8
 100
AcDbBlockReference
   2
_DOT
  10
 442.69854204096
  20
 454.49674943662
  30
0.0
  41
 0.80000000000000
  42
 0.80000000000000
  43
 0.80000000000000
  50
 270.00000000000
   0
INSERT
   5
171
 100
AcDbEntity
   8
LEVEL001
   6
CONTINUOUS
  62
8
 100
AcDbBlockReference
   2
_DOT
  10
 442.69854204096
  20
 459.49674943662
  30
0.0
  41
 0.80000000000000
  42
 0.80000000000000
  43
 0.80000000000000
  50
 90.000000000000
   0
MTEXT
   5
172
 100
AcDbEntity
   8
LEVEL001
 370
15
  62
8
 100
AcDbMText
  10
 440.86242992034
  20
 452.89973884300
  30
0.0
  40
 6.0000000000000
  41
0.0
  71
9
  72
1
   1
\A1;5
   7
GMM002
  11
0.0
  21
 1.0000000000000
  31
0.0
   0
ENDBLK
   5
173
 100
AcDbEntity
   8
0
 100
AcDbBlockEnd
   0
BLOCK
   5
174
 100
AcDbEntity
   8
0
 100
AcDbBlockBegin
   2
*D35
  70
65
  10
0.0
  20
0.0
  30
0.0
   3
*D35
   0
LINE
   5
175
 100
AcDbEntity
   8
LEVEL001
 370
15
 100
AcDbLine
   6
CONTINUOUS
  62
8
  10
 444.69854204096
  20
 454.49674943662
  30
0.0
  11
 456.69854204096
  21
 454.49674943662
  31
0.0
   0
LINE
   5
176
 100
AcDbEntity
   8
LEVEL001
 370
15
 100
AcDbLine
   6
CONTINUOUS
  62
8
  10
 434.69854204096
  20
 462.69674943662
  30
0.0
  11
 456.69854204096
  21
 462.69674943662
  31
0.0
   0
LINE
   5
177
 100
AcDbEntity
   8
LEVEL001
 370
15
 100
AcDbLine
   6
CONTINUOUS
  62
8
  10
 454.69854204096
  20
 454.49674943662
  30
0.0
  11
 454.69854204096
  21
 458.59674943662
  31
0.0
   0
LINE
   5
178
 100
AcDbEntity
   8
LEVEL001
 370
15
 100
AcDbLine
   6
CONTINUOUS
  62
8
  10
 454.69854204096
  20
 462.69674943662
  30
0.0
  11
 454.69854204096
  21
 458.59674943662
  31
0.0
   0
INSERT
   5
179
 100
AcDbEntity
   8
LEVEL001
   6
CONTINUOUS
  62
8
 100
AcDbBlockReference
   2
_DOT
  10
 454.69854204096
  20
 454.49674943662
  30
0.0
  41
 0.80000000000000
  42
 0.80000000000000
  43
 0.80000000000000
  50
 270.00000000000
   0
INSERT
   5
17A
 100
AcDbEntity
   8
LEVEL001
   6
CONTINUOUS
  62
8
 100
AcDbBlockReference
   2
_DOT
  10
 454.69854204096
  20
 462.69674943662
  30
0.0
  41
 0.80000000000000
  42
 0.80000000000000
  43
 0.80000000000000
  50
 90.000000000000
   0
MTEXT
   5
17B
 100
AcDbEntity
   8
LEVEL001
 370
15
  62
8
 100
AcDbMText
  10
 452.69854204096
  20
 458.59674943662
  30
0.0
  40
 6.0000000000000
  41
0.0
  71
8
  72
1
   1
\A1;9
   7
GMM002
  11
0.0
  21
 1.0000000000000
  31
0.0
   0
ENDBLK
   5
17C
 100
AcDbEntity
   8
0
 100
AcDbBlockEnd
   0
BLOCK
   5
17D
 100
AcDbEntity
   8
0
 100
AcDbBlockBegin
   2
*D36
  70
65
  10
0.0
  20
0.0
  30
0.0
   3
*D36
   0
LINE
   5
17E
 100
AcDbEntity
   8
LEVEL001
 370
15
 100
AcDbLine
   6
CONTINUOUS
  62
8
  10
 379.22191229427
  20
 441.50000000002
  30
0.0
  11
 367.99999999990
  21
 441.50000000002
  31
0.0
   0
LINE
   5
17F
 100
AcDbEntity
   8
LEVEL001
 370
15
 100
AcDbLine
   6
CONTINUOUS
  62
8
  10
 377.52552675210
  20
 459.50000000002
  30
0.0
  11
 367.99999999990
  21
 459.50000000002
  31
0.0
   0
LINE
   5
180
 100
AcDbEntity
   8
LEVEL001
 370
15
 100
AcDbLine
   6
CONTINUOUS
  62
8
  10
 369.99999999990
  20
 441.50000000002
  30
0.0
  11
 369.99999999990
  21
 450.50000000002
  31
0.0
   0
LINE
   5
181
 100
AcDbEntity
   8
LEVEL001
 370
15
 100
AcDbLine
   6
CONTINUOUS
  62
8
  10
 369.99999999990
  20
 459.50000000002
  30
0.0
  11
 369.99999999990
  21
 450.50000000002
  31
0.0
   0
INSERT
   5
182
 100
AcDbEntity
   8
LEVEL001
   6
CONTINUOUS
  62
8
 100
AcDbBlockReference
   2
_DOT
  10
 369.99999999990
  20
 441.50000000002
  30
0.0
  41
 0.80000000000000
  42
 0.80000000000000
  43
 0.80000000000000
  50
 270.00000000000
   0
INSERT
   5
183
 100
AcDbEntity
   8
LEVEL001
   6
CONTINUOUS
  62
8
 100
AcDbBlockReference
   2
_DOT
  10
 369.99999999990
  20
 459.50000000002
  30
0.0
  41
 0.80000000000000
  42
 0.80000000000000
  43
 0.80000000000000
  50
 90.000000000000
   0
MTEXT
   5
184
 100
AcDbEntity
   8
LEVEL001
 370
15
  62
8
 100
AcDbMText
  10
 367.99999999990
  20
 450.50000000002
  30
0.0
  40
 6.0000000000000
  41
0.0
  71
8
  72
1
   1
\A1;18
   7
GMM002
  11
0.0
  21
 1.0000000000000
  31
0.0
   0
ENDBLK
   5
185
 100
AcDbEntity
   8
0
 100
AcDbBlockEnd
   0
BLOCK
   5
186
 100
AcDbEntity
   8
0
 100
AcDbBlockBegin
   2
*D39
  70
65
  10
0.0
  20
0.0
  30
0.0
   3
*D39
   0
LINE
   5
187
 100
AcDbEntity
   8
LEVEL001
 370
15
 100
AcDbLine
   6
CONTINUOUS
  62
8
  10
 277.99999999989
  20
 318.00000000000
  30
0.0
  11
 289.99999999989
  21
 318.00000000000
  31
0.0
   0
LINE
   5
188
 100
AcDbEntity
   8
LEVEL001
 370
15
 100
AcDbLine
   6
CONTINUOUS
  62
8
  10
 277.99999999989
  20
 325.00000000000
  30
0.0
  11
 289.99999999989
  21
 325.00000000000
  31
0.0
   0
LINE
   5
189
 100
AcDbEntity
   8
LEVEL001
 370
15
 100
AcDbLine
   6
CONTINUOUS
  62
8
  10
 287.99999999989
  20
 318.00000000000
  30
0.0
  11
 287.99999999989
  21
 321.50000000000
  31
0.0
   0
LINE
   5
18A
 100
AcDbEntity
   8
LEVEL001
 370
15
 100
AcDbLine
   6
CONTINUOUS
  62
8
  10
 287.99999999989
  20
 325.00000000000
  30
0.0
  11
 287.99999999989
  21
 321.50000000000
  31
0.0
   0
INSERT
   5
18B
 100
AcDbEntity
   8
LEVEL001
   6
CONTINUOUS
  62
8
 100
AcDbBlockReference
   2
_DOT
  10
 287.99999999989
  20
 318.00000000000
  30
0.0
  41
 0.80000000000000
  42
 0.80000000000000
  43
 0.80000000000000
  50
 270.00000000000
   0
INSERT
   5
18C
 100
AcDbEntity
   8
LEVEL001
   6
CONTINUOUS
  62
8
 100
AcDbBlockReference
   2
_DOT
  10
 287.99999999989
  20
 325.00000000000
  30
0.0
  41
 0.80000000000000
  42
 0.80000000000000
  43
 0.80000000000000
  50
 90.000000000000
   0
MTEXT
   5
18D
 100
AcDbEntity
   8
LEVEL001
 370
15
  62
8
 100
AcDbMText
  10
 285.99999999989
  20
 321.50000000000
  30
0.0
  40
 6.0000000000000
  41
0.0
  71
8
  72
1
   1
\A1;7
   7
GMM002
  11
0.0
  21
 1.0000000000000
  31
0.0
   0
ENDBLK
   5
18E
 100
AcDbEntity
   8
0
 100
AcDbBlockEnd
   0
ENDSEC
   0
SECTION
   2
ENTITIES
   0
LINE
   5
18F
 100
AcDbEntity
   8
LEVEL002
 370
40
 100
AcDbLine
   6
CONTINUOUS
  62
3
  10
 708.99999999990
  20
 90.666666666700
  30
0.0
  11
 808.99999999990
  21
 90.666666666700
  31
0.0
   0
LINE
   5
190
 100
AcDbEntity
   8
LEVEL002
 370
40
 100
AcDbLine
   6
CONTINUOUS
  62
3
  10
 708.99999999990
  20
 77.333333333400
  30
0.0
  11
 808.99999999990
  21
 77.333333333400
  31
0.0
   0
LINE
   5
191
 100
AcDbEntity
   8
LEVEL001
 370
30
 100
AcDbLine
   6
DOT
  62
7
  10
0.0
  20
0.0
  30
0.0
  11
 840.00000000000
  21
0.0
  31
0.0
   0
LINE
   5
192
 100
AcDbEntity
   8
LEVEL001
 370
30
 100
AcDbLine
   6
DOT
  62
7
  10
 840.00000000000
  20
0.0
  30
0.0
  11
 840.00000000000
  21
 594.00000000000
  31
0.0
   0
LINE
   5
193
 100
AcDbEntity
   8
LEVEL001
 370
30
 100
AcDbLine
   6
DOT
  62
7
  10
 840.00000000000
  20
 594.00000000000
  30
0.0
  11
0.0
  21
 594.00000000000
  31
0.0
   0
LINE
   5
194
 100
AcDbEntity
   8
LEVEL001
 370
30
 100
AcDbLine
   6
DOT
  62
7
  10
0.0
  20
 594.00000000000
  30
0.0
  11
0.0
  21
0.0
  31
0.0
   0
LINE
   5
195
 100
AcDbEntity
   8
LEVEL002
 370
40
 100
AcDbLine
   6
CONTINUOUS
  62
3
  10
 30.999999999900
  20
 160.50000000000
  30
0.0
  11
 608.99999999990
  21
 160.50000000000
  31
0.0
   0
LINE
   5
196
 100
AcDbEntity
   8
LEVEL002
 370
40
 100
AcDbLine
   6
CONTINUOUS
  62
3
  10
 30.999999999900
  20
 140.50000000000
  30
0.0
  11
 608.99999999990
  21
 140.50000000000
  31
0.0
   0
LINE
   5
197
 100
AcDbEntity
   8
LEVEL002
 370
40
 100
AcDbLine
   6
CONTINUOUS
  62
3
  10
 175.49999999990
  20
 570.00000000000
  30
0.0
  11
 175.49999999990
  21
 24.000000000000
  31
0.0
   0
LINE
   5
198
 100
AcDbEntity
   8
LEVEL002
 370
40
 100
AcDbLine
   6
CONTINUOUS
  62
3
  10
 319.99999999990
  20
 570.00000000000
  30
0.0
  11
 319.99999999990
  21
 24.000000000000
  31
0.0
   0
LINE
   5
199
 100
AcDbEntity
   8
LEVEL002
 370
40
 100
AcDbLine
   6
CONTINUOUS
  62
3
  10
 464.49999999990
  20
 570.00000000000
  30
0.0
  11
 464.49999999990
  21
 24.000000000000
  31
0.0
   0
LINE
   5
19A
 100
AcDbEntity
   8
LEVEL002
 370
40
 100
AcDbLine
   6
CONTINUOUS
  62
3
  10
 30.999999999900
  20
 297.00000000000
  30
0.0
  11
 608.99999999990
  21
 297.00000000000
  31
0.0
   0
LINE
   5
19B
 100
AcDbEntity
   8
LEVEL002
 370
40
 100
AcDbLine
   6
CONTINUOUS
  62
3
  10
 30.999999999900
  20
 277.00000000000
  30
0.0
  11
 608.99999999990
  21
 277.00000000000
  31
0.0
   0
LINE
   5
19C
 100
AcDbEntity
   8
LEVEL002
 370
40
 100
AcDbLine
   6
CONTINUOUS
  62
3
  10
 30.999999999900
  20
 433.50000000000
  30
0.0
  11
 608.99999999990
  21
 433.50000000000
  31
0.0
   0
LINE
   5
19D
 100
AcDbEntity
   8
LEVEL002
 370
40
 100
AcDbLine
   6
CONTINUOUS
  62
3
  10
 30.999999999900
  20
 413.50000000000
  30
0.0
  11
 608.99999999990
  21
 413.50000000000
  31
0.0
   0
LINE
   5
19E
 100
AcDbEntity
   8
LEVEL002
 370
40
 100
AcDbLine
   6
CONTINUOUS
  62
3
  10
 608.99999999990
  20
 144.00000000000
  30
0.0
  11
 808.99999999990
  21
 144.00000000000
  31
0.0
   0
LINE
   5
19F
 100
AcDbEntity
   8
LEVEL002
 370
40
 100
AcDbLine
   6
CONTINUOUS
  62
3
  10
 608.99999999990
  20
 64.000000000000
  30
0.0
  11
 808.99999999990
  21
 64.000000000000
  31
0.0
   0
LINE
   5
1A0
 100
AcDbEntity
   8
LEVEL002
 370
40
 100
AcDbLine
   6
CONTINUOUS
  62
3
  10
 608.99999999990
  20
 104.00000000000
  30
0.0
  11
 808.99999999990
  21
 104.00000000000
  31
0.0
   0
LINE
   5
1A1
 100
AcDbEntity
   8
LEVEL002
 370
40
 100
AcDbLine
   6
CONTINUOUS
  62
3
  10
 708.99999999990
  20
 104.00000000000
  30
0.0
  11
 708.99999999990
  21
 24.000000000000
  31
0.0
   0
LINE
   5
1A2
 100
AcDbEntity
   8
LEVEL002
 370
40
 100
AcDbLine
   6
CONTINUOUS
  62
3
  10
 608.99999999990
  20
 473.50000000000
  30
0.0
  11
 808.99999999990
  21
 473.50000000000
  31
0.0
   0
LINE
   5
1A3
 100
AcDbEntity
   8
LEVEL002
 370
40
 100
AcDbLine
   6
CONTINUOUS
  62
3
  10
 608.99999999990
  20
 433.50000000000
  30
0.0
  11
 808.99999999990
  21
 433.50000000000
  31
0.0
   0
LINE
   5
1A4
 100
AcDbEntity
   8
LEVEL002
 370
40
 100
AcDbLine
   6
CONTINUOUS
  62
3
  10
 608.99999999990
  20
 513.50000000000
  30
0.0
  11
 808.99999999990
  21
 513.50000000000
  31
0.0
   0
LINE
   5
1A5
 100
AcDbEntity
   8
LEVEL002
 370
40
 100
AcDbLine
   6
CONTINUOUS
  62
3
  10
 30.999999999900
  20
 550.00000000000
  30
0.0
  11
 608.99999999990
  21
 550.00000000000
  31
0.0
   0
MTEXT
   5
1A7
 100
AcDbEntity
   8
LEVEL002
 370
30
  62
7
 100
AcDbMText
  10
 673.90000000000
  20
 547.75000000000
  30
0.0
  40
 7.5000000000000
  41
0.0
  71
7
  72
1
   1
\T1.000000;ケージーパルテック株式会社
   7
GMM001
  44
 0.79999984000003
   0
MTEXT
   5
1A9
 100
AcDbEntity
   8
LEVEL002
 370
15
  62
8
 100
AcDbMText
  10
 621.59999999990
  20
 56.500000000020
  30
0.0
  40
 6.0000000000000
  41
0.0
  71
5
  72
1
   1
\T1.000000;サイズ：
   7
GMM002
  44
 0.79999984000003
   0
MTEXT
   5
1AB
 100
AcDbEntity
   8
LEVEL002
 370
15
  62
8
 100
AcDbMText
  10
 618.59999999990
  20
 96.500000000020
  30
0.0
  40
 6.0000000000000
  41
0.0
  71
5
  72
1
   1
\T1.000000;縮尺：
   7
GMM002
  44
 0.79999984000003
   0
MTEXT
   5
1AD
 100
AcDbEntity
   8
LEVEL002
 370
15
  62
8
 100
AcDbMText
  10
 624.59999999990
  20
 136.50000000002
  30
0.0
  40
 6.0000000000000
  41
0.0
  71
5
  72
1
   1
\T1.000000;図面名称：
   7
GMM002
  44
 0.79999984000003
   0
MTEXT
   5
1AF
 100
AcDbEntity
   8
LEVEL002
 370
15
  62
8
 100
AcDbMText
  10
 727.59999999990
  20
 56.500000000020
  30
0.0
  40
 6.0000000000000
  41
0.0
  71
5
  72
1
   1
\T1.000000;ファイル名：
   7
GMM002
  44
 0.79999984000003
   0
MTEXT
   5
1B1
 100
AcDbEntity
   8
LEVEL002
 370
15
  62
8
 100
AcDbMText
  10
 724.59999999990
  20
 97.333333333360
  30
0.0
  40
 5.6000000000000
  41
0.0
  71
5
  72
1
   1
\T1.000000;作成日付：
   7
GMM003
  44
 0.79999984000003
   0
MTEXT
   5
1B3
 100
AcDbEntity
   8
LEVEL002
 370
15
  62
8
 100
AcDbMText
  10
 724.59999999990
  20
 84.000000000020
  30
0.0
  40
 5.6000000000000
  41
0.0
  71
5
  72
1
   1
\T1.000000;変更日付：
   7
GMM003
  44
 0.79999984000003
   0
MTEXT
   5
1B5
 100
AcDbEntity
   8
LEVEL002
 370
15
  62
8
 100
AcDbMText
  10
 708.99999999990
  20
 116.50000000002
  30
0.0
  40
 7.5000000000000
  41
0.0
  71
5
  72
1
   1
\W1.000000;\T1.000000;平面図\W0.500000;\T1.000000;･\W1.000000;\T1.000000;断面図
   7
GMM002
  44
 0.79999984000003
   0
MTEXT
   5
1B7
 100
AcDbEntity
   8
LEVEL002
 370
15
  62
8
 100
AcDbMText
  10
 658.99999999990
  20
 76.500000000020
  30
0.0
  40
 7.5000000000000
  41
0.0
  71
5
  72
1
   1
\T1.000000;Ｓ＝１：２
   7
GMM002
  44
 0.79999984000003
   0
MTEXT
   5
1B9
 100
AcDbEntity
   8
LEVEL002
 370
15
  62
8
 100
AcDbMText
  10
 658.99999999990
  20
 36.500000000020
  30
0.0
  40
 7.5000000000000
  41
0.0
  71
5
  72
1
   1
\T1.000000;Ａ３
   7
GMM002
  44
 0.79999984000003
   0
MTEXT
   5
1BB
 100
AcDbEntity
   8
LEVEL002
 370
15
  62
8
 100
AcDbMText
  10
 618.59999999990
  20
 426.00000000000
  30
0.0
  40
 6.0000000000000
  41
0.0
  71
5
  72
1
   1
\T1.000000;仕様：
   7
GMM002
  44
 0.79999984000003
   0
MTEXT
   5
1BD
 100
AcDbEntity
   8
LEVEL002
 370
15
  62
8
 100
AcDbMText
  10
 618.59999999990
  20
 466.00000000000
  30
0.0
  40
 6.0000000000000
  41
0.0
  71
5
  72
1
   1
\T1.000000;形式：
   7
GMM002
  44
 0.79999984000003
   0
MTEXT
   5
1BF
 100
AcDbEntity
   8
LEVEL002
 370
15
  62
8
 100
AcDbMText
  10
 621.59999999990
  20
 506.00000000000
  30
0.0
  40
 6.0000000000000
  41
0.0
  71
5
  72
1
   1
\T1.000000;商品名：
   7
GMM002
  44
 0.79999984000003
   0
LINE
   5
1C0
 100
AcDbEntity
   8
LEVEL002
 370
30
 100
AcDbLine
   6
CONTINUOUS
  62
7
  10
 688.30000000000
  20
 544.15000000000
  30
0.0
  11
 673.90000000000
  21
 544.15000000000
  31
0.0
   0
LINE
   5
1C1
 100
AcDbEntity
   8
LEVEL002
 370
30
 100
AcDbLine
   6
CONTINUOUS
  62
7
  10
 673.90000000000
  20
 544.15000000000
  30
0.0
  11
 673.90000000000
  21
 522.55000000000
  31
0.0
   0
LINE
   5
1C2
 100
AcDbEntity
   8
LEVEL002
 370
30
 100
AcDbLine
   6
CONTINUOUS
  62
7
  10
 673.90000000000
  20
 522.55000000000
  30
0.0
  11
 681.10000000000
  21
 522.55000000000
  31
0.0
   0
LINE
   5
1C3
 100
AcDbEntity
   8
LEVEL002
 370
30
 100
AcDbLine
   6
CONTINUOUS
  62
7
  10
 681.10000000000
  20
 522.55000000000
  30
0.0
  11
 681.10000000000
  21
 526.15000000000
  31
0.0
   0
LINE
   5
1C4
 100
AcDbEntity
   8
LEVEL002
 370
30
 100
AcDbLine
   6
CONTINUOUS
  62
7
  10
 681.10000000000
  20
 526.15000000000
  30
0.0
  11
 688.30000000000
  21
 526.15000000000
  31
0.0
   0
ARC
   5
1C5
 100
AcDbEntity
   8
LEVEL002
 370
30
   6
CONTINUOUS
  62
7
 100
AcDbCircle
  10
 688.30000000000
  20
 535.15000000000
  30
0.0
  40
 9.0000000000000
 100
AcDbArc
  50
 270.00000000000
  51
 90.000000000000
   0
LINE
   5
1C6
 100
AcDbEntity
   8
LEVEL002
 370
30
 100
AcDbLine
   6
CONTINUOUS
  62
7
  10
 681.10000000000
  20
 533.35000000000
  30
0.0
  11
 688.30000000000
  21
 533.35000000000
  31
0.0
   0
ARC
   5
1C7
 100
AcDbEntity
   8
LEVEL002
 370
30
   6
CONTINUOUS
  62
7
 100
AcDbCircle
  10
 688.30000000000
  20
 535.15000000000
  30
0.0
  40
 1.8000000000000
 100
AcDbArc
  50
 270.00000000000
  51
 90.000000000000
   0
LINE
   5
1C8
 100
AcDbEntity
   8
LEVEL002
 370
30
 100
AcDbLine
   6
CONTINUOUS
  62
7
  10
 688.30000000000
  20
 536.95000000000
  30
0.0
  11
 681.10000000000
  21
 536.95000000000
  31
0.0
   0
LINE
   5
1C9
 100
AcDbEntity
   8
LEVEL002
 370
30
 100
AcDbLine
   6
CONTINUOUS
  62
7
  10
 681.10000000000
  20
 536.95000000000
  30
0.0
  11
 681.10000000000
  21
 533.35000000000
  31
0.0
   0
LINE
   5
1CA
 100
AcDbEntity
   8
LEVEL002
 370
30
 100
AcDbLine
   6
CONTINUOUS
  62
7
  10
 691.90000000000
  20
 522.55000000000
  30
0.0
  11
 706.30000000000
  21
 544.15000000000
  31
0.0
   0
LINE
   5
1CB
 100
AcDbEntity
   8
LEVEL002
 370
30
 100
AcDbLine
   6
CONTINUOUS
  62
7
  10
 706.30000000000
  20
 544.15000000000
  30
0.0
  11
 724.30000000000
  21
 544.15000000000
  31
0.0
   0
LINE
   5
1CC
 100
AcDbEntity
   8
LEVEL002
 370
30
 100
AcDbLine
   6
CONTINUOUS
  62
7
  10
 724.30000000000
  20
 544.15000000000
  30
0.0
  11
 724.30000000000
  21
 529.75000000000
  31
0.0
   0
LINE
   5
1CD
 100
AcDbEntity
   8
LEVEL002
 370
30
 100
AcDbLine
   6
CONTINUOUS
  62
7
  10
 724.30000000000
  20
 529.75000000000
  30
0.0
  11
 735.10000000000
  21
 529.75000000000
  31
0.0
   0
LINE
   5
1CE
 100
AcDbEntity
   8
LEVEL002
 370
30
 100
AcDbLine
   6
CONTINUOUS
  62
7
  10
 735.10000000000
  20
 529.75000000000
  30
0.0
  11
 735.10000000000
  21
 536.95000000000
  31
0.0
   0
LINE
   5
1CF
 100
AcDbEntity
   8
LEVEL002
 370
30
 100
AcDbLine
   6
CONTINUOUS
  62
7
  10
 735.10000000000
  20
 536.95000000000
  30
0.0
  11
 727.90000000000
  21
 536.95000000000
  31
0.0
   0
LINE
   5
1D0
 100
AcDbEntity
   8
LEVEL002
 370
30
 100
AcDbLine
   6
CONTINUOUS
  62
7
  10
 727.90000000000
  20
 536.95000000000
  30
0.0
  11
 727.90000000000
  21
 544.15000000000
  31
0.0
   0
LINE
   5
1D1
 100
AcDbEntity
   8
LEVEL002
 370
30
 100
AcDbLine
   6
CONTINUOUS
  62
7
  10
 727.90000000000
  20
 544.15000000000
  30
0.0
  11
 771.10000000000
  21
 544.15000000000
  31
0.0
   0
LINE
   5
1D2
 100
AcDbEntity
   8
LEVEL002
 370
30
 100
AcDbLine
   6
CONTINUOUS
  62
7
  10
 771.10000000000
  20
 544.15000000000
  30
0.0
  11
 771.10000000000
  21
 536.95000000000
  31
0.0
   0
LINE
   5
1D3
 100
AcDbEntity
   8
LEVEL002
 370
30
 100
AcDbLine
   6
CONTINUOUS
  62
7
  10
 771.10000000000
  20
 536.95000000000
  30
0.0
  11
 756.70000000000
  21
 536.95000000000
  31
0.0
   0
LINE
   5
1D4
 100
AcDbEntity
   8
LEVEL002
 370
30
 100
AcDbLine
   6
CONTINUOUS
  62
7
  10
 756.70000000000
  20
 536.95000000000
  30
0.0
  11
 756.70000000000
  21
 535.15000000000
  31
0.0
   0
LINE
   5
1D5
 100
AcDbEntity
   8
LEVEL002
 370
30
 100
AcDbLine
   6
CONTINUOUS
  62
7
  10
 756.70000000000
  20
 535.15000000000
  30
0.0
  11
 769.30000000000
  21
 535.15000000000
  31
0.0
   0
LINE
   5
1D6
 100
AcDbEntity
   8
LEVEL002
 370
30
 100
AcDbLine
   6
CONTINUOUS
  62
7
  10
 769.30000000000
  20
 535.15000000000
  30
0.0
  11
 769.30000000000
  21
 531.55000000000
  31
0.0
   0
LINE
   5
1D7
 100
AcDbEntity
   8
LEVEL002
 370
30
 100
AcDbLine
   6
CONTINUOUS
  62
7
  10
 769.30000000000
  20
 531.55000000000
  30
0.0
  11
 756.70000000000
  21
 531.55000000000
  31
0.0
   0
LINE
   5
1D8
 100
AcDbEntity
   8
LEVEL002
 370
30
 100
AcDbLine
   6
CONTINUOUS
  62
7
  10
 756.70000000000
  20
 531.55000000000
  30
0.0
  11
 756.70000000000
  21
 529.75000000000
  31
0.0
   0
LINE
   5
1D9
 100
AcDbEntity
   8
LEVEL002
 370
30
 100
AcDbLine
   6
CONTINUOUS
  62
7
  10
 756.70000000000
  20
 529.75000000000
  30
0.0
  11
 771.10000000000
  21
 529.75000000000
  31
0.0
   0
LINE
   5
1DA
 100
AcDbEntity
   8
LEVEL002
 370
30
 100
AcDbLine
   6
CONTINUOUS
  62
7
  10
 771.10000000000
  20
 529.75000000000
  30
0.0
  11
 771.10000000000
  21
 522.55000000000
  31
0.0
   0
LINE
   5
1DB
 100
AcDbEntity
   8
LEVEL002
 370
30
 100
AcDbLine
   6
CONTINUOUS
  62
7
  10
 771.10000000000
  20
 522.55000000000
  30
0.0
  11
 749.50000000000
  21
 522.55000000000
  31
0.0
   0
LINE
   5
1DC
 100
AcDbEntity
   8
LEVEL002
 370
30
 100
AcDbLine
   6
CONTINUOUS
  62
7
  10
 749.50000000000
  20
 522.55000000000
  30
0.0
  11
 749.50000000000
  21
 536.95000000000
  31
0.0
   0
LINE
   5
1DD
 100
AcDbEntity
   8
LEVEL002
 370
30
 100
AcDbLine
   6
CONTINUOUS
  62
7
  10
 749.50000000000
  20
 536.95000000000
  30
0.0
  11
 742.30000000000
  21
 536.95000000000
  31
0.0
   0
LINE
   5
1DE
 100
AcDbEntity
   8
LEVEL002
 370
30
 100
AcDbLine
   6
CONTINUOUS
  62
7
  10
 742.30000000000
  20
 536.95000000000
  30
0.0
  11
 742.30000000000
  21
 522.55000000000
  31
0.0
   0
LINE
   5
1DF
 100
AcDbEntity
   8
LEVEL002
 370
30
 100
AcDbLine
   6
CONTINUOUS
  62
7
  10
 742.30000000000
  20
 522.55000000000
  30
0.0
  11
 717.10000000000
  21
 522.55000000000
  31
0.0
   0
LINE
   5
1E0
 100
AcDbEntity
   8
LEVEL002
 370
30
 100
AcDbLine
   6
CONTINUOUS
  62
7
  10
 717.10000000000
  20
 522.55000000000
  30
0.0
  11
 717.10000000000
  21
 544.15000000000
  31
0.0
   0
LINE
   5
1E1
 100
AcDbEntity
   8
LEVEL002
 370
30
 100
AcDbLine
   6
CONTINUOUS
  62
7
  10
 717.10000000000
  20
 544.15000000000
  30
0.0
  11
 702.70000000000
  21
 522.55000000000
  31
0.0
   0
LINE
   5
1E2
 100
AcDbEntity
   8
LEVEL002
 370
30
 100
AcDbLine
   6
CONTINUOUS
  62
7
  10
 702.70000000000
  20
 522.55000000000
  30
0.0
  11
 691.90000000000
  21
 522.55000000000
  31
0.0
   0
LINE
   5
1E3
 100
AcDbEntity
   8
LEVEL002
 370
30
 100
AcDbLine
   6
CONTINUOUS
  62
7
  10
 714.70000000000
  20
 536.22333846940
  30
0.0
  11
 705.58444102040
  21
 522.55000000000
  31
0.0
   0
LINE
   5
1E4
 100
AcDbEntity
   8
LEVEL002
 370
30
 100
AcDbLine
   6
CONTINUOUS
  62
7
  10
 705.58444102040
  20
 522.55000000000
  30
0.0
  11
 714.70000000000
  21
 522.55000000000
  31
0.0
   0
LINE
   5
1E5
 100
AcDbEntity
   8
LEVEL002
 370
30
 100
AcDbLine
   6
CONTINUOUS
  62
7
  10
 714.70000000000
  20
 522.55000000000
  30
0.0
  11
 714.70000000000
  21
 536.22333846940
  31
0.0
   0
ARC
   5
1E6
 100
AcDbEntity
   8
LEVEL002
 370
30
   6
CONTINUOUS
  62
7
 100
AcDbCircle
  10
 781.90000000000
  20
 533.35000000000
  30
0.0
  40
 10.800000000000
 100
AcDbArc
  50
 90.000000000000
  51
 270.00000000000
   0
ARC
   5
1E7
 100
AcDbEntity
   8
LEVEL002
 370
30
   6
CONTINUOUS
  62
7
 100
AcDbCircle
  10
 781.90000000000
  20
 533.35000000000
  30
0.0
  40
 3.6000000000000
 100
AcDbArc
  50
 90.000000000000
  51
 270.00000000000
   0
LINE
   5
1E8
 100
AcDbEntity
   8
LEVEL002
 370
30
 100
AcDbLine
   6
CONTINUOUS
  62
7
  10
 781.90000000000
  20
 544.15000000000
  30
0.0
  11
 792.70000000000
  21
 544.15000000000
  31
0.0
   0
LINE
   5
1E9
 100
AcDbEntity
   8
LEVEL002
 370
30
 100
AcDbLine
   6
CONTINUOUS
  62
7
  10
 792.70000000000
  20
 544.15000000000
  30
0.0
  11
 792.70000000000
  21
 536.95000000000
  31
0.0
   0
LINE
   5
1EA
 100
AcDbEntity
   8
LEVEL002
 370
30
 100
AcDbLine
   6
CONTINUOUS
  62
7
  10
 792.70000000000
  20
 536.95000000000
  30
0.0
  11
 781.90000000000
  21
 536.95000000000
  31
0.0
   0
LINE
   5
1EB
 100
AcDbEntity
   8
LEVEL002
 370
30
 100
AcDbLine
   6
CONTINUOUS
  62
7
  10
 673.90000000000
  20
 544.15000000000
  30
0.0
  11
 673.90000000000
  21
 522.55000000000
  31
0.0
   0
LINE
   5
1EC
 100
AcDbEntity
   8
LEVEL002
 370
30
 100
AcDbLine
   6
CONTINUOUS
  62
7
  10
 673.90000000000
  20
 522.55000000000
  30
0.0
  11
 681.10000000000
  21
 522.55000000000
  31
0.0
   0
LINE
   5
1ED
 100
AcDbEntity
   8
LEVEL002
 370
30
 100
AcDbLine
   6
CONTINUOUS
  62
7
  10
 681.10000000000
  20
 522.55000000000
  30
0.0
  11
 681.10000000000
  21
 526.15000000000
  31
0.0
   0
LINE
   5
1EE
 100
AcDbEntity
   8
LEVEL002
 370
30
 100
AcDbLine
   6
CONTINUOUS
  62
7
  10
 681.10000000000
  20
 526.15000000000
  30
0.0
  11
 688.30000000000
  21
 526.15000000000
  31
0.0
   0
ARC
   5
1EF
 100
AcDbEntity
   8
LEVEL002
 370
30
   6
CONTINUOUS
  62
7
 100
AcDbCircle
  10
 688.30000000000
  20
 535.15000000000
  30
0.0
  40
 9.0000000000000
 100
AcDbArc
  50
 270.00000000000
  51
 90.000000000000
   0
LINE
   5
1F0
 100
AcDbEntity
   8
LEVEL002
 370
30
 100
AcDbLine
   6
CONTINUOUS
  62
7
  10
 688.30000000000
  20
 544.15000000000
  30
0.0
  11
 673.90000000000
  21
 544.15000000000
  31
0.0
   0
LINE
   5
1F1
 100
AcDbEntity
   8
LEVEL002
 370
30
 100
AcDbLine
   6
CONTINUOUS
  62
7
  10
 681.10000000000
  20
 536.95000000000
  30
0.0
  11
 681.10000000000
  21
 533.35000000000
  31
0.0
   0
LINE
   5
1F2
 100
AcDbEntity
   8
LEVEL002
 370
30
 100
AcDbLine
   6
CONTINUOUS
  62
7
  10
 681.10000000000
  20
 533.35000000000
  30
0.0
  11
 688.30000000000
  21
 533.35000000000
  31
0.0
   0
ARC
   5
1F3
 100
AcDbEntity
   8
LEVEL002
 370
30
   6
CONTINUOUS
  62
7
 100
AcDbCircle
  10
 688.30000000000
  20
 535.15000000000
  30
0.0
  40
 1.8000000000000
 100
AcDbArc
  50
 270.00000000000
  51
 90.000000000000
   0
LINE
   5
1F4
 100
AcDbEntity
   8
LEVEL002
 370
30
 100
AcDbLine
   6
CONTINUOUS
  62
7
  10
 688.30000000000
  20
 536.95000000000
  30
0.0
  11
 681.10000000000
  21
 536.95000000000
  31
0.0
   0
LINE
   5
1F5
 100
AcDbEntity
   8
LEVEL002
 370
30
 100
AcDbLine
   6
CONTINUOUS
  62
7
  10
 706.30000000000
  20
 544.15000000000
  30
0.0
  11
 691.90000000000
  21
 522.55000000000
  31
0.0
   0
LINE
   5
1F6
 100
AcDbEntity
   8
LEVEL002
 370
30
 100
AcDbLine
   6
CONTINUOUS
  62
7
  10
 691.90000000000
  20
 522.55000000000
  30
0.0
  11
 702.70000000000
  21
 522.55000000000
  31
0.0
   0
LINE
   5
1F7
 100
AcDbEntity
   8
LEVEL002
 370
30
 100
AcDbLine
   6
CONTINUOUS
  62
7
  10
 702.70000000000
  20
 522.55000000000
  30
0.0
  11
 717.10000000000
  21
 544.15000000000
  31
0.0
   0
LINE
   5
1F8
 100
AcDbEntity
   8
LEVEL002
 370
30
 100
AcDbLine
   6
CONTINUOUS
  62
7
  10
 717.10000000000
  20
 544.15000000000
  30
0.0
  11
 706.30000000000
  21
 544.15000000000
  31
0.0
   0
LINE
   5
1F9
 100
AcDbEntity
   8
LEVEL002
 370
30
 100
AcDbLine
   6
CONTINUOUS
  62
7
  10
 714.70000000000
  20
 522.55000000000
  30
0.0
  11
 714.70000000000
  21
 536.22333846940
  31
0.0
   0
LINE
   5
1FA
 100
AcDbEntity
   8
LEVEL002
 370
30
 100
AcDbLine
   6
CONTINUOUS
  62
7
  10
 714.70000000000
  20
 536.22333846940
  30
0.0
  11
 705.58444102040
  21
 522.55000000000
  31
0.0
   0
LINE
   5
1FB
 100
AcDbEntity
   8
LEVEL002
 370
30
 100
AcDbLine
   6
CONTINUOUS
  62
7
  10
 705.58444102040
  20
 522.55000000000
  30
0.0
  11
 714.70000000000
  21
 522.55000000000
  31
0.0
   0
LINE
   5
1FC
 100
AcDbEntity
   8
LEVEL002
 370
30
 100
AcDbLine
   6
CONTINUOUS
  62
7
  10
 717.10000000000
  20
 522.55000000000
  30
0.0
  11
 742.30000000000
  21
 522.55000000000
  31
0.0
   0
LINE
   5
1FD
 100
AcDbEntity
   8
LEVEL002
 370
30
 100
AcDbLine
   6
CONTINUOUS
  62
7
  10
 742.30000000000
  20
 522.55000000000
  30
0.0
  11
 742.30000000000
  21
 536.95000000000
  31
0.0
   0
LINE
   5
1FE
 100
AcDbEntity
   8
LEVEL002
 370
30
 100
AcDbLine
   6
CONTINUOUS
  62
7
  10
 742.30000000000
  20
 536.95000000000
  30
0.0
  11
 749.50000000000
  21
 536.95000000000
  31
0.0
   0
LINE
   5
1FF
 100
AcDbEntity
   8
LEVEL002
 370
30
 100
AcDbLine
   6
CONTINUOUS
  62
7
  10
 749.50000000000
  20
 536.95000000000
  30
0.0
  11
 749.50000000000
  21
 522.55000000000
  31
0.0
   0
LINE
   5
200
 100
AcDbEntity
   8
LEVEL002
 370
30
 100
AcDbLine
   6
CONTINUOUS
  62
7
  10
 749.50000000000
  20
 522.55000000000
  30
0.0
  11
 771.10000000000
  21
 522.55000000000
  31
0.0
   0
LINE
   5
201
 100
AcDbEntity
   8
LEVEL002
 370
30
 100
AcDbLine
   6
CONTINUOUS
  62
7
  10
 771.10000000000
  20
 522.55000000000
  30
0.0
  11
 771.10000000000
  21
 529.75000000000
  31
0.0
   0
LINE
   5
202
 100
AcDbEntity
   8
LEVEL002
 370
30
 100
AcDbLine
   6
CONTINUOUS
  62
7
  10
 771.10000000000
  20
 529.75000000000
  30
0.0
  11
 756.70000000000
  21
 529.75000000000
  31
0.0
   0
LINE
   5
203
 100
AcDbEntity
   8
LEVEL002
 370
30
 100
AcDbLine
   6
CONTINUOUS
  62
7
  10
 756.70000000000
  20
 529.75000000000
  30
0.0
  11
 756.70000000000
  21
 531.55000000000
  31
0.0
   0
LINE
   5
204
 100
AcDbEntity
   8
LEVEL002
 370
30
 100
AcDbLine
   6
CONTINUOUS
  62
7
  10
 756.70000000000
  20
 531.55000000000
  30
0.0
  11
 769.30000000000
  21
 531.55000000000
  31
0.0
   0
LINE
   5
205
 100
AcDbEntity
   8
LEVEL002
 370
30
 100
AcDbLine
   6
CONTINUOUS
  62
7
  10
 769.30000000000
  20
 531.55000000000
  30
0.0
  11
 769.30000000000
  21
 535.15000000000
  31
0.0
   0
LINE
   5
206
 100
AcDbEntity
   8
LEVEL002
 370
30
 100
AcDbLine
   6
CONTINUOUS
  62
7
  10
 769.30000000000
  20
 535.15000000000
  30
0.0
  11
 756.70000000000
  21
 535.15000000000
  31
0.0
   0
LINE
   5
207
 100
AcDbEntity
   8
LEVEL002
 370
30
 100
AcDbLine
   6
CONTINUOUS
  62
7
  10
 756.70000000000
  20
 535.15000000000
  30
0.0
  11
 756.70000000000
  21
 536.95000000000
  31
0.0
   0
LINE
   5
208
 100
AcDbEntity
   8
LEVEL002
 370
30
 100
AcDbLine
   6
CONTINUOUS
  62
7
  10
 756.70000000000
  20
 536.95000000000
  30
0.0
  11
 771.10000000000
  21
 536.95000000000
  31
0.0
   0
LINE
   5
209
 100
AcDbEntity
   8
LEVEL002
 370
30
 100
AcDbLine
   6
CONTINUOUS
  62
7
  10
 771.10000000000
  20
 536.95000000000
  30
0.0
  11
 771.10000000000
  21
 544.15000000000
  31
0.0
   0
LINE
   5
20A
 100
AcDbEntity
   8
LEVEL002
 370
30
 100
AcDbLine
   6
CONTINUOUS
  62
7
  10
 771.10000000000
  20
 544.15000000000
  30
0.0
  11
 727.90000000000
  21
 544.15000000000
  31
0.0
   0
LINE
   5
20B
 100
AcDbEntity
   8
LEVEL002
 370
30
 100
AcDbLine
   6
CONTINUOUS
  62
7
  10
 727.90000000000
  20
 544.15000000000
  30
0.0
  11
 727.90000000000
  21
 536.95000000000
  31
0.0
   0
LINE
   5
20C
 100
AcDbEntity
   8
LEVEL002
 370
30
 100
AcDbLine
   6
CONTINUOUS
  62
7
  10
 727.90000000000
  20
 536.95000000000
  30
0.0
  11
 735.10000000000
  21
 536.95000000000
  31
0.0
   0
LINE
   5
20D
 100
AcDbEntity
   8
LEVEL002
 370
30
 100
AcDbLine
   6
CONTINUOUS
  62
7
  10
 735.10000000000
  20
 536.95000000000
  30
0.0
  11
 735.10000000000
  21
 529.75000000000
  31
0.0
   0
LINE
   5
20E
 100
AcDbEntity
   8
LEVEL002
 370
30
 100
AcDbLine
   6
CONTINUOUS
  62
7
  10
 735.10000000000
  20
 529.75000000000
  30
0.0
  11
 724.30000000000
  21
 529.75000000000
  31
0.0
   0
LINE
   5
20F
 100
AcDbEntity
   8
LEVEL002
 370
30
 100
AcDbLine
   6
CONTINUOUS
  62
7
  10
 724.30000000000
  20
 529.75000000000
  30
0.0
  11
 724.30000000000
  21
 544.15000000000
  31
0.0
   0
LINE
   5
210
 100
AcDbEntity
   8
LEVEL002
 370
30
 100
AcDbLine
   6
CONTINUOUS
  62
7
  10
 724.30000000000
  20
 544.15000000000
  30
0.0
  11
 717.10000000000
  21
 544.15000000000
  31
0.0
   0
LINE
   5
211
 100
AcDbEntity
   8
LEVEL002
 370
30
 100
AcDbLine
   6
CONTINUOUS
  62
7
  10
 717.10000000000
  20
 544.15000000000
  30
0.0
  11
 717.10000000000
  21
 522.55000000000
  31
0.0
   0
LINE
   5
212
 100
AcDbEntity
   8
LEVEL002
 370
30
 100
AcDbLine
   6
CONTINUOUS
  62
7
  10
 781.90000000000
  20
 522.55000000000
  30
0.0
  11
 792.70000000000
  21
 522.55000000000
  31
0.0
   0
LINE
   5
213
 100
AcDbEntity
   8
LEVEL002
 370
30
 100
AcDbLine
   6
CONTINUOUS
  62
7
  10
 792.70000000000
  20
 522.55000000000
  30
0.0
  11
 792.70000000000
  21
 529.75000000000
  31
0.0
   0
LINE
   5
214
 100
AcDbEntity
   8
LEVEL002
 370
30
 100
AcDbLine
   6
CONTINUOUS
  62
7
  10
 792.70000000000
  20
 529.75000000000
  30
0.0
  11
 781.90000000000
  21
 529.75000000000
  31
0.0
   0
ARC
   5
215
 100
AcDbEntity
   8
LEVEL002
 370
30
   6
CONTINUOUS
  62
7
 100
AcDbCircle
  10
 781.90000000000
  20
 533.35000000000
  30
0.0
  40
 3.6000000000000
 100
AcDbArc
  50
 90.000000000000
  51
 270.00000000000
   0
LINE
   5
216
 100
AcDbEntity
   8
LEVEL002
 370
30
 100
AcDbLine
   6
CONTINUOUS
  62
7
  10
 781.90000000000
  20
 536.95000000000
  30
0.0
  11
 792.70000000000
  21
 536.95000000000
  31
0.0
   0
LINE
   5
217
 100
AcDbEntity
   8
LEVEL002
 370
30
 100
AcDbLine
   6
CONTINUOUS
  62
7
  10
 792.70000000000
  20
 536.95000000000
  30
0.0
  11
 792.70000000000
  21
 544.15000000000
  31
0.0
   0
LINE
   5
218
 100
AcDbEntity
   8
LEVEL002
 370
30
 100
AcDbLine
   6
CONTINUOUS
  62
7
  10
 792.70000000000
  20
 544.15000000000
  30
0.0
  11
 781.90000000000
  21
 544.15000000000
  31
0.0
   0
ARC
   5
219
 100
AcDbEntity
   8
LEVEL002
 370
30
   6
CONTINUOUS
  62
7
 100
AcDbCircle
  10
 781.90000000000
  20
 533.35000000000
  30
0.0
  40
 10.800000000000
 100
AcDbArc
  50
 90.000000000000
  51
 270.00000000000
   0
LINE
   5
21A
 100
AcDbEntity
   8
LEVEL002
 370
30
 100
AcDbLine
   6
CONTINUOUS
  62
7
  10
 666.70000000000
  20
 527.35000000000
  30
0.0
  11
 657.70000000000
  21
 541.75000000000
  31
0.0
   0
LINE
   5
21B
 100
AcDbEntity
   8
LEVEL002
 370
30
 100
AcDbLine
   6
CONTINUOUS
  62
7
  10
 657.70000000000
  20
 541.75000000000
  30
0.0
  11
 666.70000000000
  21
 541.75000000000
  31
0.0
   0
LINE
   5
21C
 100
AcDbEntity
   8
LEVEL002
 370
30
 100
AcDbLine
   6
CONTINUOUS
  62
7
  10
 666.70000000000
  20
 541.75000000000
  30
0.0
  11
 666.70000000000
  21
 527.35000000000
  31
0.0
   0
LINE
   5
21D
 100
AcDbEntity
   8
LEVEL002
 370
30
 100
AcDbLine
   6
CONTINUOUS
  62
7
  10
 657.70000000000
  20
 541.75000000000
  30
0.0
  11
 666.70000000000
  21
 527.35000000000
  31
0.0
   0
LINE
   5
21E
 100
AcDbEntity
   8
LEVEL002
 370
30
 100
AcDbLine
   6
CONTINUOUS
  62
7
  10
 666.70000000000
  20
 527.35000000000
  30
0.0
  11
 666.70000000000
  21
 541.75000000000
  31
0.0
   0
LINE
   5
21F
 100
AcDbEntity
   8
LEVEL002
 370
30
 100
AcDbLine
   6
CONTINUOUS
  62
7
  10
 666.70000000000
  20
 541.75000000000
  30
0.0
  11
 657.70000000000
  21
 541.75000000000
  31
0.0
   0
LINE
   5
220
 100
AcDbEntity
   8
LEVEL002
 370
30
 100
AcDbLine
   6
CONTINUOUS
  62
7
  10
 638.10000000000
  20
 560.95000000000
  30
0.0
  11
 625.30000000000
  21
 541.75000000000
  31
0.0
   0
LINE
   5
221
 100
AcDbEntity
   8
LEVEL002
 370
30
 100
AcDbLine
   6
CONTINUOUS
  62
7
  10
 625.30000000000
  20
 541.75000000000
  30
0.0
  11
 638.10000000000
  21
 522.55000000000
  31
0.0
   0
LINE
   5
222
 100
AcDbEntity
   8
LEVEL002
 370
30
 100
AcDbLine
   6
CONTINUOUS
  62
7
  10
 648.90000000000
  20
 522.55000000000
  30
0.0
  11
 636.10000000000
  21
 541.75000000000
  31
0.0
   0
LINE
   5
223
 100
AcDbEntity
   8
LEVEL002
 370
30
 100
AcDbLine
   6
CONTINUOUS
  62
7
  10
 636.10000000000
  20
 541.75000000000
  30
0.0
  11
 648.90000000000
  21
 560.95000000000
  31
0.0
   0
LINE
   5
224
 100
AcDbEntity
   8
LEVEL002
 370
30
 100
AcDbLine
   6
CONTINUOUS
  62
7
  10
 654.30000000000
  20
 560.95000000000
  30
0.0
  11
 641.50000000000
  21
 541.75000000000
  31
0.0
   0
LINE
   5
225
 100
AcDbEntity
   8
LEVEL002
 370
30
 100
AcDbLine
   6
CONTINUOUS
  62
7
  10
 641.50000000000
  20
 541.75000000000
  30
0.0
  11
 654.30000000000
  21
 522.55000000000
  31
0.0
   0
LINE
   5
226
 100
AcDbEntity
   8
LEVEL002
 370
30
 100
AcDbLine
   6
CONTINUOUS
  62
7
  10
 665.10000000000
  20
 522.55000000000
  30
0.0
  11
 652.30000000000
  21
 541.75000000000
  31
0.0
   0
LINE
   5
227
 100
AcDbEntity
   8
LEVEL002
 370
30
 100
AcDbLine
   6
CONTINUOUS
  62
7
  10
 652.30000000000
  20
 541.75000000000
  30
0.0
  11
 665.10000000000
  21
 560.95000000000
  31
0.0
   0
LINE
   5
228
 100
AcDbEntity
   8
LEVEL002
 370
30
 100
AcDbLine
   6
CONTINUOUS
  62
7
  10
 638.10000000000
  20
 522.55000000000
  30
0.0
  11
 625.30000000000
  21
 541.75000000000
  31
0.0
   0
LINE
   5
229
 100
AcDbEntity
   8
LEVEL002
 370
30
 100
AcDbLine
   6
CONTINUOUS
  62
7
  10
 625.30000000000
  20
 541.75000000000
  30
0.0
  11
 638.10000000000
  21
 560.95000000000
  31
0.0
   0
LINE
   5
22A
 100
AcDbEntity
   8
LEVEL002
 370
30
 100
AcDbLine
   6
CONTINUOUS
  62
7
  10
 638.10000000000
  20
 560.95000000000
  30
0.0
  11
 648.90000000000
  21
 560.95000000000
  31
0.0
   0
LINE
   5
22B
 100
AcDbEntity
   8
LEVEL002
 370
30
 100
AcDbLine
   6
CONTINUOUS
  62
7
  10
 648.90000000000
  20
 560.95000000000
  30
0.0
  11
 636.10000000000
  21
 541.75000000000
  31
0.0
   0
LINE
   5
22C
 100
AcDbEntity
   8
LEVEL002
 370
30
 100
AcDbLine
   6
CONTINUOUS
  62
7
  10
 636.10000000000
  20
 541.75000000000
  30
0.0
  11
 648.90000000000
  21
 522.55000000000
  31
0.0
   0
LINE
   5
22D
 100
AcDbEntity
   8
LEVEL002
 370
30
 100
AcDbLine
   6
CONTINUOUS
  62
7
  10
 648.90000000000
  20
 522.55000000000
  30
0.0
  11
 638.10000000000
  21
 522.55000000000
  31
0.0
   0
LINE
   5
22E
 100
AcDbEntity
   8
LEVEL002
 370
30
 100
AcDbLine
   6
CONTINUOUS
  62
7
  10
 654.30000000000
  20
 522.55000000000
  30
0.0
  11
 641.50000000000
  21
 541.75000000000
  31
0.0
   0
LINE
   5
22F
 100
AcDbEntity
   8
LEVEL002
 370
30
 100
AcDbLine
   6
CONTINUOUS
  62
7
  10
 641.50000000000
  20
 541.75000000000
  30
0.0
  11
 654.30000000000
  21
 560.95000000000
  31
0.0
   0
LINE
   5
230
 100
AcDbEntity
   8
LEVEL002
 370
30
 100
AcDbLine
   6
CONTINUOUS
  62
7
  10
 654.30000000000
  20
 560.95000000000
  30
0.0
  11
 665.10000000000
  21
 560.95000000000
  31
0.0
   0
LINE
   5
231
 100
AcDbEntity
   8
LEVEL002
 370
30
 100
AcDbLine
   6
CONTINUOUS
  62
7
  10
 665.10000000000
  20
 560.95000000000
  30
0.0
  11
 652.30000000000
  21
 541.75000000000
  31
0.0
   0
LINE
   5
232
 100
AcDbEntity
   8
LEVEL002
 370
30
 100
AcDbLine
   6
CONTINUOUS
  62
7
  10
 652.30000000000
  20
 541.75000000000
  30
0.0
  11
 665.10000000000
  21
 522.55000000000
  31
0.0
   0
LINE
   5
233
 100
AcDbEntity
   8
LEVEL002
 370
30
 100
AcDbLine
   6
CONTINUOUS
  62
7
  10
 665.10000000000
  20
 522.55000000000
  30
0.0
  11
 654.30000000000
  21
 522.55000000000
  31
0.0
   0
HATCH
   5
234
 100
AcDbEntity
   8
LEVEL001
  62
1
 100
AcDbHatch
  10
0.0
  20
0.0
  30
0.0
 210
0.0
 220
0.0
 230
 1.0000000000000
   2
SOLID
  70
1
  71
1
  91
7
  92
1
  93
6
  72
1
  10
 648.90000000000
  20
 560.95000000000
  11
 636.10000000000
  21
 541.75000000000
  72
1
  10
 636.10000000000
  20
 541.75000000000
  11
 648.90000000000
  21
 522.55000000000
  72
1
  10
 648.90000000000
  20
 522.55000000000
  11
 638.10000000000
  21
 522.55000000000
  72
1
  10
 638.10000000000
  20
 522.55000000000
  11
 625.30000000000
  21
 541.75000000000
  72
1
  10
 625.30000000000
  20
 541.75000000000
  11
 638.10000000000
  21
 560.95000000000
  72
1
  10
 638.10000000000
  20
 560.95000000000
  11
 648.90000000000
  21
 560.95000000000
  97
1
 330

  92
16
  93
6
  72
1
  10
 654.30000000000
  20
 560.95000000000
  11
 665.10000000000
  21
 560.95000000000
  72
1
  10
 665.10000000000
  20
 560.95000000000
  11
 652.30000000000
  21
 541.75000000000
  72
1
  10
 652.30000000000
  20
 541.75000000000
  11
 665.10000000000
  21
 522.55000000000
  72
1
  10
 665.10000000000
  20
 522.55000000000
  11
 654.30000000000
  21
 522.55000000000
  72
1
  10
 654.30000000000
  20
 522.55000000000
  11
 641.50000000000
  21
 541.75000000000
  72
1
  10
 641.50000000000
  20
 541.75000000000
  11
 654.30000000000
  21
 560.95000000000
  97
1
 330

  92
16
  93
3
  72
1
  10
 666.70000000000
  20
 541.75000000000
  11
 657.70000000000
  21
 541.75000000000
  72
1
  10
 657.70000000000
  20
 541.75000000000
  11
 666.70000000000
  21
 527.35000000000
  72
1
  10
 666.70000000000
  20
 527.35000000000
  11
 666.70000000000
  21
 541.75000000000
  97
1
 330

  92
16
  93
6
  72
1
  10
 673.90000000000
  20
 544.15000000000
  11
 688.30000000000
  21
 544.15000000000
  72
2
  10
 688.30000000000
  20
 535.15000000000
  40
 9.0000000000000
  50
 270.00000000000
  51
 90.000000000000
  73
0
  72
1
  10
 688.30000000000
  20
 526.15000000000
  11
 681.10000000000
  21
 526.15000000000
  72
1
  10
 681.10000000000
  20
 526.15000000000
  11
 681.10000000000
  21
 522.55000000000
  72
1
  10
 681.10000000000
  20
 522.55000000000
  11
 673.90000000000
  21
 522.55000000000
  72
1
  10
 673.90000000000
  20
 522.55000000000
  11
 673.90000000000
  21
 544.15000000000
  97
1
 330

  92
16
  93
4
  72
1
  10
 688.30000000000
  20
 536.95000000000
  11
 681.10000000000
  21
 536.95000000000
  72
1
  10
 681.10000000000
  20
 536.95000000000
  11
 681.10000000000
  21
 533.35000000000
  72
1
  10
 681.10000000000
  20
 533.35000000000
  11
 688.30000000000
  21
 533.35000000000
  72
2
  10
 688.30000000000
  20
 535.15000000000
  40
 1.8000000000000
  50
 270.00000000000
  51
 90.000000000000
  73
1
  97
1
 330

  92
16
  93
4
  72
1
  10
 691.90000000000
  20
 522.55000000000
  11
 706.30000000000
  21
 544.15000000000
  72
1
  10
 706.30000000000
  20
 544.15000000000
  11
 717.10000000000
  21
 544.15000000000
  72
1
  10
 717.10000000000
  20
 544.15000000000
  11
 702.70000000000
  21
 522.55000000000
  72
1
  10
 702.70000000000
  20
 522.55000000000
  11
 691.90000000000
  21
 522.55000000000
  97
1
 330

  92
16
  93
3
  72
1
  10
 714.70000000000
  20
 536.22333846940
  11
 705.58444102040
  21
 522.55000000000
  72
1
  10
 705.58444102040
  20
 522.55000000000
  11
 714.70000000000
  21
 522.55000000000
  72
1
  10
 714.70000000000
  20
 522.55000000000
  11
 714.70000000000
  21
 536.22333846940
  97
1
 330

  75
0
  76
1
  98
1
  10
0.0
  20
0.0
   0
HATCH
   5
235
 100
AcDbEntity
   8
LEVEL001
  62
1
 100
AcDbHatch
  10
0.0
  20
0.0
  30
0.0
 210
0.0
 220
0.0
 230
 1.0000000000000
   2
SOLID
  70
1
  71
1
  91
1
  92
1
  93
22
  72
1
  10
 717.10000000000
  20
 544.15000000000
  11
 724.30000000000
  21
 544.15000000000
  72
1
  10
 724.30000000000
  20
 544.15000000000
  11
 724.30000000000
  21
 529.75000000000
  72
1
  10
 724.30000000000
  20
 529.75000000000
  11
 735.10000000000
  21
 529.75000000000
  72
1
  10
 735.10000000000
  20
 529.75000000000
  11
 735.10000000000
  21
 536.95000000000
  72
1
  10
 735.10000000000
  20
 536.95000000000
  11
 727.90000000000
  21
 536.95000000000
  72
1
  10
 727.90000000000
  20
 536.95000000000
  11
 727.90000000000
  21
 544.15000000000
  72
1
  10
 727.90000000000
  20
 544.15000000000
  11
 771.10000000000
  21
 544.15000000000
  72
1
  10
 771.10000000000
  20
 544.15000000000
  11
 771.10000000000
  21
 536.95000000000
  72
1
  10
 771.10000000000
  20
 536.95000000000
  11
 756.70000000000
  21
 536.95000000000
  72
1
  10
 756.70000000000
  20
 536.95000000000
  11
 756.70000000000
  21
 535.15000000000
  72
1
  10
 756.70000000000
  20
 535.15000000000
  11
 769.30000000000
  21
 535.15000000000
  72
1
  10
 769.30000000000
  20
 535.15000000000
  11
 769.30000000000
  21
 531.55000000000
  72
1
  10
 769.30000000000
  20
 531.55000000000
  11
 756.70000000000
  21
 531.55000000000
  72
1
  10
 756.70000000000
  20
 531.55000000000
  11
 756.70000000000
  21
 529.75000000000
  72
1
  10
 756.70000000000
  20
 529.75000000000
  11
 771.10000000000
  21
 529.75000000000
  72
1
  10
 771.10000000000
  20
 529.75000000000
  11
 771.10000000000
  21
 522.55000000000
  72
1
  10
 771.10000000000
  20
 522.55000000000
  11
 749.50000000000
  21
 522.55000000000
  72
1
  10
 749.50000000000
  20
 522.55000000000
  11
 749.50000000000
  21
 536.95000000000
  72
1
  10
 749.50000000000
  20
 536.95000000000
  11
 742.30000000000
  21
 536.95000000000
  72
1
  10
 742.30000000000
  20
 536.95000000000
  11
 742.30000000000
  21
 522.55000000000
  72
1
  10
 742.30000000000
  20
 522.55000000000
  11
 717.10000000000
  21
 522.55000000000
  72
1
  10
 717.10000000000
  20
 522.55000000000
  11
 717.10000000000
  21
 544.15000000000
  97
1
 330

  75
0
  76
1
  98
1
  10
0.0
  20
0.0
   0
HATCH
   5
236
 100
AcDbEntity
   8
LEVEL001
  62
1
 100
AcDbHatch
  10
0.0
  20
0.0
  30
0.0
 210
0.0
 220
0.0
 230
 1.0000000000000
   2
SOLID
  70
1
  71
1
  91
1
  92
1
  93
8
  72
1
  10
 792.70000000000
  20
 544.15000000000
  11
 781.90000000000
  21
 544.15000000000
  72
2
  10
 781.90000000000
  20
 533.35000000000
  40
 10.800000000000
  50
 90.000000000000
  51
 270.00000000000
  73
1
  72
1
  10
 781.90000000000
  20
 522.55000000000
  11
 792.70000000000
  21
 522.55000000000
  72
1
  10
 792.70000000000
  20
 522.55000000000
  11
 792.70000000000
  21
 529.75000000000
  72
1
  10
 792.70000000000
  20
 529.75000000000
  11
 781.90000000000
  21
 529.75000000000
  72
2
  10
 781.90000000000
  20
 533.35000000000
  40
 3.6000000000000
  50
 90.000000000000
  51
 270.00000000000
  73
0
  72
1
  10
 781.90000000000
  20
 536.95000000000
  11
 792.70000000000
  21
 536.95000000000
  72
1
  10
 792.70000000000
  20
 536.95000000000
  11
 792.70000000000
  21
 544.15000000000
  97
1
 330

  75
0
  76
1
  98
1
  10
0.0
  20
0.0
   0
LINE
   5
237
 100
AcDbEntity
   8
LEVEL002
 370
50
 100
AcDbLine
   6
CONTINUOUS
  62
4
  10
 808.99999999990
  20
 570.00000000000
  30
0.0
  11
 30.999999999900
  21
 570.00000000000
  31
0.0
   0
LINE
   5
238
 100
AcDbEntity
   8
LEVEL002
 370
50
 100
AcDbLine
   6
CONTINUOUS
  62
4
  10
 30.999999999900
  20
 570.00000000000
  30
0.0
  11
 30.999999999900
  21
 24.000000000000
  31
0.0
   0
LINE
   5
239
 100
AcDbEntity
   8
LEVEL002
 370
50
 100
AcDbLine
   6
CONTINUOUS
  62
4
  10
 608.99999999990
  20
 570.00000000000
  30
0.0
  11
 608.99999999990
  21
 24.000000000000
  31
0.0
   0
LINE
   5
23A
 100
AcDbEntity
   8
LEVEL002
 370
50
 100
AcDbLine
   6
CONTINUOUS
  62
4
  10
 808.99999999990
  20
 24.000000000000
  30
0.0
  11
 808.99999999990
  21
 570.00000000000
  31
0.0
   0
LINE
   5
23B
 100
AcDbEntity
   8
LEVEL002
 370
50
 100
AcDbLine
   6
CONTINUOUS
  62
4
  10
 30.999999999900
  20
 24.000000000000
  30
0.0
  11
 808.99999999990
  21
 24.000000000000
  31
0.0
   0
ARC
   5
23C
 100
AcDbEntity
   8
LEVEL002
 370
30
   6
CONTINUOUS
  62
7
 100
AcDbCircle
  10
 145.99999999990
  20
 454.49674943660
  30
0.0
  40
 55.000000000000
 100
AcDbArc
  50
 180.00000000000
  51
 193.17589044013
   0
ARC
   5
23D
 100
AcDbEntity
   8
LEVEL002
 370
30
   6
CONTINUOUS
  62
7
 100
AcDbCircle
  10
 93.032085183475
  20
 442.09674943660
  30
0.0
  40
 0.60000000000000
 100
AcDbArc
  50
 193.17589044013
  51
 13.175890440136
   0
ARC
   5
23E
 100
AcDbEntity
   8
LEVEL002
 370
30
   6
CONTINUOUS
  62
7
 100
AcDbCircle
  10
 145.99999999990
  20
 454.49674943660
  30
0.0
  40
 53.800000000000
 100
AcDbArc
  50
 180.00000000000
  51
 193.17589044013
   0
LINE
   5
23F
 100
AcDbEntity
   8
LEVEL002
 370
30
 100
AcDbLine
   6
CONTINUOUS
  62
7
  10
 92.199999999900
  20
 454.49674943660
  30
0.0
  11
 94.699999999900
  21
 454.49674943660
  31
0.0
   0
ARC
   5
240
 100
AcDbEntity
   8
LEVEL002
 370
30
   6
CONTINUOUS
  62
7
 100
AcDbCircle
  10
 94.999999999900
  20
 454.49674943660
  30
0.0
  40
 0.30000000000000
 100
AcDbArc
  50
0.0
  51
 180.00000000000
   0
LINE
   5
241
 100
AcDbEntity
   8
LEVEL002
 370
30
 100
AcDbLine
   6
CONTINUOUS
  62
7
  10
 95.299999999900
  20
 454.49674943660
  30
0.0
  11
 97.199999999900
  21
 454.49674943660
  31
0.0
   0
ARC
   5
242
 100
AcDbEntity
   8
LEVEL002
 370
30
   6
CONTINUOUS
  62
7
 100
AcDbCircle
  10
 97.499999999900
  20
 454.49674943660
  30
0.0
  40
 0.30000000000000
 100
AcDbArc
  50
0.0
  51
 180.00000000000
   0
LINE
   5
243
 100
AcDbEntity
   8
LEVEL002
 370
30
 100
AcDbLine
   6
CONTINUOUS
  62
7
  10
 97.799999999900
  20
 454.49674943660
  30
0.0
  11
 99.699999999900
  21
 454.49674943660
  31
0.0
   0
ARC
   5
244
 100
AcDbEntity
   8
LEVEL002
 370
30
   6
CONTINUOUS
  62
7
 100
AcDbCircle
  10
 99.999999999900
  20
 454.49674943660
  30
0.0
  40
 0.30000000000000
 100
AcDbArc
  50
0.0
  51
 180.00000000000
   0
LINE
   5
245
 100
AcDbEntity
   8
LEVEL002
 370
30
 100
AcDbLine
   6
CONTINUOUS
  62
7
  10
 100.29999999990
  20
 454.49674943660
  30
0.0
  11
 102.19999999990
  21
 454.49674943660
  31
0.0
   0
ARC
   5
246
 100
AcDbEntity
   8
LEVEL002
 370
30
   6
CONTINUOUS
  62
7
 100
AcDbCircle
  10
 102.49999999990
  20
 454.49674943660
  30
0.0
  40
 0.30000000000000
 100
AcDbArc
  50
0.0
  51
 180.00000000000
   0
LINE
   5
247
 100
AcDbEntity
   8
LEVEL002
 370
30
 100
AcDbLine
   6
CONTINUOUS
  62
7
  10
 102.79999999990
  20
 454.49674943660
  30
0.0
  11
 104.69999999990
  21
 454.49674943660
  31
0.0
   0
ARC
   5
248
 100
AcDbEntity
   8
LEVEL002
 370
30
   6
CONTINUOUS
  62
7
 100
AcDbCircle
  10
 104.99999999990
  20
 454.49674943660
  30
0.0
  40
 0.30000000000000
 100
AcDbArc
  50
0.0
  51
 180.00000000000
   0
LINE
   5
249
 100
AcDbEntity
   8
LEVEL002
 370
30
 100
AcDbLine
   6
CONTINUOUS
  62
7
  10
 105.29999999990
  20
 454.49674943660
  30
0.0
  11
 107.19999999990
  21
 454.49674943660
  31
0.0
   0
ARC
   5
24A
 100
AcDbEntity
   8
LEVEL002
 370
30
   6
CONTINUOUS
  62
7
 100
AcDbCircle
  10
 107.49999999990
  20
 454.49674943660
  30
0.0
  40
 0.30000000000000
 100
AcDbArc
  50
0.0
  51
 180.00000000000
   0
LINE
   5
24B
 100
AcDbEntity
   8
LEVEL002
 370
30
 100
AcDbLine
   6
CONTINUOUS
  62
7
  10
 107.79999999990
  20
 454.49674943660
  30
0.0
  11
 109.69999999990
  21
 454.49674943660
  31
0.0
   0
ARC
   5
24C
 100
AcDbEntity
   8
LEVEL002
 370
30
   6
CONTINUOUS
  62
7
 100
AcDbCircle
  10
 109.99999999990
  20
 454.49674943660
  30
0.0
  40
 0.30000000000000
 100
AcDbArc
  50
0.0
  51
 180.00000000000
   0
LINE
   5
24D
 100
AcDbEntity
   8
LEVEL002
 370
30
 100
AcDbLine
   6
CONTINUOUS
  62
7
  10
 110.29999999990
  20
 454.49674943660
  30
0.0
  11
 112.19999999990
  21
 454.49674943660
  31
0.0
   0
ARC
   5
24E
 100
AcDbEntity
   8
LEVEL002
 370
30
   6
CONTINUOUS
  62
7
 100
AcDbCircle
  10
 112.49999999990
  20
 454.49674943660
  30
0.0
  40
 0.30000000000000
 100
AcDbArc
  50
0.0
  51
 180.00000000000
   0
LINE
   5
24F
 100
AcDbEntity
   8
LEVEL002
 370
30
 100
AcDbLine
   6
CONTINUOUS
  62
7
  10
 112.79999999990
  20
 454.49674943660
  30
0.0
  11
 114.69999999990
  21
 454.49674943660
  31
0.0
   0
ARC
   5
250
 100
AcDbEntity
   8
LEVEL002
 370
30
   6
CONTINUOUS
  62
7
 100
AcDbCircle
  10
 114.99999999990
  20
 454.49674943660
  30
0.0
  40
 0.30000000000000
 100
AcDbArc
  50
0.0
  51
 180.00000000000
   0
LINE
   5
251
 100
AcDbEntity
   8
LEVEL002
 370
30
 100
AcDbLine
   6
CONTINUOUS
  62
7
  10
 115.29999999990
  20
 454.49674943660
  30
0.0
  11
 117.19999999990
  21
 454.49674943660
  31
0.0
   0
ARC
   5
252
 100
AcDbEntity
   8
LEVEL002
 370
30
   6
CONTINUOUS
  62
7
 100
AcDbCircle
  10
 117.49999999990
  20
 454.49674943660
  30
0.0
  40
 0.30000000000000
 100
AcDbArc
  50
0.0
  51
 180.00000000000
   0
LINE
   5
253
 100
AcDbEntity
   8
LEVEL002
 370
30
 100
AcDbLine
   6
CONTINUOUS
  62
7
  10
 117.79999999990
  20
 454.49674943660
  30
0.0
  11
 119.69999999990
  21
 454.49674943660
  31
0.0
   0
ARC
   5
254
 100
AcDbEntity
   8
LEVEL002
 370
30
   6
CONTINUOUS
  62
7
 100
AcDbCircle
  10
 119.99999999990
  20
 454.49674943660
  30
0.0
  40
 0.30000000000000
 100
AcDbArc
  50
0.0
  51
 180.00000000000
   0
LINE
   5
255
 100
AcDbEntity
   8
LEVEL002
 370
30
 100
AcDbLine
   6
CONTINUOUS
  62
7
  10
 120.29999999990
  20
 454.49674943660
  30
0.0
  11
 122.19999999990
  21
 454.49674943660
  31
0.0
   0
ARC
   5
256
 100
AcDbEntity
   8
LEVEL002
 370
30
   6
CONTINUOUS
  62
7
 100
AcDbCircle
  10
 122.49999999990
  20
 454.49674943660
  30
0.0
  40
 0.30000000000000
 100
AcDbArc
  50
0.0
  51
 180.00000000000
   0
LINE
   5
257
 100
AcDbEntity
   8
LEVEL002
 370
30
 100
AcDbLine
   6
CONTINUOUS
  62
7
  10
 122.79999999990
  20
 454.49674943660
  30
0.0
  11
 125.49999999990
  21
 454.49674943660
  31
0.0
   0
LINE
   5
258
 100
AcDbEntity
   8
LEVEL002
 370
30
 100
AcDbLine
   6
CONTINUOUS
  62
7
  10
 125.49999999990
  20
 454.49674943660
  30
0.0
  11
 125.99999999990
  21
 456.99674943660
  31
0.0
   0
LINE
   5
259
 100
AcDbEntity
   8
LEVEL002
 370
30
 100
AcDbLine
   6
CONTINUOUS
  62
7
  10
 125.99999999990
  20
 456.99674943660
  30
0.0
  11
 122.43485768542
  21
 459.39461521220
  31
0.0
   0
ARC
   5
25A
 100
AcDbEntity
   8
LEVEL002
 370
30
   6
CONTINUOUS
  62
7
 100
AcDbCircle
  10
 122.09999999990
  20
 458.89674943660
  30
0.0
  40
 0.60000000000000
 100
AcDbArc
  50
 56.075764696139
  51
 236.07576469615
   0
LINE
   5
25B
 100
AcDbEntity
   8
LEVEL002
 370
30
 100
AcDbLine
   6
CONTINUOUS
  62
7
  10
 121.76514231439
  20
 458.39888366110
  30
0.0
  11
 124.27904807116
  21
 456.70806516210
  31
0.0
   0
ARC
   5
25C
 100
AcDbEntity
   8
LEVEL002
 370
30
   6
CONTINUOUS
  62
7
 100
AcDbCircle
  10
 123.99999999990
  20
 456.29317701570
  30
0.0
  40
 0.50000000000000
 100
AcDbArc
  50
0.0
  51
 56.075764700050
   0
LINE
   5
25D
 100
AcDbEntity
   8
LEVEL002
 370
30
 100
AcDbLine
   6
CONTINUOUS
  62
7
  10
 124.49999999990
  20
 456.29317701580
  30
0.0
  11
 124.49999999990
  21
 456.19674943660
  31
0.0
   0
ARC
   5
25E
 100
AcDbEntity
   8
LEVEL002
 370
30
   6
CONTINUOUS
  62
7
 100
AcDbCircle
  10
 123.99999999980
  20
 456.19674943660
  30
0.0
  40
 0.50000000000000
 100
AcDbArc
  50
 270.00000001105
  51
0.0
   0
LINE
   5
25F
 100
AcDbEntity
   8
LEVEL002
 370
30
 100
AcDbLine
   6
CONTINUOUS
  62
7
  10
 123.99999999990
  20
 455.69674943660
  30
0.0
  11
 92.499999999900
  21
 455.69674943660
  31
0.0
   0
LINE
   5
260
 100
AcDbEntity
   8
LEVEL002
 370
30
 100
AcDbLine
   6
CONTINUOUS
  62
7
  10
 92.499999999900
  20
 455.69674943660
  30
0.0
  11
 92.499999999900
  21
 457.49674943660
  31
0.0
   0
ARC
   5
261
 100
AcDbEntity
   8
LEVEL002
 370
30
   6
CONTINUOUS
  62
7
 100
AcDbCircle
  10
 93.000000000083
  20
 457.49674943660
  30
0.0
  40
 0.50000000000000
 100
AcDbArc
  50
 90.000000021000
  51
 180.00000000000
   0
LINE
   5
262
 100
AcDbEntity
   8
LEVEL002
 370
30
 100
AcDbLine
   6
CONTINUOUS
  62
7
  10
 92.999999999900
  20
 457.99674943660
  30
0.0
  11
 95.199999999900
  21
 457.99674943660
  31
0.0
   0
LINE
   5
263
 100
AcDbEntity
   8
LEVEL002
 370
30
 100
AcDbLine
   6
CONTINUOUS
  62
7
  10
 95.199999999900
  20
 457.99674943660
  30
0.0
  11
 95.199999999900
  21
 458.89674943660
  31
0.0
   0
ARC
   5
264
 100
AcDbEntity
   8
LEVEL002
 370
30
   6
CONTINUOUS
  62
7
 100
AcDbCircle
  10
 94.599999999852
  20
 458.89674943660
  30
0.0
  40
 0.60000000000000
 100
AcDbArc
  50
0.0
  51
 89.999999995397
   0
LINE
   5
265
 100
AcDbEntity
   8
LEVEL002
 370
30
 100
AcDbLine
   6
CONTINUOUS
  62
7
  10
 94.599999999900
  20
 459.49674943660
  30
0.0
  11
 92.499999999900
  21
 459.49674943660
  31
0.0
   0
ARC
   5
266
 100
AcDbEntity
   8
LEVEL002
 370
30
   6
CONTINUOUS
  62
7
 100
AcDbCircle
  10
 92.499999999900
  20
 457.99674943670
  30
0.0
  40
 1.5000000000000
 100
AcDbArc
  50
 90.000000000000
  51
 180.00000000106
   0
LINE
   5
267
 100
AcDbEntity
   8
LEVEL002
 370
30
 100
AcDbLine
   6
CONTINUOUS
  62
7
  10
 90.999999999900
  20
 457.99674943660
  30
0.0
  11
 90.999999999900
  21
 454.49674943660
  31
0.0
   0
LINE
   5
268
 100
AcDbEntity
   8
LEVEL002
 370
30
 100
AcDbLine
   6
CONTINUOUS
  62
7
  10
 90.999999999900
  20
 543.50000000000
  30
0.0
  11
 90.999999999900
  21
 498.50000000000
  31
0.0
   0
LINE
   5
269
 100
AcDbEntity
   8
LEVEL002
 370
30
 100
AcDbLine
   6
CONTINUOUS
  62
7
  10
 90.999999999900
  20
 498.50000000000
  30
0.0
  11
 125.99999999990
  21
 498.50000000000
  31
0.0
   0
LINE
   5
26A
 100
AcDbEntity
   8
LEVEL002
 370
30
 100
AcDbLine
   6
CONTINUOUS
  62
7
  10
 125.99999999990
  20
 498.50000000000
  30
0.0
  11
 125.99999999990
  21
 543.50000000000
  31
0.0
   0
LINE
   5
26B
 100
AcDbEntity
   8
LEVEL002
 370
30
 100
AcDbLine
   6
CONTINUOUS
  62
7
  10
 121.50117983687
  20
 543.50000000000
  30
0.0
  11
 121.50117983687
  21
 498.50000000000
  31
0.0
   0
LINE
   5
26C
 100
AcDbEntity
   8
LEVEL002
 370
30
 100
AcDbLine
   6
CONTINUOUS
  62
7
  10
 121.50117983687
  20
 459.39674943660
  30
0.0
  11
 121.50117983687
  21
 458.85914076280
  31
0.0
   0
MTEXT
   5
26E
 100
AcDbEntity
   8
LEVEL002
 370
15
  62
8
 100
AcDbMText
  10
 693.79999999990
  20
 178.73437800234
  30
0.0
  40
 8.0000000000000
  41
0.0
  71
2
  72
1
   1
{\T1.000000;　※インサートのカラーバリエーション}\P{\T1.000000;　　はカタログを参照願います。}\P{\T1.000000;　※本製品は予告無しに変更する事があります。}
   7
GMM002
  44
 0.79999984000003
   0
LINE
   5
26F
 100
AcDbEntity
   8
LEVEL002
 370
40
 100
AcDbLine
   6
CONTINUOUS
  62
3
  10
 608.99999999990
  20
 184.00000000000
  30
0.0
  11
 808.99999999990
  21
 184.00000000000
  31
0.0
   0
MTEXT
   5
271
 100
AcDbEntity
   8
LEVEL002
 370
15
  62
8
 100
AcDbMText
  10
 103.24999999990
  20
 560.00000000000
  30
0.0
  40
 6.0000000000000
  41
0.0
  71
5
  72
1
   1
\T1.000000;Ｎ３５Ｐ
   7
GMM002
  44
 0.79999984000003
   0
MTEXT
   5
273
 100
AcDbEntity
   8
LEVEL002
 370
15
  62
8
 100
AcDbMText
  10
 650.49999999990
  20
 493.50000000000
  30
0.0
  40
 9.0000000000000
  41
0.0
  71
7
  72
1
   1
\T1.000000;　屋内用階段すべり止め②
   7
GMM004
  44
 0.79999984000003
   0
MTEXT
   5
275
 100
AcDbEntity
   8
LEVEL002
 370
15
  62
8
 100
AcDbMText
  10
 650.49999999990
  20
 481.50000000000
  30
0.0
  40
 9.0000000000000
  41
0.0
  71
7
  72
1
   1
\W0.888889;\T1.000000;パルステップ\W0.444444;\T1.000000;(\W0.888889;\T1.000000;真鍮タイプ\W0.444444;\T1.000000;)
   7
GMM004
  44
 0.79999984000003
   0
MTEXT
   5
277
 100
AcDbEntity
   8
LEVEL002
 370
15
  62
8
 100
AcDbMText
  10
 708.99999999990
  20
 453.50000000000
  30
0.0
  40
 8.0000000000000
  41
0.0
  71
5
  72
1
   1
\T1.000000;真鍮②
   7
GMM002
  44
 0.79999984000003
   0
MTEXT
   5
279
 100
AcDbEntity
   8
LEVEL002
 370
15
  62
8
 100
AcDbMText
  10
 758.99999999990
  20
 40.166666666690
  30
0.0
  40
 5.0000000000000
  41
0.0
  71
5
  72
1
   1
\T1.000000;パルステップ真鍮－２
   7
GMM002
  44
 0.79999984000003
   0
MTEXT
   5
27B
 100
AcDbEntity
   8
LEVEL002
 370
15
  62
8
 100
AcDbMText
  10
 638.99999999990
  20
 415.83333333340
  30
0.0
  40
 7.0000000000000
  41
0.0
  71
1
  72
1
   1
{\W0.500000;\T1.000000;･\W1.000000;\T1.000000;金台}\P{\W0.500000;\T1.000000; \W1.000000;\T1.000000;　　真鍮}\P{\W0.500000;\T1.000000; \W1.000000;\T1.000000;　　仕上げ：生地／磨}
   7
GMM002
  44
 0.79999984000003
   0
LINE
   5
27C
 100
AcDbEntity
   8
LEVEL002
 370
30
 100
AcDbLine
   6
CONTINUOUS
  62
7
  10
 94.999999999900
  20
 323.00000000000
  30
0.0
  11
 92.514928749830
  21
 322.37873218750
  31
0.0
   0
ARC
   5
27D
 100
AcDbEntity
   8
LEVEL002
 370
30
   6
CONTINUOUS
  62
7
 100
AcDbCircle
  10
 92.999999999900
  20
 320.43844718720
  30
0.0
  40
 2.0000000000000
 100
AcDbArc
  50
 104.03624346790
  51
 179.99999999988
   0
LINE
   5
27E
 100
AcDbEntity
   8
LEVEL002
 370
30
 100
AcDbLine
   6
CONTINUOUS
  62
7
  10
 94.999999999900
  20
 323.00000000000
  30
0.0
  11
 94.999999999900
  21
 321.76306831230
  31
0.0
   0
LINE
   5
27F
 100
AcDbEntity
   8
LEVEL002
 370
30
 100
AcDbLine
   6
CONTINUOUS
  62
7
  10
 94.999999999900
  20
 321.76306831230
  30
0.0
  11
 92.999999999900
  21
 321.26306831230
  31
0.0
   0
LINE
   5
280
 100
AcDbEntity
   8
LEVEL002
 370
30
 100
AcDbLine
   6
CONTINUOUS
  62
7
  10
 90.999999999900
  20
 319.30000000000
  30
0.0
  11
 90.999999999900
  21
 320.43844718720
  31
0.0
   0
LINE
   5
281
 100
AcDbEntity
   8
LEVEL002
 370
30
 100
AcDbLine
   6
CONTINUOUS
  62
7
  10
 92.999999999900
  20
 321.26306831230
  30
0.0
  11
 92.999999999900
  21
 319.50000000000
  31
0.0
   0
LINE
   5
282
 100
AcDbEntity
   8
LEVEL002
 370
30
 100
AcDbLine
   6
CONTINUOUS
  62
7
  10
 130.99999999990
  20
 318.00000000000
  30
0.0
  11
 131.49999999990
  21
 320.50000000000
  31
0.0
   0
LINE
   5
283
 100
AcDbEntity
   8
LEVEL002
 370
30
 100
AcDbLine
   6
CONTINUOUS
  62
7
  10
 131.49999999990
  20
 320.50000000000
  30
0.0
  11
 127.49999999990
  21
 323.00000000000
  31
0.0
   0
LINE
   5
284
 100
AcDbEntity
   8
LEVEL002
 370
30
 100
AcDbLine
   6
CONTINUOUS
  62
7
  10
 127.49999999990
  20
 323.00000000000
  30
0.0
  11
 125.99999999990
  21
 323.00000000000
  31
0.0
   0
LINE
   5
285
 100
AcDbEntity
   8
LEVEL002
 370
30
 100
AcDbLine
   6
CONTINUOUS
  62
7
  10
 125.99999999990
  20
 323.00000000000
  30
0.0
  11
 125.99999999990
  21
 321.80000000000
  31
0.0
   0
LINE
   5
286
 100
AcDbEntity
   8
LEVEL002
 370
30
 100
AcDbLine
   6
CONTINUOUS
  62
7
  10
 125.99999999990
  20
 321.80000000000
  30
0.0
  11
 127.49999999990
  21
 321.80000000000
  31
0.0
   0
LINE
   5
287
 100
AcDbEntity
   8
LEVEL002
 370
30
 100
AcDbLine
   6
CONTINUOUS
  62
7
  10
 127.49999999990
  20
 321.80000000000
  30
0.0
  11
 129.99999999990
  21
 319.50000000000
  31
0.0
   0
LINE
   5
288
 100
AcDbEntity
   8
LEVEL002
 370
30
 100
AcDbLine
   6
CONTINUOUS
  62
7
  10
 129.99999999990
  20
 319.50000000000
  30
0.0
  11
 92.999999999900
  21
 319.50000000000
  31
0.0
   0
LINE
   5
289
 100
AcDbEntity
   8
LEVEL002
 370
30
 100
AcDbLine
   6
CONTINUOUS
  62
7
  10
 130.99999999990
  20
 318.00000000000
  30
0.0
  11
 127.99999999990
  21
 318.00000000000
  31
0.0
   0
LINE
   5
28A
 100
AcDbEntity
   8
LEVEL002
 370
30
 100
AcDbLine
   6
CONTINUOUS
  62
7
  10
 126.99999999990
  20
 318.00000000000
  30
0.0
  11
 127.49999999990
  21
 318.50000000000
  31
0.0
   0
LINE
   5
28B
 100
AcDbEntity
   8
LEVEL002
 370
30
 100
AcDbLine
   6
CONTINUOUS
  62
7
  10
 127.49999999990
  20
 318.50000000000
  30
0.0
  11
 127.99999999990
  21
 318.00000000000
  31
0.0
   0
LINE
   5
28C
 100
AcDbEntity
   8
LEVEL002
 370
30
 100
AcDbLine
   6
CONTINUOUS
  62
7
  10
 123.49999999990
  20
 318.00000000000
  30
0.0
  11
 123.99999999990
  21
 318.50000000000
  31
0.0
   0
LINE
   5
28D
 100
AcDbEntity
   8
LEVEL002
 370
30
 100
AcDbLine
   6
CONTINUOUS
  62
7
  10
 123.99999999990
  20
 318.50000000000
  30
0.0
  11
 124.49999999990
  21
 318.00000000000
  31
0.0
   0
LINE
   5
28E
 100
AcDbEntity
   8
LEVEL002
 370
30
 100
AcDbLine
   6
CONTINUOUS
  62
7
  10
 119.99999999990
  20
 318.00000000000
  30
0.0
  11
 120.49999999990
  21
 318.50000000000
  31
0.0
   0
LINE
   5
28F
 100
AcDbEntity
   8
LEVEL002
 370
30
 100
AcDbLine
   6
CONTINUOUS
  62
7
  10
 120.49999999990
  20
 318.50000000000
  30
0.0
  11
 120.99999999990
  21
 318.00000000000
  31
0.0
   0
LINE
   5
290
 100
AcDbEntity
   8
LEVEL002
 370
30
 100
AcDbLine
   6
CONTINUOUS
  62
7
  10
 116.49999999990
  20
 318.00000000000
  30
0.0
  11
 116.99999999990
  21
 318.50000000000
  31
0.0
   0
LINE
   5
291
 100
AcDbEntity
   8
LEVEL002
 370
30
 100
AcDbLine
   6
CONTINUOUS
  62
7
  10
 116.99999999990
  20
 318.50000000000
  30
0.0
  11
 117.49999999990
  21
 318.00000000000
  31
0.0
   0
LINE
   5
292
 100
AcDbEntity
   8
LEVEL002
 370
30
 100
AcDbLine
   6
CONTINUOUS
  62
7
  10
 112.99999999990
  20
 318.00000000000
  30
0.0
  11
 113.49999999990
  21
 318.50000000000
  31
0.0
   0
LINE
   5
293
 100
AcDbEntity
   8
LEVEL002
 370
30
 100
AcDbLine
   6
CONTINUOUS
  62
7
  10
 113.49999999990
  20
 318.50000000000
  30
0.0
  11
 113.99999999990
  21
 318.00000000000
  31
0.0
   0
LINE
   5
294
 100
AcDbEntity
   8
LEVEL002
 370
30
 100
AcDbLine
   6
CONTINUOUS
  62
7
  10
 109.49999999990
  20
 318.00000000000
  30
0.0
  11
 109.99999999990
  21
 318.50000000000
  31
0.0
   0
LINE
   5
295
 100
AcDbEntity
   8
LEVEL002
 370
30
 100
AcDbLine
   6
CONTINUOUS
  62
7
  10
 109.99999999990
  20
 318.50000000000
  30
0.0
  11
 110.49999999990
  21
 318.00000000000
  31
0.0
   0
LINE
   5
296
 100
AcDbEntity
   8
LEVEL002
 370
30
 100
AcDbLine
   6
CONTINUOUS
  62
7
  10
 105.99999999990
  20
 318.00000000000
  30
0.0
  11
 106.49999999990
  21
 318.50000000000
  31
0.0
   0
LINE
   5
297
 100
AcDbEntity
   8
LEVEL002
 370
30
 100
AcDbLine
   6
CONTINUOUS
  62
7
  10
 106.49999999990
  20
 318.50000000000
  30
0.0
  11
 106.99999999990
  21
 318.00000000000
  31
0.0
   0
LINE
   5
298
 100
AcDbEntity
   8
LEVEL002
 370
30
 100
AcDbLine
   6
CONTINUOUS
  62
7
  10
 102.49999999990
  20
 318.00000000000
  30
0.0
  11
 102.99999999990
  21
 318.50000000000
  31
0.0
   0
LINE
   5
299
 100
AcDbEntity
   8
LEVEL002
 370
30
 100
AcDbLine
   6
CONTINUOUS
  62
7
  10
 102.99999999990
  20
 318.50000000000
  30
0.0
  11
 103.49999999990
  21
 318.00000000000
  31
0.0
   0
LINE
   5
29A
 100
AcDbEntity
   8
LEVEL002
 370
30
 100
AcDbLine
   6
CONTINUOUS
  62
7
  10
 98.999999999900
  20
 318.00000000000
  30
0.0
  11
 99.499999999900
  21
 318.50000000000
  31
0.0
   0
LINE
   5
29B
 100
AcDbEntity
   8
LEVEL002
 370
30
 100
AcDbLine
   6
CONTINUOUS
  62
7
  10
 99.499999999900
  20
 318.50000000000
  30
0.0
  11
 99.999999999900
  21
 318.00000000000
  31
0.0
   0
LINE
   5
29C
 100
AcDbEntity
   8
LEVEL002
 370
30
 100
AcDbLine
   6
CONTINUOUS
  62
7
  10
 95.499999999900
  20
 318.00000000000
  30
0.0
  11
 95.999999999900
  21
 318.50000000000
  31
0.0
   0
LINE
   5
29D
 100
AcDbEntity
   8
LEVEL002
 370
30
 100
AcDbLine
   6
CONTINUOUS
  62
7
  10
 95.999999999900
  20
 318.50000000000
  30
0.0
  11
 96.499999999900
  21
 318.00000000000
  31
0.0
   0
LINE
   5
29E
 100
AcDbEntity
   8
LEVEL002
 370
30
 100
AcDbLine
   6
CONTINUOUS
  62
7
  10
 95.499999999900
  20
 318.00000000000
  30
0.0
  11
 92.999999999900
  21
 318.00000000000
  31
0.0
   0
LINE
   5
29F
 100
AcDbEntity
   8
LEVEL002
 370
30
 100
AcDbLine
   6
CONTINUOUS
  62
7
  10
 96.499999999900
  20
 318.00000000000
  30
0.0
  11
 98.999999999900
  21
 318.00000000000
  31
0.0
   0
LINE
   5
2A0
 100
AcDbEntity
   8
LEVEL002
 370
30
 100
AcDbLine
   6
CONTINUOUS
  62
7
  10
 99.999999999900
  20
 318.00000000000
  30
0.0
  11
 102.49999999990
  21
 318.00000000000
  31
0.0
   0
LINE
   5
2A1
 100
AcDbEntity
   8
LEVEL002
 370
30
 100
AcDbLine
   6
CONTINUOUS
  62
7
  10
 103.49999999990
  20
 318.00000000000
  30
0.0
  11
 105.99999999990
  21
 318.00000000000
  31
0.0
   0
LINE
   5
2A2
 100
AcDbEntity
   8
LEVEL002
 370
30
 100
AcDbLine
   6
CONTINUOUS
  62
7
  10
 106.99999999990
  20
 318.00000000000
  30
0.0
  11
 109.49999999990
  21
 318.00000000000
  31
0.0
   0
LINE
   5
2A3
 100
AcDbEntity
   8
LEVEL002
 370
30
 100
AcDbLine
   6
CONTINUOUS
  62
7
  10
 110.49999999990
  20
 318.00000000000
  30
0.0
  11
 112.99999999990
  21
 318.00000000000
  31
0.0
   0
LINE
   5
2A4
 100
AcDbEntity
   8
LEVEL002
 370
30
 100
AcDbLine
   6
CONTINUOUS
  62
7
  10
 113.99999999990
  20
 318.00000000000
  30
0.0
  11
 116.49999999990
  21
 318.00000000000
  31
0.0
   0
LINE
   5
2A5
 100
AcDbEntity
   8
LEVEL002
 370
30
 100
AcDbLine
   6
CONTINUOUS
  62
7
  10
 117.49999999990
  20
 318.00000000000
  30
0.0
  11
 119.99999999990
  21
 318.00000000000
  31
0.0
   0
LINE
   5
2A6
 100
AcDbEntity
   8
LEVEL002
 370
30
 100
AcDbLine
   6
CONTINUOUS
  62
7
  10
 120.99999999990
  20
 318.00000000000
  30
0.0
  11
 123.49999999990
  21
 318.00000000000
  31
0.0
   0
LINE
   5
2A7
 100
AcDbEntity
   8
LEVEL002
 370
30
 100
AcDbLine
   6
CONTINUOUS
  62
7
  10
 126.99999999990
  20
 318.00000000000
  30
0.0
  11
 124.49999999990
  21
 318.00000000000
  31
0.0
   0
ARC
   5
2A8
 100
AcDbEntity
   8
LEVEL002
 370
30
   6
CONTINUOUS
  62
7
 100
AcDbCircle
  10
 182.99917843849
  20
 318.38455218760
  30
0.0
  40
 90.000000000000
 100
AcDbArc
  50
 180.24481427105
  51
 188.55259643895
   0
ARC
   5
2A9
 100
AcDbEntity
   8
LEVEL002
 370
30
   6
CONTINUOUS
  62
7
 100
AcDbCircle
  10
 190.97652955329
  20
 321.46645758230
  30
0.0
  40
 100.00000000000
 100
AcDbArc
  50
 181.24138588069
  51
 189.08665033140
   0
ARC
   5
2AA
 100
AcDbEntity
   8
LEVEL002
 370
30
   6
CONTINUOUS
  62
7
 100
AcDbCircle
  10
 93.021427048010
  20
 305.80000000000
  30
0.0
  40
 0.80000000000000
 100
AcDbArc
  50
 189.08665033149
  51
 270.00000000050
   0
LINE
   5
2AB
 100
AcDbEntity
   8
LEVEL002
 370
30
 100
AcDbLine
   6
CONTINUOUS
  62
7
  10
 93.999999999900
  20
 305.00000000000
  30
0.0
  11
 93.021427048010
  21
 305.00000000000
  31
0.0
   0
LINE
   5
2AC
 100
AcDbEntity
   8
LEVEL002
 370
30
 100
AcDbLine
   6
CONTINUOUS
  62
7
  10
 125.99999999990
  20
 321.79282600570
  30
0.0
  11
 125.98768725125
  21
 322.16467913670
  31
0.0
   0
LINE
   5
2AD
 100
AcDbEntity
   8
LEVEL002
 370
30
 100
AcDbLine
   6
CONTINUOUS
  62
7
  10
 90.999999999900
  20
 407.00000000000
  30
0.0
  11
 90.999999999900
  21
 362.00000000000
  31
0.0
   0
LINE
   5
2AE
 100
AcDbEntity
   8
LEVEL002
 370
30
 100
AcDbLine
   6
CONTINUOUS
  62
7
  10
 90.999999999900
  20
 362.00000000000
  30
0.0
  11
 131.49999999990
  21
 362.00000000000
  31
0.0
   0
LINE
   5
2AF
 100
AcDbEntity
   8
LEVEL002
 370
30
 100
AcDbLine
   6
CONTINUOUS
  62
7
  10
 131.49999999990
  20
 362.00000000000
  30
0.0
  11
 131.49999999990
  21
 407.00000000000
  31
0.0
   0
LINE
   5
2B0
 100
AcDbEntity
   8
LEVEL002
 370
30
 100
AcDbLine
   6
CONTINUOUS
  62
7
  10
 94.999999999900
  20
 407.00000000000
  30
0.0
  11
 94.999999999900
  21
 362.00000000000
  31
0.0
   0
LINE
   5
2B1
 100
AcDbEntity
   8
LEVEL002
 370
30
 100
AcDbLine
   6
CONTINUOUS
  62
7
  10
 127.49999999990
  20
 407.00000000000
  30
0.0
  11
 127.49999999990
  21
 362.00000000000
  31
0.0
   0
LINE
   5
2B2
 100
AcDbEntity
   8
LEVEL002
 370
30
 100
AcDbLine
   6
CONTINUOUS
  62
7
  10
 235.49999999989
  20
 407.00000000000
  30
0.0
  11
 235.49999999989
  21
 362.00000000000
  31
0.0
   0
LINE
   5
2B3
 100
AcDbEntity
   8
LEVEL002
 370
30
 100
AcDbLine
   6
CONTINUOUS
  62
7
  10
 235.49999999989
  20
 362.00000000000
  30
0.0
  11
 275.99999999989
  21
 362.00000000000
  31
0.0
   0
LINE
   5
2B4
 100
AcDbEntity
   8
LEVEL002
 370
30
 100
AcDbLine
   6
CONTINUOUS
  62
7
  10
 239.49999999989
  20
 407.00000000000
  30
0.0
  11
 239.49999999989
  21
 362.00000000000
  31
0.0
   0
LINE
   5
2B5
 100
AcDbEntity
   8
LEVEL002
 370
30
 100
AcDbLine
   6
CONTINUOUS
  62
7
  10
 383.99999999989
  20
 323.00000000000
  30
0.0
  11
 381.51492874979
  21
 322.37873218750
  31
0.0
   0
ARC
   5
2B6
 100
AcDbEntity
   8
LEVEL002
 370
30
   6
CONTINUOUS
  62
7
 100
AcDbCircle
  10
 381.99999999989
  20
 320.43844718710
  30
0.0
  40
 2.0000000000000
 100
AcDbArc
  50
 104.03624346722
  51
 179.99999999711
   0
LINE
   5
2B7
 100
AcDbEntity
   8
LEVEL002
 370
30
 100
AcDbLine
   6
CONTINUOUS
  62
7
  10
 383.99999999989
  20
 323.00000000000
  30
0.0
  11
 383.99999999989
  21
 321.76306831230
  31
0.0
   0
LINE
   5
2B8
 100
AcDbEntity
   8
LEVEL002
 370
30
 100
AcDbLine
   6
CONTINUOUS
  62
7
  10
 383.99999999989
  20
 321.76306831230
  30
0.0
  11
 381.99999999989
  21
 321.26306831230
  31
0.0
   0
LINE
   5
2B9
 100
AcDbEntity
   8
LEVEL002
 370
30
 100
AcDbLine
   6
CONTINUOUS
  62
7
  10
 379.99999999989
  20
 319.30000000000
  30
0.0
  11
 379.99999999989
  21
 320.43844718720
  31
0.0
   0
LINE
   5
2BA
 100
AcDbEntity
   8
LEVEL002
 370
30
 100
AcDbLine
   6
CONTINUOUS
  62
7
  10
 381.99999999989
  20
 321.26306831230
  30
0.0
  11
 381.99999999989
  21
 319.50000000000
  31
0.0
   0
LINE
   5
2BB
 100
AcDbEntity
   8
LEVEL002
 370
30
 100
AcDbLine
   6
CONTINUOUS
  62
7
  10
 419.99999999989
  20
 318.00000000000
  30
0.0
  11
 420.49999999989
  21
 320.50000000000
  31
0.0
   0
LINE
   5
2BC
 100
AcDbEntity
   8
LEVEL002
 370
30
 100
AcDbLine
   6
CONTINUOUS
  62
7
  10
 420.49999999989
  20
 320.50000000000
  30
0.0
  11
 416.49999999989
  21
 323.00000000000
  31
0.0
   0
LINE
   5
2BD
 100
AcDbEntity
   8
LEVEL002
 370
30
 100
AcDbLine
   6
CONTINUOUS
  62
7
  10
 416.49999999989
  20
 323.00000000000
  30
0.0
  11
 414.99999999989
  21
 323.00000000000
  31
0.0
   0
LINE
   5
2BE
 100
AcDbEntity
   8
LEVEL002
 370
30
 100
AcDbLine
   6
CONTINUOUS
  62
7
  10
 414.99999999989
  20
 323.00000000000
  30
0.0
  11
 414.99999999989
  21
 321.80000000000
  31
0.0
   0
LINE
   5
2BF
 100
AcDbEntity
   8
LEVEL002
 370
30
 100
AcDbLine
   6
CONTINUOUS
  62
7
  10
 414.99999999989
  20
 321.80000000000
  30
0.0
  11
 416.49999999989
  21
 321.80000000000
  31
0.0
   0
LINE
   5
2C0
 100
AcDbEntity
   8
LEVEL002
 370
30
 100
AcDbLine
   6
CONTINUOUS
  62
7
  10
 416.49999999989
  20
 321.80000000000
  30
0.0
  11
 418.99999999989
  21
 319.50000000000
  31
0.0
   0
LINE
   5
2C1
 100
AcDbEntity
   8
LEVEL002
 370
30
 100
AcDbLine
   6
CONTINUOUS
  62
7
  10
 418.99999999989
  20
 319.50000000000
  30
0.0
  11
 381.99999999989
  21
 319.50000000000
  31
0.0
   0
LINE
   5
2C2
 100
AcDbEntity
   8
LEVEL002
 370
30
 100
AcDbLine
   6
CONTINUOUS
  62
7
  10
 419.99999999989
  20
 318.00000000000
  30
0.0
  11
 416.99999999989
  21
 318.00000000000
  31
0.0
   0
LINE
   5
2C3
 100
AcDbEntity
   8
LEVEL002
 370
30
 100
AcDbLine
   6
CONTINUOUS
  62
7
  10
 415.99999999989
  20
 318.00000000000
  30
0.0
  11
 416.49999999989
  21
 318.50000000000
  31
0.0
   0
LINE
   5
2C4
 100
AcDbEntity
   8
LEVEL002
 370
30
 100
AcDbLine
   6
CONTINUOUS
  62
7
  10
 416.49999999989
  20
 318.50000000000
  30
0.0
  11
 416.99999999989
  21
 318.00000000000
  31
0.0
   0
LINE
   5
2C5
 100
AcDbEntity
   8
LEVEL002
 370
30
 100
AcDbLine
   6
CONTINUOUS
  62
7
  10
 412.49999999989
  20
 318.00000000000
  30
0.0
  11
 412.99999999989
  21
 318.50000000000
  31
0.0
   0
LINE
   5
2C6
 100
AcDbEntity
   8
LEVEL002
 370
30
 100
AcDbLine
   6
CONTINUOUS
  62
7
  10
 412.99999999989
  20
 318.50000000000
  30
0.0
  11
 413.49999999989
  21
 318.00000000000
  31
0.0
   0
LINE
   5
2C7
 100
AcDbEntity
   8
LEVEL002
 370
30
 100
AcDbLine
   6
CONTINUOUS
  62
7
  10
 408.99999999989
  20
 318.00000000000
  30
0.0
  11
 409.49999999989
  21
 318.50000000000
  31
0.0
   0
LINE
   5
2C8
 100
AcDbEntity
   8
LEVEL002
 370
30
 100
AcDbLine
   6
CONTINUOUS
  62
7
  10
 409.49999999989
  20
 318.50000000000
  30
0.0
  11
 409.99999999989
  21
 318.00000000000
  31
0.0
   0
LINE
   5
2C9
 100
AcDbEntity
   8
LEVEL002
 370
30
 100
AcDbLine
   6
CONTINUOUS
  62
7
  10
 405.49999999989
  20
 318.00000000000
  30
0.0
  11
 405.99999999989
  21
 318.50000000000
  31
0.0
   0
LINE
   5
2CA
 100
AcDbEntity
   8
LEVEL002
 370
30
 100
AcDbLine
   6
CONTINUOUS
  62
7
  10
 405.99999999989
  20
 318.50000000000
  30
0.0
  11
 406.49999999989
  21
 318.00000000000
  31
0.0
   0
LINE
   5
2CB
 100
AcDbEntity
   8
LEVEL002
 370
30
 100
AcDbLine
   6
CONTINUOUS
  62
7
  10
 401.99999999989
  20
 318.00000000000
  30
0.0
  11
 402.49999999989
  21
 318.50000000000
  31
0.0
   0
LINE
   5
2CC
 100
AcDbEntity
   8
LEVEL002
 370
30
 100
AcDbLine
   6
CONTINUOUS
  62
7
  10
 402.49999999989
  20
 318.50000000000
  30
0.0
  11
 402.99999999989
  21
 318.00000000000
  31
0.0
   0
LINE
   5
2CD
 100
AcDbEntity
   8
LEVEL002
 370
30
 100
AcDbLine
   6
CONTINUOUS
  62
7
  10
 398.49999999989
  20
 318.00000000000
  30
0.0
  11
 398.99999999989
  21
 318.50000000000
  31
0.0
   0
LINE
   5
2CE
 100
AcDbEntity
   8
LEVEL002
 370
30
 100
AcDbLine
   6
CONTINUOUS
  62
7
  10
 398.99999999989
  20
 318.50000000000
  30
0.0
  11
 399.49999999989
  21
 318.00000000000
  31
0.0
   0
LINE
   5
2CF
 100
AcDbEntity
   8
LEVEL002
 370
30
 100
AcDbLine
   6
CONTINUOUS
  62
7
  10
 394.99999999989
  20
 318.00000000000
  30
0.0
  11
 395.49999999989
  21
 318.50000000000
  31
0.0
   0
LINE
   5
2D0
 100
AcDbEntity
   8
LEVEL002
 370
30
 100
AcDbLine
   6
CONTINUOUS
  62
7
  10
 395.49999999989
  20
 318.50000000000
  30
0.0
  11
 395.99999999989
  21
 318.00000000000
  31
0.0
   0
LINE
   5
2D1
 100
AcDbEntity
   8
LEVEL002
 370
30
 100
AcDbLine
   6
CONTINUOUS
  62
7
  10
 391.49999999989
  20
 318.00000000000
  30
0.0
  11
 391.99999999989
  21
 318.50000000000
  31
0.0
   0
LINE
   5
2D2
 100
AcDbEntity
   8
LEVEL002
 370
30
 100
AcDbLine
   6
CONTINUOUS
  62
7
  10
 391.99999999989
  20
 318.50000000000
  30
0.0
  11
 392.49999999989
  21
 318.00000000000
  31
0.0
   0
LINE
   5
2D3
 100
AcDbEntity
   8
LEVEL002
 370
30
 100
AcDbLine
   6
CONTINUOUS
  62
7
  10
 387.99999999989
  20
 318.00000000000
  30
0.0
  11
 388.49999999989
  21
 318.50000000000
  31
0.0
   0
LINE
   5
2D4
 100
AcDbEntity
   8
LEVEL002
 370
30
 100
AcDbLine
   6
CONTINUOUS
  62
7
  10
 388.49999999989
  20
 318.50000000000
  30
0.0
  11
 388.99999999989
  21
 318.00000000000
  31
0.0
   0
LINE
   5
2D5
 100
AcDbEntity
   8
LEVEL002
 370
30
 100
AcDbLine
   6
CONTINUOUS
  62
7
  10
 384.49999999989
  20
 318.00000000000
  30
0.0
  11
 384.99999999989
  21
 318.50000000000
  31
0.0
   0
LINE
   5
2D6
 100
AcDbEntity
   8
LEVEL002
 370
30
 100
AcDbLine
   6
CONTINUOUS
  62
7
  10
 384.99999999989
  20
 318.50000000000
  30
0.0
  11
 385.49999999989
  21
 318.00000000000
  31
0.0
   0
LINE
   5
2D7
 100
AcDbEntity
   8
LEVEL002
 370
30
 100
AcDbLine
   6
CONTINUOUS
  62
7
  10
 384.49999999989
  20
 318.00000000000
  30
0.0
  11
 381.99999999989
  21
 318.00000000000
  31
0.0
   0
LINE
   5
2D8
 100
AcDbEntity
   8
LEVEL002
 370
30
 100
AcDbLine
   6
CONTINUOUS
  62
7
  10
 385.49999999989
  20
 318.00000000000
  30
0.0
  11
 387.99999999989
  21
 318.00000000000
  31
0.0
   0
LINE
   5
2D9
 100
AcDbEntity
   8
LEVEL002
 370
30
 100
AcDbLine
   6
CONTINUOUS
  62
7
  10
 388.99999999989
  20
 318.00000000000
  30
0.0
  11
 391.49999999989
  21
 318.00000000000
  31
0.0
   0
LINE
   5
2DA
 100
AcDbEntity
   8
LEVEL002
 370
30
 100
AcDbLine
   6
CONTINUOUS
  62
7
  10
 392.49999999989
  20
 318.00000000000
  30
0.0
  11
 394.99999999989
  21
 318.00000000000
  31
0.0
   0
LINE
   5
2DB
 100
AcDbEntity
   8
LEVEL002
 370
30
 100
AcDbLine
   6
CONTINUOUS
  62
7
  10
 395.99999999989
  20
 318.00000000000
  30
0.0
  11
 398.49999999989
  21
 318.00000000000
  31
0.0
   0
LINE
   5
2DC
 100
AcDbEntity
   8
LEVEL002
 370
30
 100
AcDbLine
   6
CONTINUOUS
  62
7
  10
 399.49999999989
  20
 318.00000000000
  30
0.0
  11
 401.99999999989
  21
 318.00000000000
  31
0.0
   0
LINE
   5
2DD
 100
AcDbEntity
   8
LEVEL002
 370
30
 100
AcDbLine
   6
CONTINUOUS
  62
7
  10
 402.99999999989
  20
 318.00000000000
  30
0.0
  11
 405.49999999989
  21
 318.00000000000
  31
0.0
   0
LINE
   5
2DE
 100
AcDbEntity
   8
LEVEL002
 370
30
 100
AcDbLine
   6
CONTINUOUS
  62
7
  10
 406.49999999989
  20
 318.00000000000
  30
0.0
  11
 408.99999999989
  21
 318.00000000000
  31
0.0
   0
LINE
   5
2DF
 100
AcDbEntity
   8
LEVEL002
 370
30
 100
AcDbLine
   6
CONTINUOUS
  62
7
  10
 409.99999999989
  20
 318.00000000000
  30
0.0
  11
 412.49999999989
  21
 318.00000000000
  31
0.0
   0
LINE
   5
2E0
 100
AcDbEntity
   8
LEVEL002
 370
30
 100
AcDbLine
   6
CONTINUOUS
  62
7
  10
 415.99999999989
  20
 318.00000000000
  30
0.0
  11
 413.49999999989
  21
 318.00000000000
  31
0.0
   0
ARC
   5
2E1
 100
AcDbEntity
   8
LEVEL002
 370
30
   6
CONTINUOUS
  62
7
 100
AcDbCircle
  10
 471.99917843849
  20
 318.38455218760
  30
0.0
  40
 90.000000000000
 100
AcDbArc
  50
 180.24481427105
  51
 188.55259643895
   0
ARC
   5
2E2
 100
AcDbEntity
   8
LEVEL002
 370
30
   6
CONTINUOUS
  62
7
 100
AcDbCircle
  10
 479.97652955329
  20
 321.46645758230
  30
0.0
  40
 100.00000000000
 100
AcDbArc
  50
 181.24138588069
  51
 189.08665033140
   0
ARC
   5
2E3
 100
AcDbEntity
   8
LEVEL002
 370
30
   6
CONTINUOUS
  62
7
 100
AcDbCircle
  10
 382.02142704799
  20
 305.80000000000
  30
0.0
  40
 0.80000000000000
 100
AcDbArc
  50
 189.08665033205
  51
 270.00000000401
   0
LINE
   5
2E4
 100
AcDbEntity
   8
LEVEL002
 370
30
 100
AcDbLine
   6
CONTINUOUS
  62
7
  10
 382.99999999989
  20
 305.00000000000
  30
0.0
  11
 382.02142704799
  21
 305.00000000000
  31
0.0
   0
LINE
   5
2E5
 100
AcDbEntity
   8
LEVEL002
 370
30
 100
AcDbLine
   6
CONTINUOUS
  62
7
  10
 379.99999999989
  20
 407.00000000000
  30
0.0
  11
 379.99999999989
  21
 362.00000000000
  31
0.0
   0
MTEXT
   5
2E7
 100
AcDbEntity
   8
LEVEL002
 370
15
  62
8
 100
AcDbMText
  10
 103.24999999990
  20
 423.50000000000
  30
0.0
  40
 6.0000000000000
  41
0.0
  71
5
  72
1
   1
\T1.000000;Ｎ４０Ｐ
   7
GMM002
  44
 0.79999984000003
   0
ARC
   5
2E8
 100
AcDbEntity
   8
LEVEL002
 370
30
   6
CONTINUOUS
  62
7
 100
AcDbCircle
  10
 185.99999999989
  20
 185.50000000000
  30
0.0
  40
 93.800000000000
 100
AcDbArc
  50
 180.00000000000
  51
 190.00469140262
   0
ARC
   5
2E9
 100
AcDbEntity
   8
LEVEL002
 370
30
   6
CONTINUOUS
  62
7
 100
AcDbCircle
  10
 185.99999999989
  20
 185.50000000000
  30
0.0
  40
 95.000000000000
 100
AcDbArc
  50
 180.00000000000
  51
 190.00469140262
   0
LINE
   5
2EA
 100
AcDbEntity
   8
LEVEL002
 370
30
 100
AcDbLine
   6
CONTINUOUS
  62
7
  10
 90.999999999900
  20
 185.50000000000
  30
0.0
  11
 90.999999999900
  21
 189.00000000000
  31
0.0
   0
ARC
   5
2EB
 100
AcDbEntity
   8
LEVEL002
 370
30
   6
CONTINUOUS
  62
7
 100
AcDbCircle
  10
 92.499999999910
  20
 189.00000000000
  30
0.0
  40
 1.5000000000000
 100
AcDbArc
  50
 90.000000000408
  51
 180.00000000000
   0
LINE
   5
2EC
 100
AcDbEntity
   8
LEVEL002
 370
30
 100
AcDbLine
   6
CONTINUOUS
  62
7
  10
 92.499999999900
  20
 190.50000000000
  30
0.0
  11
 94.249999999900
  21
 190.50000000000
  31
0.0
   0
ARC
   5
2ED
 100
AcDbEntity
   8
LEVEL002
 370
30
   6
CONTINUOUS
  62
7
 100
AcDbCircle
  10
 94.249999999900
  20
 189.75000000001
  30
0.0
  40
 0.75000000000000
 100
AcDbArc
  50
0.0
  51
 90.000000000000
   0
ARC
   5
2EE
 100
AcDbEntity
   8
LEVEL002
 370
30
   6
CONTINUOUS
  62
7
 100
AcDbCircle
  10
 94.249999999890
  20
 189.75000000000
  30
0.0
  40
 0.75000000000000
 100
AcDbArc
  50
 270.00000000066
  51
0.0
   0
LINE
   5
2EF
 100
AcDbEntity
   8
LEVEL002
 370
30
 100
AcDbLine
   6
CONTINUOUS
  62
7
  10
 94.249999999900
  20
 189.00000000000
  30
0.0
  11
 92.999999999900
  21
 189.00000000000
  31
0.0
   0
ARC
   5
2F0
 100
AcDbEntity
   8
LEVEL002
 370
30
   6
CONTINUOUS
  62
7
 100
AcDbCircle
  10
 92.999999999900
  20
 188.50000000001
  30
0.0
  40
 0.50000000000000
 100
AcDbArc
  50
 90.000000000000
  51
 180.00000000120
   0
LINE
   5
2F1
 100
AcDbEntity
   8
LEVEL002
 370
30
 100
AcDbLine
   6
CONTINUOUS
  62
7
  10
 136.09999999990
  20
 190.50000000000
  30
0.0
  11
 137.07979589701
  21
 190.50000000000
  31
0.0
   0
ARC
   5
2F2
 100
AcDbEntity
   8
LEVEL002
 370
30
   6
CONTINUOUS
  62
7
 100
AcDbCircle
  10
 138.82522729141
  20
 187.40000000000
  30
0.0
  40
 0.70000000000000
 100
AcDbArc
  50
 270.00000000013
  51
 60.158866301150
   0
LINE
   5
2F3
 100
AcDbEntity
   8
LEVEL002
 370
30
 100
AcDbLine
   6
CONTINUOUS
  62
7
  10
 92.499999999900
  20
 188.50000000000
  30
0.0
  11
 92.499999999900
  21
 186.70000000000
  31
0.0
   0
LINE
   5
2F4
 100
AcDbEntity
   8
LEVEL002
 370
30
 100
AcDbLine
   6
CONTINUOUS
  62
7
  10
 92.499999999900
  20
 186.70000000000
  30
0.0
  11
 138.82522729141
  21
 186.70000000000
  31
0.0
   0
ARC
   5
2F5
 100
AcDbEntity
   8
LEVEL002
 370
30
   6
CONTINUOUS
  62
7
 100
AcDbCircle
  10
 137.07979589712
  20
 189.90000000000
  30
0.0
  40
 0.60000000000000
 100
AcDbArc
  50
 61.799658788814
  51
 90.000000010661
   0
ARC
   5
2F6
 100
AcDbEntity
   8
LEVEL002
 370
30
   6
CONTINUOUS
  62
7
 100
AcDbCircle
  10
 136.09999999984
  20
 190.10000000003
  30
0.0
  40
 0.40000000000000
 100
AcDbArc
  50
 89.999999991890
  51
 246.92608194318
   0
LINE
   5
2F7
 100
AcDbEntity
   8
LEVEL002
 370
30
 100
AcDbLine
   6
CONTINUOUS
  62
7
  10
 136.81200851952
  20
 189.36190303207
  30
0.0
  11
 139.17354506384
  21
 188.00718591009
  31
0.0
   0
LINE
   5
2F8
 100
AcDbEntity
   8
LEVEL002
 370
30
 100
AcDbLine
   6
CONTINUOUS
  62
7
  10
 135.94323265636
  20
 189.73200000000
  30
0.0
  11
 136.81200851952
  21
 189.36190303207
  31
0.0
   0
LINE
   5
2F9
 100
AcDbEntity
   8
LEVEL002
 370
30
 100
AcDbLine
   6
CONTINUOUS
  62
7
  10
 140.49999999990
  20
 185.50000000000
  30
0.0
  11
 141.10435121156
  21
 188.42283345855
  31
0.0
   0
LINE
   5
2FA
 100
AcDbEntity
   8
LEVEL002
 370
30
 100
AcDbLine
   6
CONTINUOUS
  62
7
  10
 137.36332950505
  20
 190.42878038269
  30
0.0
  11
 141.10435121156
  21
 188.42283345855
  31
0.0
   0
ARC
   5
2FB
 100
AcDbEntity
   8
LEVEL002
 370
30
   6
CONTINUOUS
  62
7
 100
AcDbCircle
  10
 93.035490642830
  20
 169.10000000000
  30
0.0
  40
 0.60000000000000
 100
AcDbArc
  50
 190.00469140261
  51
 10.004691402610
   0
ARC
   5
2FC
 100
AcDbEntity
   8
LEVEL002
 370
30
   6
CONTINUOUS
  62
7
 100
AcDbCircle
  10
 137.49999999990
  20
 185.50000000000
  30
0.0
  40
 0.30000000000000
 100
AcDbArc
  50
0.0
  51
 180.00000000000
   0
ARC
   5
2FD
 100
AcDbEntity
   8
LEVEL002
 370
30
   6
CONTINUOUS
  62
7
 100
AcDbCircle
  10
 134.99999999990
  20
 185.50000000000
  30
0.0
  40
 0.30000000000000
 100
AcDbArc
  50
0.0
  51
 180.00000000000
   0
ARC
   5
2FE
 100
AcDbEntity
   8
LEVEL002
 370
30
   6
CONTINUOUS
  62
7
 100
AcDbCircle
  10
 132.49999999990
  20
 185.50000000000
  30
0.0
  40
 0.30000000000000
 100
AcDbArc
  50
0.0
  51
 180.00000000000
   0
ARC
   5
2FF
 100
AcDbEntity
   8
LEVEL002
 370
30
   6
CONTINUOUS
  62
7
 100
AcDbCircle
  10
 129.99999999990
  20
 185.50000000000
  30
0.0
  40
 0.30000000000000
 100
AcDbArc
  50
0.0
  51
 180.00000000000
   0
ARC
   5
300
 100
AcDbEntity
   8
LEVEL002
 370
30
   6
CONTINUOUS
  62
7
 100
AcDbCircle
  10
 127.49999999990
  20
 185.50000000000
  30
0.0
  40
 0.30000000000000
 100
AcDbArc
  50
0.0
  51
 180.00000000000
   0
ARC
   5
301
 100
AcDbEntity
   8
LEVEL002
 370
30
   6
CONTINUOUS
  62
7
 100
AcDbCircle
  10
 124.99999999990
  20
 185.50000000000
  30
0.0
  40
 0.30000000000000
 100
AcDbArc
  50
0.0
  51
 180.00000000000
   0
ARC
   5
302
 100
AcDbEntity
   8
LEVEL002
 370
30
   6
CONTINUOUS
  62
7
 100
AcDbCircle
  10
 122.49999999990
  20
 185.50000000000
  30
0.0
  40
 0.30000000000000
 100
AcDbArc
  50
0.0
  51
 180.00000000000
   0
ARC
   5
303
 100
AcDbEntity
   8
LEVEL002
 370
30
   6
CONTINUOUS
  62
7
 100
AcDbCircle
  10
 119.99999999990
  20
 185.50000000000
  30
0.0
  40
 0.30000000000000
 100
AcDbArc
  50
0.0
  51
 180.00000000000
   0
ARC
   5
304
 100
AcDbEntity
   8
LEVEL002
 370
30
   6
CONTINUOUS
  62
7
 100
AcDbCircle
  10
 117.49999999990
  20
 185.50000000000
  30
0.0
  40
 0.30000000000000
 100
AcDbArc
  50
0.0
  51
 180.00000000000
   0
ARC
   5
305
 100
AcDbEntity
   8
LEVEL002
 370
30
   6
CONTINUOUS
  62
7
 100
AcDbCircle
  10
 114.99999999990
  20
 185.50000000000
  30
0.0
  40
 0.30000000000000
 100
AcDbArc
  50
0.0
  51
 180.00000000000
   0
ARC
   5
306
 100
AcDbEntity
   8
LEVEL002
 370
30
   6
CONTINUOUS
  62
7
 100
AcDbCircle
  10
 112.49999999990
  20
 185.50000000000
  30
0.0
  40
 0.30000000000000
 100
AcDbArc
  50
0.0
  51
 180.00000000000
   0
ARC
   5
307
 100
AcDbEntity
   8
LEVEL002
 370
30
   6
CONTINUOUS
  62
7
 100
AcDbCircle
  10
 109.99999999990
  20
 185.50000000000
  30
0.0
  40
 0.30000000000000
 100
AcDbArc
  50
0.0
  51
 180.00000000000
   0
ARC
   5
308
 100
AcDbEntity
   8
LEVEL002
 370
30
   6
CONTINUOUS
  62
7
 100
AcDbCircle
  10
 107.49999999990
  20
 185.50000000000
  30
0.0
  40
 0.30000000000000
 100
AcDbArc
  50
0.0
  51
 180.00000000000
   0
ARC
   5
309
 100
AcDbEntity
   8
LEVEL002
 370
30
   6
CONTINUOUS
  62
7
 100
AcDbCircle
  10
 102.49999999990
  20
 185.50000000000
  30
0.0
  40
 0.30000000000000
 100
AcDbArc
  50
0.0
  51
 180.00000000000
   0
ARC
   5
30A
 100
AcDbEntity
   8
LEVEL002
 370
30
   6
CONTINUOUS
  62
7
 100
AcDbCircle
  10
 99.999999999900
  20
 185.50000000000
  30
0.0
  40
 0.30000000000000
 100
AcDbArc
  50
0.0
  51
 180.00000000000
   0
ARC
   5
30B
 100
AcDbEntity
   8
LEVEL002
 370
30
   6
CONTINUOUS
  62
7
 100
AcDbCircle
  10
 94.999999999900
  20
 185.50000000000
  30
0.0
  40
 0.30000000000000
 100
AcDbArc
  50
0.0
  51
 180.00000000000
   0
LINE
   5
30C
 100
AcDbEntity
   8
LEVEL002
 370
30
 100
AcDbLine
   6
CONTINUOUS
  62
7
  10
 94.699999999900
  20
 185.50000000000
  30
0.0
  11
 92.199999999900
  21
 185.50000000000
  31
0.0
   0
LINE
   5
30D
 100
AcDbEntity
   8
LEVEL002
 370
30
 100
AcDbLine
   6
CONTINUOUS
  62
7
  10
 97.199999999900
  20
 185.50000000000
  30
0.0
  11
 95.299999999900
  21
 185.50000000000
  31
0.0
   0
LINE
   5
30E
 100
AcDbEntity
   8
LEVEL002
 370
30
 100
AcDbLine
   6
CONTINUOUS
  62
7
  10
 99.699999999900
  20
 185.50000000000
  30
0.0
  11
 97.799999999900
  21
 185.50000000000
  31
0.0
   0
LINE
   5
30F
 100
AcDbEntity
   8
LEVEL002
 370
30
 100
AcDbLine
   6
CONTINUOUS
  62
7
  10
 102.19999999990
  20
 185.50000000000
  30
0.0
  11
 100.29999999990
  21
 185.50000000000
  31
0.0
   0
LINE
   5
310
 100
AcDbEntity
   8
LEVEL002
 370
30
 100
AcDbLine
   6
CONTINUOUS
  62
7
  10
 104.69999999990
  20
 185.50000000000
  30
0.0
  11
 102.79999999990
  21
 185.50000000000
  31
0.0
   0
LINE
   5
311
 100
AcDbEntity
   8
LEVEL002
 370
30
 100
AcDbLine
   6
CONTINUOUS
  62
7
  10
 107.19999999990
  20
 185.50000000000
  30
0.0
  11
 105.29999999990
  21
 185.50000000000
  31
0.0
   0
LINE
   5
312
 100
AcDbEntity
   8
LEVEL002
 370
30
 100
AcDbLine
   6
CONTINUOUS
  62
7
  10
 109.69999999990
  20
 185.50000000000
  30
0.0
  11
 107.79999999990
  21
 185.50000000000
  31
0.0
   0
LINE
   5
313
 100
AcDbEntity
   8
LEVEL002
 370
30
 100
AcDbLine
   6
CONTINUOUS
  62
7
  10
 112.19999999990
  20
 185.50000000000
  30
0.0
  11
 110.29999999990
  21
 185.50000000000
  31
0.0
   0
LINE
   5
314
 100
AcDbEntity
   8
LEVEL002
 370
30
 100
AcDbLine
   6
CONTINUOUS
  62
7
  10
 114.69999999990
  20
 185.50000000000
  30
0.0
  11
 112.79999999990
  21
 185.50000000000
  31
0.0
   0
LINE
   5
315
 100
AcDbEntity
   8
LEVEL002
 370
30
 100
AcDbLine
   6
CONTINUOUS
  62
7
  10
 117.19999999990
  20
 185.50000000000
  30
0.0
  11
 115.29999999990
  21
 185.50000000000
  31
0.0
   0
LINE
   5
316
 100
AcDbEntity
   8
LEVEL002
 370
30
 100
AcDbLine
   6
CONTINUOUS
  62
7
  10
 119.69999999990
  20
 185.50000000000
  30
0.0
  11
 117.79999999990
  21
 185.50000000000
  31
0.0
   0
LINE
   5
317
 100
AcDbEntity
   8
LEVEL002
 370
30
 100
AcDbLine
   6
CONTINUOUS
  62
7
  10
 122.19999999990
  20
 185.50000000000
  30
0.0
  11
 120.29999999990
  21
 185.50000000000
  31
0.0
   0
LINE
   5
318
 100
AcDbEntity
   8
LEVEL002
 370
30
 100
AcDbLine
   6
CONTINUOUS
  62
7
  10
 124.69999999990
  20
 185.50000000000
  30
0.0
  11
 122.79999999990
  21
 185.50000000000
  31
0.0
   0
LINE
   5
319
 100
AcDbEntity
   8
LEVEL002
 370
30
 100
AcDbLine
   6
CONTINUOUS
  62
7
  10
 127.19999999990
  20
 185.50000000000
  30
0.0
  11
 125.29999999990
  21
 185.50000000000
  31
0.0
   0
LINE
   5
31A
 100
AcDbEntity
   8
LEVEL002
 370
30
 100
AcDbLine
   6
CONTINUOUS
  62
7
  10
 129.69999999990
  20
 185.50000000000
  30
0.0
  11
 127.79999999990
  21
 185.50000000000
  31
0.0
   0
LINE
   5
31B
 100
AcDbEntity
   8
LEVEL002
 370
30
 100
AcDbLine
   6
CONTINUOUS
  62
7
  10
 132.19999999990
  20
 185.50000000000
  30
0.0
  11
 130.29999999990
  21
 185.50000000000
  31
0.0
   0
LINE
   5
31C
 100
AcDbEntity
   8
LEVEL002
 370
30
 100
AcDbLine
   6
CONTINUOUS
  62
7
  10
 134.69999999990
  20
 185.50000000000
  30
0.0
  11
 132.79999999990
  21
 185.50000000000
  31
0.0
   0
LINE
   5
31D
 100
AcDbEntity
   8
LEVEL002
 370
30
 100
AcDbLine
   6
CONTINUOUS
  62
7
  10
 140.49999999990
  20
 185.50000000000
  30
0.0
  11
 137.79999999990
  21
 185.50000000000
  31
0.0
   0
LINE
   5
31E
 100
AcDbEntity
   8
LEVEL002
 370
30
 100
AcDbLine
   6
CONTINUOUS
  62
7
  10
 137.19999999990
  20
 185.50000000000
  30
0.0
  11
 135.29999999990
  21
 185.50000000000
  31
0.0
   0
ARC
   5
31F
 100
AcDbEntity
   8
LEVEL002
 370
30
   6
CONTINUOUS
  62
7
 100
AcDbCircle
  10
 104.99999999990
  20
 185.50000000000
  30
0.0
  40
 0.30000000000000
 100
AcDbArc
  50
0.0
  51
 180.00000000000
   0
LINE
   5
320
 100
AcDbEntity
   8
LEVEL002
 370
30
 100
AcDbLine
   6
CONTINUOUS
  62
7
  10
 90.999999999900
  20
 270.50000000000
  30
0.0
  11
 90.999999999900
  21
 225.50000000000
  31
0.0
   0
LINE
   5
321
 100
AcDbEntity
   8
LEVEL002
 370
30
 100
AcDbLine
   6
CONTINUOUS
  62
7
  10
 90.999999999900
  20
 225.50000000000
  30
0.0
  11
 140.99999999990
  21
 225.50000000000
  31
0.0
   0
LINE
   5
322
 100
AcDbEntity
   8
LEVEL002
 370
30
 100
AcDbLine
   6
CONTINUOUS
  62
7
  10
 140.99999999990
  20
 225.50000000000
  30
0.0
  11
 140.99999999990
  21
 270.50000000000
  31
0.0
   0
LINE
   5
323
 100
AcDbEntity
   8
LEVEL002
 370
30
 100
AcDbLine
   6
CONTINUOUS
  62
7
  10
 137.36332950505
  20
 270.50000000000
  30
0.0
  11
 137.36332950505
  21
 225.50000000000
  31
0.0
   0
MTEXT
   5
325
 100
AcDbEntity
   8
LEVEL002
 370
15
  62
8
 100
AcDbMText
  10
 103.24999999990
  20
 287.00000000000
  30
0.0
  40
 6.0000000000000
  41
0.0
  71
5
  72
1
   1
\T1.000000;Ｎ５０Ｐ
   7
GMM002
  44
 0.79999984000003
   0
LINE
   5
326
 100
AcDbEntity
   8
LEVEL002
 370
25
 100
AcDbLine
   6
CONTINUOUS
  62
1
  10
 94.401179836871
  20
 543.50000000000
  30
0.0
  11
 94.401179836871
  21
 498.50000000000
  31
0.0
   0
LINE
   5
327
 100
AcDbEntity
   8
LEVEL002
 370
25
 100
AcDbLine
   6
CONTINUOUS
  62
1
  10
 98.201179836871
  20
 543.50000000000
  30
0.0
  11
 98.201179836871
  21
 498.50000000000
  31
0.0
   0
LINE
   5
328
 100
AcDbEntity
   8
LEVEL002
 370
25
 100
AcDbLine
   6
CONTINUOUS
  62
1
  10
 102.00117983687
  20
 543.50000000000
  30
0.0
  11
 102.00117983687
  21
 498.50000000000
  31
0.0
   0
LINE
   5
329
 100
AcDbEntity
   8
LEVEL002
 370
25
 100
AcDbLine
   6
CONTINUOUS
  62
1
  10
 105.80117983687
  20
 543.50000000000
  30
0.0
  11
 105.80117983687
  21
 498.50000000000
  31
0.0
   0
LINE
   5
32A
 100
AcDbEntity
   8
LEVEL002
 370
25
 100
AcDbLine
   6
CONTINUOUS
  62
1
  10
 109.60117983687
  20
 543.50000000000
  30
0.0
  11
 109.60117983687
  21
 498.50000000000
  31
0.0
   0
LINE
   5
32B
 100
AcDbEntity
   8
LEVEL002
 370
25
 100
AcDbLine
   6
CONTINUOUS
  62
1
  10
 113.40117983687
  20
 543.50000000000
  30
0.0
  11
 113.40117983687
  21
 498.50000000000
  31
0.0
   0
LINE
   5
32C
 100
AcDbEntity
   8
LEVEL002
 370
25
 100
AcDbLine
   6
CONTINUOUS
  62
1
  10
 117.20117983687
  20
 543.50000000000
  30
0.0
  11
 117.20117983687
  21
 498.50000000000
  31
0.0
   0
LINE
   5
32D
 100
AcDbEntity
   8
LEVEL002
 370
25
 100
AcDbLine
   6
CONTINUOUS
  62
1
  10
 94.401179836871
  20
 459.49674943660
  30
0.0
  11
 94.401179836871
  21
 460.39674943660
  31
0.0
   0
ARC
   5
32E
 100
AcDbEntity
   8
LEVEL002
 370
25
   6
CONTINUOUS
  62
1
 100
AcDbCircle
  10
 95.401179836820
  20
 460.39674943660
  30
0.0
  40
 1.0000000000000
 100
AcDbArc
  50
 89.999999997043
  51
 180.00000000000
   0
LINE
   5
32F
 100
AcDbEntity
   8
LEVEL002
 370
25
 100
AcDbLine
   6
CONTINUOUS
  62
1
  10
 95.401179836871
  20
 461.39674943660
  30
0.0
  11
 98.201179836871
  21
 461.39674943660
  31
0.0
   0
LINE
   5
330
 100
AcDbEntity
   8
LEVEL002
 370
25
 100
AcDbLine
   6
CONTINUOUS
  62
1
  10
 98.201179836871
  20
 461.39674943660
  30
0.0
  11
 98.201179836871
  21
 460.09674943660
  31
0.0
   0
LINE
   5
331
 100
AcDbEntity
   8
LEVEL002
 370
25
 100
AcDbLine
   6
CONTINUOUS
  62
1
  10
 102.00117983687
  20
 460.09674943660
  30
0.0
  11
 102.00117983687
  21
 461.39674943660
  31
0.0
   0
LINE
   5
332
 100
AcDbEntity
   8
LEVEL002
 370
25
 100
AcDbLine
   6
CONTINUOUS
  62
1
  10
 102.00117983687
  20
 461.39674943660
  30
0.0
  11
 105.80117983687
  21
 461.39674943660
  31
0.0
   0
LINE
   5
333
 100
AcDbEntity
   8
LEVEL002
 370
25
 100
AcDbLine
   6
CONTINUOUS
  62
1
  10
 105.80117983687
  20
 461.39674943660
  30
0.0
  11
 105.80117983687
  21
 460.09674943660
  31
0.0
   0
LINE
   5
334
 100
AcDbEntity
   8
LEVEL002
 370
25
 100
AcDbLine
   6
CONTINUOUS
  62
1
  10
 109.60117983687
  20
 460.09674943660
  30
0.0
  11
 109.60117983687
  21
 461.39674943660
  31
0.0
   0
LINE
   5
335
 100
AcDbEntity
   8
LEVEL002
 370
25
 100
AcDbLine
   6
CONTINUOUS
  62
1
  10
 109.60117983687
  20
 461.39674943660
  30
0.0
  11
 113.40117983687
  21
 461.39674943660
  31
0.0
   0
LINE
   5
336
 100
AcDbEntity
   8
LEVEL002
 370
25
 100
AcDbLine
   6
CONTINUOUS
  62
1
  10
 113.40117983687
  20
 461.39674943660
  30
0.0
  11
 113.40117983687
  21
 460.09674943660
  31
0.0
   0
LINE
   5
337
 100
AcDbEntity
   8
LEVEL002
 370
25
 100
AcDbLine
   6
CONTINUOUS
  62
1
  10
 117.20117983687
  20
 460.09674943660
  30
0.0
  11
 117.20117983687
  21
 461.39674943660
  31
0.0
   0
LINE
   5
338
 100
AcDbEntity
   8
LEVEL002
 370
25
 100
AcDbLine
   6
CONTINUOUS
  62
1
  10
 117.20117983687
  20
 461.39674943660
  30
0.0
  11
 119.50117983687
  21
 461.39674943660
  31
0.0
   0
ARC
   5
339
 100
AcDbEntity
   8
LEVEL002
 370
25
   6
CONTINUOUS
  62
1
 100
AcDbCircle
  10
 119.50117983687
  20
 459.39674943660
  30
0.0
  40
 2.0000000000000
 100
AcDbArc
  50
0.0
  51
 90.000000000000
   0
CIRCLE
   5
33A
 100
AcDbEntity
   8
LEVEL002
 370
25
 100
AcDbCircle
   6
CONTINUOUS
  62
1
  10
 117.39999999990
  20
 458.58132008640
  30
0.0
  40
 0.10000000000000
   0
LINE
   5
33B
 100
AcDbEntity
   8
LEVEL002
 370
25
 100
AcDbLine
   6
CONTINUOUS
  62
1
  10
 110.00117983687
  20
 455.69674943660
  30
0.0
  11
 110.00117983687
  21
 457.19674943660
  31
0.0
   0
LINE
   5
33C
 100
AcDbEntity
   8
LEVEL002
 370
25
 100
AcDbLine
   6
CONTINUOUS
  62
1
  10
 110.00117983687
  20
 457.19674943660
  30
0.0
  11
 119.00117983687
  21
 457.19674943660
  31
0.0
   0
LINE
   5
33D
 100
AcDbEntity
   8
LEVEL002
 370
25
 100
AcDbLine
   6
CONTINUOUS
  62
1
  10
 119.00117983687
  20
 457.19674943660
  30
0.0
  11
 119.00117983687
  21
 455.69674943660
  31
0.0
   0
LINE
   5
33E
 100
AcDbEntity
   8
LEVEL002
 370
25
 100
AcDbLine
   6
CONTINUOUS
  62
1
  10
 105.80117983687
  20
 460.09674943660
  30
0.0
  11
 109.60117983687
  21
 460.09674943660
  31
0.0
   0
LINE
   5
33F
 100
AcDbEntity
   8
LEVEL002
 370
25
 100
AcDbLine
   6
CONTINUOUS
  62
1
  10
 113.40117983687
  20
 460.09674943660
  30
0.0
  11
 117.20117983687
  21
 460.09674943660
  31
0.0
   0
ARC
   5
340
 100
AcDbEntity
   8
LEVEL002
 370
25
   6
CONTINUOUS
  62
1
 100
AcDbCircle
  10
 102.50117983687
  20
 454.36341610330
  30
0.0
  40
 2.8333333333333
 100
AcDbArc
  50
 28.072486935679
  51
 151.92751306424
   0
LINE
   5
341
 100
AcDbEntity
   8
LEVEL002
 370
25
 100
AcDbLine
   6
CONTINUOUS
  62
1
  10
 98.201179836871
  20
 460.09674943660
  30
0.0
  11
 102.00117983687
  21
 460.09674943660
  31
0.0
   0
CIRCLE
   5
342
 100
AcDbEntity
   8
LEVEL002
 370
25
 100
AcDbCircle
   6
CONTINUOUS
  62
1
  10
 99.699999999900
  20
 458.58132008640
  30
0.0
  40
 0.10000000000000
   0
ARC
   5
343
 100
AcDbEntity
   8
LEVEL002
 370
25
   6
CONTINUOUS
  62
1
 100
AcDbCircle
  10
 92.999999999929
  20
 456.19674943660
  30
0.0
  40
 0.50000000000000
 100
AcDbArc
  50
 119.15840580013
  51
 269.99999999664
   0
LINE
   5
344
 100
AcDbEntity
   8
LEVEL002
 370
25
 100
AcDbLine
   6
CONTINUOUS
  62
1
  10
 92.756387085997
  20
 456.63338744250
  30
0.0
  11
 95.199999999900
  21
 457.99674943660
  31
0.0
   0
LINE
   5
345
 100
AcDbEntity
   8
LEVEL002
 370
25
 100
AcDbLine
   6
CONTINUOUS
  62
1
  10
 99.939014580880
  20
 407.00000000000
  30
0.0
  11
 99.939014580880
  21
 362.00000000000
  31
0.0
   0
LINE
   5
346
 100
AcDbEntity
   8
LEVEL002
 370
25
 100
AcDbLine
   6
CONTINUOUS
  62
1
  10
 103.93901458088
  20
 407.00000000000
  30
0.0
  11
 103.93901458088
  21
 362.00000000000
  31
0.0
   0
LINE
   5
347
 100
AcDbEntity
   8
LEVEL002
 370
25
 100
AcDbLine
   6
CONTINUOUS
  62
1
  10
 108.43901458088
  20
 407.00000000000
  30
0.0
  11
 108.43901458088
  21
 362.00000000000
  31
0.0
   0
LINE
   5
348
 100
AcDbEntity
   8
LEVEL002
 370
25
 100
AcDbLine
   6
CONTINUOUS
  62
1
  10
 112.53901458088
  20
 407.00000000000
  30
0.0
  11
 112.53901458088
  21
 362.00000000000
  31
0.0
   0
LINE
   5
349
 100
AcDbEntity
   8
LEVEL002
 370
25
 100
AcDbLine
   6
CONTINUOUS
  62
1
  10
 117.03901458088
  20
 407.00000000000
  30
0.0
  11
 117.03901458088
  21
 362.00000000000
  31
0.0
   0
LINE
   5
34A
 100
AcDbEntity
   8
LEVEL002
 370
25
 100
AcDbLine
   6
CONTINUOUS
  62
1
  10
 121.13901458088
  20
 407.00000000000
  30
0.0
  11
 121.13901458088
  21
 362.00000000000
  31
0.0
   0
LINE
   5
34B
 100
AcDbEntity
   8
LEVEL002
 370
25
 100
AcDbLine
   6
CONTINUOUS
  62
1
  10
 125.99999999990
  20
 407.00000000000
  30
0.0
  11
 125.99999999990
  21
 362.00000000000
  31
0.0
   0
LINE
   5
34C
 100
AcDbEntity
   8
LEVEL002
 370
25
 100
AcDbLine
   6
CONTINUOUS
  62
1
  10
 113.08901458088
  20
 319.50000000000
  30
0.0
  11
 113.08901458088
  21
 321.00000000000
  31
0.0
   0
LINE
   5
34D
 100
AcDbEntity
   8
LEVEL002
 370
25
 100
AcDbLine
   6
CONTINUOUS
  62
1
  10
 113.08901458088
  20
 321.00000000000
  30
0.0
  11
 122.58901458088
  21
 321.00000000000
  31
0.0
   0
LINE
   5
34E
 100
AcDbEntity
   8
LEVEL002
 370
25
 100
AcDbLine
   6
CONTINUOUS
  62
1
  10
 122.58901458088
  20
 321.00000000000
  30
0.0
  11
 122.58901458088
  21
 319.50000000000
  31
0.0
   0
ARC
   5
34F
 100
AcDbEntity
   8
LEVEL002
 370
25
   6
CONTINUOUS
  62
1
 100
AcDbCircle
  10
 103.18901458088
  20
 315.50000000000
  30
0.0
  40
 5.5000000000000
 100
AcDbArc
  50
 46.658241772837
  51
 133.34175822723
   0
ARC
   5
350
 100
AcDbEntity
   8
LEVEL002
 370
25
   6
CONTINUOUS
  62
1
 100
AcDbCircle
  10
 123.48905661938
  20
 322.08194483010
  30
0.0
  40
 2.5000000000000
 100
AcDbArc
  50
 1.8964769113197
  51
 88.090847566981
   0
LINE
   5
351
 100
AcDbEntity
   8
LEVEL002
 370
25
 100
AcDbLine
   6
CONTINUOUS
  62
1
  10
 121.13901458088
  20
 324.64333333340
  30
0.0
  11
 123.57173321545
  21
 324.56224271220
  31
0.0
   0
ARC
   5
352
 100
AcDbEntity
   8
LEVEL002
 370
25
   6
CONTINUOUS
  62
1
 100
AcDbCircle
  10
 97.999999999910
  20
 322.41314507120
  30
0.0
  40
 3.0000000000000
 100
AcDbArc
  50
 88.090847567169
  51
 180.00000000000
   0
LINE
   5
353
 100
AcDbEntity
   8
LEVEL002
 370
25
 100
AcDbLine
   6
CONTINUOUS
  62
1
  10
 98.067335960540
  20
 325.41238928740
  30
0.0
  11
 99.939014580880
  21
 325.35000000000
  31
0.0
   0
LINE
   5
354
 100
AcDbEntity
   8
LEVEL002
 370
25
 100
AcDbLine
   6
CONTINUOUS
  62
1
  10
 99.939014580880
  20
 325.35000000000
  30
0.0
  11
 99.939014580880
  21
 324.44950013880
  31
0.0
   0
LINE
   5
355
 100
AcDbEntity
   8
LEVEL002
 370
25
 100
AcDbLine
   6
CONTINUOUS
  62
1
  10
 99.939014580880
  20
 324.44950013880
  30
0.0
  11
 103.93901458088
  21
 324.31616680550
  31
0.0
   0
LINE
   5
356
 100
AcDbEntity
   8
LEVEL002
 370
25
 100
AcDbLine
   6
CONTINUOUS
  62
1
  10
 103.93901458088
  20
 324.31616680550
  30
0.0
  11
 103.93901458088
  21
 325.21666666670
  31
0.0
   0
LINE
   5
357
 100
AcDbEntity
   8
LEVEL002
 370
25
 100
AcDbLine
   6
CONTINUOUS
  62
1
  10
 103.93901458088
  20
 325.21666666670
  30
0.0
  11
 108.43901458088
  21
 325.06666666670
  31
0.0
   0
LINE
   5
358
 100
AcDbEntity
   8
LEVEL002
 370
25
 100
AcDbLine
   6
CONTINUOUS
  62
1
  10
 108.43901458088
  20
 325.06666666670
  30
0.0
  11
 108.43901458088
  21
 324.16616680550
  31
0.0
   0
LINE
   5
359
 100
AcDbEntity
   8
LEVEL002
 370
25
 100
AcDbLine
   6
CONTINUOUS
  62
1
  10
 108.43901458088
  20
 324.16616680550
  30
0.0
  11
 112.53901458088
  21
 324.02950013880
  31
0.0
   0
LINE
   5
35A
 100
AcDbEntity
   8
LEVEL002
 370
25
 100
AcDbLine
   6
CONTINUOUS
  62
1
  10
 112.53901458088
  20
 324.02950013880
  30
0.0
  11
 112.53901458088
  21
 324.93000000000
  31
0.0
   0
LINE
   5
35B
 100
AcDbEntity
   8
LEVEL002
 370
25
 100
AcDbLine
   6
CONTINUOUS
  62
1
  10
 112.53901458088
  20
 324.93000000000
  30
0.0
  11
 117.03901458088
  21
 324.78000000000
  31
0.0
   0
LINE
   5
35C
 100
AcDbEntity
   8
LEVEL002
 370
25
 100
AcDbLine
   6
CONTINUOUS
  62
1
  10
 117.03901458088
  20
 324.78000000000
  30
0.0
  11
 117.03901458088
  21
 323.87950013880
  31
0.0
   0
LINE
   5
35D
 100
AcDbEntity
   8
LEVEL002
 370
25
 100
AcDbLine
   6
CONTINUOUS
  62
1
  10
 117.03901458088
  20
 323.87950013880
  30
0.0
  11
 121.13901458088
  21
 323.74283347220
  31
0.0
   0
LINE
   5
35E
 100
AcDbEntity
   8
LEVEL002
 370
25
 100
AcDbLine
   6
CONTINUOUS
  62
1
  10
 121.13901458088
  20
 323.74283347220
  30
0.0
  11
 121.13901458088
  21
 324.64333333340
  31
0.0
   0
CIRCLE
   5
35F
 100
AcDbEntity
   8
LEVEL002
 370
25
 100
AcDbCircle
   6
CONTINUOUS
  62
1
  10
 99.439014580880
  20
 322.00000000000
  30
0.0
  40
 0.10000000000000
   0
CIRCLE
   5
360
 100
AcDbEntity
   8
LEVEL002
 370
25
 100
AcDbCircle
   6
CONTINUOUS
  62
1
  10
 117.60792296295
  20
 322.00000000000
  30
0.0
  40
 0.10000000000000
   0
LINE
   5
361
 100
AcDbEntity
   8
LEVEL002
 370
25
 100
AcDbLine
   6
CONTINUOUS
  62
1
  10
 94.999999999900
  20
 321.76306831230
  30
0.0
  11
 93.198152031160
  21
 320.39860733030
  31
0.0
   0
ARC
   5
362
 100
AcDbEntity
   8
LEVEL002
 370
25
   6
CONTINUOUS
  62
1
 100
AcDbCircle
  10
 93.499999999700
  20
 320.00000000000
  30
0.0
  40
 0.50000000000000
 100
AcDbArc
  50
 127.13506078446
  51
 270.00000002290
   0
LINE
   5
363
 100
AcDbEntity
   8
LEVEL002
 370
25
 100
AcDbLine
   6
CONTINUOUS
  62
1
  10
 125.99999999990
  20
 321.79282600570
  30
0.0
  11
 129.30289317397
  21
 320.16390099780
  31
0.0
   0
ARC
   5
364
 100
AcDbEntity
   8
LEVEL002
 370
25
   6
CONTINUOUS
  62
1
 100
AcDbCircle
  10
 129.14808308551
  20
 319.84999999990
  30
0.0
  40
 0.35000000000000
 100
AcDbArc
  50
 269.99999995641
  51
 63.748348698219
   0
LINE
   5
365
 100
AcDbEntity
   8
LEVEL002
 370
25
 100
AcDbLine
   6
CONTINUOUS
  62
1
  10
 275.99999999989
  20
 362.00000000000
  30
0.0
  11
 275.99999999989
  21
 407.00000000000
  31
0.0
   0
LINE
   5
366
 100
AcDbEntity
   8
LEVEL002
 370
25
 100
AcDbLine
   6
CONTINUOUS
  62
1
  10
 244.49999999989
  20
 407.00000000000
  30
0.0
  11
 244.49999999989
  21
 362.00000000000
  31
0.0
   0
LINE
   5
367
 100
AcDbEntity
   8
LEVEL002
 370
25
 100
AcDbLine
   6
CONTINUOUS
  62
1
  10
 247.69999999989
  20
 407.00000000000
  30
0.0
  11
 247.69999999989
  21
 362.00000000000
  31
0.0
   0
LINE
   5
368
 100
AcDbEntity
   8
LEVEL002
 370
25
 100
AcDbLine
   6
CONTINUOUS
  62
1
  10
 250.69999999989
  20
 407.00000000000
  30
0.0
  11
 250.69999999989
  21
 362.00000000000
  31
0.0
   0
LINE
   5
369
 100
AcDbEntity
   8
LEVEL002
 370
25
 100
AcDbLine
   6
CONTINUOUS
  62
1
  10
 254.19999999989
  20
 407.00000000000
  30
0.0
  11
 254.19999999989
  21
 362.00000000000
  31
0.0
   0
LINE
   5
36A
 100
AcDbEntity
   8
LEVEL002
 370
25
 100
AcDbLine
   6
CONTINUOUS
  62
1
  10
 257.19999999989
  20
 407.00000000000
  30
0.0
  11
 257.19999999989
  21
 362.00000000000
  31
0.0
   0
LINE
   5
36B
 100
AcDbEntity
   8
LEVEL002
 370
25
 100
AcDbLine
   6
CONTINUOUS
  62
1
  10
 260.69999999989
  20
 407.00000000000
  30
0.0
  11
 260.69999999989
  21
 362.00000000000
  31
0.0
   0
LINE
   5
36C
 100
AcDbEntity
   8
LEVEL002
 370
25
 100
AcDbLine
   6
CONTINUOUS
  62
1
  10
 263.69999999989
  20
 407.00000000000
  30
0.0
  11
 263.69999999989
  21
 362.00000000000
  31
0.0
   0
LINE
   5
36D
 100
AcDbEntity
   8
LEVEL002
 370
25
 100
AcDbLine
   6
CONTINUOUS
  62
1
  10
 267.19999999989
  20
 407.00000000000
  30
0.0
  11
 267.19999999989
  21
 362.00000000000
  31
0.0
   0
LINE
   5
36E
 100
AcDbEntity
   8
LEVEL002
 370
25
 100
AcDbLine
   6
CONTINUOUS
  62
1
  10
 272.49999999989
  20
 407.00000000000
  30
0.0
  11
 272.49999999989
  21
 362.00000000000
  31
0.0
   0
LINE
   5
36F
 100
AcDbEntity
   8
LEVEL002
 370
25
 100
AcDbLine
   6
CONTINUOUS
  62
1
  10
 381.97101254709
  20
 407.00000000000
  30
0.0
  11
 381.97101254709
  21
 362.00000000000
  31
0.0
   0
LINE
   5
370
 100
AcDbEntity
   8
LEVEL002
 370
25
 100
AcDbLine
   6
CONTINUOUS
  62
1
  10
 389.97101254709
  20
 407.00000000000
  30
0.0
  11
 389.97101254709
  21
 362.00000000000
  31
0.0
   0
LINE
   5
371
 100
AcDbEntity
   8
LEVEL002
 370
25
 100
AcDbLine
   6
CONTINUOUS
  62
1
  10
 395.47101254709
  20
 407.00000000000
  30
0.0
  11
 395.47101254709
  21
 362.00000000000
  31
0.0
   0
LINE
   5
372
 100
AcDbEntity
   8
LEVEL002
 370
25
 100
AcDbLine
   6
CONTINUOUS
  62
1
  10
 399.47101254709
  20
 407.00000000000
  30
0.0
  11
 399.47101254709
  21
 362.00000000000
  31
0.0
   0
LINE
   5
373
 100
AcDbEntity
   8
LEVEL002
 370
25
 100
AcDbLine
   6
CONTINUOUS
  62
1
  10
 404.97101254709
  20
 407.00000000000
  30
0.0
  11
 404.97101254709
  21
 362.00000000000
  31
0.0
   0
LINE
   5
374
 100
AcDbEntity
   8
LEVEL002
 370
25
 100
AcDbLine
   6
CONTINUOUS
  62
1
  10
 408.97101254709
  20
 407.00000000000
  30
0.0
  11
 408.97101254709
  21
 362.00000000000
  31
0.0
   0
LINE
   5
375
 100
AcDbEntity
   8
LEVEL002
 370
25
 100
AcDbLine
   6
CONTINUOUS
  62
1
  10
 412.68191473959
  20
 407.00000000000
  30
0.0
  11
 412.68191473959
  21
 362.00000000000
  31
0.0
   0
LINE
   5
376
 100
AcDbEntity
   8
LEVEL002
 370
30
 100
AcDbLine
   6
CONTINUOUS
  62
7
  10
 379.99999999989
  20
 362.00000000000
  30
0.0
  11
 412.68191473959
  21
 362.00000000000
  31
0.0
   0
LINE
   5
377
 100
AcDbEntity
   8
LEVEL002
 370
25
 100
AcDbLine
   6
CONTINUOUS
  62
1
  10
 434.37505587429
  20
 362.00000000000
  30
0.0
  11
 434.37505587429
  21
 407.00000000000
  31
0.0
   0
LINE
   5
378
 100
AcDbEntity
   8
LEVEL002
 370
25
 100
AcDbLine
   6
CONTINUOUS
  62
1
  10
 412.68191473959
  20
 362.00000000000
  30
0.0
  11
 434.37505587429
  21
 362.00000000000
  31
0.0
   0
ARC
   5
379
 100
AcDbEntity
   8
LEVEL002
 370
25
   6
CONTINUOUS
  62
1
 100
AcDbCircle
  10
 406.48214685229
  20
 271.98441303230
  30
0.0
  40
 55.000000000000
 100
AcDbArc
  50
 59.826365544432
  51
 82.341943275894
   0
ARC
   5
37A
 100
AcDbEntity
   8
LEVEL002
 370
25
   6
CONTINUOUS
  62
1
 100
AcDbCircle
  10
 412.91290101819
  20
 273.15614226270
  30
0.0
  40
 50.000000000000
 100
AcDbArc
  50
 65.474878661406
  51
 87.278260969153
   0
ARC
   5
37B
 100
AcDbEntity
   8
LEVEL002
 370
25
   6
CONTINUOUS
  62
1
 100
AcDbCircle
  10
 433.87505587369
  20
 319.10000000030
  30
0.0
  40
 0.50000000000000
 100
AcDbArc
  50
 245.47487873232
  51
 59.826365473179
   0
LINE
   5
37C
 100
AcDbEntity
   8
LEVEL002
 370
25
 100
AcDbLine
   6
CONTINUOUS
  62
1
  10
 408.97101254709
  20
 326.00628473500
  30
0.0
  11
 412.68191473959
  21
 326.00628473500
  31
0.0
   0
ARC
   5
37D
 100
AcDbEntity
   8
LEVEL002
 370
25
   6
CONTINUOUS
  62
1
 100
AcDbCircle
  10
 413.71263239579
  20
 325.69999999990
  30
0.0
  40
 0.80000000000000
 100
AcDbArc
  50
 81.765323994757
  51
 141.67450479049
   0
LINE
   5
37E
 100
AcDbEntity
   8
LEVEL002
 370
25
 100
AcDbLine
   6
CONTINUOUS
  62
1
  10
 383.47101254709
  20
 327.72730657040
  30
0.0
  11
 389.97101254709
  21
 327.72730657040
  31
0.0
   0
LINE
   5
37F
 100
AcDbEntity
   8
LEVEL002
 370
25
 100
AcDbLine
   6
CONTINUOUS
  62
1
  10
 389.97101254709
  20
 327.72730657040
  30
0.0
  11
 389.97101254709
  21
 326.00628473500
  31
0.0
   0
LINE
   5
380
 100
AcDbEntity
   8
LEVEL002
 370
25
 100
AcDbLine
   6
CONTINUOUS
  62
1
  10
 395.47101254709
  20
 326.00628473500
  30
0.0
  11
 395.47101254709
  21
 327.72730657040
  31
0.0
   0
LINE
   5
381
 100
AcDbEntity
   8
LEVEL002
 370
25
 100
AcDbLine
   6
CONTINUOUS
  62
1
  10
 395.47101254709
  20
 327.72730657040
  30
0.0
  11
 399.47101254709
  21
 327.72730657040
  31
0.0
   0
LINE
   5
382
 100
AcDbEntity
   8
LEVEL002
 370
25
 100
AcDbLine
   6
CONTINUOUS
  62
1
  10
 399.47101254709
  20
 327.72730657040
  30
0.0
  11
 399.47101254709
  21
 326.00628473500
  31
0.0
   0
LINE
   5
383
 100
AcDbEntity
   8
LEVEL002
 370
25
 100
AcDbLine
   6
CONTINUOUS
  62
1
  10
 404.97101254709
  20
 326.00628473500
  30
0.0
  11
 404.97101254709
  21
 327.72730657040
  31
0.0
   0
LINE
   5
384
 100
AcDbEntity
   8
LEVEL002
 370
25
 100
AcDbLine
   6
CONTINUOUS
  62
1
  10
 404.97101254709
  20
 327.72730657040
  30
0.0
  11
 408.97101254709
  21
 327.72730657040
  31
0.0
   0
LINE
   5
385
 100
AcDbEntity
   8
LEVEL002
 370
25
 100
AcDbLine
   6
CONTINUOUS
  62
1
  10
 408.97101254709
  20
 327.72730657040
  30
0.0
  11
 408.97101254709
  21
 326.00628473500
  31
0.0
   0
ARC
   5
386
 100
AcDbEntity
   8
LEVEL002
 370
25
   6
CONTINUOUS
  62
1
 100
AcDbCircle
  10
 383.47101254709
  20
 326.22730657040
  30
0.0
  40
 1.5000000000000
 100
AcDbArc
  50
 89.999999998558
  51
 180.00000000000
   0
LINE
   5
387
 100
AcDbEntity
   8
LEVEL002
 370
25
 100
AcDbLine
   6
CONTINUOUS
  62
1
  10
 381.97101254709
  20
 322.49275313680
  30
0.0
  11
 381.97101254709
  21
 326.22730657040
  31
0.0
   0
LINE
   5
388
 100
AcDbEntity
   8
LEVEL002
 370
25
 100
AcDbLine
   6
CONTINUOUS
  62
1
  10
 389.97101254709
  20
 326.00628473500
  30
0.0
  11
 395.47101254709
  21
 326.00628473500
  31
0.0
   0
LINE
   5
389
 100
AcDbEntity
   8
LEVEL002
 370
25
 100
AcDbLine
   6
CONTINUOUS
  62
1
  10
 399.47101254709
  20
 326.00628473500
  30
0.0
  11
 404.97101254709
  21
 326.00628473500
  31
0.0
   0
ARC
   5
38A
 100
AcDbEntity
   8
LEVEL002
 370
25
   6
CONTINUOUS
  62
1
 100
AcDbCircle
  10
 412.69278173749
  20
 326.50616662960
  30
0.0
  40
 0.50000000000000
 100
AcDbArc
  50
 268.75463571533
  51
 321.67450477061
   0
ARC
   5
38B
 100
AcDbEntity
   8
LEVEL002
 370
25
   6
CONTINUOUS
  62
1
 100
AcDbCircle
  10
 415.74315844299
  20
 322.43544528910
  30
0.0
  40
 1.0000000000000
 100
AcDbArc
  50
 160.78527005024
  51
 219.98741131005
   0
ARC
   5
38C
 100
AcDbEntity
   8
LEVEL002
 370
25
   6
CONTINUOUS
  62
1
 100
AcDbCircle
  10
 415.27101254709
  20
 322.60000000000
  30
0.0
  40
 0.50000000000000
 100
AcDbArc
  50
 86.391153928920
  51
 160.78527003959
   0
ARC
   5
38D
 100
AcDbEntity
   8
LEVEL002
 370
25
   6
CONTINUOUS
  62
1
 100
AcDbCircle
  10
 390.97101254709
  20
 316.18750000000
  30
0.0
  40
 4.8189891315503
 100
AcDbArc
  50
 43.423449944957
  51
 136.57655005518
   0
ARC
   5
38E
 100
AcDbEntity
   8
LEVEL002
 370
25
   6
CONTINUOUS
  62
1
 100
AcDbCircle
  10
 399.47101254709
  20
 318.33333333340
  30
0.0
  40
 4.1666666666667
 100
AcDbArc
  50
 16.260204707999
  51
 163.73979529195
   0
ARC
   5
38F
 100
AcDbEntity
   8
LEVEL002
 370
25
   6
CONTINUOUS
  62
1
 100
AcDbCircle
  10
 408.22101254709
  20
 315.56250000000
  30
0.0
  40
 5.4375000000000
 100
AcDbArc
  50
 46.397181027415
  51
 133.60281897271
   0
LINE
   5
390
 100
AcDbEntity
   8
LEVEL002
 370
25
 100
AcDbLine
   6
CONTINUOUS
  62
1
  10
 93.746306780330
  20
 270.50000000000
  30
0.0
  11
 93.746306780330
  21
 225.50000000000
  31
0.0
   0
LINE
   5
391
 100
AcDbEntity
   8
LEVEL002
 370
25
 100
AcDbLine
   6
CONTINUOUS
  62
1
  10
 99.222296164120
  20
 270.50000000000
  30
0.0
  11
 99.222296164120
  21
 225.50000000000
  31
0.0
   0
LINE
   5
392
 100
AcDbEntity
   8
LEVEL002
 370
25
 100
AcDbLine
   6
CONTINUOUS
  62
1
  10
 103.02229616412
  20
 270.50000000000
  30
0.0
  11
 103.02229616412
  21
 225.50000000000
  31
0.0
   0
LINE
   5
393
 100
AcDbEntity
   8
LEVEL002
 370
25
 100
AcDbLine
   6
CONTINUOUS
  62
1
  10
 107.82229616412
  20
 270.50000000000
  30
0.0
  11
 107.82229616412
  21
 225.50000000000
  31
0.0
   0
LINE
   5
394
 100
AcDbEntity
   8
LEVEL002
 370
25
 100
AcDbLine
   6
CONTINUOUS
  62
1
  10
 111.62229616412
  20
 270.50000000000
  30
0.0
  11
 111.62229616412
  21
 225.50000000000
  31
0.0
   0
LINE
   5
395
 100
AcDbEntity
   8
LEVEL002
 370
25
 100
AcDbLine
   6
CONTINUOUS
  62
1
  10
 116.42229616412
  20
 270.50000000000
  30
0.0
  11
 116.42229616412
  21
 225.50000000000
  31
0.0
   0
LINE
   5
396
 100
AcDbEntity
   8
LEVEL002
 370
25
 100
AcDbLine
   6
CONTINUOUS
  62
1
  10
 120.22229616412
  20
 270.50000000000
  30
0.0
  11
 120.22229616412
  21
 225.50000000000
  31
0.0
   0
LINE
   5
397
 100
AcDbEntity
   8
LEVEL002
 370
25
 100
AcDbLine
   6
CONTINUOUS
  62
1
  10
 125.02229616412
  20
 270.50000000000
  30
0.0
  11
 125.02229616412
  21
 225.50000000000
  31
0.0
   0
LINE
   5
398
 100
AcDbEntity
   8
LEVEL002
 370
25
 100
AcDbLine
   6
CONTINUOUS
  62
1
  10
 128.82229616412
  20
 270.50000000000
  30
0.0
  11
 128.82229616412
  21
 225.50000000000
  31
0.0
   0
LINE
   5
399
 100
AcDbEntity
   8
LEVEL002
 370
25
 100
AcDbLine
   6
CONTINUOUS
  62
1
  10
 133.33871504098
  20
 270.50000000000
  30
0.0
  11
 133.33871504098
  21
 225.50000000000
  31
0.0
   0
LINE
   5
39A
 100
AcDbEntity
   8
LEVEL002
 370
25
 100
AcDbLine
   6
CONTINUOUS
  62
1
  10
 135.69999999990
  20
 270.50000000000
  30
0.0
  11
 135.69999999990
  21
 225.50000000000
  31
0.0
   0
LINE
   5
39B
 100
AcDbEntity
   8
LEVEL002
 370
25
 100
AcDbLine
   6
CONTINUOUS
  62
1
  10
 95.191990009790
  20
 191.60000000124
  30
0.0
  11
 99.222296164120
  21
 191.60000000124
  31
0.0
   0
LINE
   5
39C
 100
AcDbEntity
   8
LEVEL002
 370
25
 100
AcDbLine
   6
CONTINUOUS
  62
1
  10
 99.222296164120
  20
 191.60000000124
  30
0.0
  11
 99.222296164120
  21
 190.60000000124
  31
0.0
   0
LINE
   5
39D
 100
AcDbEntity
   8
LEVEL002
 370
25
 100
AcDbLine
   6
CONTINUOUS
  62
1
  10
 103.02229616412
  20
 190.60000000124
  30
0.0
  11
 103.02229616412
  21
 191.60000000124
  31
0.0
   0
LINE
   5
39E
 100
AcDbEntity
   8
LEVEL002
 370
25
 100
AcDbLine
   6
CONTINUOUS
  62
1
  10
 103.02229616412
  20
 191.60000000124
  30
0.0
  11
 107.82229616412
  21
 191.60000000124
  31
0.0
   0
LINE
   5
39F
 100
AcDbEntity
   8
LEVEL002
 370
25
 100
AcDbLine
   6
CONTINUOUS
  62
1
  10
 107.82229616412
  20
 191.60000000124
  30
0.0
  11
 107.82229616412
  21
 190.60000000124
  31
0.0
   0
LINE
   5
3A0
 100
AcDbEntity
   8
LEVEL002
 370
25
 100
AcDbLine
   6
CONTINUOUS
  62
1
  10
 111.62229616412
  20
 190.60000000124
  30
0.0
  11
 111.62229616412
  21
 191.60000000124
  31
0.0
   0
LINE
   5
3A1
 100
AcDbEntity
   8
LEVEL002
 370
25
 100
AcDbLine
   6
CONTINUOUS
  62
1
  10
 111.62229616412
  20
 191.60000000124
  30
0.0
  11
 116.42229616412
  21
 191.60000000124
  31
0.0
   0
LINE
   5
3A2
 100
AcDbEntity
   8
LEVEL002
 370
25
 100
AcDbLine
   6
CONTINUOUS
  62
1
  10
 116.42229616412
  20
 191.60000000124
  30
0.0
  11
 116.42229616412
  21
 190.60000000124
  31
0.0
   0
LINE
   5
3A3
 100
AcDbEntity
   8
LEVEL002
 370
25
 100
AcDbLine
   6
CONTINUOUS
  62
1
  10
 120.22229616412
  20
 190.60000000124
  30
0.0
  11
 120.22229616412
  21
 191.60000000124
  31
0.0
   0
LINE
   5
3A4
 100
AcDbEntity
   8
LEVEL002
 370
25
 100
AcDbLine
   6
CONTINUOUS
  62
1
  10
 120.22229616412
  20
 191.60000000124
  30
0.0
  11
 125.02229616412
  21
 191.60000000124
  31
0.0
   0
LINE
   5
3A5
 100
AcDbEntity
   8
LEVEL002
 370
25
 100
AcDbLine
   6
CONTINUOUS
  62
1
  10
 125.02229616412
  20
 191.60000000124
  30
0.0
  11
 125.02229616412
  21
 190.60000000124
  31
0.0
   0
LINE
   5
3A6
 100
AcDbEntity
   8
LEVEL002
 370
25
 100
AcDbLine
   6
CONTINUOUS
  62
1
  10
 128.82229616412
  20
 190.60000000124
  30
0.0
  11
 128.82229616412
  21
 191.60000000124
  31
0.0
   0
LINE
   5
3A7
 100
AcDbEntity
   8
LEVEL002
 370
25
 100
AcDbLine
   6
CONTINUOUS
  62
1
  10
 128.82229616412
  20
 191.60000000124
  30
0.0
  11
 133.33871504098
  21
 191.60000000124
  31
0.0
   0
ARC
   5
3A8
 100
AcDbEntity
   8
LEVEL002
 370
25
   6
CONTINUOUS
  62
1
 100
AcDbCircle
  10
 95.250466239410
  20
 189.60000000122
  30
0.0
  40
 2.0000000000000
 100
AcDbArc
  50
 89.999999999505
  51
 135.09912790234
   0
ARC
   5
3A9
 100
AcDbEntity
   8
LEVEL002
 370
25
   6
CONTINUOUS
  62
1
 100
AcDbCircle
  10
 94.046306780250
  20
 190.80000000000
  30
0.0
  40
 0.30000000000000
 100
AcDbArc
  50
 135.09912789400
  51
 269.99999977593
   0
LINE
   5
3AA
 100
AcDbEntity
   8
LEVEL002
 370
25
 100
AcDbLine
   6
CONTINUOUS
  62
1
  10
 133.33871504098
  20
 191.60000000124
  30
0.0
  11
 135.69999999990
  21
 190.50000000000
  31
0.0
   0
LINE
   5
3AB
 100
AcDbEntity
   8
LEVEL002
 370
25
 100
AcDbLine
   6
CONTINUOUS
  62
1
  10
 124.62229616412
  20
 186.70000000000
  30
0.0
  11
 124.62229616412
  21
 188.20000000000
  31
0.0
   0
LINE
   5
3AC
 100
AcDbEntity
   8
LEVEL002
 370
25
 100
AcDbLine
   6
CONTINUOUS
  62
1
  10
 124.62229616412
  20
 188.20000000000
  30
0.0
  11
 129.42229616412
  21
 188.20000000000
  31
0.0
   0
LINE
   5
3AD
 100
AcDbEntity
   8
LEVEL002
 370
25
 100
AcDbLine
   6
CONTINUOUS
  62
1
  10
 129.42229616412
  20
 188.20000000000
  30
0.0
  11
 129.42229616412
  21
 186.70000000000
  31
0.0
   0
LINE
   5
3AE
 100
AcDbEntity
   8
LEVEL002
 370
25
 100
AcDbLine
   6
CONTINUOUS
  62
1
  10
 99.222296164120
  20
 186.70000000000
  30
0.0
  11
 99.222296164120
  21
 188.20000000000
  31
0.0
   0
LINE
   5
3AF
 100
AcDbEntity
   8
LEVEL002
 370
25
 100
AcDbLine
   6
CONTINUOUS
  62
1
  10
 99.222296164120
  20
 188.20000000000
  30
0.0
  11
 103.82229616412
  21
 188.20000000000
  31
0.0
   0
LINE
   5
3B0
 100
AcDbEntity
   8
LEVEL002
 370
25
 100
AcDbLine
   6
CONTINUOUS
  62
1
  10
 103.82229616412
  20
 188.20000000000
  30
0.0
  11
 103.82229616412
  21
 186.70000000000
  31
0.0
   0
LINE
   5
3B1
 100
AcDbEntity
   8
LEVEL002
 370
25
 100
AcDbLine
   6
CONTINUOUS
  62
1
  10
 107.62229616412
  20
 186.70000000000
  30
0.0
  11
 107.62229616412
  21
 188.20000000000
  31
0.0
   0
LINE
   5
3B2
 100
AcDbEntity
   8
LEVEL002
 370
25
 100
AcDbLine
   6
CONTINUOUS
  62
1
  10
 107.62229616412
  20
 188.20000000000
  30
0.0
  11
 112.42229616412
  21
 188.20000000000
  31
0.0
   0
LINE
   5
3B3
 100
AcDbEntity
   8
LEVEL002
 370
25
 100
AcDbLine
   6
CONTINUOUS
  62
1
  10
 112.42229616412
  20
 188.20000000000
  30
0.0
  11
 112.42229616412
  21
 186.70000000000
  31
0.0
   0
LINE
   5
3B4
 100
AcDbEntity
   8
LEVEL002
 370
25
 100
AcDbLine
   6
CONTINUOUS
  62
1
  10
 116.22229616412
  20
 186.70000000000
  30
0.0
  11
 116.22229616412
  21
 188.20000000000
  31
0.0
   0
LINE
   5
3B5
 100
AcDbEntity
   8
LEVEL002
 370
25
 100
AcDbLine
   6
CONTINUOUS
  62
1
  10
 116.22229616412
  20
 188.20000000000
  30
0.0
  11
 121.02229616412
  21
 188.20000000000
  31
0.0
   0
LINE
   5
3B6
 100
AcDbEntity
   8
LEVEL002
 370
25
 100
AcDbLine
   6
CONTINUOUS
  62
1
  10
 121.02229616412
  20
 188.20000000000
  30
0.0
  11
 121.02229616412
  21
 186.70000000000
  31
0.0
   0
LINE
   5
3B7
 100
AcDbEntity
   8
LEVEL002
 370
25
 100
AcDbLine
   6
CONTINUOUS
  62
1
  10
 99.222296164120
  20
 190.60000000124
  30
0.0
  11
 103.02229616412
  21
 190.60000000124
  31
0.0
   0
LINE
   5
3B8
 100
AcDbEntity
   8
LEVEL002
 370
25
 100
AcDbLine
   6
CONTINUOUS
  62
1
  10
 107.82229616412
  20
 190.60000000124
  30
0.0
  11
 111.62229616412
  21
 190.60000000124
  31
0.0
   0
LINE
   5
3B9
 100
AcDbEntity
   8
LEVEL002
 370
25
 100
AcDbLine
   6
CONTINUOUS
  62
1
  10
 116.42229616412
  20
 190.60000000124
  30
0.0
  11
 120.22229616412
  21
 190.60000000124
  31
0.0
   0
LINE
   5
3BA
 100
AcDbEntity
   8
LEVEL002
 370
25
 100
AcDbLine
   6
CONTINUOUS
  62
1
  10
 125.02229616412
  20
 190.60000000124
  30
0.0
  11
 128.82229616412
  21
 190.60000000124
  31
0.0
   0
LINE
   5
3BB
 100
AcDbEntity
   8
LEVEL002
 370
25
 100
AcDbLine
   6
CONTINUOUS
  62
1
  10
 135.69999999990
  20
 190.50000000000
  30
0.0
  11
 135.69999999990
  21
 189.70000000000
  31
0.0
   0
LINE
   5
3BC
 100
AcDbEntity
   8
LEVEL002
 370
25
 100
AcDbLine
   6
CONTINUOUS
  62
1
  10
 135.69999999990
  20
 189.70000000000
  30
0.0
  11
 138.76859237263
  21
 187.61347034043
  31
0.0
   0
ARC
   5
3BD
 100
AcDbEntity
   8
LEVEL002
 370
25
   6
CONTINUOUS
  62
1
 100
AcDbCircle
  10
 138.48744778782
  20
 187.19999999998
  30
0.0
  40
 0.50000000000000
 100
AcDbArc
  50
 269.99999999716
  51
 55.785742625911
   0
LINE
   5
3BE
 100
AcDbEntity
   8
LEVEL002
 370
25
 100
AcDbLine
   6
CONTINUOUS
  62
1
  10
 92.687069757390
  20
 187.59576664143
  30
0.0
  11
 94.708344545470
  21
 189.15635003786
  31
0.0
   0
ARC
   5
3BF
 100
AcDbEntity
   8
LEVEL002
 370
25
   6
CONTINUOUS
  62
1
 100
AcDbCircle
  10
 92.992632787820
  20
 187.20000000000
  30
0.0
  40
 0.50000000000000
 100
AcDbArc
  50
 127.67096910325
  51
 269.99999999416
   0
CIRCLE
   5
3C0
 100
AcDbEntity
   8
LEVEL002
 370
25
 100
AcDbCircle
   6
CONTINUOUS
  62
1
  10
 108.03846497089
  20
 458.58132008640
  30
0.0
  40
 0.10000000000000
   0
MTEXT
   5
3C2
 100
AcDbEntity
   8
LEVEL002
 370
15
  62
8
 100
AcDbMText
  10
 774.43016912150
  20
 97.333333333360
  30
0.0
  40
 6.0000000000000
  41
0.0
  71
5
  72
1
   1
\T1.000000;平成３０年　７月２８日
   7
GMM002
  44
 0.79999984000003
   0
DIMENSION
   5
3C3
 100
AcDbEntity
   8
LEVEL001
 370
15
   6
CONTINUOUS
  62
8
 100
AcDbDimension
   2
*D1
  10
 80.999999999900
  20
 459.50000000000
  30
0.0
  11
 80.999999999900
  21
 450.50000000000
  31
0.0
  70
0
   3
GMM001
 100
AcDbAlignedDimension
  13
 92.254711529590
  23
 441.50000000000
  33
0.0
  14
 91.783493323432
  24
 459.50000000000
  34
0.0
  50
 90.000000000000
 100
AcDbRotatedDimension
   0
DIMENSION
   5
3C4
 100
AcDbEntity
   8
LEVEL001
 370
15
   6
CONTINUOUS
  62
8
 100
AcDbDimension
   2
*D2
  10
 125.99999999990
  20
 469.49674943660
  30
0.0
  11
 108.49999999990
  21
 469.49674943660
  31
0.0
  70
0
   3
GMM001
 100
AcDbAlignedDimension
  13
 90.999999999900
  23
 461.50000000000
  33
0.0
  14
 125.99999999990
  24
 458.43768146858
  34
0.0
 100
AcDbRotatedDimension
   0
DIMENSION
   5
3C5
 100
AcDbEntity
   8
LEVEL001
 370
15
   6
CONTINUOUS
  62
8
 100
AcDbDimension
   2
*D3
  10
 137.99999999990
  20
 454.49674943660
  30
0.0
  11
 137.99999999990
  21
 460.22831065198
  31
0.0
  70
128
   3
GMM002
 100
AcDbAlignedDimension
  13
 124.67452411327
  23
 459.49674943660
  33
0.0
  14
 125.14574231943
  24
 454.49674943660
  34
0.0
  50
 270.00000000000
 100
AcDbRotatedDimension
   0
LEADER
   5
3C6
 100
AcDbEntity
   8
LEVEL001
 370
15
   6
CONTINUOUS
  62
8
 100
AcDbLeader
   3
GMM003
  73
0
  74
1
  75
0
  40
 6.0000000000000
  41
 11.000000000000
  76
2
  10
 92.733923768937
  20
 459.49674943660
  30
0.0
  10
 84.967066168920
  20
 471.30788200259
  30
0.0
  77
8
 340
3C7
 213
0.0
 223
-2.0000000000000
 233
0.0
   0
MTEXT
   5
3C7
 102
{ACAD_REACTORS
 330
3C6
 102
}
 100
AcDbEntity
   8
LEVEL001
 370
15
  62
8
 100
AcDbMText
  10
 73.967066168920
  20
 473.30788200259
  30
0.0
  40
 6.0000000000000
  41
0.0
  71
7
  72
1
   1
\A1;金台
   7
GMM002
   0
LEADER
   5
3C8
 100
AcDbEntity
   8
LEVEL001
 370
15
   6
CONTINUOUS
  62
8
 100
AcDbLeader
   3
GMM003
  73
0
  74
0
  75
0
  40
 6.0000000000000
  41
 26.000000000000
  76
2
  10
 120.70117983687
  20
 460.99674943660
  30
0.0
  10
 129.28341551758
  20
 475.15341521989
  30
0.0
  77
8
 340
3C9
 213
0.0
 223
-2.0000000000000
 233
0.0
   0
MTEXT
   5
3C9
 102
{ACAD_REACTORS
 330
3C8
 102
}
 100
AcDbEntity
   8
LEVEL001
 370
15
  62
8
 100
AcDbMText
  10
 129.28341551758
  20
 477.15341521989
  30
0.0
  40
 6.0000000000000
  41
0.0
  71
7
  72
1
   1
\A1;インサート
   7
GMM002
   0
LEADER
   5
3CA
 100
AcDbEntity
   8
LEVEL001
 370
15
   6
CONTINUOUS
  62
8
 100
AcDbLeader
   3
GMM003
  73
0
  74
0
  75
0
  40
 6.0000000000000
  41
 35.500000000000
  76
2
  10
 99.699999999900
  20
 458.58132008640
  30
0.0
  10
 108.74587472663
  20
 444.45563839053
  30
0.0
  77
8
 340
3CB
 213
0.0
 223
-2.0000000000000
 233
0.0
   0
MTEXT
   5
3CB
 102
{ACAD_REACTORS
 330
3CA
 102
}
 100
AcDbEntity
   8
LEVEL001
 370
15
  62
8
 100
AcDbMText
  10
 108.74587472663
  20
 446.45563839053
  30
0.0
  40
 6.0000000000000
  41
0.0
  71
7
  72
1
   1
\A1;伸縮防止(糸入)
   7
GMM002
   0
LEADER
   5
3CC
 100
AcDbEntity
   8
LEVEL001
 370
15
   6
CONTINUOUS
  62
8
 100
AcDbLeader
   3
GMM003
  73
0
  74
1
  75
0
  40
 6.0000000000000
  41
 11.000000000000
  76
2
  10
 93.835073204600
  20
 323.00000000000
  30
0.0
  10
 86.068215604583
  20
 334.81113256599
  30
0.0
  77
8
 340
3CD
 213
0.0
 223
-2.0000000000000
 233
0.0
   0
MTEXT
   5
3CD
 102
{ACAD_REACTORS
 330
3CC
 102
}
 100
AcDbEntity
   8
LEVEL001
 370
15
  62
8
 100
AcDbMText
  10
 75.068215604583
  20
 336.81113256599
  30
0.0
  40
 6.0000000000000
  41
0.0
  71
7
  72
1
   1
\A1;金台
   7
GMM002
   0
LEADER
   5
3CE
 100
AcDbEntity
   8
LEVEL001
 370
15
   6
CONTINUOUS
  62
8
 100
AcDbLeader
   3
GMM003
  73
0
  74
0
  75
0
  40
 6.0000000000000
  41
 26.000000000000
  76
2
  10
 122.54555101604
  20
 322.61884922860
  30
0.0
  10
 131.12778669675
  20
 336.77551501189
  30
0.0
  77
8
 340
3CF
 213
0.0
 223
-2.0000000000000
 233
0.0
   0
MTEXT
   5
3CF
 102
{ACAD_REACTORS
 330
3CE
 102
}
 100
AcDbEntity
   8
LEVEL001
 370
15
  62
8
 100
AcDbMText
  10
 131.12778669675
  20
 344.77551501189
  30
0.0
  40
 6.0000000000000
  41
0.0
  71
7
  72
1
   1
\A1;インサート
   7
GMM002
  44
 0.79999984000003
   0
LEADER
   5
3D0
 100
AcDbEntity
   8
LEVEL001
 370
15
   6
CONTINUOUS
  62
8
 100
AcDbLeader
   3
GMM003
  73
0
  74
0
  75
0
  40
 6.0000000000000
  41
 35.500000000000
  76
2
  10
 99.688611496744
  20
 321.54743554090
  30
0.0
  10
 107.31666285132
  20
 307.61936438981
  30
0.0
  77
8
 340
3D1
 213
0.0
 223
-2.0000000000000
 233
0.0
   0
MTEXT
   5
3D1
 102
{ACAD_REACTORS
 330
3D0
 102
}
 100
AcDbEntity
   8
LEVEL001
 370
15
  62
8
 100
AcDbMText
  10
 107.31666285132
  20
 309.61936438981
  30
0.0
  40
 6.0000000000000
  41
0.0
  71
7
  72
1
   1
\A1;伸縮防止(糸入)
   7
GMM002
   0
DIMENSION
   5
3D2
 100
AcDbEntity
   8
LEVEL001
 370
15
   6
CONTINUOUS
  62
8
 100
AcDbDimension
   2
*D10
  10
 143.49999999990
  20
 318.00000000000
  30
0.0
  11
 143.49999999990
  21
 320.50000000000
  31
0.0
  70
0
   3
GMM001
 100
AcDbAlignedDimension
  13
 131.49999999990
  23
 323.00000000000
  33
0.0
  14
 131.49999999990
  24
 318.00000000000
  34
0.0
  50
 270.00000000000
 100
AcDbRotatedDimension
   0
DIMENSION
   5
3D3
 100
AcDbEntity
   8
LEVEL001
 370
15
   6
CONTINUOUS
  62
8
 100
AcDbDimension
   2
*D11
  10
 131.49999999990
  20
 333.00000000000
  30
0.0
  11
 111.24999999990
  21
 333.00000000000
  31
0.0
  70
0
   3
GMM001
 100
AcDbAlignedDimension
  13
 90.999999999900
  23
 325.41238928740
  33
0.0
  14
 131.49999999990
  24
 324.59340126406
  34
0.0
 100
AcDbRotatedDimension
   0
DIMENSION
   5
3D4
 100
AcDbEntity
   8
LEVEL001
 370
15
   6
CONTINUOUS
  62
8
 100
AcDbDimension
   2
*D12
  10
 80.999999999900
  20
 305.00000000000
  30
0.0
  11
 80.999999999900
  21
 314.00000000000
  31
0.0
  70
0
   3
GMM001
 100
AcDbAlignedDimension
  13
 90.999999999900
  23
 323.00000000000
  33
0.0
  14
 90.999999999900
  24
 305.00000000000
  34
0.0
  50
 270.00000000000
 100
AcDbRotatedDimension
   0
DIMENSION
   5
3D5
 100
AcDbEntity
   8
LEVEL001
 370
15
   6
CONTINUOUS
  62
8
 100
AcDbDimension
   2
*D13
  10
 275.99999999989
  20
 333.00000000000
  30
0.0
  11
 255.74999999989
  21
 333.00000000000
  31
0.0
  70
0
   3
GMM001
 100
AcDbAlignedDimension
  13
 235.49999999989
  23
 325.00000000000
  33
0.0
  14
 275.99999999989
  24
 327.60000000000
  34
0.0
 100
AcDbRotatedDimension
   0
DIMENSION
   5
3D6
 100
AcDbEntity
   8
LEVEL001
 370
15
   6
CONTINUOUS
  62
8
 100
AcDbDimension
   2
*D14
  10
 225.49999999989
  20
 305.00000000000
  30
0.0
  11
 225.49999999989
  21
 314.00000000000
  31
0.0
  70
0
   3
GMM001
 100
AcDbAlignedDimension
  13
 233.49999999989
  23
 323.00000000000
  33
0.0
  14
 233.49999999989
  24
 305.00000000000
  34
0.0
  50
 270.00000000000
 100
AcDbRotatedDimension
   0
LEADER
   5
3D7
 100
AcDbEntity
   8
LEVEL001
 370
15
   6
CONTINUOUS
  62
8
 100
AcDbLeader
   3
GMM003
  73
0
  74
1
  75
0
  40
 6.0000000000000
  41
 11.000000000000
  76
2
  10
 238.33507320459
  20
 323.00000000000
  30
0.0
  10
 230.56821560457
  20
 334.81113256599
  30
0.0
  77
8
 340
3D8
 213
0.0
 223
-2.0000000000000
 233
0.0
   0
MTEXT
   5
3D8
 102
{ACAD_REACTORS
 330
3D7
 102
}
 100
AcDbEntity
   8
LEVEL001
 370
15
  62
8
 100
AcDbMText
  10
 219.56821560457
  20
 336.81113256599
  30
0.0
  40
 6.0000000000000
  41
0.0
  71
7
  72
1
   1
\A1;金台
   7
GMM002
   0
LEADER
   5
3D9
 100
AcDbEntity
   8
LEVEL001
 370
15
   6
CONTINUOUS
  62
8
 100
AcDbLeader
   3
GMM003
  73
0
  74
0
  75
0
  40
 6.0000000000000
  41
 26.000000000000
  76
2
  10
 274.28239312129
  20
 322.61884922860
  30
0.0
  10
 282.86462880200
  20
 336.77551501189
  30
0.0
  77
8
 340
3DA
 213
0.0
 223
-2.0000000000000
 233
0.0
   0
MTEXT
   5
3DA
 102
{ACAD_REACTORS
 330
3D9
 102
}
 100
AcDbEntity
   8
LEVEL001
 370
15
  62
8
 100
AcDbMText
  10
 282.86462880200
  20
 338.77551501189
  30
0.0
  40
 6.0000000000000
  41
0.0
  71
7
  72
1
   1
\A1;インサート
   7
GMM002
   0
DIMENSION
   5
3DB
 100
AcDbEntity
   8
LEVEL001
 370
15
   6
CONTINUOUS
  62
8
 100
AcDbDimension
   2
*D17
  10
 434.37505587429
  20
 333.00000000000
  30
0.0
  11
 407.18752793709
  21
 333.00000000000
  31
0.0
  70
0
   1
\A1;55
   3
GMM001
 100
AcDbAlignedDimension
  13
 379.99999999989
  23
 325.00000000000
  33
0.0
  14
 434.37505587429
  24
 321.16414461421
  34
0.0
 100
AcDbRotatedDimension
   0
DIMENSION
   5
3DC
 100
AcDbEntity
   8
LEVEL001
 370
15
   6
CONTINUOUS
  62
8
 100
AcDbDimension
   2
*D18
  10
 446.37505587429
  20
 318.00000000000
  30
0.0
  11
 446.37505587429
  21
 320.50000000000
  31
0.0
  70
0
   3
GMM001
 100
AcDbAlignedDimension
  13
 436.37505587429
  23
 323.00000000000
  33
0.0
  14
 436.37505587429
  24
 318.00000000000
  34
0.0
  50
 270.00000000000
 100
AcDbRotatedDimension
   0
DIMENSION
   5
3DD
 100
AcDbEntity
   8
LEVEL001
 370
15
   6
CONTINUOUS
  62
8
 100
AcDbDimension
   2
*D19
  10
 458.37505587429
  20
 328.00000000000
  30
0.0
  11
 458.37505587429
  21
 323.00000000000
  31
0.0
  70
0
   3
GMM001
 100
AcDbAlignedDimension
  13
 446.37505587429
  23
 318.00000000000
  33
0.0
  14
 436.37505587429
  24
 328.00000000000
  34
0.0
  50
 90.000000000000
 100
AcDbRotatedDimension
   0
DIMENSION
   5
3DE
 100
AcDbEntity
   8
LEVEL001
 370
15
   6
CONTINUOUS
  62
8
 100
AcDbDimension
   2
*D20
  10
 369.99999999989
  20
 323.00000000000
  30
0.0
  11
 369.99999999989
  21
 314.00000000000
  31
0.0
  70
0
   3
GMM001
 100
AcDbAlignedDimension
  13
 377.99999999989
  23
 305.00000000000
  33
0.0
  14
 377.99999999989
  24
 323.00000000000
  34
0.0
  50
 90.000000000000
 100
AcDbRotatedDimension
   0
LEADER
   5
3DF
 100
AcDbEntity
   8
LEVEL001
 370
15
   6
CONTINUOUS
  62
8
 100
AcDbLeader
   3
GMM003
  73
0
  74
1
  75
0
  40
 6.0000000000000
  41
 11.000000000000
  76
2
  10
 382.83507320459
  20
 323.00000000000
  30
0.0
  10
 375.06821560457
  20
 334.81113256599
  30
0.0
  77
8
 340
3E0
 213
0.0
 223
-2.0000000000000
 233
0.0
   0
MTEXT
   5
3E0
 102
{ACAD_REACTORS
 330
3DF
 102
}
 100
AcDbEntity
   8
LEVEL001
 370
15
  62
8
 100
AcDbMText
  10
 364.06821560457
  20
 336.81113256599
  30
0.0
  40
 6.0000000000000
  41
0.0
  71
7
  72
1
   1
\A1;金台
   7
GMM002
   0
LEADER
   5
3E1
 100
AcDbEntity
   8
LEVEL001
 370
15
   6
CONTINUOUS
  62
8
 100
AcDbLeader
   3
GMM003
  73
0
  74
0
  75
0
  40
 6.0000000000000
  41
 26.000000000000
  76
2
  10
 419.58865333256
  20
 325.23429186990
  30
0.0
  10
 430.04969750927
  20
 344.64848196361
  30
0.0
  77
8
 340
3E2
 213
0.0
 223
-2.0000000000000
 233
0.0
   0
MTEXT
   5
3E2
 102
{ACAD_REACTORS
 330
3E1
 102
}
 100
AcDbEntity
   8
LEVEL001
 370
15
  62
8
 100
AcDbMText
  10
 430.04969750927
  20
 346.64848196361
  30
0.0
  40
 6.0000000000000
  41
0.0
  71
7
  72
1
   1
\A1;インサート
   7
GMM002
   0
DIMENSION
   5
3E3
 100
AcDbEntity
   8
LEVEL001
 370
15
   6
CONTINUOUS
  62
8
 100
AcDbDimension
   2
*D23
  10
 140.99999999990
  20
 200.50000000000
  30
0.0
  11
 115.99999999990
  21
 200.50000000000
  31
0.0
  70
0
   3
GMM001
 100
AcDbAlignedDimension
  13
 90.999999999900
  23
 192.50000000000
  33
0.0
  14
 140.99999999990
  24
 192.50000000000
  34
0.0
 100
AcDbRotatedDimension
   0
DIMENSION
   5
3E4
 100
AcDbEntity
   8
LEVEL001
 370
15
   6
CONTINUOUS
  62
8
 100
AcDbDimension
   2
*D24
  10
 80.999999999900
  20
 168.50000000000
  30
0.0
  11
 80.999999999900
  21
 179.50000000000
  31
0.0
  70
0
   3
GMM001
 100
AcDbAlignedDimension
  13
 88.999999999900
  23
 190.50000000000
  33
0.0
  14
 88.999999999900
  24
 168.50000000000
  34
0.0
  50
 270.00000000000
 100
AcDbRotatedDimension
   0
DIMENSION
   5
3E5
 100
AcDbEntity
   8
LEVEL001
 370
15
   6
CONTINUOUS
  62
8
 100
AcDbDimension
   2
*D25
  10
 152.99999999990
  20
 185.50000000000
  30
0.0
  11
 152.99999999990
  21
 188.00000000000
  31
0.0
  70
0
   3
GMM001
 100
AcDbAlignedDimension
  13
 142.99999999990
  23
 190.50000000000
  33
0.0
  14
 142.99999999990
  24
 185.50000000000
  34
0.0
  50
 270.00000000000
 100
AcDbRotatedDimension
   0
LEADER
   5
3E6
 100
AcDbEntity
   8
LEVEL001
 370
15
   6
CONTINUOUS
  62
8
 100
AcDbLeader
   3
GMM003
  73
0
  74
1
  75
0
  40
 6.0000000000000
  41
 11.000000000000
  76
2
  10
 92.499999999900
  20
 190.50000000000
  30
0.0
  10
 84.733142399883
  20
 202.31113256599
  30
0.0
  77
8
 340
3E7
 213
0.0
 223
-2.0000000000000
 233
0.0
   0
MTEXT
   5
3E7
 102
{ACAD_REACTORS
 330
3E6
 102
}
 100
AcDbEntity
   8
LEVEL001
 370
15
  62
8
 100
AcDbMText
  10
 73.733142399883
  20
 204.31113256599
  30
0.0
  40
 6.0000000000000
  41
0.0
  71
7
  72
1
   1
\A1;金台
   7
GMM002
   0
LEADER
   5
3E8
 100
AcDbEntity
   8
LEVEL001
 370
15
   6
CONTINUOUS
  62
8
 100
AcDbLeader
   3
GMM003
  73
0
  74
0
  75
0
  40
 6.0000000000000
  41
 26.000000000000
  76
2
  10
 131.51923522656
  20
 190.11884922860
  30
0.0
  10
 140.10147090727
  20
 204.27551501189
  30
0.0
  77
8
 340
3E9
 213
0.0
 223
-2.0000000000000
 233
0.0
   0
MTEXT
   5
3E9
 102
{ACAD_REACTORS
 330
3E8
 102
}
 100
AcDbEntity
   8
LEVEL001
 370
15
  62
8
 100
AcDbMText
  10
 140.10147090727
  20
 206.27551501189
  30
0.0
  40
 6.0000000000000
  41
0.0
  71
7
  72
1
   1
\A1;インサート
   7
GMM002
   0
ARC
   5
3EA
 100
AcDbEntity
   8
LEVEL002
 370
30
   6
CONTINUOUS
  62
7
 100
AcDbCircle
  10
 290.48294652983
  20
 454.49674943660
  30
0.0
  40
 55.000000000000
 100
AcDbArc
  50
 180.00000000000
  51
 193.17589044014
   0
ARC
   5
3EB
 100
AcDbEntity
   8
LEVEL002
 370
30
   6
CONTINUOUS
  62
7
 100
AcDbCircle
  10
 237.51503171340
  20
 442.09674943660
  30
0.0
  40
 0.60000000000000
 100
AcDbArc
  50
 193.17589044015
  51
 13.175890440131
   0
ARC
   5
3EC
 100
AcDbEntity
   8
LEVEL002
 370
30
   6
CONTINUOUS
  62
7
 100
AcDbCircle
  10
 290.48294652983
  20
 454.49674943660
  30
0.0
  40
 53.800000000000
 100
AcDbArc
  50
 180.00000000001
  51
 193.17589044014
   0
LINE
   5
3ED
 100
AcDbEntity
   8
LEVEL002
 370
30
 100
AcDbLine
   6
CONTINUOUS
  62
7
  10
 236.68294652983
  20
 454.49674943660
  30
0.0
  11
 239.18294652983
  21
 454.49674943660
  31
0.0
   0
ARC
   5
3EE
 100
AcDbEntity
   8
LEVEL002
 370
30
   6
CONTINUOUS
  62
7
 100
AcDbCircle
  10
 239.48294652983
  20
 454.49674943660
  30
0.0
  40
 0.30000000000000
 100
AcDbArc
  50
0.0
  51
 180.00000000000
   0
LINE
   5
3EF
 100
AcDbEntity
   8
LEVEL002
 370
30
 100
AcDbLine
   6
CONTINUOUS
  62
7
  10
 239.78294652983
  20
 454.49674943660
  30
0.0
  11
 241.68294652983
  21
 454.49674943660
  31
0.0
   0
ARC
   5
3F0
 100
AcDbEntity
   8
LEVEL002
 370
30
   6
CONTINUOUS
  62
7
 100
AcDbCircle
  10
 241.98294652983
  20
 454.49674943660
  30
0.0
  40
 0.30000000000000
 100
AcDbArc
  50
0.0
  51
 180.00000000000
   0
LINE
   5
3F1
 100
AcDbEntity
   8
LEVEL002
 370
30
 100
AcDbLine
   6
CONTINUOUS
  62
7
  10
 242.28294652983
  20
 454.49674943660
  30
0.0
  11
 244.18294652983
  21
 454.49674943660
  31
0.0
   0
ARC
   5
3F2
 100
AcDbEntity
   8
LEVEL002
 370
30
   6
CONTINUOUS
  62
7
 100
AcDbCircle
  10
 244.48294652983
  20
 454.49674943660
  30
0.0
  40
 0.30000000000000
 100
AcDbArc
  50
0.0
  51
 180.00000000000
   0
LINE
   5
3F3
 100
AcDbEntity
   8
LEVEL002
 370
30
 100
AcDbLine
   6
CONTINUOUS
  62
7
  10
 244.78294652983
  20
 454.49674943660
  30
0.0
  11
 246.68294652983
  21
 454.49674943660
  31
0.0
   0
ARC
   5
3F4
 100
AcDbEntity
   8
LEVEL002
 370
30
   6
CONTINUOUS
  62
7
 100
AcDbCircle
  10
 246.98294652983
  20
 454.49674943660
  30
0.0
  40
 0.30000000000000
 100
AcDbArc
  50
0.0
  51
 180.00000000000
   0
LINE
   5
3F5
 100
AcDbEntity
   8
LEVEL002
 370
30
 100
AcDbLine
   6
CONTINUOUS
  62
7
  10
 247.28294652983
  20
 454.49674943660
  30
0.0
  11
 249.18294652983
  21
 454.49674943660
  31
0.0
   0
ARC
   5
3F6
 100
AcDbEntity
   8
LEVEL002
 370
30
   6
CONTINUOUS
  62
7
 100
AcDbCircle
  10
 249.48294652983
  20
 454.49674943660
  30
0.0
  40
 0.30000000000000
 100
AcDbArc
  50
0.0
  51
 180.00000000000
   0
LINE
   5
3F7
 100
AcDbEntity
   8
LEVEL002
 370
30
 100
AcDbLine
   6
CONTINUOUS
  62
7
  10
 249.78294652983
  20
 454.49674943660
  30
0.0
  11
 251.68294652983
  21
 454.49674943660
  31
0.0
   0
ARC
   5
3F8
 100
AcDbEntity
   8
LEVEL002
 370
30
   6
CONTINUOUS
  62
7
 100
AcDbCircle
  10
 251.98294652983
  20
 454.49674943660
  30
0.0
  40
 0.30000000000000
 100
AcDbArc
  50
0.0
  51
 180.00000000000
   0
LINE
   5
3F9
 100
AcDbEntity
   8
LEVEL002
 370
30
 100
AcDbLine
   6
CONTINUOUS
  62
7
  10
 252.28294652983
  20
 454.49674943660
  30
0.0
  11
 254.18294652983
  21
 454.49674943660
  31
0.0
   0
ARC
   5
3FA
 100
AcDbEntity
   8
LEVEL002
 370
30
   6
CONTINUOUS
  62
7
 100
AcDbCircle
  10
 254.48294652983
  20
 454.49674943660
  30
0.0
  40
 0.30000000000000
 100
AcDbArc
  50
0.0
  51
 180.00000000000
   0
LINE
   5
3FB
 100
AcDbEntity
   8
LEVEL002
 370
30
 100
AcDbLine
   6
CONTINUOUS
  62
7
  10
 254.78294652983
  20
 454.49674943660
  30
0.0
  11
 256.68294652983
  21
 454.49674943660
  31
0.0
   0
ARC
   5
3FC
 100
AcDbEntity
   8
LEVEL002
 370
30
   6
CONTINUOUS
  62
7
 100
AcDbCircle
  10
 256.98294652983
  20
 454.49674943660
  30
0.0
  40
 0.30000000000000
 100
AcDbArc
  50
0.0
  51
 180.00000000000
   0
LINE
   5
3FD
 100
AcDbEntity
   8
LEVEL002
 370
30
 100
AcDbLine
   6
CONTINUOUS
  62
7
  10
 257.28294652983
  20
 454.49674943660
  30
0.0
  11
 259.18294652983
  21
 454.49674943660
  31
0.0
   0
ARC
   5
3FE
 100
AcDbEntity
   8
LEVEL002
 370
30
   6
CONTINUOUS
  62
7
 100
AcDbCircle
  10
 259.48294652983
  20
 454.49674943660
  30
0.0
  40
 0.30000000000000
 100
AcDbArc
  50
0.0
  51
 180.00000000000
   0
LINE
   5
3FF
 100
AcDbEntity
   8
LEVEL002
 370
30
 100
AcDbLine
   6
CONTINUOUS
  62
7
  10
 259.78294652983
  20
 454.49674943660
  30
0.0
  11
 261.68294652983
  21
 454.49674943660
  31
0.0
   0
ARC
   5
400
 100
AcDbEntity
   8
LEVEL002
 370
30
   6
CONTINUOUS
  62
7
 100
AcDbCircle
  10
 261.98294652983
  20
 454.49674943660
  30
0.0
  40
 0.30000000000000
 100
AcDbArc
  50
0.0
  51
 180.00000000000
   0
LINE
   5
401
 100
AcDbEntity
   8
LEVEL002
 370
30
 100
AcDbLine
   6
CONTINUOUS
  62
7
  10
 262.28294652983
  20
 454.49674943660
  30
0.0
  11
 264.18294652983
  21
 454.49674943660
  31
0.0
   0
ARC
   5
402
 100
AcDbEntity
   8
LEVEL002
 370
30
   6
CONTINUOUS
  62
7
 100
AcDbCircle
  10
 264.48294652983
  20
 454.49674943660
  30
0.0
  40
 0.30000000000000
 100
AcDbArc
  50
0.0
  51
 180.00000000000
   0
LINE
   5
403
 100
AcDbEntity
   8
LEVEL002
 370
30
 100
AcDbLine
   6
CONTINUOUS
  62
7
  10
 264.78294652983
  20
 454.49674943660
  30
0.0
  11
 266.68294652983
  21
 454.49674943660
  31
0.0
   0
ARC
   5
404
 100
AcDbEntity
   8
LEVEL002
 370
30
   6
CONTINUOUS
  62
7
 100
AcDbCircle
  10
 266.98294652983
  20
 454.49674943660
  30
0.0
  40
 0.30000000000000
 100
AcDbArc
  50
0.0
  51
 180.00000000000
   0
LINE
   5
405
 100
AcDbEntity
   8
LEVEL002
 370
30
 100
AcDbLine
   6
CONTINUOUS
  62
7
  10
 267.28294652983
  20
 454.49674943660
  30
0.0
  11
 269.98294652983
  21
 454.49674943660
  31
0.0
   0
LINE
   5
406
 100
AcDbEntity
   8
LEVEL002
 370
30
 100
AcDbLine
   6
CONTINUOUS
  62
7
  10
 269.98294652983
  20
 454.49674943660
  30
0.0
  11
 270.48294652983
  21
 456.99674943660
  31
0.0
   0
LINE
   5
407
 100
AcDbEntity
   8
LEVEL002
 370
30
 100
AcDbLine
   6
CONTINUOUS
  62
7
  10
 270.48294652983
  20
 456.99674943660
  30
0.0
  11
 266.91780421535
  21
 459.39461521220
  31
0.0
   0
ARC
   5
408
 100
AcDbEntity
   8
LEVEL002
 370
30
   6
CONTINUOUS
  62
7
 100
AcDbCircle
  10
 266.58294652983
  20
 458.89674943660
  30
0.0
  40
 0.60000000000000
 100
AcDbArc
  50
 56.075764696121
  51
 236.07576469617
   0
LINE
   5
409
 100
AcDbEntity
   8
LEVEL002
 370
30
 100
AcDbLine
   6
CONTINUOUS
  62
7
  10
 266.24808884432
  20
 458.39888366110
  30
0.0
  11
 268.76199460109
  21
 456.70806516210
  31
0.0
   0
ARC
   5
40A
 100
AcDbEntity
   8
LEVEL002
 370
30
   6
CONTINUOUS
  62
7
 100
AcDbCircle
  10
 268.48294652983
  20
 456.29317701590
  30
0.0
  40
 0.50000000000000
 100
AcDbArc
  50
 0.26055103950549E-10
  51
 56.075764689370
   0
LINE
   5
40B
 100
AcDbEntity
   8
LEVEL002
 370
30
 100
AcDbLine
   6
CONTINUOUS
  62
7
  10
 268.98294652983
  20
 456.29317701580
  30
0.0
  11
 268.98294652983
  21
 456.19674943660
  31
0.0
   0
ARC
   5
40C
 100
AcDbEntity
   8
LEVEL002
 370
30
   6
CONTINUOUS
  62
7
 100
AcDbCircle
  10
 268.48294652979
  20
 456.19674943660
  30
0.0
  40
 0.50000000000000
 100
AcDbArc
  50
 270.00000000474
  51
0.0
   0
LINE
   5
40D
 100
AcDbEntity
   8
LEVEL002
 370
30
 100
AcDbLine
   6
CONTINUOUS
  62
7
  10
 268.48294652983
  20
 455.69674943660
  30
0.0
  11
 236.98294652983
  21
 455.69674943660
  31
0.0
   0
LINE
   5
40E
 100
AcDbEntity
   8
LEVEL002
 370
30
 100
AcDbLine
   6
CONTINUOUS
  62
7
  10
 236.98294652983
  20
 455.69674943660
  30
0.0
  11
 236.98294652983
  21
 457.49674943660
  31
0.0
   0
ARC
   5
40F
 100
AcDbEntity
   8
LEVEL002
 370
30
   6
CONTINUOUS
  62
7
 100
AcDbCircle
  10
 237.48294653007
  20
 457.49674943660
  30
0.0
  40
 0.50000000000000
 100
AcDbArc
  50
 90.000000027306
  51
 180.00000000000
   0
LINE
   5
410
 100
AcDbEntity
   8
LEVEL002
 370
30
 100
AcDbLine
   6
CONTINUOUS
  62
7
  10
 237.48294652983
  20
 457.99674943660
  30
0.0
  11
 239.68294652983
  21
 457.99674943660
  31
0.0
   0
LINE
   5
411
 100
AcDbEntity
   8
LEVEL002
 370
30
 100
AcDbLine
   6
CONTINUOUS
  62
7
  10
 239.68294652983
  20
 457.99674943660
  30
0.0
  11
 239.68294652983
  21
 458.89674943660
  31
0.0
   0
ARC
   5
412
 100
AcDbEntity
   8
LEVEL002
 370
30
   6
CONTINUOUS
  62
7
 100
AcDbCircle
  10
 239.08294652972
  20
 458.89674943660
  30
0.0
  40
 0.60000000000000
 100
AcDbArc
  50
0.0
  51
 89.999999989317
   0
LINE
   5
413
 100
AcDbEntity
   8
LEVEL002
 370
30
 100
AcDbLine
   6
CONTINUOUS
  62
7
  10
 239.08294652983
  20
 459.49674943660
  30
0.0
  11
 236.98294652983
  21
 459.49674943660
  31
0.0
   0
ARC
   5
414
 100
AcDbEntity
   8
LEVEL002
 370
30
   6
CONTINUOUS
  62
7
 100
AcDbCircle
  10
 236.98294652983
  20
 457.99674943660
  30
0.0
  40
 1.5000000000000
 100
AcDbArc
  50
 90.000000000000
  51
 180.00000000022
   0
LINE
   5
415
 100
AcDbEntity
   8
LEVEL002
 370
30
 100
AcDbLine
   6
CONTINUOUS
  62
7
  10
 235.48294652983
  20
 457.99674943660
  30
0.0
  11
 235.48294652983
  21
 454.49674943660
  31
0.0
   0
LINE
   5
416
 100
AcDbEntity
   8
LEVEL002
 370
30
 100
AcDbLine
   6
CONTINUOUS
  62
7
  10
 235.48294652983
  20
 543.50000000000
  30
0.0
  11
 235.48294652983
  21
 498.50000000000
  31
0.0
   0
LINE
   5
417
 100
AcDbEntity
   8
LEVEL002
 370
30
 100
AcDbLine
   6
CONTINUOUS
  62
7
  10
 235.48294652983
  20
 498.50000000000
  30
0.0
  11
 270.48294652983
  21
 498.50000000000
  31
0.0
   0
LINE
   5
418
 100
AcDbEntity
   8
LEVEL003
 370
25
 100
AcDbLine
   6
CONTINUOUS
  62
1
  10
 254.52425958149
  20
 457.19674943660
  30
0.0
  11
 263.23595589346
  21
 457.19674943660
  31
0.0
   0
ARC
   5
419
 100
AcDbEntity
   8
LEVEL003
 370
25
   6
CONTINUOUS
  62
1
 100
AcDbCircle
  10
 254.52425958148
  20
 456.99674943660
  30
0.0
  40
 0.20000000000000
 100
AcDbArc
  50
 89.999999999349
  51
 161.56505117535
   0
LINE
   5
41A
 100
AcDbEntity
   8
LEVEL003
 370
25
 100
AcDbLine
   6
CONTINUOUS
  62
1
  10
 247.41010773747
  20
 461.29674943660
  30
0.0
  11
 250.62010773747
  21
 461.29674943660
  31
0.0
   0
LINE
   5
41B
 100
AcDbEntity
   8
LEVEL003
 370
25
 100
AcDbLine
   6
CONTINUOUS
  62
1
  10
 254.95010773747
  20
 461.29674943660
  30
0.0
  11
 258.15010773747
  21
 461.29674943660
  31
0.0
   0
LINE
   5
41C
 100
AcDbEntity
   8
LEVEL003
 370
25
 100
AcDbLine
   6
CONTINUOUS
  62
1
  10
 251.12010773747
  20
 459.39674943660
  30
0.0
  11
 254.45010773747
  21
 459.39674943660
  31
0.0
   0
ARC
   5
41D
 100
AcDbEntity
   8
LEVEL003
 370
25
   6
CONTINUOUS
  62
1
 100
AcDbCircle
  10
 251.12010773747
  20
 459.69674943660
  30
0.0
  40
 0.30000000000000
 100
AcDbArc
  50
 180.00000000000
  51
 270.00000000035
   0
ARC
   5
41E
 100
AcDbEntity
   8
LEVEL003
 370
25
   6
CONTINUOUS
  62
1
 100
AcDbCircle
  10
 254.45010773747
  20
 459.69674943660
  30
0.0
  40
 0.30000000000000
 100
AcDbArc
  50
 270.00000000000
  51
0.0
   0
LINE
   5
41F
 100
AcDbEntity
   8
LEVEL003
 370
25
 100
AcDbLine
   6
CONTINUOUS
  62
1
  10
 254.33452292188
  20
 457.05999498981
  30
0.0
  11
 253.92569255307
  21
 455.83350388340
  31
0.0
   0
ARC
   5
420
 100
AcDbEntity
   8
LEVEL003
 370
25
   6
CONTINUOUS
  62
1
 100
AcDbCircle
  10
 254.52425958148
  20
 456.99674943660
  30
0.0
  40
 0.20000000000000
 100
AcDbArc
  50
 89.999999999349
  51
 161.56505117535
   0
ARC
   5
421
 100
AcDbEntity
   8
LEVEL003
 370
25
   6
CONTINUOUS
  62
1
 100
AcDbCircle
  10
 246.38010773747
  20
 452.09674943660
  30
0.0
  40
 5.0000000000000
 100
AcDbArc
  50
 46.950920199761
  51
 133.04907980024
   0
LINE
   5
422
 100
AcDbEntity
   8
LEVEL003
 370
25
 100
AcDbLine
   6
CONTINUOUS
  62
1
  10
 254.75010773747
  20
 461.09674943660
  30
0.0
  11
 254.75010773747
  21
 459.69674943660
  31
0.0
   0
ARC
   5
423
 100
AcDbEntity
   8
LEVEL003
 370
25
   6
CONTINUOUS
  62
1
 100
AcDbCircle
  10
 254.95010773747
  20
 461.09674943661
  30
0.0
  40
 0.20000000000000
 100
AcDbArc
  50
 90.000000000000
  51
 180.00000000033
   0
LINE
   5
424
 100
AcDbEntity
   8
LEVEL003
 370
25
 100
AcDbLine
   6
CONTINUOUS
  62
1
  10
 250.82010773747
  20
 461.09674943660
  30
0.0
  11
 250.82010773747
  21
 459.69674943660
  31
0.0
   0
ARC
   5
425
 100
AcDbEntity
   8
LEVEL003
 370
25
   6
CONTINUOUS
  62
1
 100
AcDbCircle
  10
 250.62010773747
  20
 461.09674943660
  30
0.0
  40
 0.20000000000000
 100
AcDbArc
  50
0.0
  51
 89.999999999349
   0
ARC
   5
426
 100
AcDbEntity
   8
LEVEL003
 370
25
   6
CONTINUOUS
  62
1
 100
AcDbCircle
  10
 253.73595589346
  20
 455.89674943661
  30
0.0
  40
 0.20000000000000
 100
AcDbArc
  50
 269.99999999935
  51
 341.56505117481
   0
ARC
   5
427
 100
AcDbEntity
   8
LEVEL003
 370
25
   6
CONTINUOUS
  62
1
 100
AcDbCircle
  10
 253.73595589347
  20
 455.89674943662
  30
0.0
  40
 0.20000000000000
 100
AcDbArc
  50
 269.99999999857
  51
 341.56505117222
   0
LINE
   5
428
 100
AcDbEntity
   8
LEVEL003
 370
25
 100
AcDbLine
   6
CONTINUOUS
  62
1
  10
 243.58010773747
  20
 459.39674943660
  30
0.0
  11
 246.91010773747
  21
 459.39674943660
  31
0.0
   0
ARC
   5
429
 100
AcDbEntity
   8
LEVEL003
 370
25
   6
CONTINUOUS
  62
1
 100
AcDbCircle
  10
 246.91010773747
  20
 459.69674943660
  30
0.0
  40
 0.30000000000000
 100
AcDbArc
  50
 270.00000000000
  51
0.0
   0
LINE
   5
42A
 100
AcDbEntity
   8
LEVEL003
 370
25
 100
AcDbLine
   6
CONTINUOUS
  62
1
  10
 247.21010773747
  20
 459.69674943660
  30
0.0
  11
 247.21010773747
  21
 461.09674943660
  31
0.0
   0
ARC
   5
42B
 100
AcDbEntity
   8
LEVEL003
 370
25
   6
CONTINUOUS
  62
1
 100
AcDbCircle
  10
 247.41010773747
  20
 461.09674943662
  30
0.0
  40
 0.20000000000000
 100
AcDbArc
  50
 90.000000000000
  51
 180.00000000326
   0
LINE
   5
42C
 100
AcDbEntity
   8
LEVEL003
 370
25
 100
AcDbLine
   6
CONTINUOUS
  62
1
  10
 240.98010773747
  20
 461.29674943660
  30
0.0
  11
 243.08010773747
  21
 461.29674943660
  31
0.0
   0
ARC
   5
42D
 100
AcDbEntity
   8
LEVEL003
 370
25
   6
CONTINUOUS
  62
1
 100
AcDbCircle
  10
 243.58010773748
  20
 459.69674943660
  30
0.0
  40
 0.30000000000000
 100
AcDbArc
  50
 180.00000000000
  51
 269.99999999957
   0
LINE
   5
42E
 100
AcDbEntity
   8
LEVEL003
 370
25
 100
AcDbLine
   6
CONTINUOUS
  62
1
  10
 243.28010773747
  20
 459.69674943660
  30
0.0
  11
 243.28010773747
  21
 461.09674943660
  31
0.0
   0
ARC
   5
42F
 100
AcDbEntity
   8
LEVEL003
 370
25
   6
CONTINUOUS
  62
1
 100
AcDbCircle
  10
 243.08010773747
  20
 461.09674943660
  30
0.0
  40
 0.20000000000000
 100
AcDbArc
  50
0.0
  51
 89.999999999739
   0
ARC
   5
430
 100
AcDbEntity
   8
LEVEL003
 370
25
   6
CONTINUOUS
  62
1
 100
AcDbCircle
  10
 240.98010773747
  20
 459.79674943660
  30
0.0
  40
 1.5000000000000
 100
AcDbArc
  50
 90.000000000000
  51
 179.99999999998
   0
LINE
   5
431
 100
AcDbEntity
   8
LEVEL003
 370
25
 100
AcDbLine
   6
CONTINUOUS
  62
1
  10
 237.88010773747
  20
 455.89674943660
  30
0.0
  11
 237.88010773747
  21
 456.59674943660
  31
0.0
   0
LINE
   5
432
 100
AcDbEntity
   8
LEVEL003
 370
25
 100
AcDbLine
   6
CONTINUOUS
  62
1
  10
 237.88010773747
  20
 455.89674943660
  30
0.0
  11
 237.88010773747
  21
 456.59674943660
  31
0.0
   0
ARC
   5
433
 100
AcDbEntity
   8
LEVEL003
 370
25
   6
CONTINUOUS
  62
1
 100
AcDbCircle
  10
 238.08010773748
  20
 455.89674943660
  30
0.0
  40
 0.20000000000000
 100
AcDbArc
  50
 180.00000000000
  51
 269.99999999922
   0
LINE
   5
434
 100
AcDbEntity
   8
LEVEL003
 370
25
 100
AcDbLine
   6
CONTINUOUS
  62
1
  10
 262.48010773747
  20
 461.29674943660
  30
0.0
  11
 270.18010773747
  21
 461.29674943660
  31
0.0
   0
LINE
   5
435
 100
AcDbEntity
   8
LEVEL003
 370
25
 100
AcDbLine
   6
CONTINUOUS
  62
1
  10
 263.83452292187
  20
 455.83350388340
  30
0.0
  11
 263.42569255307
  21
 457.05999498981
  31
0.0
   0
ARC
   5
436
 100
AcDbEntity
   8
LEVEL003
 370
25
   6
CONTINUOUS
  62
1
 100
AcDbCircle
  10
 263.23595589346
  20
 456.99674943660
  30
0.0
  40
 0.20000000000000
 100
AcDbArc
  50
 18.434948822716
  51
 89.999999999088
   0
LINE
   5
437
 100
AcDbEntity
   8
LEVEL003
 370
25
 100
AcDbLine
   6
CONTINUOUS
  62
1
  10
 258.65010773747
  20
 459.39674943660
  30
0.0
  11
 261.98010773747
  21
 459.39674943660
  31
0.0
   0
ARC
   5
438
 100
AcDbEntity
   8
LEVEL003
 370
25
   6
CONTINUOUS
  62
1
 100
AcDbCircle
  10
 261.98010773747
  20
 459.69674943660
  30
0.0
  40
 0.30000000000000
 100
AcDbArc
  50
 270.00000000009
  51
0.0
   0
LINE
   5
439
 100
AcDbEntity
   8
LEVEL003
 370
25
 100
AcDbLine
   6
CONTINUOUS
  62
1
  10
 262.28010773747
  20
 461.09674943660
  30
0.0
  11
 262.28010773747
  21
 459.69674943660
  31
0.0
   0
ARC
   5
43A
 100
AcDbEntity
   8
LEVEL003
 370
25
   6
CONTINUOUS
  62
1
 100
AcDbCircle
  10
 262.48010773747
  20
 461.09674943662
  30
0.0
  40
 0.20000000000000
 100
AcDbArc
  50
 89.999999999870
  51
 180.00000000319
   0
ARC
   5
43B
 100
AcDbEntity
   8
LEVEL003
 370
25
   6
CONTINUOUS
  62
1
 100
AcDbCircle
  10
 258.65010773748
  20
 459.69674943660
  30
0.0
  40
 0.30000000000000
 100
AcDbArc
  50
 180.00000000000
  51
 269.99999999913
   0
LINE
   5
43C
 100
AcDbEntity
   8
LEVEL003
 370
25
 100
AcDbLine
   6
CONTINUOUS
  62
1
  10
 258.35010773747
  20
 461.09674943660
  30
0.0
  11
 258.35010773747
  21
 459.69674943660
  31
0.0
   0
ARC
   5
43D
 100
AcDbEntity
   8
LEVEL003
 370
25
   6
CONTINUOUS
  62
1
 100
AcDbCircle
  10
 258.15010773747
  20
 461.09674943660
  30
0.0
  40
 0.20000000000000
 100
AcDbArc
  50
0.0
  51
 89.999999998697
   0
ARC
   5
43E
 100
AcDbEntity
   8
LEVEL003
 370
25
   6
CONTINUOUS
  62
1
 100
AcDbCircle
  10
 270.18010773748
  20
 460.99674943660
  30
0.0
  40
 0.30000000000000
 100
AcDbArc
  50
 348.75556098795
  51
 90.000000001129
   0
LINE
   5
43F
 100
AcDbEntity
   8
LEVEL003
 370
25
 100
AcDbLine
   6
CONTINUOUS
  62
1
  10
 269.95886347646
  20
 458.34541498100
  30
0.0
  11
 270.47434900070
  21
 460.93825089806
  31
0.0
   0
ARC
   5
440
 100
AcDbEntity
   8
LEVEL002
 370
25
   6
CONTINUOUS
  62
1
 100
AcDbCircle
  10
 269.46846137108
  20
 458.44291254523
  30
0.0
  40
 0.50000000000000
 100
AcDbArc
  50
 239.66134887733
  51
 348.75556098900
   0
LINE
   5
441
 100
AcDbEntity
   8
LEVEL003
 370
25
 100
AcDbLine
   6
CONTINUOUS
  62
1
  10
 268.28010773747
  20
 455.99674943660
  30
0.0
  11
 268.28010773747
  21
 456.76024354034
  31
0.0
   0
ARC
   5
442
 100
AcDbEntity
   8
LEVEL003
 370
25
   6
CONTINUOUS
  62
1
 100
AcDbCircle
  10
 267.98010773747
  20
 455.99674943660
  30
0.0
  40
 0.30000000000000
 100
AcDbArc
  50
 270.00000000009
  51
0.0
   0
LINE
   5
443
 100
AcDbEntity
   8
LEVEL003
 370
25
 100
AcDbLine
   6
CONTINUOUS
  62
1
  10
 268.28010773747
  20
 455.99674943660
  30
0.0
  11
 268.28010773747
  21
 456.76024354034
  31
0.0
   0
ARC
   5
444
 100
AcDbEntity
   8
LEVEL003
 370
25
   6
CONTINUOUS
  62
1
 100
AcDbCircle
  10
 268.08010773747
  20
 456.76024354034
  30
0.0
  40
 0.20000000000000
 100
AcDbArc
  50
0.0
  51
 68.629377728877
   0
LINE
   5
445
 100
AcDbEntity
   8
LEVEL003
 370
25
 100
AcDbLine
   6
CONTINUOUS
  62
1
  10
 266.10722786776
  20
 457.74700677693
  30
0.0
  11
 268.15298760719
  21
 456.94649209628
  31
0.0
   0
ARC
   5
446
 100
AcDbEntity
   8
LEVEL003
 370
25
   6
CONTINUOUS
  62
1
 100
AcDbCircle
  10
 266.18010773747
  20
 457.93325533287
  30
0.0
  40
 0.20000000000000
 100
AcDbArc
  50
 180.00000000013
  51
 248.62937773110
   0
LINE
   5
447
 100
AcDbEntity
   8
LEVEL003
 370
25
 100
AcDbLine
   6
CONTINUOUS
  62
1
  10
 265.98010773747
  20
 457.93325533287
  30
0.0
  11
 265.98010773747
  21
 458.92385618560
  31
0.0
   0
LINE
   5
448
 100
AcDbEntity
   8
LEVEL003
 370
25
 100
AcDbLine
   6
CONTINUOUS
  62
1
  10
 265.98010773747
  20
 457.93325533287
  30
0.0
  11
 265.98010773747
  21
 458.92385618560
  31
0.0
   0
LINE
   5
449
 100
AcDbEntity
   8
LEVEL003
 370
25
 100
AcDbLine
   6
CONTINUOUS
  62
1
  10
 265.98010773747
  20
 457.93325533287
  30
0.0
  11
 265.98010773747
  21
 458.92385618560
  31
0.0
   0
LINE
   5
44A
 100
AcDbEntity
   8
LEVEL003
 370
25
 100
AcDbLine
   6
CONTINUOUS
  62
1
  10
 265.98010773747
  20
 457.93325533287
  30
0.0
  11
 265.98010773747
  21
 459.03319606211
  31
0.0
   0
LINE
   5
44B
 100
AcDbEntity
   8
LEVEL002
 370
25
 100
AcDbLine
   6
CONTINUOUS
  62
1
  10
 269.21590639787
  20
 458.01138504263
  30
0.0
  11
 266.73266271068
  21
 459.46472356471
  31
0.0
   0
ARC
   5
44C
 100
AcDbEntity
   8
LEVEL003
 370
25
   6
CONTINUOUS
  62
1
 100
AcDbCircle
  10
 266.48010773747
  20
 459.03319606210
  30
0.0
  40
 0.50000000000000
 100
AcDbArc
  50
 59.661348877767
  51
 180.00000000003
   0
ARC
   5
44D
 100
AcDbEntity
   8
LEVEL003
 370
25
   6
CONTINUOUS
  62
1
 100
AcDbCircle
  10
 264.02425958148
  20
 455.89674943660
  30
0.0
  40
 0.20000000000000
 100
AcDbArc
  50
 198.43494882354
  51
 270.00000000182
   0
LINE
   5
44E
 100
AcDbEntity
   8
LEVEL001
 370
25
 100
AcDbLine
   6
CONTINUOUS
  62
1
  10
 239.48010773747
  20
 459.99101992525
  30
0.0
  11
 239.48010773747
  21
 459.34648599844
  31
0.0
   0
LINE
   5
44F
 100
AcDbEntity
   8
LEVEL003
 370
25
 100
AcDbLine
   6
CONTINUOUS
  62
1
  10
 237.88010773747
  20
 456.59674943660
  30
0.0
  11
 239.28010773747
  21
 457.99674943660
  31
0.0
   0
DIMENSION
   5
450
 100
AcDbEntity
   8
LEVEL001
 370
15
   6
CONTINUOUS
  62
8
 100
AcDbDimension
   2
*D28
  10
 270.48294652983
  20
 469.49674943660
  30
0.0
  11
 252.98294652983
  21
 469.49674943660
  31
0.0
  70
0
   3
GMM001
 100
AcDbAlignedDimension
  13
 235.48294652983
  23
 461.66992656065
  33
0.0
  14
 270.48294652983
  24
 462.49674943660
  34
0.0
 100
AcDbRotatedDimension
   0
DIMENSION
   5
451
 100
AcDbEntity
   8
LEVEL001
 370
15
   6
CONTINUOUS
  62
8
 100
AcDbDimension
   2
*D29
  10
 282.48294652983
  20
 461.29674943660
  30
0.0
  11
 282.48294652983
  21
 462.20742711785
  31
0.0
  70
128
   1
\A1;6.5
   3
GMM004
 100
AcDbAlignedDimension
  13
 272.48294652983
  23
 454.49674943660
  33
0.0
  14
 270.18010773747
  24
 461.29674943660
  34
0.0
  50
 90.000000000000
 100
AcDbRotatedDimension
   0
DIMENSION
   5
452
 100
AcDbEntity
   8
LEVEL001
 370
15
   6
CONTINUOUS
  62
8
 100
AcDbDimension
   2
*D30
  10
 225.48294652983
  20
 459.50000000000
  30
0.0
  11
 225.48294652983
  21
 450.50000000000
  31
0.0
  70
0
   3
GMM001
 100
AcDbAlignedDimension
  13
 236.73765805952
  23
 441.50000000000
  33
0.0
  14
 236.26643985336
  24
 459.50000000000
  34
0.0
  50
 90.000000000000
 100
AcDbRotatedDimension
   0
LEADER
   5
453
 100
AcDbEntity
   8
LEVEL001
 370
15
   6
CONTINUOUS
  62
8
 100
AcDbLeader
   3
GMM003
  73
0
  74
1
  75
0
  40
 6.0000000000000
  41
 11.000000000000
  76
2
  10
 237.23392376894
  20
 459.49674943660
  30
0.0
  10
 229.46706616892
  20
 471.30788200259
  30
0.0
  77
8
 340
454
 213
0.0
 223
-2.0000000000000
 233
0.0
   0
MTEXT
   5
454
 102
{ACAD_REACTORS
 330
453
 102
}
 100
AcDbEntity
   8
LEVEL001
 370
15
  62
8
 100
AcDbMText
  10
 218.46706616892
  20
 473.30788200259
  30
0.0
  40
 6.0000000000000
  41
0.0
  71
7
  72
1
   1
\A1;金台
   7
GMM002
   0
LEADER
   5
455
 100
AcDbEntity
   8
LEVEL001
 370
15
   6
CONTINUOUS
  62
8
 100
AcDbLeader
   3
GMM003
  73
0
  74
0
  75
0
  40
 6.0000000000000
  41
 26.000000000000
  76
2
  10
 264.77188843758
  20
 460.15087708620
  30
0.0
  10
 276.60038377183
  20
 479.49674943660
  30
0.0
  77
8
 340
456
 213
0.0
 223
-2.0000000000000
 233
0.0
   0
MTEXT
   5
456
 102
{ACAD_REACTORS
 330
455
 102
}
 100
AcDbEntity
   8
LEVEL001
 370
15
  62
8
 100
AcDbMText
  10
 276.60038377183
  20
 481.49674943660
  30
0.0
  40
 6.0000000000000
  41
0.0
  71
7
  72
1
   1
\A1;インサート
   7
GMM002
   0
LINE
   5
457
 100
AcDbEntity
   8
LEVEL002
 370
25
 100
AcDbLine
   6
CONTINUOUS
  62
1
  10
 262.28010773747
  20
 498.50000000000
  30
0.0
  11
 262.28010773747
  21
 543.50000000000
  31
0.0
   0
LINE
   5
458
 100
AcDbEntity
   8
LEVEL002
 370
25
 100
AcDbLine
   6
CONTINUOUS
  62
1
  10
 258.35010773747
  20
 498.50000000000
  30
0.0
  11
 258.35010773747
  21
 543.50000000000
  31
0.0
   0
LINE
   5
459
 100
AcDbEntity
   8
LEVEL002
 370
25
 100
AcDbLine
   6
CONTINUOUS
  62
1
  10
 254.75010773747
  20
 498.50000000000
  30
0.0
  11
 254.75010773747
  21
 543.50000000000
  31
0.0
   0
LINE
   5
45A
 100
AcDbEntity
   8
LEVEL002
 370
25
 100
AcDbLine
   6
CONTINUOUS
  62
1
  10
 250.82010773747
  20
 498.50000000000
  30
0.0
  11
 250.82010773747
  21
 543.50000000000
  31
0.0
   0
LINE
   5
45B
 100
AcDbEntity
   8
LEVEL002
 370
25
 100
AcDbLine
   6
CONTINUOUS
  62
1
  10
 247.21010773747
  20
 498.50000000000
  30
0.0
  11
 247.21010773747
  21
 543.50000000000
  31
0.0
   0
LINE
   5
45C
 100
AcDbEntity
   8
LEVEL002
 370
25
 100
AcDbLine
   6
CONTINUOUS
  62
1
  10
 243.28010773747
  20
 498.50000000000
  30
0.0
  11
 243.28010773747
  21
 543.50000000000
  31
0.0
   0
LINE
   5
45D
 100
AcDbEntity
   8
LEVEL002
 370
25
 100
AcDbLine
   6
CONTINUOUS
  62
1
  10
 239.48010773747
  20
 498.50000000000
  30
0.0
  11
 239.48010773747
  21
 543.50000000000
  31
0.0
   0
LINE
   5
45E
 100
AcDbEntity
   8
LEVEL002
 370
25
 100
AcDbLine
   6
CONTINUOUS
  62
1
  10
 270.48294652983
  20
 498.50000000000
  30
0.0
  11
 270.48294652983
  21
 543.50000000000
  31
0.0
   0
ARC
   5
45F
 100
AcDbEntity
   8
LEVEL002
 370
30
   6
CONTINUOUS
  62
7
 100
AcDbCircle
  10
 434.99999999990
  20
 454.49674943662
  30
0.0
  40
 55.000000000000
 100
AcDbArc
  50
 180.00000000000
  51
 193.17589044014
   0
ARC
   5
460
 100
AcDbEntity
   8
LEVEL002
 370
30
   6
CONTINUOUS
  62
7
 100
AcDbCircle
  10
 382.03208518347
  20
 442.09674943662
  30
0.0
  40
 0.60000000000000
 100
AcDbArc
  50
 193.17589044011
  51
 13.175890440131
   0
ARC
   5
461
 100
AcDbEntity
   8
LEVEL002
 370
30
   6
CONTINUOUS
  62
7
 100
AcDbCircle
  10
 434.99999999990
  20
 454.49674943662
  30
0.0
  40
 53.800000000000
 100
AcDbArc
  50
 180.00000000000
  51
 193.17589044014
   0
LINE
   5
462
 100
AcDbEntity
   8
LEVEL002
 370
30
 100
AcDbLine
   6
CONTINUOUS
  62
7
  10
 381.19999999990
  20
 454.49674943662
  30
0.0
  11
 383.69999999990
  21
 454.49674943662
  31
0.0
   0
ARC
   5
463
 100
AcDbEntity
   8
LEVEL002
 370
30
   6
CONTINUOUS
  62
7
 100
AcDbCircle
  10
 383.99999999990
  20
 454.49674943662
  30
0.0
  40
 0.30000000000000
 100
AcDbArc
  50
0.0
  51
 180.00000000000
   0
LINE
   5
464
 100
AcDbEntity
   8
LEVEL002
 370
30
 100
AcDbLine
   6
CONTINUOUS
  62
7
  10
 384.29999999990
  20
 454.49674943662
  30
0.0
  11
 386.19999999990
  21
 454.49674943662
  31
0.0
   0
ARC
   5
465
 100
AcDbEntity
   8
LEVEL002
 370
30
   6
CONTINUOUS
  62
7
 100
AcDbCircle
  10
 386.49999999990
  20
 454.49674943662
  30
0.0
  40
 0.30000000000000
 100
AcDbArc
  50
0.0
  51
 180.00000000000
   0
LINE
   5
466
 100
AcDbEntity
   8
LEVEL002
 370
30
 100
AcDbLine
   6
CONTINUOUS
  62
7
  10
 386.79999999990
  20
 454.49674943662
  30
0.0
  11
 388.69999999990
  21
 454.49674943662
  31
0.0
   0
ARC
   5
467
 100
AcDbEntity
   8
LEVEL002
 370
30
   6
CONTINUOUS
  62
7
 100
AcDbCircle
  10
 388.99999999990
  20
 454.49674943662
  30
0.0
  40
 0.30000000000000
 100
AcDbArc
  50
0.0
  51
 180.00000000000
   0
LINE
   5
468
 100
AcDbEntity
   8
LEVEL002
 370
30
 100
AcDbLine
   6
CONTINUOUS
  62
7
  10
 389.29999999990
  20
 454.49674943662
  30
0.0
  11
 391.19999999990
  21
 454.49674943662
  31
0.0
   0
ARC
   5
469
 100
AcDbEntity
   8
LEVEL002
 370
30
   6
CONTINUOUS
  62
7
 100
AcDbCircle
  10
 391.49999999990
  20
 454.49674943662
  30
0.0
  40
 0.30000000000000
 100
AcDbArc
  50
0.0
  51
 180.00000000000
   0
LINE
   5
46A
 100
AcDbEntity
   8
LEVEL002
 370
30
 100
AcDbLine
   6
CONTINUOUS
  62
7
  10
 391.79999999990
  20
 454.49674943662
  30
0.0
  11
 393.69999999990
  21
 454.49674943662
  31
0.0
   0
ARC
   5
46B
 100
AcDbEntity
   8
LEVEL002
 370
30
   6
CONTINUOUS
  62
7
 100
AcDbCircle
  10
 393.99999999990
  20
 454.49674943662
  30
0.0
  40
 0.30000000000000
 100
AcDbArc
  50
0.0
  51
 180.00000000000
   0
LINE
   5
46C
 100
AcDbEntity
   8
LEVEL002
 370
30
 100
AcDbLine
   6
CONTINUOUS
  62
7
  10
 394.29999999990
  20
 454.49674943662
  30
0.0
  11
 396.19999999990
  21
 454.49674943662
  31
0.0
   0
ARC
   5
46D
 100
AcDbEntity
   8
LEVEL002
 370
30
   6
CONTINUOUS
  62
7
 100
AcDbCircle
  10
 396.49999999990
  20
 454.49674943662
  30
0.0
  40
 0.30000000000000
 100
AcDbArc
  50
0.0
  51
 180.00000000000
   0
LINE
   5
46E
 100
AcDbEntity
   8
LEVEL002
 370
30
 100
AcDbLine
   6
CONTINUOUS
  62
7
  10
 396.79999999990
  20
 454.49674943662
  30
0.0
  11
 398.69999999990
  21
 454.49674943662
  31
0.0
   0
ARC
   5
46F
 100
AcDbEntity
   8
LEVEL002
 370
30
   6
CONTINUOUS
  62
7
 100
AcDbCircle
  10
 398.99999999990
  20
 454.49674943662
  30
0.0
  40
 0.30000000000000
 100
AcDbArc
  50
0.0
  51
 180.00000000000
   0
LINE
   5
470
 100
AcDbEntity
   8
LEVEL002
 370
30
 100
AcDbLine
   6
CONTINUOUS
  62
7
  10
 399.29999999990
  20
 454.49674943662
  30
0.0
  11
 401.19999999990
  21
 454.49674943662
  31
0.0
   0
ARC
   5
471
 100
AcDbEntity
   8
LEVEL002
 370
30
   6
CONTINUOUS
  62
7
 100
AcDbCircle
  10
 401.49999999990
  20
 454.49674943662
  30
0.0
  40
 0.30000000000000
 100
AcDbArc
  50
0.0
  51
 180.00000000000
   0
LINE
   5
472
 100
AcDbEntity
   8
LEVEL002
 370
30
 100
AcDbLine
   6
CONTINUOUS
  62
7
  10
 401.79999999990
  20
 454.49674943662
  30
0.0
  11
 403.69999999990
  21
 454.49674943662
  31
0.0
   0
ARC
   5
473
 100
AcDbEntity
   8
LEVEL002
 370
30
   6
CONTINUOUS
  62
7
 100
AcDbCircle
  10
 403.99999999990
  20
 454.49674943662
  30
0.0
  40
 0.30000000000000
 100
AcDbArc
  50
0.0
  51
 180.00000000000
   0
LINE
   5
474
 100
AcDbEntity
   8
LEVEL002
 370
30
 100
AcDbLine
   6
CONTINUOUS
  62
7
  10
 404.29999999990
  20
 454.49674943662
  30
0.0
  11
 406.19999999990
  21
 454.49674943662
  31
0.0
   0
ARC
   5
475
 100
AcDbEntity
   8
LEVEL002
 370
30
   6
CONTINUOUS
  62
7
 100
AcDbCircle
  10
 406.49999999990
  20
 454.49674943662
  30
0.0
  40
 0.30000000000000
 100
AcDbArc
  50
0.0
  51
 180.00000000000
   0
LINE
   5
476
 100
AcDbEntity
   8
LEVEL002
 370
30
 100
AcDbLine
   6
CONTINUOUS
  62
7
  10
 406.79999999990
  20
 454.49674943662
  30
0.0
  11
 408.69999999990
  21
 454.49674943662
  31
0.0
   0
ARC
   5
477
 100
AcDbEntity
   8
LEVEL002
 370
30
   6
CONTINUOUS
  62
7
 100
AcDbCircle
  10
 408.99999999990
  20
 454.49674943662
  30
0.0
  40
 0.30000000000000
 100
AcDbArc
  50
0.0
  51
 180.00000000000
   0
LINE
   5
478
 100
AcDbEntity
   8
LEVEL002
 370
30
 100
AcDbLine
   6
CONTINUOUS
  62
7
  10
 409.29999999990
  20
 454.49674943662
  30
0.0
  11
 411.19999999990
  21
 454.49674943662
  31
0.0
   0
ARC
   5
479
 100
AcDbEntity
   8
LEVEL002
 370
30
   6
CONTINUOUS
  62
7
 100
AcDbCircle
  10
 411.49999999990
  20
 454.49674943662
  30
0.0
  40
 0.30000000000000
 100
AcDbArc
  50
0.0
  51
 180.00000000000
   0
LINE
   5
47A
 100
AcDbEntity
   8
LEVEL002
 370
30
 100
AcDbLine
   6
CONTINUOUS
  62
7
  10
 411.79999999990
  20
 454.49674943662
  30
0.0
  11
 414.49999999990
  21
 454.49674943662
  31
0.0
   0
LINE
   5
47B
 100
AcDbEntity
   8
LEVEL002
 370
30
 100
AcDbLine
   6
CONTINUOUS
  62
7
  10
 414.49999999990
  20
 454.49674943662
  30
0.0
  11
 414.99999999990
  21
 456.99674943662
  31
0.0
   0
LINE
   5
47C
 100
AcDbEntity
   8
LEVEL002
 370
30
 100
AcDbLine
   6
CONTINUOUS
  62
7
  10
 414.99999999990
  20
 456.99674943662
  30
0.0
  11
 411.43485768542
  21
 459.39461521216
  31
0.0
   0
ARC
   5
47D
 100
AcDbEntity
   8
LEVEL002
 370
30
   6
CONTINUOUS
  62
7
 100
AcDbCircle
  10
 411.09999999990
  20
 458.89674943662
  30
0.0
  40
 0.60000000000000
 100
AcDbArc
  50
 56.075764696170
  51
 236.07576469612
   0
LINE
   5
47E
 100
AcDbEntity
   8
LEVEL002
 370
30
 100
AcDbLine
   6
CONTINUOUS
  62
7
  10
 410.76514231439
  20
 458.39888366108
  30
0.0
  11
 413.27904807116
  21
 456.70806516207
  31
0.0
   0
ARC
   5
47F
 100
AcDbEntity
   8
LEVEL002
 370
30
   6
CONTINUOUS
  62
7
 100
AcDbCircle
  10
 412.99999999990
  20
 456.29317701590
  30
0.0
  40
 0.50000000000000
 100
AcDbArc
  50
0.0
  51
 56.075764689615
   0
LINE
   5
480
 100
AcDbEntity
   8
LEVEL002
 370
30
 100
AcDbLine
   6
CONTINUOUS
  62
7
  10
 413.49999999990
  20
 456.29317701579
  30
0.0
  11
 413.49999999990
  21
 456.19674943662
  31
0.0
   0
ARC
   5
481
 100
AcDbEntity
   8
LEVEL002
 370
30
   6
CONTINUOUS
  62
7
 100
AcDbCircle
  10
 412.99999999980
  20
 456.19674943662
  30
0.0
  40
 0.50000000000000
 100
AcDbArc
  50
 270.00000001105
  51
0.0
   0
LINE
   5
482
 100
AcDbEntity
   8
LEVEL002
 370
30
 100
AcDbLine
   6
CONTINUOUS
  62
7
  10
 412.99999999990
  20
 455.69674943662
  30
0.0
  11
 381.49999999990
  21
 455.69674943662
  31
0.0
   0
LINE
   5
483
 100
AcDbEntity
   8
LEVEL002
 370
30
 100
AcDbLine
   6
CONTINUOUS
  62
7
  10
 381.49999999990
  20
 455.69674943662
  30
0.0
  11
 381.49999999990
  21
 457.49674943662
  31
0.0
   0
ARC
   5
484
 100
AcDbEntity
   8
LEVEL002
 370
30
   6
CONTINUOUS
  62
7
 100
AcDbCircle
  10
 381.99999999997
  20
 457.49674943662
  30
0.0
  40
 0.50000000000000
 100
AcDbArc
  50
 90.000000007660
  51
 180.00000000000
   0
LINE
   5
485
 100
AcDbEntity
   8
LEVEL002
 370
30
 100
AcDbLine
   6
CONTINUOUS
  62
7
  10
 381.99999999990
  20
 457.99674943662
  30
0.0
  11
 384.19999999990
  21
 457.99674943662
  31
0.0
   0
LINE
   5
486
 100
AcDbEntity
   8
LEVEL002
 370
30
 100
AcDbLine
   6
CONTINUOUS
  62
7
  10
 384.19999999990
  20
 457.99674943662
  30
0.0
  11
 384.19999999990
  21
 458.89674943662
  31
0.0
   0
ARC
   5
487
 100
AcDbEntity
   8
LEVEL002
 370
30
   6
CONTINUOUS
  62
7
 100
AcDbCircle
  10
 383.59999999990
  20
 458.89674943662
  30
0.0
  40
 0.60000000000000
 100
AcDbArc
  50
0.0
  51
 90.000000000217
   0
LINE
   5
488
 100
AcDbEntity
   8
LEVEL002
 370
30
 100
AcDbLine
   6
CONTINUOUS
  62
7
  10
 383.59999999990
  20
 459.49674943662
  30
0.0
  11
 381.49999999990
  21
 459.49674943662
  31
0.0
   0
ARC
   5
489
 100
AcDbEntity
   8
LEVEL002
 370
30
   6
CONTINUOUS
  62
7
 100
AcDbCircle
  10
 381.49999999990
  20
 457.99674943661
  30
0.0
  40
 1.5000000000000
 100
AcDbArc
  50
 90.000000000000
  51
 179.99999999957
   0
LINE
   5
48A
 100
AcDbEntity
   8
LEVEL002
 370
30
 100
AcDbLine
   6
CONTINUOUS
  62
7
  10
 379.99999999990
  20
 457.99674943662
  30
0.0
  11
 379.99999999990
  21
 454.49674943662
  31
0.0
   0
LINE
   5
48B
 100
AcDbEntity
   8
LEVEL002
 370
30
 100
AcDbLine
   6
CONTINUOUS
  62
7
  10
 379.99999999990
  20
 543.50000000000
  30
0.0
  11
 379.99999999990
  21
 498.50000000002
  31
0.0
   0
ARC
   5
48C
 100
AcDbEntity
   8
LEVEL002
 370
25
   6
CONTINUOUS
  62
1
 100
AcDbCircle
  10
 430.09999999981
  20
 456.39674943665
  30
0.0
  40
 0.60000000000000
 100
AcDbArc
  50
 249.78835002479
  51
 63.564484114528
   0
ARC
   5
48D
 100
AcDbEntity
   8
LEVEL002
 370
25
   6
CONTINUOUS
  62
1
 100
AcDbCircle
  10
 409.16336561874
  20
 399.52832813983
  30
0.0
  40
 60.000000000000
 100
AcDbArc
  50
 69.788350015876
  51
 88.131638989844
   0
ARC
   5
48E
 100
AcDbEntity
   8
LEVEL002
 370
25
   6
CONTINUOUS
  62
1
 100
AcDbCircle
  10
 408.10759830738
  20
 412.16221238925
  30
0.0
  40
 50.000000000000
 100
AcDbArc
  50
 63.564484123563
  51
 87.067771449954
   0
ARC
   5
48F
 100
AcDbEntity
   8
LEVEL002
 370
25
   6
CONTINUOUS
  62
1
 100
AcDbCircle
  10
 384.69999999991
  20
 461.19674943662
  30
0.0
  40
 1.5000000000000
 100
AcDbArc
  50
 90.000000000469
  51
 180.00000000000
   0
LINE
   5
490
 100
AcDbEntity
   8
LEVEL002
 370
25
 100
AcDbLine
   6
CONTINUOUS
  62
1
  10
 383.19999999990
  20
 459.49674943662
  30
0.0
  11
 383.19999999990
  21
 461.19674943662
  31
0.0
   0
ARC
   5
491
 100
AcDbEntity
   8
LEVEL002
 370
25
   6
CONTINUOUS
  62
1
 100
AcDbCircle
  10
 410.62664991604
  20
 460.59674943662
  30
0.0
  40
 1.5000000000000
 100
AcDbArc
  50
 87.022762935109
  51
 152.18186071509
   0
LINE
   5
492
 100
AcDbEntity
   8
LEVEL002
 370
25
 100
AcDbLine
   6
CONTINUOUS
  62
1
  10
 384.69999999990
  20
 462.69674943662
  30
0.0
  11
 390.39999999990
  21
 462.69674943662
  31
0.0
   0
LINE
   5
493
 100
AcDbEntity
   8
LEVEL002
 370
25
 100
AcDbLine
   6
CONTINUOUS
  62
1
  10
 390.39999999990
  20
 462.69674943662
  30
0.0
  11
 390.39999999990
  21
 461.29674943662
  31
0.0
   0
LINE
   5
494
 100
AcDbEntity
   8
LEVEL002
 370
25
 100
AcDbLine
   6
CONTINUOUS
  62
1
  10
 405.79999999990
  20
 461.29674943662
  30
0.0
  11
 409.29999999990
  21
 461.29674943662
  31
0.0
   0
LINE
   5
495
 100
AcDbEntity
   8
LEVEL002
 370
25
 100
AcDbLine
   6
CONTINUOUS
  62
1
  10
 390.39999999990
  20
 461.29674943662
  30
0.0
  11
 394.59999999990
  21
 461.29674943662
  31
0.0
   0
LINE
   5
496
 100
AcDbEntity
   8
LEVEL002
 370
25
 100
AcDbLine
   6
CONTINUOUS
  62
1
  10
 394.59999999990
  20
 461.29674943662
  30
0.0
  11
 394.59999999990
  21
 462.69674943662
  31
0.0
   0
LINE
   5
497
 100
AcDbEntity
   8
LEVEL002
 370
25
 100
AcDbLine
   6
CONTINUOUS
  62
1
  10
 394.59999999990
  20
 462.69674943662
  30
0.0
  11
 398.09999999990
  21
 462.69674943662
  31
0.0
   0
LINE
   5
498
 100
AcDbEntity
   8
LEVEL002
 370
25
 100
AcDbLine
   6
CONTINUOUS
  62
1
  10
 398.09999999990
  20
 462.69674943662
  30
0.0
  11
 398.09999999990
  21
 461.29674943662
  31
0.0
   0
LINE
   5
499
 100
AcDbEntity
   8
LEVEL002
 370
25
 100
AcDbLine
   6
CONTINUOUS
  62
1
  10
 398.09999999990
  20
 461.29674943662
  30
0.0
  11
 402.29999999990
  21
 461.29674943662
  31
0.0
   0
LINE
   5
49A
 100
AcDbEntity
   8
LEVEL002
 370
25
 100
AcDbLine
   6
CONTINUOUS
  62
1
  10
 402.29999999990
  20
 461.29674943662
  30
0.0
  11
 402.29999999990
  21
 462.69674943662
  31
0.0
   0
LINE
   5
49B
 100
AcDbEntity
   8
LEVEL002
 370
25
 100
AcDbLine
   6
CONTINUOUS
  62
1
  10
 402.29999999990
  20
 462.69674943662
  30
0.0
  11
 405.79999999990
  21
 462.69674943662
  31
0.0
   0
LINE
   5
49C
 100
AcDbEntity
   8
LEVEL002
 370
25
 100
AcDbLine
   6
CONTINUOUS
  62
1
  10
 405.79999999990
  20
 462.69674943662
  30
0.0
  11
 405.79999999990
  21
 461.29674943662
  31
0.0
   0
ARC
   5
49D
 100
AcDbEntity
   8
LEVEL002
 370
25
   6
CONTINUOUS
  62
1
 100
AcDbCircle
  10
 389.44999999990
  20
 453.92591610329
  30
0.0
  40
 3.2708333333333
 100
AcDbArc
  50
 32.779080668112
  51
 147.22091933192
   0
ARC
   5
49E
 100
AcDbEntity
   8
LEVEL002
 370
25
   6
CONTINUOUS
  62
1
 100
AcDbCircle
  10
 397.39999999990
  20
 453.74674943663
  30
0.0
  40
 4.4500000000000
 100
AcDbArc
  50
 25.989233583752
  51
 154.01076641622
   0
ARC
   5
49F
 100
AcDbEntity
   8
LEVEL002
 370
25
   6
CONTINUOUS
  62
1
 100
AcDbCircle
  10
 405.34999999990
  20
 453.92591610328
  30
0.0
  40
 3.2708333333333
 100
AcDbArc
  50
 32.779080668183
  51
 147.22091933188
   0
LINE
   5
4A0
 100
AcDbEntity
   8
LEVEL002
 370
25
 100
AcDbLine
   6
CONTINUOUS
  62
1
  10
 384.19999999990
  20
 457.99674943662
  30
0.0
  11
 381.75638708600
  21
 456.63338744250
  31
0.0
   0
ARC
   5
4A1
 100
AcDbEntity
   8
LEVEL002
 370
25
   6
CONTINUOUS
  62
1
 100
AcDbCircle
  10
 381.99999999997
  20
 456.19674943662
  30
0.0
  40
 0.50000000000000
 100
AcDbArc
  50
 119.15840580472
  51
 269.99999999135
   0
LINE
   5
4A2
 100
AcDbEntity
   8
LEVEL002
 370
25
 100
AcDbLine
   6
CONTINUOUS
  62
1
  10
 430.69854204096
  20
 498.50000000002
  30
0.0
  11
 430.69854204096
  21
 543.50000000000
  31
0.0
   0
LINE
   5
4A3
 100
AcDbEntity
   8
LEVEL002
 370
25
 100
AcDbLine
   6
CONTINUOUS
  62
1
  10
 390.39999999990
  20
 543.50000000000
  30
0.0
  11
 390.39999999990
  21
 498.50000000002
  31
0.0
   0
LINE
   5
4A4
 100
AcDbEntity
   8
LEVEL002
 370
25
 100
AcDbLine
   6
CONTINUOUS
  62
1
  10
 394.59999999990
  20
 543.50000000000
  30
0.0
  11
 394.59999999990
  21
 498.50000000002
  31
0.0
   0
LINE
   5
4A5
 100
AcDbEntity
   8
LEVEL002
 370
25
 100
AcDbLine
   6
CONTINUOUS
  62
1
  10
 398.09999999990
  20
 543.50000000000
  30
0.0
  11
 398.09999999990
  21
 498.50000000002
  31
0.0
   0
LINE
   5
4A6
 100
AcDbEntity
   8
LEVEL002
 370
25
 100
AcDbLine
   6
CONTINUOUS
  62
1
  10
 402.29999999990
  20
 543.50000000000
  30
0.0
  11
 402.29999999990
  21
 498.50000000002
  31
0.0
   0
LINE
   5
4A7
 100
AcDbEntity
   8
LEVEL002
 370
25
 100
AcDbLine
   6
CONTINUOUS
  62
1
  10
 405.79999999990
  20
 543.50000000000
  30
0.0
  11
 405.79999999990
  21
 498.50000000002
  31
0.0
   0
LINE
   5
4A8
 100
AcDbEntity
   8
LEVEL002
 370
25
 100
AcDbLine
   6
CONTINUOUS
  62
1
  10
 409.29999999990
  20
 543.50000000000
  30
0.0
  11
 409.29999999990
  21
 498.50000000002
  31
0.0
   0
LINE
   5
4A9
 100
AcDbEntity
   8
LEVEL002
 370
25
 100
AcDbLine
   6
CONTINUOUS
  62
1
  10
 383.19999999990
  20
 543.50000000000
  30
0.0
  11
 383.19999999990
  21
 498.50000000002
  31
0.0
   0
LINE
   5
4AA
 100
AcDbEntity
   8
LEVEL002
 370
30
 100
AcDbLine
   6
CONTINUOUS
  62
7
  10
 379.99999999990
  20
 498.50000000002
  30
0.0
  11
 409.29999999990
  21
 498.50000000002
  31
0.0
   0
LINE
   5
4AB
 100
AcDbEntity
   8
LEVEL002
 370
25
 100
AcDbLine
   6
CONTINUOUS
  62
1
  10
 409.29999999990
  20
 498.50000000002
  30
0.0
  11
 430.69854204096
  21
 498.50000000002
  31
0.0
   0
DIMENSION
   5
4AC
 100
AcDbEntity
   8
LEVEL001
 370
15
   6
CONTINUOUS
  62
8
 100
AcDbDimension
   2
*D33
  10
 430.69854204096
  20
 469.49674943662
  30
0.0
  11
 405.34927102043
  21
 469.49674943662
  31
0.0
  70
0
   1
\A1;50
   3
GMM001
 100
AcDbAlignedDimension
  13
 379.99999999990
  23
 461.50000000002
  33
0.0
  14
 430.69854204096
  24
 457.89988758612
  34
0.0
 100
AcDbRotatedDimension
   0
DIMENSION
   5
4AD
 100
AcDbEntity
   8
LEVEL001
 370
15
   6
CONTINUOUS
  62
8
 100
AcDbDimension
   2
*D34
  10
 442.69854204096
  20
 459.49674943662
  30
0.0
  11
 442.69854204096
  21
 452.89973884300
  31
0.0
  70
128
   3
GMM005
 100
AcDbAlignedDimension
  13
 432.69854204096
  23
 454.49674943662
  33
0.0
  14
 432.69854204096
  24
 459.49674943662
  34
0.0
  50
 90.000000000000
 100
AcDbRotatedDimension
   0
DIMENSION
   5
4AE
 100
AcDbEntity
   8
LEVEL001
 370
15
   6
CONTINUOUS
  62
8
 100
AcDbDimension
   2
*D35
  10
 454.69854204096
  20
 462.69674943662
  30
0.0
  11
 454.69854204096
  21
 458.59674943662
  31
0.0
  70
0
   1
\A1;9
   3
GMM001
 100
AcDbAlignedDimension
  13
 442.69854204096
  23
 454.49674943662
  33
0.0
  14
 432.69854204096
  24
 462.69674943662
  34
0.0
  50
 90.000000000000
 100
AcDbRotatedDimension
   0
DIMENSION
   5
4AF
 100
AcDbEntity
   8
LEVEL001
 370
15
   6
CONTINUOUS
  62
8
 100
AcDbDimension
   2
*D36
  10
 369.99999999990
  20
 459.50000000002
  30
0.0
  11
 369.99999999990
  21
 450.50000000002
  31
0.0
  70
0
   3
GMM001
 100
AcDbAlignedDimension
  13
 381.22191229427
  23
 441.50000000002
  33
0.0
  14
 379.52552675210
  24
 459.50000000002
  34
0.0
  50
 90.000000000000
 100
AcDbRotatedDimension
   0
LEADER
   5
4B0
 100
AcDbEntity
   8
LEVEL001
 370
15
   6
CONTINUOUS
  62
8
 100
AcDbLeader
   3
GMM003
  73
0
  74
1
  75
0
  40
 6.0000000000000
  41
 11.000000000000
  76
2
  10
 381.73392376894
  20
 459.49674943662
  30
0.0
  10
 373.96706616892
  20
 471.30788200261
  30
0.0
  77
8
 340
4B1
 213
0.0
 223
-2.0000000000000
 233
0.0
   0
MTEXT
   5
4B1
 102
{ACAD_REACTORS
 330
4B0
 102
}
 100
AcDbEntity
   8
LEVEL001
 370
15
  62
8
 100
AcDbMText
  10
 362.96706616892
  20
 473.30788200261
  30
0.0
  40
 6.0000000000000
  41
0.0
  71
7
  72
1
   1
\A1;金台
   7
GMM002
   0
LEADER
   5
4B2
 100
AcDbEntity
   8
LEVEL001
 370
15
   6
CONTINUOUS
  62
8
 100
AcDbLeader
   3
GMM003
  73
0
  74
0
  75
0
  40
 6.0000000000000
  41
 26.000000000000
  76
2
  10
 409.58568135455
  20
 460.84656758017
  30
0.0
  10
 419.45906544136
  20
 476.90043353288
  30
0.0
  77
8
 340
4B3
 213
0.0
 223
-2.0000000000000
 233
0.0
   0
MTEXT
   5
4B3
 102
{ACAD_REACTORS
 330
4B2
 102
}
 100
AcDbEntity
   8
LEVEL001
 370
15
  62
8
 100
AcDbMText
  10
 419.45906544136
  20
 478.90043353288
  30
0.0
  40
 6.0000000000000
  41
0.0
  71
7
  72
1
   1
\A1;インサート
   7
GMM002
   0
MTEXT
   5
4B5
 100
AcDbEntity
   8
LEVEL002
 370
15
  62
8
 100
AcDbMText
  10
 774.43016912150
  20
 84.000000000020
  30
0.0
  40
 6.0000000000000
  41
0.0
  71
5
  72
1
   1
\T1.000000;令和０５年０６月１９日
   7
GMM002
  44
 0.79999984000003
   0
MTEXT
   5
4B7
 100
AcDbEntity
   8
LEVEL002
 370
15
  62
8
 100
AcDbMText
  10
 774.43016912150
  20
 70.666666666690
  30
0.0
  40
 6.0000000000000
  41
0.0
  71
5
  72
1
   1
\T1.000000;令和　　年　　月　　日
   7
GMM002
  44
 0.79999984000003
   0
LINE
   5
4B8
 100
AcDbEntity
   8
LEVEL001
 370
30
 100
AcDbLine
   6
CONTINUOUS
  62
7
  10
 239.47631649503
  20
 322.70000000000
  30
0.0
  11
 236.99124524496
  21
 322.07873218748
  31
0.0
   0
LINE
   5
4B9
 100
AcDbEntity
   8
LEVEL001
 370
30
 100
AcDbLine
   6
CONTINUOUS
  62
7
  10
 239.47631649503
  20
 322.70000000000
  30
0.0
  11
 239.47631649503
  21
 321.46306831231
  31
0.0
   0
ARC
   5
4BA
 100
AcDbEntity
   8
LEVEL001
 370
30
   6
CONTINUOUS
  62
7
 100
AcDbCircle
  10
 237.48345926865
  20
 320.14023288059
  30
0.0
  40
 2.0000000000000
 100
AcDbArc
  50
 104.03624346793
  51
 180.69176832591
   0
ARC
   5
4BB
 100
AcDbEntity
   8
LEVEL001
 370
30
   6
CONTINUOUS
  62
7
 100
AcDbCircle
  10
 335.47631649503
  20
 321.32342035898
  30
0.0
  40
 98.800000000000
 100
AcDbArc
  50
 180.69176832592
  51
 181.23150195235
   0
LINE
   5
4BC
 100
AcDbEntity
   8
LEVEL001
 370
30
 100
AcDbLine
   6
CONTINUOUS
  62
7
  10
 239.47631649503
  20
 321.46306831231
  30
0.0
  11
 237.28943076862
  21
 320.91634688071
  31
0.0
   0
ARC
   5
4BD
 100
AcDbEntity
   8
LEVEL001
 370
30
   6
CONTINUOUS
  62
7
 100
AcDbCircle
  10
 237.48345926865
  20
 320.14023288059
  30
0.0
  40
 0.80000000000000
 100
AcDbArc
  50
 104.03624346790
  51
 180.69176832591
   0
ARC
   5
4BE
 100
AcDbEntity
   8
LEVEL001
 370
30
   6
CONTINUOUS
  62
7
 100
AcDbCircle
  10
 335.47631649503
  20
 321.32342035896
  30
0.0
  40
 100.00000000000
 100
AcDbArc
  50
 180.69176832591
  51
 189.27663734402
   0
ARC
   5
4BF
 100
AcDbEntity
   8
LEVEL001
 370
30
   6
CONTINUOUS
  62
7
 100
AcDbCircle
  10
 238.47631649503
  20
 318.00000000000
  30
0.0
  40
 0.30000000000000
 100
AcDbArc
  50
0.0
  51
 180.00000000000
   0
ARC
   5
4C0
 100
AcDbEntity
   8
LEVEL001
 370
30
   6
CONTINUOUS
  62
7
 100
AcDbCircle
  10
 242.47631649503
  20
 318.00000000000
  30
0.0
  40
 0.30000000000000
 100
AcDbArc
  50
0.0
  51
 180.00000000000
   0
ARC
   5
4C1
 100
AcDbEntity
   8
LEVEL001
 370
30
   6
CONTINUOUS
  62
7
 100
AcDbCircle
  10
 246.47631649503
  20
 318.00000000000
  30
0.0
  40
 0.30000000000000
 100
AcDbArc
  50
0.0
  51
 180.00000000000
   0
ARC
   5
4C2
 100
AcDbEntity
   8
LEVEL001
 370
30
   6
CONTINUOUS
  62
7
 100
AcDbCircle
  10
 250.47631649503
  20
 318.00000000000
  30
0.0
  40
 0.30000000000000
 100
AcDbArc
  50
0.0
  51
 180.00000000000
   0
ARC
   5
4C3
 100
AcDbEntity
   8
LEVEL001
 370
30
   6
CONTINUOUS
  62
7
 100
AcDbCircle
  10
 254.47631649503
  20
 318.00000000000
  30
0.0
  40
 0.30000000000000
 100
AcDbArc
  50
0.0
  51
 180.00000000000
   0
ARC
   5
4C4
 100
AcDbEntity
   8
LEVEL001
 370
30
   6
CONTINUOUS
  62
7
 100
AcDbCircle
  10
 258.47631649503
  20
 318.00000000000
  30
0.0
  40
 0.30000000000000
 100
AcDbArc
  50
0.0
  51
 180.00000000000
   0
ARC
   5
4C5
 100
AcDbEntity
   8
LEVEL001
 370
30
   6
CONTINUOUS
  62
7
 100
AcDbCircle
  10
 262.47631649503
  20
 318.00000000000
  30
0.0
  40
 0.30000000000000
 100
AcDbArc
  50
0.0
  51
 180.00000000000
   0
ARC
   5
4C6
 100
AcDbEntity
   8
LEVEL001
 370
30
   6
CONTINUOUS
  62
7
 100
AcDbCircle
  10
 266.47631649503
  20
 318.00000000000
  30
0.0
  40
 0.30000000000000
 100
AcDbArc
  50
0.0
  51
 180.00000000000
   0
ARC
   5
4C7
 100
AcDbEntity
   8
LEVEL001
 370
30
   6
CONTINUOUS
  62
7
 100
AcDbCircle
  10
 270.47631649503
  20
 318.00000000000
  30
0.0
  40
 0.30000000000000
 100
AcDbArc
  50
0.0
  51
 180.00000000000
   0
LINE
   5
4C8
 100
AcDbEntity
   8
LEVEL001
 370
30
 100
AcDbLine
   6
CONTINUOUS
  62
7
  10
 238.77631649503
  20
 318.00000000000
  30
0.0
  11
 242.17631649503
  21
 318.00000000000
  31
0.0
   0
LINE
   5
4C9
 100
AcDbEntity
   8
LEVEL001
 370
30
 100
AcDbLine
   6
CONTINUOUS
  62
7
  10
 242.77631649503
  20
 318.00000000000
  30
0.0
  11
 246.17631649503
  21
 318.00000000000
  31
0.0
   0
LINE
   5
4CA
 100
AcDbEntity
   8
LEVEL001
 370
30
 100
AcDbLine
   6
CONTINUOUS
  62
7
  10
 246.77631649503
  20
 318.00000000000
  30
0.0
  11
 250.17631649503
  21
 318.00000000000
  31
0.0
   0
LINE
   5
4CB
 100
AcDbEntity
   8
LEVEL001
 370
30
 100
AcDbLine
   6
CONTINUOUS
  62
7
  10
 250.77631649503
  20
 318.00000000000
  30
0.0
  11
 254.17631649503
  21
 318.00000000000
  31
0.0
   0
LINE
   5
4CC
 100
AcDbEntity
   8
LEVEL001
 370
30
 100
AcDbLine
   6
CONTINUOUS
  62
7
  10
 254.77631649503
  20
 318.00000000000
  30
0.0
  11
 258.17631649503
  21
 318.00000000000
  31
0.0
   0
LINE
   5
4CD
 100
AcDbEntity
   8
LEVEL001
 370
30
 100
AcDbLine
   6
CONTINUOUS
  62
7
  10
 258.77631649503
  20
 318.00000000000
  30
0.0
  11
 262.17631649503
  21
 318.00000000000
  31
0.0
   0
LINE
   5
4CE
 100
AcDbEntity
   8
LEVEL001
 370
30
 100
AcDbLine
   6
CONTINUOUS
  62
7
  10
 262.77631649503
  20
 318.00000000000
  30
0.0
  11
 266.17631649503
  21
 318.00000000000
  31
0.0
   0
LINE
   5
4CF
 100
AcDbEntity
   8
LEVEL001
 370
30
 100
AcDbLine
   6
CONTINUOUS
  62
7
  10
 266.77631649503
  20
 318.00000000000
  30
0.0
  11
 270.17631649503
  21
 318.00000000000
  31
0.0
   0
LINE
   5
4D0
 100
AcDbEntity
   8
LEVEL001
 370
30
 100
AcDbLine
   6
CONTINUOUS
  62
7
  10
 270.77631649503
  20
 318.00000000000
  30
0.0
  11
 274.97631649503
  21
 318.00000000000
  31
0.0
   0
LINE
   5
4D1
 100
AcDbEntity
   8
LEVEL001
 370
30
 100
AcDbLine
   6
CONTINUOUS
  62
7
  10
 274.97631649503
  20
 318.00000000000
  30
0.0
  11
 275.47631649503
  21
 320.30000000000
  31
0.0
   0
LINE
   5
4D2
 100
AcDbEntity
   8
LEVEL001
 370
30
 100
AcDbLine
   6
CONTINUOUS
  62
7
  10
 236.73222868661
  20
 318.00000000000
  30
0.0
  11
 238.17631649503
  21
 318.00000000000
  31
0.0
   0
ARC
   5
4D3
 100
AcDbEntity
   8
LEVEL001
 370
30
   6
CONTINUOUS
  62
7
 100
AcDbCircle
  10
 335.47631649503
  20
 321.32342035896
  30
0.0
  40
 98.800000000000
 100
AcDbArc
  50
 181.92767093361
  51
 189.30482451857
   0
LINE
   5
4D4
 100
AcDbEntity
   8
LEVEL001
 370
30
 100
AcDbLine
   6
CONTINUOUS
  62
7
  10
 275.47631649503
  20
 320.30000000000
  30
0.0
  11
 271.37176803861
  21
 322.62221488431
  31
0.0
   0
ARC
   5
4D5
 100
AcDbEntity
   8
LEVEL001
 370
30
   6
CONTINUOUS
  62
7
 100
AcDbCircle
  10
 273.08448242015
  20
 319.70000000000
  30
0.0
  40
 0.50000000000000
 100
AcDbArc
  50
 270.00000000003
  51
 60.500284439241
   0
LINE
   5
4D6
 100
AcDbEntity
   8
LEVEL001
 370
30
 100
AcDbLine
   6
CONTINUOUS
  62
7
  10
 273.33069203980
  20
 320.13517907026
  30
0.0
  11
 270.78086495145
  21
 321.57778511569
  31
0.0
   0
LINE
   5
4D7
 100
AcDbEntity
   8
LEVEL001
 370
30
 100
AcDbLine
   6
CONTINUOUS
  62
7
  10
 236.69913752145
  20
 319.20000000000
  30
0.0
  11
 273.08448242015
  21
 319.20000000000
  31
0.0
   0
ARC
   5
4D8
 100
AcDbEntity
   8
LEVEL001
 370
30
   6
CONTINUOUS
  62
7
 100
AcDbCircle
  10
 271.07631649503
  20
 322.10000000000
  30
0.0
  40
 0.60000000000000
 100
AcDbArc
  50
 60.500284439258
  51
 240.50028443924
   0
ARC
   5
4D9
 100
AcDbEntity
   8
LEVEL001
 370
30
   6
CONTINUOUS
  62
7
 100
AcDbCircle
  10
 237.37631649503
  20
 305.30000000000
  30
0.0
  40
 0.60000000000000
 100
AcDbArc
  50
 189.27663734402
  51
 9.2766373440146
   0
DIMENSION
   5
4DA
 100
AcDbEntity
   8
LEVEL001
 370
15
   6
CONTINUOUS
  62
8
 100
AcDbDimension
   2
*D39
  10
 287.99999999989
  20
 325.00000000000
  30
0.0
  11
 287.99999999989
  21
 321.50000000000
  31
0.0
  70
0
   3
GMM001
 100
AcDbAlignedDimension
  13
 275.99999999989
  23
 318.00000000000
  33
0.0
  14
 275.99999999989
  24
 325.00000000000
  34
0.0
  50
 90.000000000000
 100
AcDbRotatedDimension
   0
LINE
   5
4DB
 100
AcDbEntity
   8
LEVEL004
 370
25
 100
AcDbLine
   6
CONTINUOUS
  62
1
  10
 237.87631649503
  20
 320.30000000000
  30
0.0
  11
 239.47631649503
  21
 321.90000000000
  31
0.0
   0
ARC
   5
4DC
 100
AcDbEntity
   8
LEVEL004
 370
25
   6
CONTINUOUS
  62
1
 100
AcDbCircle
  10
 238.07631649503
  20
 319.40000000000
  30
0.0
  40
 0.20000000000000
 100
AcDbArc
  50
 179.99999999997
  51
 270.00000000000
   0
ARC
   5
4DD
 100
AcDbEntity
   8
LEVEL004
 370
25
   6
CONTINUOUS
  62
1
 100
AcDbCircle
  10
 257.52046833918
  20
 320.50000000000
  30
0.0
  40
 0.20000000000000
 100
AcDbArc
  50
 90.000000000000
  51
 161.56505117708
   0
LINE
   5
4DE
 100
AcDbEntity
   8
LEVEL004
 370
25
 100
AcDbLine
   6
CONTINUOUS
  62
1
  10
 257.33073167957
  20
 320.56324555320
  30
0.0
  11
 256.87631649517
  21
 319.20000000000
  31
0.0
   0
LINE
   5
4DF
 100
AcDbEntity
   8
LEVEL004
 370
25
 100
AcDbLine
   6
CONTINUOUS
  62
1
  10
 237.87631649503
  20
 319.40000000000
  30
0.0
  11
 237.87631649503
  21
 320.30000000000
  31
0.0
   0
LINE
   5
4E0
 100
AcDbEntity
   8
LEVEL004
 370
25
 100
AcDbLine
   6
CONTINUOUS
  62
1
  10
 239.47631649503
  20
 321.90000000000
  30
0.0
  11
 239.47631649503
  21
 323.20000000000
  31
0.0
   0
ARC
   5
4E1
 100
AcDbEntity
   8
LEVEL004
 370
25
   6
CONTINUOUS
  62
1
 100
AcDbCircle
  10
 240.97631649503
  20
 323.20000000000
  30
0.0
  40
 1.5000000000000
 100
AcDbArc
  50
 90.000000000000
  51
 180.00000000000
   0
POINT
   5
4E2
 100
AcDbEntity
   8
LEVEL004
 100
AcDbPoint
  62
1
  10
 239.47631649503
  20
 324.70000000000
  30
0.0
   0
ARC
   5
4E3
 100
AcDbEntity
   8
LEVEL001
 370
25
   6
CONTINUOUS
  62
1
 100
AcDbCircle
  10
 244.67631649503
  20
 324.50000000000
  30
0.0
  40
 0.20000000000000
 100
AcDbArc
  50
0.0
  51
 90.000000000000
   0
POINT
   5
4E4
 100
AcDbEntity
   8
LEVEL001
 100
AcDbPoint
  62
1
  10
 244.87631649503
  20
 324.70000000000
  30
0.0
   0
LINE
   5
4E5
 100
AcDbEntity
   8
LEVEL001
 370
25
 100
AcDbLine
   6
CONTINUOUS
  62
1
  10
 244.87631649503
  20
 324.50000000000
  30
0.0
  11
 244.87631649503
  21
 323.40000000000
  31
0.0
   0
ARC
   5
4E6
 100
AcDbEntity
   8
LEVEL001
 370
25
   6
CONTINUOUS
  62
1
 100
AcDbCircle
  10
 245.07631649503
  20
 323.40000000000
  30
0.0
  40
 0.20000000000000
 100
AcDbArc
  50
 180.00000000000
  51
 270.00000000000
   0
POINT
   5
4E7
 100
AcDbEntity
   8
LEVEL001
 100
AcDbPoint
  62
1
  10
 244.87631649503
  20
 323.20000000000
  30
0.0
   0
LINE
   5
4E8
 100
AcDbEntity
   8
LEVEL001
 370
25
 100
AcDbLine
   6
CONTINUOUS
  62
1
  10
 245.07631649503
  20
 323.20000000000
  30
0.0
  11
 249.07631649503
  21
 323.20000000000
  31
0.0
   0
ARC
   5
4E9
 100
AcDbEntity
   8
LEVEL001
 370
25
   6
CONTINUOUS
  62
1
 100
AcDbCircle
  10
 249.07631649503
  20
 323.40000000000
  30
0.0
  40
 0.20000000000000
 100
AcDbArc
  50
 270.00000000000
  51
0.0
   0
POINT
   5
4EA
 100
AcDbEntity
   8
LEVEL001
 100
AcDbPoint
  62
1
  10
 249.27631649503
  20
 323.20000000000
  30
0.0
   0
LINE
   5
4EB
 100
AcDbEntity
   8
LEVEL001
 370
25
 100
AcDbLine
   6
CONTINUOUS
  62
1
  10
 249.27631649503
  20
 323.40000000000
  30
0.0
  11
 249.27631649503
  21
 324.50000000000
  31
0.0
   0
ARC
   5
4EC
 100
AcDbEntity
   8
LEVEL001
 370
25
   6
CONTINUOUS
  62
1
 100
AcDbCircle
  10
 249.47631649503
  20
 324.50000000000
  30
0.0
  40
 0.20000000000000
 100
AcDbArc
  50
 90.000000000000
  51
 180.00000000000
   0
POINT
   5
4ED
 100
AcDbEntity
   8
LEVEL001
 100
AcDbPoint
  62
1
  10
 249.27631649503
  20
 324.70000000000
  30
0.0
   0
LINE
   5
4EE
 100
AcDbEntity
   8
LEVEL001
 370
25
 100
AcDbLine
   6
CONTINUOUS
  62
1
  10
 249.47631649503
  20
 324.70000000000
  30
0.0
  11
 253.47631649503
  21
 324.70000000000
  31
0.0
   0
ARC
   5
4EF
 100
AcDbEntity
   8
LEVEL001
 370
25
   6
CONTINUOUS
  62
1
 100
AcDbCircle
  10
 253.47631649503
  20
 324.50000000000
  30
0.0
  40
 0.20000000000000
 100
AcDbArc
  50
0.0
  51
 90.000000000000
   0
POINT
   5
4F0
 100
AcDbEntity
   8
LEVEL001
 100
AcDbPoint
  62
1
  10
 253.67631649503
  20
 324.70000000000
  30
0.0
   0
LINE
   5
4F1
 100
AcDbEntity
   8
LEVEL001
 370
25
 100
AcDbLine
   6
CONTINUOUS
  62
1
  10
 253.67631649503
  20
 324.50000000000
  30
0.0
  11
 253.67631649503
  21
 323.40000000000
  31
0.0
   0
ARC
   5
4F2
 100
AcDbEntity
   8
LEVEL001
 370
25
   6
CONTINUOUS
  62
1
 100
AcDbCircle
  10
 253.87631649503
  20
 323.40000000000
  30
0.0
  40
 0.20000000000000
 100
AcDbArc
  50
 180.00000000000
  51
 270.00000000000
   0
POINT
   5
4F3
 100
AcDbEntity
   8
LEVEL001
 100
AcDbPoint
  62
1
  10
 253.67631649503
  20
 323.20000000000
  30
0.0
   0
LINE
   5
4F4
 100
AcDbEntity
   8
LEVEL001
 370
25
 100
AcDbLine
   6
CONTINUOUS
  62
1
  10
 253.87631649503
  20
 323.20000000000
  30
0.0
  11
 257.87631649503
  21
 323.20000000000
  31
0.0
   0
ARC
   5
4F5
 100
AcDbEntity
   8
LEVEL001
 370
25
   6
CONTINUOUS
  62
1
 100
AcDbCircle
  10
 257.87631649503
  20
 323.40000000000
  30
0.0
  40
 0.20000000000000
 100
AcDbArc
  50
 270.00000000000
  51
0.0
   0
POINT
   5
4F6
 100
AcDbEntity
   8
LEVEL001
 100
AcDbPoint
  62
1
  10
 258.07631649503
  20
 323.20000000000
  30
0.0
   0
LINE
   5
4F7
 100
AcDbEntity
   8
LEVEL001
 370
25
 100
AcDbLine
   6
CONTINUOUS
  62
1
  10
 258.07631649503
  20
 323.40000000000
  30
0.0
  11
 258.07631649503
  21
 324.50000000000
  31
0.0
   0
ARC
   5
4F8
 100
AcDbEntity
   8
LEVEL001
 370
25
   6
CONTINUOUS
  62
1
 100
AcDbCircle
  10
 258.27631649503
  20
 324.50000000000
  30
0.0
  40
 0.20000000000000
 100
AcDbArc
  50
 90.000000000000
  51
 180.00000000000
   0
POINT
   5
4F9
 100
AcDbEntity
   8
LEVEL001
 100
AcDbPoint
  62
1
  10
 258.07631649503
  20
 324.70000000000
  30
0.0
   0
LINE
   5
4FA
 100
AcDbEntity
   8
LEVEL001
 370
25
 100
AcDbLine
   6
CONTINUOUS
  62
1
  10
 258.27631649503
  20
 324.70000000000
  30
0.0
  11
 262.27631649503
  21
 324.70000000000
  31
0.0
   0
ARC
   5
4FB
 100
AcDbEntity
   8
LEVEL001
 370
25
   6
CONTINUOUS
  62
1
 100
AcDbCircle
  10
 262.27631649503
  20
 324.50000000000
  30
0.0
  40
 0.20000000000000
 100
AcDbArc
  50
0.0
  51
 90.000000000000
   0
POINT
   5
4FC
 100
AcDbEntity
   8
LEVEL001
 100
AcDbPoint
  62
1
  10
 262.47631649503
  20
 324.70000000000
  30
0.0
   0
LINE
   5
4FD
 100
AcDbEntity
   8
LEVEL001
 370
25
 100
AcDbLine
   6
CONTINUOUS
  62
1
  10
 262.47631649503
  20
 324.50000000000
  30
0.0
  11
 262.47631649503
  21
 323.40000000000
  31
0.0
   0
ARC
   5
4FE
 100
AcDbEntity
   8
LEVEL001
 370
25
   6
CONTINUOUS
  62
1
 100
AcDbCircle
  10
 262.67631649503
  20
 323.40000000000
  30
0.0
  40
 0.20000000000000
 100
AcDbArc
  50
 180.00000000000
  51
 270.00000000000
   0
POINT
   5
4FF
 100
AcDbEntity
   8
LEVEL001
 100
AcDbPoint
  62
1
  10
 262.47631649503
  20
 323.20000000000
  30
0.0
   0
LINE
   5
500
 100
AcDbEntity
   8
LEVEL001
 370
25
 100
AcDbLine
   6
CONTINUOUS
  62
1
  10
 240.97631649503
  20
 324.70000000000
  30
0.0
  11
 244.67631649503
  21
 324.70000000000
  31
0.0
   0
LINE
   5
501
 100
AcDbEntity
   8
LEVEL004
 370
25
 100
AcDbLine
   6
CONTINUOUS
  62
1
  10
 238.07631649503
  20
 319.20000000000
  30
0.0
  11
 243.87631649503
  21
 319.20000000000
  31
0.0
   0
LINE
   5
502
 100
AcDbEntity
   8
LEVEL004
 370
25
 100
AcDbLine
   6
CONTINUOUS
  62
1
  10
 252.87631649503
  20
 319.20000000000
  30
0.0
  11
 256.87631649517
  21
 319.20000000000
  31
0.0
   0
ARC
   5
503
 100
AcDbEntity
   8
LEVEL001
 370
25
   6
CONTINUOUS
  62
1
 100
AcDbCircle
  10
 248.37631649503
  20
 313.20000000000
  30
0.0
  40
 7.5000000000008
 100
AcDbArc
  50
 53.130102354165
  51
 126.86989764584
   0
LINE
   5
504
 100
AcDbEntity
   8
LEVEL004
 370
25
 100
AcDbLine
   6
CONTINUOUS
  62
1
  10
 257.52046833918
  20
 320.70000000000
  30
0.0
  11
 264.12862698990
  21
 320.70000000000
  31
0.0
   0
LINE
   5
505
 100
AcDbEntity
   8
LEVEL001
 370
25
 100
AcDbLine
   6
CONTINUOUS
  62
1
  10
 262.67631649503
  20
 323.20000000000
  30
0.0
  11
 266.67631649503
  21
 323.20000000000
  31
0.0
   0
ARC
   5
506
 100
AcDbEntity
   8
LEVEL001
 370
25
   6
CONTINUOUS
  62
1
 100
AcDbCircle
  10
 266.67631649503
  20
 323.40000000000
  30
0.0
  40
 0.20000000000000
 100
AcDbArc
  50
 270.00000000000
  51
0.0
   0
POINT
   5
507
 100
AcDbEntity
   8
LEVEL001
 100
AcDbPoint
  62
1
  10
 266.87631649503
  20
 323.20000000000
  30
0.0
   0
LINE
   5
508
 100
AcDbEntity
   8
LEVEL001
 370
25
 100
AcDbLine
   6
CONTINUOUS
  62
1
  10
 266.87631649503
  20
 323.40000000000
  30
0.0
  11
 266.87631649503
  21
 324.50000000000
  31
0.0
   0
ARC
   5
509
 100
AcDbEntity
   8
LEVEL001
 370
25
   6
CONTINUOUS
  62
1
 100
AcDbCircle
  10
 267.07631649503
  20
 324.50000000000
  30
0.0
  40
 0.20000000000000
 100
AcDbArc
  50
 90.000000000000
  51
 180.00000000000
   0
POINT
   5
50A
 100
AcDbEntity
   8
LEVEL001
 100
AcDbPoint
  62
1
  10
 266.87631649503
  20
 324.70000000000
  30
0.0
   0
POINT
   5
50B
 100
AcDbEntity
   8
LEVEL004
 100
AcDbPoint
  62
1
  10
 269.87631649499
  20
 320.99999999987
  30
0.0
   0
LINE
   5
50C
 100
AcDbEntity
   8
LEVEL004
 370
25
 100
AcDbLine
   6
CONTINUOUS
  62
1
  10
 269.87631649499
  20
 321.12741405203
  30
0.0
  11
 269.87631649499
  21
 321.69999999987
  31
0.0
   0
LINE
   5
50D
 100
AcDbEntity
   8
LEVEL004
 370
25
 100
AcDbLine
   6
CONTINUOUS
  62
1
  10
 267.87631649503
  20
 319.20000000000
  30
0.0
  11
 267.42190131063
  21
 320.56324555320
  31
0.0
   0
ARC
   5
50E
 100
AcDbEntity
   8
LEVEL004
 370
25
   6
CONTINUOUS
  62
1
 100
AcDbCircle
  10
 267.23216465102
  20
 320.50000000000
  30
0.0
  40
 0.20000000000000
 100
AcDbArc
  50
 18.434948822922
  51
 90.000000000000
   0
LINE
   5
50F
 100
AcDbEntity
   8
LEVEL004
 370
25
 100
AcDbLine
   6
CONTINUOUS
  62
1
  10
 264.12862698990
  20
 320.70000000000
  30
0.0
  11
 267.23216465102
  21
 320.70000000000
  31
0.0
   0
ARC
   5
510
 100
AcDbEntity
   8
LEVEL001
 370
25
   6
CONTINUOUS
  62
1
 100
AcDbCircle
  10
 272.17631649503
  20
 319.50000000000
  30
0.0
  40
 0.30000000000000
 100
AcDbArc
  50
 270.00000000000
  51
 63.160946192263
   0
ARC
   5
511
 100
AcDbEntity
   8
LEVEL004
 370
25
   6
CONTINUOUS
  62
1
 100
AcDbCircle
  10
 270.07631649499
  20
 321.12294688115
  30
0.0
  40
 0.20000000000000
 100
AcDbArc
  50
 180.00000000000
  51
 243.16094619224
   0
POINT
   5
512
 100
AcDbEntity
   8
LEVEL004
 100
AcDbPoint
  62
1
  10
 269.87631649499
  20
 320.99999999987
  30
0.0
   0
LINE
   5
513
 100
AcDbEntity
   8
LEVEL001
 370
25
 100
AcDbLine
   6
CONTINUOUS
  62
1
  10
 269.98601932739
  20
 320.94449122414
  30
0.0
  11
 272.31176224645
  21
 319.76768348553
  31
0.0
   0
LINE
   5
514
 100
AcDbEntity
   8
LEVEL001
 370
25
 100
AcDbLine
   6
CONTINUOUS
  62
1
  10
 272.67631649499
  20
 324.70000000000
  30
0.0
  11
 275.48344573369
  21
 324.59987289450
  31
0.0
   0
LINE
   5
515
 100
AcDbEntity
   8
LEVEL001
 370
25
 100
AcDbLine
   6
CONTINUOUS
  62
1
  10
 275.67568156795
  20
 324.38407619125
  30
0.0
  11
 275.47536410443
  21
 321.87611428687
  31
0.0
   0
LINE
   5
516
 100
AcDbEntity
   8
LEVEL001
 370
25
 100
AcDbLine
   6
CONTINUOUS
  62
1
  10
 267.07631649503
  20
 324.70000000000
  30
0.0
  11
 272.67631649499
  21
 324.70000000000
  31
0.0
   0
POINT
   5
517
 100
AcDbEntity
   8
LEVEL004
 100
AcDbPoint
  62
1
  10
 269.87631649499
  20
 322.63000000000
  30
0.0
   0
ARC
   5
518
 100
AcDbEntity
   8
LEVEL004
 370
25
   6
CONTINUOUS
  62
1
 100
AcDbCircle
  10
 270.37631649499
  20
 322.13000000000
  30
0.0
  40
 0.50000000000000
 100
AcDbArc
  50
 90.000000000000
  51
 180.00000000000
   0
LINE
   5
519
 100
AcDbEntity
   8
LEVEL001
 370
25
 100
AcDbLine
   6
CONTINUOUS
  62
1
  10
 272.37631649497
  20
 322.63000000000
  30
0.0
  11
 270.37631649499
  21
 322.63000000000
  31
0.0
   0
LINE
   5
51A
 100
AcDbEntity
   8
LEVEL004
 370
25
 100
AcDbLine
   6
CONTINUOUS
  62
1
  10
 269.87631649499
  20
 321.12294688115
  30
0.0
  11
 269.87631649499
  21
 322.13000000000
  31
0.0
   0
LINE
   5
51B
 100
AcDbEntity
   8
LEVEL001
 370
25
 100
AcDbLine
   6
CONTINUOUS
  62
1
  10
 272.37631649497
  20
 322.63000000000
  30
0.0
  11
 275.07094289579
  21
 321.61911496197
  31
0.0
   0
POINT
   5
51C
 100
AcDbEntity
   8
LEVEL001
 100
AcDbPoint
  62
1
  10
 275.17631649499
  20
 321.60000000000
  30
0.0
   0
ARC
   5
51D
 100
AcDbEntity
   8
LEVEL001
 370
25
   6
CONTINUOUS
  62
1
 100
AcDbCircle
  10
 275.17631649499
  20
 321.90000000000
  30
0.0
  40
 0.30000000000000
 100
AcDbArc
  50
 249.43649597150
  51
 355.43333129695
   0
ARC
   5
51E
 100
AcDbEntity
   8
LEVEL001
 370
25
   6
CONTINUOUS
  62
1
 100
AcDbCircle
  10
 275.47631649499
  20
 324.40000000000
  30
0.0
  40
 0.20000000000000
 100
AcDbArc
  50
 355.43333129695
  51
 87.957190785594
   0
LINE
   5
51F
 100
AcDbEntity
   8
LEVEL004
 370
25
 100
AcDbLine
   6
CONTINUOUS
  62
1
  10
 267.87631649503
  20
 319.20000000000
  30
0.0
  11
 272.17631649503
  21
 319.20000000000
  31
0.0
   0
MTEXT
   5
521
 100
AcDbEntity
   8
LEVEL002
 370
15
  62
8
 100
AcDbMText
  10
 35.999999999900
  20
 546.33333333340
  30
0.0
  40
 4.0000000000000
  41
0.0
  71
1
  72
1
   3
{\W0.500000;\T1.000000;･\W1.000000;\T1.000000;長尺シート用}\P{\W0.500000;\T1.000000;･\W1.000000;\T1.000000;Ｙ－本体黄色塗装}\P{\W0.500000;\T1.000000;･\W1.000000;\T1.000000;インサート}\P{\W1.000000;\T1.000000;　　伸縮防止\W0.500000;\T1.000000;(\W1.000
   3
000;\T1.000000;糸入\W0.500000;\T1.000000;)}\P{\W1.000000;\T1.000000;　　角型}\P\P{\W0.500000;\T1.000000;･\W1.000000;\T1.000000;フラットエンド－有}\P\P{\W0.500000;\T1.000000;･\W1.000000;\T1.000000;定尺}\P{\W1.000000;\T1.000000;　　４０００\W0.500000;\
   1
T1.000000;m/m}
   7
GMM002
  44
 0.79999984000003
   0
MTEXT
   5
523
 100
AcDbEntity
   8
LEVEL002
 370
15
  62
8
 100
AcDbMText
  10
 247.74999999990
  20
 560.00000000000
  30
0.0
  40
 6.0000000000000
  41
0.0
  71
5
  72
1
   1
\T1.000000;Ｎ３５ＰＧ
   7
GMM002
  44
 0.79999984000003
   0
MTEXT
   5
525
 100
AcDbEntity
   8
LEVEL002
 370
15
  62
8
 100
AcDbMText
  10
 392.24999999990
  20
 560.00000000000
  30
0.0
  40
 6.0000000000000
  41
0.0
  71
5
  72
1
   1
\T1.000000;Ｎ３５ＰＫ
   7
GMM002
  44
 0.79999984000003
   0
MTEXT
   5
527
 100
AcDbEntity
   8
LEVEL002
 370
15
  62
8
 100
AcDbMText
  10
 180.49999999990
  20
 546.33333333340
  30
0.0
  40
 4.0000000000000
  41
0.0
  71
1
  72
1
   3
{\W0.500000;\T1.000000;･\W1.000000;\T1.000000;パンチカーペット}\P{\W1.000000;\T1.000000;　　タイルカーペット用}\P{\W0.500000;\T1.000000;･\W1.000000;\T1.000000;インサート}\P{\W1.000000;\T1.000000;　　Ｇ型}\P\P{\W0.500000;\T1.000000;･\W1.000000;\T1.000
   1
000;フラットエンド－有}\P\P{\W0.500000;\T1.000000;･\W1.000000;\T1.000000;定尺}\P{\W1.000000;\T1.000000;　　４０００\W0.500000;\T1.000000;m/m}
   7
GMM002
  44
 0.79999984000003
   0
MTEXT
   5
529
 100
AcDbEntity
   8
LEVEL002
 370
15
  62
8
 100
AcDbMText
  10
 324.99999999990
  20
 546.33333333335
  30
0.0
  40
 4.0000000000000
  41
0.0
  71
1
  72
1
   3
{\W0.500000;\T1.000000;･\W1.000000;\T1.000000;長尺シート／コンクリート}\P{\W0.500000;\T1.000000; \W1.000000;\T1.000000;石／木製用}\P\P{\W0.500000;\T1.000000;･\W1.000000;\T1.000000;フラットエンド－無}\P\P{\W0.500000;\T1.000000;･\W1.000000;\T1.000000;
   1
定尺}\P{\W1.000000;\T1.000000;　　４０００\W0.500000;\T1.000000;m/m}
   7
GMM002
  44
 0.79999984000003
   0
MTEXT
   5
52B
 100
AcDbEntity
   8
LEVEL002
 370
15
  62
8
 100
AcDbMText
  10
 35.999999999900
  20
 409.83333333340
  30
0.0
  40
 4.0000000000000
  41
0.0
  71
1
  72
1
   3
{\W0.500000;\T1.000000;･\W1.000000;\T1.000000;長尺シート用}\P{\W0.500000;\T1.000000;･\W1.000000;\T1.000000;インサート}\P{\W1.000000;\T1.000000;　　伸縮防止\W0.500000;\T1.000000;(\W1.000000;\T1.000000;糸入\W0.500000;\T1.000000;)}\P{\W1.000000;\T1.0000
   1
00;　　角型}\P\P{\W0.500000;\T1.000000;･\W1.000000;\T1.000000;フラットエンド－有}\P\P{\W0.500000;\T1.000000;･\W1.000000;\T1.000000;定尺}\P{\W1.000000;\T1.000000;　　４０００\W0.500000;\T1.000000;m/m}
   7
GMM002
  44
 0.79999984000003
   0
MTEXT
   5
52D
 100
AcDbEntity
   8
LEVEL002
 370
15
  62
8
 100
AcDbMText
  10
 180.49999999989
  20
 409.83333333340
  30
0.0
  40
 4.0000000000000
  41
0.0
  71
1
  72
1
   3
{\W0.500000;\T1.000000;･\W1.000000;\T1.000000;パンチカーペット}\P{\W1.000000;\T1.000000;　　タイルカーペット用}\P{\W0.500000;\T1.000000;･\W1.000000;\T1.000000;インサート}\P{\W1.000000;\T1.000000;　　Ｇ型}\P\P{\W0.500000;\T1.000000;･\W1.000000;\T1.000
   1
000;フラットエンド－有}\P\P{\W0.500000;\T1.000000;･\W1.000000;\T1.000000;定尺}\P{\W1.000000;\T1.000000;　　４０００\W0.500000;\T1.000000;m/m}
   7
GMM002
  44
 0.79999984000003
   0
MTEXT
   5
52F
 100
AcDbEntity
   8
LEVEL002
 370
15
  62
8
 100
AcDbMText
  10
 324.99999999989
  20
 409.83333333340
  30
0.0
  40
 4.0000000000000
  41
0.0
  71
1
  72
1
   3
{\W0.500000;\T1.000000;･\W1.000000;\T1.000000;パンチカーペット}\P{\W1.000000;\T1.000000;　　タイルカーペット用}\P{\W0.500000;\T1.000000;･\W1.000000;\T1.000000;インサート}\P{\W1.000000;\T1.000000;　　Ｋ型}\P\P{\W0.500000;\T1.000000;･\W1.000000;\T1.000
   1
000;フラットエンド－無}\P\P{\W0.500000;\T1.000000;･\W1.000000;\T1.000000;定尺}\P{\W1.000000;\T1.000000;　　４０００\W0.500000;\T1.000000;m/m}
   7
GMM002
  44
 0.79999984000003
   0
MTEXT
   5
531
 100
AcDbEntity
   8
LEVEL002
 370
15
  62
8
 100
AcDbMText
  10
 35.999999999900
  20
 273.33333333333
  30
0.0
  40
 4.0000000000000
  41
0.0
  71
1
  72
1
   3
{\W0.500000;\T1.000000;･\W1.000000;\T1.000000;長尺シート用}\P{\W0.500000;\T1.000000;･\W1.000000;\T1.000000;リフレッシュタイプ}\P{\W0.500000;\T1.000000;･\W1.000000;\T1.000000;インサート}\P{\W1.000000;\T1.000000;　　角型}\P\P{\W0.500000;\T1.000000;･\W1
   1
.000000;\T1.000000;フラットエンド－有}\P\P{\W0.500000;\T1.000000;･\W1.000000;\T1.000000;定尺}\P{\W1.000000;\T1.000000;　　４０００\W0.500000;\T1.000000;m/m}
   7
GMM002
  44
 0.79999984000003
   0
MTEXT
   5
533
 100
AcDbEntity
   8
LEVEL002
 370
15
  62
8
 100
AcDbMText
  10
 247.74999999989
  20
 423.50000000000
  30
0.0
  40
 6.0000000000000
  41
0.0
  71
5
  72
1
   1
\T1.000000;Ｎ４０ＰＧ
   7
GMM002
  44
 0.79999984000003
   0
MTEXT
   5
535
 100
AcDbEntity
   8
LEVEL002
 370
15
  62
8
 100
AcDbMText
  10
 392.24999999989
  20
 423.50000000000
  30
0.0
  40
 6.0000000000000
  41
0.0
  71
5
  72
1
   1
\T1.000000;Ｎ４０ＰＫ
   7
GMM002
  44
 0.79999984000003
   0
ENDSEC
  0
SECTION
  2
OBJECTS
  0
DICTIONARY
  5
C
100
AcDbDictionary
  3
ACAD_GROUP
350
D
  3
ACAD_MLINESTYLE
350
1B
  3
DWGPROPS
350
1C
  0
DICTIONARY
  5
D
102
{ACAD_REACTORS
330
C
102
}
100
AcDbDictionary
  0
DICTIONARY
  5
1B
102
{ACAD_REACTORS
330
C
102
}
100
AcDbDictionary
  3
STANDARD
350
1D
  0
MLINESTYLE
  5
1D
102
{ACAD_REACTORS
330
1B
102
}
100
AcDbMlineStyle
  2
STANDARD
 70
     0
  3

 62
   256
 51
90.0
 52
90.0
 71
     2
 49
0.5
 62
   256
  6
BYLAYER
 49
-0.5
 62
   256
  6
BYLAYER
   0
XRECORD
   5
1C
 102
{ACAD_REACTORS
 330
C
 102
}
 330
C
 100
AcDbXrecord
 280
1
   1
DWGPROPS COOKIE
   2
 
   3
 
   4
 
   6
 
   7
00000000.DRW
   8
 
   9

 300
 = 
 301
 = 
 302
 = 
 303
 = 
 304
 = 
 305
 = 
 306
 = 
 307
 = 
 308
 = 
 309
 = 
  40
0.0
  41
 2460114.5000000
  42
 2460114.5000000
   1

  90
10
   0
ENDSEC
   0
EOF
