   0
SECTION
   2
HEADER
   9
$ACADVER
   1
AC1015
   9
$DWGCODEPAGE
   3
ANSI_932
   9
$LIMMIN
  10
0.0
  20
0.0
   9
$LIMMAX
  10
 420.00000000000
  20
 297.00000000000
   9
$EXTMIN
  10
0.0
  20
0.0
  30
0.0
   9
$EXTMAX
  10
 420.00000000000
  20
 297.00000000000
  30
0.0
   9
$LTSCALE
  40
 8.4000000000000
   9
$HANDSEED
   5
376
   0
ENDSEC
   0
SECTION
   2
TABLES
  0
TABLE
  2
VPORT
  5
8
100
AcDbSymbolTable
 70
     1
  0
VPORT
  5
375
100
AcDbSymbolTableRecord
100
AcDbViewportTableRecord
  2
*ACTIVE
 70
     0
 10
0.0
 20
0.0
 11
1.0
 21
1.0
  12
 210.00000000000
  22
 148.50000000000
 13
0.0
 23
0.0
 14
1.0
 24
1.0
 15
0.0
 25
0.0
 16
0.0
 26
0.0
 36
1.0
 17
0.0
 27
0.0
 37
0.0
  40
 420.00000000000
  41
 1.4787878787879
 42
50.0
 43
0.0
 44
0.0
 50
0.0
 51
0.0
 71
     0
 72
   100
 73
     1
 74
     1
 75
     0
 76
     0
 77
     0
 78
     0
  0
ENDTAB
  0
TABLE
  2
LTYPE
  5
5
100
AcDbSymbolTable
 70
    25
  0
LTYPE
  5
12
100
AcDbSymbolTableRecord
100
AcDbLinetypeTableRecord
  2
BYBLOCK
 70
     0
  3

 72
    65
 73
     0
 40
0.0
  0
LTYPE
  5
13
100
AcDbSymbolTableRecord
100
AcDbLinetypeTableRecord
  2
BYLAYER
 70
     0
  3

 72
    65
 73
     0
 40
0.0
  0
LTYPE
  5
14
100
AcDbSymbolTableRecord
100
AcDbLinetypeTableRecord
  2
CONTINUOUS
 70
     0
  3
Solid line
 72
    65
 73
     0
 40
0.0
  0
LTYPE
  5
20
100
AcDbSymbolTableRecord
100
AcDbLinetypeTableRecord
  2
BORDER
 70
     0
  3
__ __ . __ __ . __ __ . __ __ . __ __ . __ __ .
 72
    65
 73
     6
 40
1.75
 49
0.5
 74
     0
 49
-0.25
 74
     0
 49
0.5
 74
     0
 49
-0.25
 74
     0
 49
0.0
 74
     0
 49
-0.25
 74
     0
  0
LTYPE
  5
21
100
AcDbSymbolTableRecord
100
AcDbLinetypeTableRecord
  2
BORDER2
 70
     0
  3
__.__.__.__.__.__.__.__.__.__.__.__.__.__.__.__
 72
    65
 73
     6
 40
0.875
 49
0.25
 74
     0
 49
-0.125
 74
     0
 49
0.25
 74
     0
 49
-0.125
 74
     0
 49
0.0
 74
     0
 49
-0.125
 74
     0
  0
LTYPE
  5
22
100
AcDbSymbolTableRecord
100
AcDbLinetypeTableRecord
  2
BORDERX2
 70
     0
  3
____  ____  .  ____  ____  .  ____  ____  .  __
 72
    65
 73
     6
 40
3.5
 49
1.0
 74
     0
 49
-0.5
 74
     0
 49
1.0
 74
     0
 49
-0.5
 74
     0
 49
0.0
 74
     0
 49
-0.5
 74
     0
  0
LTYPE
  5
23
100
AcDbSymbolTableRecord
100
AcDbLinetypeTableRecord
  2
CENTER
 70
     0
  3
____ _ ____ _ ____ _ ____ _ ____ _ ____ _ ____ 
 72
    65
 73
     4
 40
2.0
 49
1.25
 74
     0
 49
-0.25
 74
     0
 49
0.25
 74
     0
 49
-0.25
 74
     0
  0
LTYPE
  5
24
100
AcDbSymbolTableRecord
100
AcDbLinetypeTableRecord
  2
CENTER2
 70
     0
  3
___ _ ___ _ ___ _ ___ _ ___ _ ___ _ ___ _ ___ _
 72
    65
 73
     4
 40
1.125
 49
0.75
 74
     0
 49
-0.125
 74
     0
 49
0.125
 74
     0
 49
-0.125
 74
     0
  0
LTYPE
  5
25
100
AcDbSymbolTableRecord
100
AcDbLinetypeTableRecord
  2
CENTERX2
 70
     0
  3
________  __  ________  __  ________  __  _____
 72
    65
 73
     4
 40
4.0
 49
2.5
 74
     0
 49
-0.5
 74
     0
 49
0.5
 74
     0
 49
-0.5
 74
     0
  0
LTYPE
  5
26
100
AcDbSymbolTableRecord
100
AcDbLinetypeTableRecord
  2
DASHDOT
 70
     0
  3
__ . __ . __ . __ . __ . __ . __ . __ . __ . __
 72
    65
 73
     4
 40
1.0
 49
0.5
 74
     0
 49
-0.25
 74
     0
 49
0.0
 74
     0
 49
-0.25
 74
     0
  0
LTYPE
  5
27
100
AcDbSymbolTableRecord
100
AcDbLinetypeTableRecord
  2
DASHDOT2
 70
     0
  3
_._._._._._._._._._._._._._._._._._._._._._._._
 72
    65
 73
     4
 40
0.5
 49
0.25
 74
     0
 49
-0.125
 74
     0
 49
0.0
 74
     0
 49
-0.125
 74
     0
  0
LTYPE
  5
28
100
AcDbSymbolTableRecord
100
AcDbLinetypeTableRecord
  2
DASHDOTX2
 70
     0
  3
____  .  ____  .  ____  .  ____  .  ____  .  __
 72
    65
 73
     4
 40
2.0
 49
1.0
 74
     0
 49
-0.5
 74
     0
 49
0.0
 74
     0
 49
-0.5
 74
     0
  0
LTYPE
  5
29
100
AcDbSymbolTableRecord
100
AcDbLinetypeTableRecord
  2
DASHED
 70
     0
  3
__ __ __ __ __ __ __ __ __ __ __ __ __ __ __ __
 72
    65
 73
     2
 40
0.75
 49
0.5
 74
     0
 49
-0.25
 74
     0
  0
LTYPE
  5
2A
100
AcDbSymbolTableRecord
100
AcDbLinetypeTableRecord
  2
DASHED2
 70
     0
  3
_ _ _ _ _ _ _ _ _ _ _ _ _ _ _ _ _ _ _ _ _ _ _ _
 72
    65
 73
     2
 40
0.375
 49
0.25
 74
     0
 49
-0.125
 74
     0
  0
LTYPE
  5
2B
100
AcDbSymbolTableRecord
100
AcDbLinetypeTableRecord
  2
DASHEDX2
 70
     0
  3
____  ____  ____  ____  ____  ____  ____  ____ 
 72
    65
 73
     2
 40
1.5
 49
1.0
 74
     0
 49
-0.5
 74
     0
  0
LTYPE
  5
2C
100
AcDbSymbolTableRecord
100
AcDbLinetypeTableRecord
  2
DIVIDE
 70
     0
  3
____ . . ____ . . ____ . . ____ . . ____ . . __
 72
    65
 73
     6
 40
1.25
 49
0.5
 74
     0
 49
-0.25
 74
     0
 49
0.0
 74
     0
 49
-0.25
 74
     0
 49
0.0
 74
     0
 49
-0.25
 74
     0
  0
LTYPE
  5
2D
100
AcDbSymbolTableRecord
100
AcDbLinetypeTableRecord
  2
DIVIDE2
 70
     0
  3
__..__..__..__..__..__..__..__..__..__..__..__.
 72
    65
 73
     6
 40
0.625
 49
0.25
 74
     0
 49
-0.125
 74
     0
 49
0.0
 74
     0
 49
-0.125
 74
     0
 49
0.0
 74
     0
 49
-0.125
 74
     0
  0
LTYPE
  5
2E
100
AcDbSymbolTableRecord
100
AcDbLinetypeTableRecord
  2
DIVIDEX2
 70
     0
  3
________  .  .  ________  .  .  ________  .  . 
 72
    65
 73
     6
 40
2.5
 49
1.0
 74
     0
 49
-0.5
 74
     0
 49
0.0
 74
     0
 49
-0.5
 74
     0
 49
0.0
 74
     0
 49
-0.5
 74
     0
  0
LTYPE
  5
2F
100
AcDbSymbolTableRecord
100
AcDbLinetypeTableRecord
  2
DOT
 70
     0
  3
. . . . . . . . . . . . . . . . . . . . . . . .
 72
    65
 73
     2
 40
0.25
 49
0.0
 74
     0
 49
-0.25
 74
     0
  0
LTYPE
  5
30
100
AcDbSymbolTableRecord
100
AcDbLinetypeTableRecord
  2
DOT2
 70
     0
  3
...............................................
 72
    65
 73
     2
 40
0.125
 49
0.0
 74
     0
 49
-0.125
 74
     0
  0
LTYPE
  5
31
100
AcDbSymbolTableRecord
100
AcDbLinetypeTableRecord
  2
DOTX2
 70
     0
  3
.  .  .  .  .  .  .  .  .  .  .  .  .  .  .  . 
 72
    65
 73
     2
 40
0.5
 49
0.0
 74
     0
 49
-0.5
 74
     0
  0
LTYPE
  5
32
100
AcDbSymbolTableRecord
100
AcDbLinetypeTableRecord
  2
HIDDEN
 70
     0
  3
__ __ __ __ __ __ __ __ __ __ __ __ __ __ __ __
 72
    65
 73
     2
 40
0.375
 49
0.25
 74
     0
 49
-0.125
 74
     0
  0
LTYPE
  5
33
100
AcDbSymbolTableRecord
100
AcDbLinetypeTableRecord
  2
HIDDEN2
 70
     0
  3
_ _ _ _ _ _ _ _ _ _ _ _ _ _ _ _ _ _ _ _ _ _ _ _
 72
    65
 73
     2
 40
0.1875
 49
0.125
 74
     0
 49
-0.0625
 74
     0
  0
LTYPE
  5
34
100
AcDbSymbolTableRecord
100
AcDbLinetypeTableRecord
  2
HIDDENX2
 70
     0
  3
____ ____ ____ ____ ____ ____ ____ ____ ____ __
 72
    65
 73
     2
 40
0.75
 49
0.5
 74
     0
 49
-0.25
 74
     0
  0
LTYPE
  5
35
100
AcDbSymbolTableRecord
100
AcDbLinetypeTableRecord
  2
PHANTOM
 70
     0
  3
______  __  __  ______  __  __  ______  __  __ 
 72
    65
 73
     6
 40
2.5
 49
1.25
 74
     0
 49
-0.25
 74
     0
 49
0.25
 74
     0
 49
-0.25
 74
     0
 49
0.25
 74
     0
 49
-0.25
 74
     0
  0
LTYPE
  5
36
100
AcDbSymbolTableRecord
100
AcDbLinetypeTableRecord
  2
PHANTOM2
 70
     0
  3
___ _ _ ___ _ _ ___ _ _ ___ _ _ ___ _ _ ___ _ _
 72
    65
 73
     6
 40
1.25
 49
0.625
 74
     0
 49
-0.125
 74
     0
 49
0.125
 74
     0
 49
-0.125
 74
     0
 49
0.125
 74
     0
 49
-0.125
 74
     0
  0
LTYPE
  5
37
100
AcDbSymbolTableRecord
100
AcDbLinetypeTableRecord
  2
PHANTOMX2
 70
     0
  3
____________    ____    ____    ____________   
 72
    65
 73
     6
 40
5.0
 49
2.5
 74
     0
 49
-0.5
 74
     0
 49
0.5
 74
     0
 49
-0.5
 74
     0
 49
0.5
 74
     0
 49
-0.5
 74
     0
  0
ENDTAB
   0
TABLE
   2
LAYER
   5
2
 100
AcDbSymbolTable
  70
4
   0
LAYER
   5
E
 100
AcDbSymbolTableRecord
 100
AcDbLayerTableRecord
   2
0
  70
0
  62
7
   6
CONTINUOUS
 390
30
   0
LAYER
   5
39
 100
AcDbSymbolTableRecord
 100
AcDbLayerTableRecord
   2
LEVEL001
  70
0
  62
7
   6
CONTINUOUS
 390
30
   0
LAYER
   5
3A
 100
AcDbSymbolTableRecord
 100
AcDbLayerTableRecord
   2
LEVEL002
  70
0
  62
7
   6
CONTINUOUS
 390
30
   0
LAYER
   5
3B
 100
AcDbSymbolTableRecord
 100
AcDbLayerTableRecord
   2
LEVEL003
  70
0
  62
7
   6
CONTINUOUS
 390
30
   0
ENDTAB
  0
TABLE
  2
STYLE
  5
3
100
AcDbSymbolTable
  70
6
  0
STYLE
  5
F
100
AcDbSymbolTableRecord
100
AcDbTextStyleTableRecord
  2
STANDARD
 70
     0
 40
0.0
 41
1.0
 50
0.0
 71
     0
 42
0.2
  3
TXT
  4
BIGFONT
  0
STYLE
  5
38
100
AcDbSymbolTableRecord
100
AcDbTextStyleTableRecord
  2
STANDARD1
 70
     4
 40
0.0
 41
1.0
 50
0.0
 71
     0
 42
0.2
  3
TXT
  4
BIGFONT
   0
STYLE
   5
3C
 100
AcDbSymbolTableRecord
 100
AcDbTextStyleTableRecord
   2
GMM001
  70
0
  40
0.0
  41
 0.80000000000000
  50
0.0
  71
     0
  42
1.0
   3
txt.shx
   4
bigfont.shx
   0
STYLE
   5
3D
 100
AcDbSymbolTableRecord
 100
AcDbTextStyleTableRecord
   2
GMM002
  70
0
  40
0.0
  41
 1.0000000000000
  50
0.0
  71
     0
  42
1.0
   3
txt.shx
   4
bigfont.shx
   0
STYLE
   5
3E
 100
AcDbSymbolTableRecord
 100
AcDbTextStyleTableRecord
   2
GMM003
  70
0
  40
0.0
  41
 1.0714285714286
  50
0.0
  71
     0
  42
1.0
   3
txt.shx
   4
bigfont.shx
   0
STYLE
   5
3F
 100
AcDbSymbolTableRecord
 100
AcDbTextStyleTableRecord
   2
GMM004
  70
0
  40
0.0
  41
 0.88888888888889
  50
0.0
  71
     0
  42
1.0
   3
txt.shx
   4
bigfont.shx
   0
ENDTAB
  0
TABLE
  2
VIEW
  5
6
100
AcDbSymbolTable
 70
     0
  0
ENDTAB
  0
TABLE
  2
UCS
  5
7
100
AcDbSymbolTable
 70
     0
  0
ENDTAB
  0
TABLE
  2
APPID
  5
9
100
AcDbSymbolTable
 70
     1
  0
APPID
  5
10
100
AcDbSymbolTableRecord
100
AcDbRegAppTableRecord
  2
ACAD
 70
     0
  0
ENDTAB
   0
TABLE
   2
DIMSTYLE
   5
A
 100
AcDbSymbolTable
  70
8
 100
AcDbDimStyleTable
  0
DIMSTYLE
105
1D
100
AcDbSymbolTableRecord
100
AcDbDimStyleTableRecord
  2
STANDARD
 70
     0
  3

  4

  5

  6

  7

 40
1.0
 41
0.18
 42
0.0625
 43
0.38
 44
0.18
 45
0.0
 46
0.0
 47
0.0
 48
0.0
140
0.18
141
0.09
142
0.0
143
25.4
144
1.0
145
0.0
146
1.0
147
0.09
 71
     0
 72
     0
 73
     1
 74
     1
 75
     0
 76
     0
 77
     0
 78
     0
170
     0
171
     2
172
     0
173
     0
174
     0
175
     0
176
     0
177
     0
178
     0
270
     2
271
     4
272
     4
273
     2
274
     2
340
F
275
     0
280
     0
281
     0
282
     0
283
     1
284
     0
285
     0
286
     0
287
     3
288
     0
   0
DIMSTYLE
 105
40
 100
AcDbSymbolTableRecord
 100
AcDbDimStyleTableRecord
   2
GMM001
  70
0
   3

   4

   5

   6

   7

  40
 1.0000000000000
  41
 2.0000000000000
  42
 1.0000000000000
  43
 8.0000000000000
  44
 1.0000000000000
  45
0.0
  46
0.0
  47
0.0
  48
0.0
 140
 3.0000000000000
 141
 1.0000000000000
 142
0.0
 143
 0.39400000000000E-1
 144
 1.0000000000000
 145
0.0
 146
 0.83333333333333
 147
 1.0000000000000
  71
0
  72
0
  73
0
  74
0
  75
0
  76
0
  77
3
  78
8
 170
0
 171
2
 172
1
 173
1
 174
0
 175
0
 176
8
 177
8
 178
8
 270
2
 271
6
 272
0
 273
2
 274
2
 340
3D
 275
1
 280
0
 281
0
 282
0
 283
1
 284
0
 285
0
 286
0
 287
3
 288
0
   0
DIMSTYLE
 105
41
 100
AcDbSymbolTableRecord
 100
AcDbDimStyleTableRecord
   2
GMM002
  70
0
   3

   4

   5

   6

   7

  40
 1.0000000000000
  41
 2.0000000000000
  42
 1.0000000000000
  43
 8.0000000000000
  44
 1.0000000000000
  45
0.0
  46
0.0
  47
0.0
  48
0.0
 140
 3.0000000000000
 141
 1.0000000000000
 142
0.0
 143
 0.39400000000000E-1
 144
 1.0000000000000
 145
0.0
 146
 0.83333333333333
 147
 0.82474758492981
  71
0
  72
0
  73
0
  74
0
  75
0
  76
0
  77
3
  78
8
 170
0
 171
2
 172
1
 173
1
 174
0
 175
0
 176
8
 177
8
 178
8
 270
2
 271
6
 272
0
 273
2
 274
2
 340
3D
 275
1
 280
0
 281
0
 282
0
 283
1
 284
0
 285
0
 286
0
 287
3
 288
1
   0
DIMSTYLE
 105
42
 100
AcDbSymbolTableRecord
 100
AcDbDimStyleTableRecord
   2
GMM003
  70
0
   3

   4

   5

   6

   7

  40
 1.0000000000000
  41
 2.0000000000000
  42
 1.0000000000000
  43
 8.0000000000000
  44
 1.0000000000000
  45
0.0
  46
0.0
  47
0.0
  48
0.0
 140
 3.0000000000000
 141
 1.0000000000000
 142
0.0
 143
 0.39400000000000E-1
 144
 1.0000000000000
 145
0.0
 146
 0.83333333333333
 147
0.0
  71
0
  72
0
  73
0
  74
0
  75
0
  76
0
  77
1
  78
8
 170
0
 171
2
 172
1
 173
1
 174
0
 175
0
 176
8
 177
8
 178
8
 270
2
 271
6
 272
0
 273
2
 274
2
 340
3D
 275
1
 280
0
 281
0
 282
0
 283
1
 284
0
 285
0
 286
0
 287
3
 288
0
   0
DIMSTYLE
 105
43
 100
AcDbSymbolTableRecord
 100
AcDbDimStyleTableRecord
   2
GMM004
  70
0
   3

   4

   5

   6

   7

  40
 1.0000000000000
  41
 2.0000000000000
  42
 1.0000000000000
  43
 8.0000000000000
  44
 1.0000000000000
  45
0.0
  46
0.0
  47
0.0
  48
0.0
 140
 3.0000000000000
 141
 1.0000000000000
 142
0.0
 143
 0.39400000000000E-1
 144
 1.0000000000000
 145
0.0
 146
 0.83333333333333
 147
 0.68423630467066
  71
0
  72
0
  73
0
  74
0
  75
0
  76
0
  77
3
  78
8
 170
0
 171
2
 172
1
 173
1
 174
0
 175
0
 176
8
 177
8
 178
8
 270
2
 271
6
 272
0
 273
2
 274
2
 340
3D
 275
1
 280
0
 281
0
 282
0
 283
1
 284
0
 285
0
 286
0
 287
3
 288
1
   0
DIMSTYLE
 105
44
 100
AcDbSymbolTableRecord
 100
AcDbDimStyleTableRecord
   2
GMM005
  70
0
   3
%%c<>
   4

   5

   6

   7

  40
 1.0000000000000
  41
 2.0000000000000
  42
 1.0000000000000
  43
 8.0000000000000
  44
 1.0000000000000
  45
0.0
  46
0.0
  47
0.0
  48
0.0
 140
 3.0000000000000
 141
 1.0000000000000
 142
0.0
 143
 0.39400000000000E-1
 144
 1.0000000000000
 145
0.0
 146
 0.83333333333333
 147
 1.0000000000000
  71
0
  72
0
  73
0
  74
0
  75
0
  76
0
  77
3
  78
8
 170
0
 171
2
 172
1
 173
1
 174
0
 175
0
 176
8
 177
8
 178
8
 270
2
 271
6
 272
0
 273
2
 274
2
 340
3D
 275
1
 280
0
 281
0
 282
0
 283
1
 284
0
 285
0
 286
0
 287
3
 288
0
   0
DIMSTYLE
 105
45
 100
AcDbSymbolTableRecord
 100
AcDbDimStyleTableRecord
   2
GMM006
  70
0
   3

   4

   5

   6

   7

  40
 1.0000000000000
  41
 2.0000000000000
  42
 1.0000000000000
  43
 8.0000000000000
  44
 1.0000000000000
  45
0.0
  46
0.0
  47
0.0
  48
0.0
 140
 3.0000000000000
 141
 1.0000000000000
 142
0.0
 143
 0.39400000000000E-1
 144
 1.0000000000000
 145
0.0
 146
 0.83333333333333
 147
 0.93117575110159
  71
0
  72
0
  73
0
  74
0
  75
0
  76
0
  77
3
  78
8
 170
0
 171
2
 172
1
 173
1
 174
0
 175
0
 176
8
 177
8
 178
8
 270
2
 271
6
 272
0
 273
2
 274
2
 340
3D
 275
1
 280
0
 281
0
 282
0
 283
1
 284
0
 285
0
 286
0
 287
3
 288
1
   0
ENDTAB
  0
TABLE
  2
BLOCK_RECORD
  5
1
100
AcDbSymbolTable
 70
     0
  0
BLOCK_RECORD
  5
18
100
AcDbSymbolTableRecord
100
AcDbBlockTableRecord
  2
*MODEL_SPACE
  0
BLOCK_RECORD
  5
15
100
AcDbSymbolTableRecord
100
AcDbBlockTableRecord
  2
*PAPER_SPACE
   0
BLOCK_RECORD
   5
46
 100
AcDbSymbolTableRecord
 100
AcDbBlockTableRecord
   2
*D1
   0
BLOCK_RECORD
   5
47
 100
AcDbSymbolTableRecord
 100
AcDbBlockTableRecord
   2
*D2
   0
BLOCK_RECORD
   5
48
 100
AcDbSymbolTableRecord
 100
AcDbBlockTableRecord
   2
*D4
   0
BLOCK_RECORD
   5
49
 100
AcDbSymbolTableRecord
 100
AcDbBlockTableRecord
   2
*D5
   0
BLOCK_RECORD
   5
4A
 100
AcDbSymbolTableRecord
 100
AcDbBlockTableRecord
   2
*D6
   0
BLOCK_RECORD
   5
4B
 100
AcDbSymbolTableRecord
 100
AcDbBlockTableRecord
   2
*D7
   0
BLOCK_RECORD
   5
4C
 100
AcDbSymbolTableRecord
 100
AcDbBlockTableRecord
   2
*D8
   0
BLOCK_RECORD
   5
4D
 100
AcDbSymbolTableRecord
 100
AcDbBlockTableRecord
   2
*D9
   0
BLOCK_RECORD
   5
4E
 100
AcDbSymbolTableRecord
 100
AcDbBlockTableRecord
   2
*D10
   0
BLOCK_RECORD
   5
4F
 100
AcDbSymbolTableRecord
 100
AcDbBlockTableRecord
   2
*D11
   0
BLOCK_RECORD
   5
50
 100
AcDbSymbolTableRecord
 100
AcDbBlockTableRecord
   2
*D12
   0
BLOCK_RECORD
   5
51
 100
AcDbSymbolTableRecord
 100
AcDbBlockTableRecord
   2
*D13
   0
BLOCK_RECORD
   5
52
 100
AcDbSymbolTableRecord
 100
AcDbBlockTableRecord
   2
*D14
   0
BLOCK_RECORD
   5
53
 100
AcDbSymbolTableRecord
 100
AcDbBlockTableRecord
   2
_ARCHTICK
   0
BLOCK_RECORD
   5
54
 100
AcDbSymbolTableRecord
 100
AcDbBlockTableRecord
   2
_BOXBLANK
   0
BLOCK_RECORD
   5
55
 100
AcDbSymbolTableRecord
 100
AcDbBlockTableRecord
   2
_BOXFILLED
   0
BLOCK_RECORD
   5
56
 100
AcDbSymbolTableRecord
 100
AcDbBlockTableRecord
   2
_CLOSED
   0
BLOCK_RECORD
   5
57
 100
AcDbSymbolTableRecord
 100
AcDbBlockTableRecord
   2
_CLOSEDBLANK
   0
BLOCK_RECORD
   5
58
 100
AcDbSymbolTableRecord
 100
AcDbBlockTableRecord
   2
_DATUMBLANK
   0
BLOCK_RECORD
   5
59
 100
AcDbSymbolTableRecord
 100
AcDbBlockTableRecord
   2
_DATUMFILLED
   0
BLOCK_RECORD
   5
5A
 100
AcDbSymbolTableRecord
 100
AcDbBlockTableRecord
   2
_DOT
   0
BLOCK_RECORD
   5
5B
 100
AcDbSymbolTableRecord
 100
AcDbBlockTableRecord
   2
_DOTBLANK
   0
BLOCK_RECORD
   5
5C
 100
AcDbSymbolTableRecord
 100
AcDbBlockTableRecord
   2
_DOTSMALL
   0
BLOCK_RECORD
   5
5D
 100
AcDbSymbolTableRecord
 100
AcDbBlockTableRecord
   2
_INTEGRAL
   0
BLOCK_RECORD
   5
5E
 100
AcDbSymbolTableRecord
 100
AcDbBlockTableRecord
   2
_NONE
   0
BLOCK_RECORD
   5
5F
 100
AcDbSymbolTableRecord
 100
AcDbBlockTableRecord
   2
_OBLIQUE
   0
BLOCK_RECORD
   5
60
 100
AcDbSymbolTableRecord
 100
AcDbBlockTableRecord
   2
_OPEN
   0
BLOCK_RECORD
   5
61
 100
AcDbSymbolTableRecord
 100
AcDbBlockTableRecord
   2
_OPEN30
   0
BLOCK_RECORD
   5
62
 100
AcDbSymbolTableRecord
 100
AcDbBlockTableRecord
   2
_OPEN90
   0
BLOCK_RECORD
   5
63
 100
AcDbSymbolTableRecord
 100
AcDbBlockTableRecord
   2
_ORIGIN
   0
ENDTAB
   0
ENDSEC
  0
SECTION
  2
BLOCKS
  0
BLOCK
  5
19
100
AcDbEntity
  8
0
100
AcDbBlockBegin
  2
*MODEL_SPACE
 70
     0
 10
0.0
 20
0.0
 30
0.0
  3
*MODEL_SPACE
  1

  0
ENDBLK
  5
1A
100
AcDbEntity
  8
0
100
AcDbBlockEnd
  0
BLOCK
  5
16
100
AcDbEntity
 67
     1
  8
0
100
AcDbBlockBegin
  2
*PAPER_SPACE
 70
     0
 10
0.0
 20
0.0
 30
0.0
  3
*PAPER_SPACE
  1

  0
ENDBLK
  5
17
100
AcDbEntity
 67
     1
  8
0
100
AcDbBlockEnd
   0
BLOCK
   5
64
 100
AcDbEntity
   8
0
 100
AcDbBlockBegin
   2
_ARCHTICK
  70
0
  10
0.0
  20
0.0
  30
0.0
   3
_ARCHTICK
   0
POLYLINE
   5
65
 100
AcDbEntity
   8
0
 370
-2
   6
BYBLOCK
  62
0
 100
AcDb2dPolyline
  66
1
  10
0.0
  20
0.0
  30
0.0
  70
1
  40
 0.15000000000000
  41
 0.15000000000000
   0
VERTEX
   5
66
 100
AcDbEntity
   8
0
   6
BYBLOCK
  62
0
 100
AcDbVertex
 100
AcDb2dVertex
  10
-0.50000000000000
  20
-0.50000000000000
  30
0.0
  40
 0.15000000000000
  41
 0.15000000000000
   0
VERTEX
   5
67
 100
AcDbEntity
   8
0
   6
BYBLOCK
  62
0
 100
AcDbVertex
 100
AcDb2dVertex
  10
 0.50000000000000
  20
 0.50000000000000
  30
0.0
  40
 0.15000000000000
  41
 0.15000000000000
   0
SEQEND
   5
68
 100
AcDbEntity
   8
0
   6
BYBLOCK
  62
0
   0
ENDBLK
   5
69
 100
AcDbEntity
   8
0
 100
AcDbBlockEnd
   0
BLOCK
   5
6A
 100
AcDbEntity
   8
0
 100
AcDbBlockBegin
   2
_OBLIQUE
  70
0
  10
0.0
  20
0.0
  30
0.0
   3
_OBLIQUE
   0
LINE
   5
6B
 100
AcDbEntity
   8
0
 370
-2
 100
AcDbLine
   6
BYBLOCK
  62
0
  10
-0.50000000000000
  20
-0.50000000000000
  30
0.0
  11
 0.50000000000000
  21
 0.50000000000000
  31
0.0
   0
ENDBLK
   5
6C
 100
AcDbEntity
   8
0
 100
AcDbBlockEnd
   0
BLOCK
   5
6D
 100
AcDbEntity
   8
0
 100
AcDbBlockBegin
   2
_BOXBLANK
  70
0
  10
0.0
  20
0.0
  30
0.0
   3
_BOXBLANK
   0
LINE
   5
6E
 100
AcDbEntity
   8
0
 370
-2
 100
AcDbLine
   6
BYBLOCK
  62
0
  10
-0.50000000000000
  20
-0.50000000000000
  30
0.0
  11
 0.50000000000000
  21
-0.50000000000000
  31
0.0
   0
LINE
   5
6F
 100
AcDbEntity
   8
0
 370
-2
 100
AcDbLine
   6
BYBLOCK
  62
0
  10
 0.50000000000000
  20
-0.50000000000000
  30
0.0
  11
 0.50000000000000
  21
 0.50000000000000
  31
0.0
   0
LINE
   5
70
 100
AcDbEntity
   8
0
 370
-2
 100
AcDbLine
   6
BYBLOCK
  62
0
  10
 0.50000000000000
  20
 0.50000000000000
  30
0.0
  11
-0.50000000000000
  21
 0.50000000000000
  31
0.0
   0
LINE
   5
71
 100
AcDbEntity
   8
0
 370
-2
 100
AcDbLine
   6
BYBLOCK
  62
0
  10
-0.50000000000000
  20
 0.50000000000000
  30
0.0
  11
-0.50000000000000
  21
-0.50000000000000
  31
0.0
   0
LINE
   5
72
 100
AcDbEntity
   8
0
 370
-2
 100
AcDbLine
   6
BYBLOCK
  62
0
  10
-0.50000000000000
  20
0.0
  30
0.0
  11
-1.0000000000000
  21
0.0
  31
0.0
   0
ENDBLK
   5
73
 100
AcDbEntity
   8
0
 100
AcDbBlockEnd
   0
BLOCK
   5
74
 100
AcDbEntity
   8
0
 100
AcDbBlockBegin
   2
_BOXFILLED
  70
0
  10
0.0
  20
0.0
  30
0.0
   3
_BOXFILLED
   0
SOLID
   5
75
 100
AcDbEntity
   8
0
 100
AcDbTrace
   6
BYBLOCK
  62
0
  10
-0.50000000000000
  20
 0.50000000000000
  30
0.0
  11
 0.50000000000000
  21
 0.50000000000000
  31
0.0
  12
-0.50000000000000
  22
-0.50000000000000
  32
0.0
  13
 0.50000000000000
  23
-0.50000000000000
  33
0.0
   0
LINE
   5
76
 100
AcDbEntity
   8
0
 370
-2
 100
AcDbLine
   6
BYBLOCK
  62
0
  10
-0.50000000000000
  20
0.0
  30
0.0
  11
-1.0000000000000
  21
0.0
  31
0.0
   0
ENDBLK
   5
77
 100
AcDbEntity
   8
0
 100
AcDbBlockEnd
   0
BLOCK
   5
78
 100
AcDbEntity
   8
0
 100
AcDbBlockBegin
   2
_CLOSED
  70
0
  10
0.0
  20
0.0
  30
0.0
   3
_CLOSED
   0
LINE
   5
79
 100
AcDbEntity
   8
0
 370
-2
 100
AcDbLine
   6
BYBLOCK
  62
0
  10
-1.0000000000000
  20
 0.16666666666667
  30
0.0
  11
0.0
  21
0.0
  31
0.0
   0
LINE
   5
7A
 100
AcDbEntity
   8
0
 370
-2
 100
AcDbLine
   6
BYBLOCK
  62
0
  10
0.0
  20
0.0
  30
0.0
  11
-1.0000000000000
  21
-0.16666666666667
  31
0.0
   0
LINE
   5
7B
 100
AcDbEntity
   8
0
 370
-2
 100
AcDbLine
   6
BYBLOCK
  62
0
  10
-1.0000000000000
  20
 0.16666666666667
  30
0.0
  11
-1.0000000000000
  21
-0.16666666666667
  31
0.0
   0
LINE
   5
7C
 100
AcDbEntity
   8
0
 370
-2
 100
AcDbLine
   6
BYBLOCK
  62
0
  10
0.0
  20
0.0
  30
0.0
  11
-1.0000000000000
  21
0.0
  31
0.0
   0
ENDBLK
   5
7D
 100
AcDbEntity
   8
0
 100
AcDbBlockEnd
   0
BLOCK
   5
7E
 100
AcDbEntity
   8
0
 100
AcDbBlockBegin
   2
_OPEN
  70
0
  10
0.0
  20
0.0
  30
0.0
   3
_OPEN
   0
LINE
   5
7F
 100
AcDbEntity
   8
0
 370
-2
 100
AcDbLine
   6
BYBLOCK
  62
0
  10
-1.0000000000000
  20
 0.16666666666667
  30
0.0
  11
0.0
  21
0.0
  31
0.0
   0
LINE
   5
80
 100
AcDbEntity
   8
0
 370
-2
 100
AcDbLine
   6
BYBLOCK
  62
0
  10
0.0
  20
0.0
  30
0.0
  11
-1.0000000000000
  21
-0.16666666666667
  31
0.0
   0
LINE
   5
81
 100
AcDbEntity
   8
0
 370
-2
 100
AcDbLine
   6
BYBLOCK
  62
0
  10
0.0
  20
0.0
  30
0.0
  11
-1.0000000000000
  21
0.0
  31
0.0
   0
ENDBLK
   5
82
 100
AcDbEntity
   8
0
 100
AcDbBlockEnd
   0
BLOCK
   5
83
 100
AcDbEntity
   8
0
 100
AcDbBlockBegin
   2
_OPEN30
  70
0
  10
0.0
  20
0.0
  30
0.0
   3
_OPEN30
   0
LINE
   5
84
 100
AcDbEntity
   8
0
 370
-2
 100
AcDbLine
   6
BYBLOCK
  62
0
  10
-1.0000000000000
  20
 0.26794919243110
  30
0.0
  11
0.0
  21
0.0
  31
0.0
   0
LINE
   5
85
 100
AcDbEntity
   8
0
 370
-2
 100
AcDbLine
   6
BYBLOCK
  62
0
  10
0.0
  20
0.0
  30
0.0
  11
-1.0000000000000
  21
-0.26794919243110
  31
0.0
   0
LINE
   5
86
 100
AcDbEntity
   8
0
 370
-2
 100
AcDbLine
   6
BYBLOCK
  62
0
  10
0.0
  20
0.0
  30
0.0
  11
-1.0000000000000
  21
0.0
  31
0.0
   0
ENDBLK
   5
87
 100
AcDbEntity
   8
0
 100
AcDbBlockEnd
   0
BLOCK
   5
88
 100
AcDbEntity
   8
0
 100
AcDbBlockBegin
   2
_OPEN90
  70
0
  10
0.0
  20
0.0
  30
0.0
   3
_OPEN90
   0
LINE
   5
89
 100
AcDbEntity
   8
0
 370
-2
 100
AcDbLine
   6
BYBLOCK
  62
0
  10
-0.50000000000000
  20
 0.50000000000000
  30
0.0
  11
0.0
  21
0.0
  31
0.0
   0
LINE
   5
8A
 100
AcDbEntity
   8
0
 370
-2
 100
AcDbLine
   6
BYBLOCK
  62
0
  10
0.0
  20
0.0
  30
0.0
  11
-0.50000000000000
  21
-0.50000000000000
  31
0.0
   0
LINE
   5
8B
 100
AcDbEntity
   8
0
 370
-2
 100
AcDbLine
   6
BYBLOCK
  62
0
  10
0.0
  20
0.0
  30
0.0
  11
-1.0000000000000
  21
0.0
  31
0.0
   0
ENDBLK
   5
8C
 100
AcDbEntity
   8
0
 100
AcDbBlockEnd
   0
BLOCK
   5
8D
 100
AcDbEntity
   8
0
 100
AcDbBlockBegin
   2
_CLOSEDBLANK
  70
0
  10
0.0
  20
0.0
  30
0.0
   3
_CLOSEDBLANK
   0
LINE
   5
8E
 100
AcDbEntity
   8
0
 370
-2
 100
AcDbLine
   6
BYBLOCK
  62
0
  10
-1.0000000000000
  20
 0.16666666666667
  30
0.0
  11
0.0
  21
0.0
  31
0.0
   0
LINE
   5
8F
 100
AcDbEntity
   8
0
 370
-2
 100
AcDbLine
   6
BYBLOCK
  62
0
  10
0.0
  20
0.0
  30
0.0
  11
-1.0000000000000
  21
-0.16666666666667
  31
0.0
   0
LINE
   5
90
 100
AcDbEntity
   8
0
 370
-2
 100
AcDbLine
   6
BYBLOCK
  62
0
  10
-1.0000000000000
  20
 0.16666666666667
  30
0.0
  11
-1.0000000000000
  21
-0.16666666666667
  31
0.0
   0
ENDBLK
   5
91
 100
AcDbEntity
   8
0
 100
AcDbBlockEnd
   0
BLOCK
   5
92
 100
AcDbEntity
   8
0
 100
AcDbBlockBegin
   2
_DOT
  70
0
  10
0.0
  20
0.0
  30
0.0
   3
_DOT
   0
POLYLINE
   5
93
 100
AcDbEntity
   8
0
 370
-2
   6
BYBLOCK
  62
0
 100
AcDb2dPolyline
  66
1
  10
0.0
  20
0.0
  30
0.0
  70
1
  40
 0.50000000000000
  41
 0.50000000000000
   0
VERTEX
   5
94
 100
AcDbEntity
   8
0
   6
BYBLOCK
  62
0
 100
AcDbVertex
 100
AcDb2dVertex
  10
-0.25000000000000
  20
0.0
  30
0.0
  42
 1.0000000000000
  40
 0.50000000000000
  41
 0.50000000000000
   0
VERTEX
   5
95
 100
AcDbEntity
   8
0
   6
BYBLOCK
  62
0
 100
AcDbVertex
 100
AcDb2dVertex
  10
 0.25000000000000
  20
0.0
  30
0.0
  42
 1.0000000000000
  40
 0.50000000000000
  41
 0.50000000000000
   0
SEQEND
   5
96
 100
AcDbEntity
   8
0
   6
BYBLOCK
  62
0
   0
LINE
   5
97
 100
AcDbEntity
   8
0
 370
-2
 100
AcDbLine
   6
BYBLOCK
  62
0
  10
-0.50000000000000
  20
0.0
  30
0.0
  11
-1.0000000000000
  21
0.0
  31
0.0
   0
ENDBLK
   5
98
 100
AcDbEntity
   8
0
 100
AcDbBlockEnd
   0
BLOCK
   5
99
 100
AcDbEntity
   8
0
 100
AcDbBlockBegin
   2
_DOTSMALL
  70
0
  10
0.0
  20
0.0
  30
0.0
   3
_DOTSMALL
   0
POLYLINE
   5
9A
 100
AcDbEntity
   8
0
 370
-2
   6
BYBLOCK
  62
0
 100
AcDb2dPolyline
  66
1
  10
0.0
  20
0.0
  30
0.0
  70
1
  40
 0.50000000000000
  41
 0.50000000000000
   0
VERTEX
   5
9B
 100
AcDbEntity
   8
0
   6
BYBLOCK
  62
0
 100
AcDbVertex
 100
AcDb2dVertex
  10
-0.62500000000000E-1
  20
0.0
  30
0.0
  42
 1.0000000000000
  40
 0.50000000000000
  41
 0.50000000000000
   0
VERTEX
   5
9C
 100
AcDbEntity
   8
0
   6
BYBLOCK
  62
0
 100
AcDbVertex
 100
AcDb2dVertex
  10
 0.62500000000000E-1
  20
0.0
  30
0.0
  42
 1.0000000000000
  40
 0.50000000000000
  41
 0.50000000000000
   0
SEQEND
   5
9D
 100
AcDbEntity
   8
0
   6
BYBLOCK
  62
0
   0
ENDBLK
   5
9E
 100
AcDbEntity
   8
0
 100
AcDbBlockEnd
   0
BLOCK
   5
9F
 100
AcDbEntity
   8
0
 100
AcDbBlockBegin
   2
_DATUMBLANK
  70
0
  10
0.0
  20
0.0
  30
0.0
   3
_DATUMBLANK
   0
LINE
   5
A0
 100
AcDbEntity
   8
0
 370
-2
 100
AcDbLine
   6
BYBLOCK
  62
0
  10
0.0
  20
 0.57735027000000
  30
0.0
  11
-1.0000000000000
  21
0.0
  31
0.0
   0
LINE
   5
A1
 100
AcDbEntity
   8
0
 370
-2
 100
AcDbLine
   6
BYBLOCK
  62
0
  10
-1.0000000000000
  20
0.0
  30
0.0
  11
0.0
  21
-0.57735027000000
  31
0.0
   0
LINE
   5
A2
 100
AcDbEntity
   8
0
 370
-2
 100
AcDbLine
   6
BYBLOCK
  62
0
  10
0.0
  20
-0.57735027000000
  30
0.0
  11
0.0
  21
 0.57735027000000
  31
0.0
   0
ENDBLK
   5
A3
 100
AcDbEntity
   8
0
 100
AcDbBlockEnd
   0
BLOCK
   5
A4
 100
AcDbEntity
   8
0
 100
AcDbBlockBegin
   2
_DATUMFILLED
  70
0
  10
0.0
  20
0.0
  30
0.0
   3
_DATUMFILLED
   0
SOLID
   5
A5
 100
AcDbEntity
   8
0
 100
AcDbTrace
   6
BYBLOCK
  62
0
  10
0.0
  20
 0.57735027000000
  30
0.0
  11
-1.0000000000000
  21
0.0
  31
0.0
  12
0.0
  22
-0.57735027000000
  32
0.0
  13
0.0
  23
-0.57735027000000
  33
0.0
   0
ENDBLK
   5
A6
 100
AcDbEntity
   8
0
 100
AcDbBlockEnd
   0
BLOCK
   5
A7
 100
AcDbEntity
   8
0
 100
AcDbBlockBegin
   2
_ORIGIN
  70
0
  10
0.0
  20
0.0
  30
0.0
   3
_ORIGIN
   0
CIRCLE
   5
A8
 100
AcDbEntity
   8
0
 370
-2
 100
AcDbCircle
   6
BYBLOCK
  62
0
  10
0.0
  20
0.0
  30
0.0
  40
 0.50000000000000
   0
LINE
   5
A9
 100
AcDbEntity
   8
0
 370
-2
 100
AcDbLine
   6
BYBLOCK
  62
0
  10
0.0
  20
0.0
  30
0.0
  11
-1.0000000000000
  21
0.0
  31
0.0
   0
ENDBLK
   5
AA
 100
AcDbEntity
   8
0
 100
AcDbBlockEnd
   0
BLOCK
   5
AB
 100
AcDbEntity
   8
0
 100
AcDbBlockBegin
   2
_NONE
  70
0
  10
0.0
  20
0.0
  30
0.0
   3
_NONE
   0
CIRCLE
   5
AC
 100
AcDbEntity
   8
0
 370
-2
 100
AcDbCircle
   6
BYBLOCK
  62
0
  10
0.0
  20
0.0
  30
0.0
  40
 0.25000000000000
   0
ENDBLK
   5
AD
 100
AcDbEntity
   8
0
 100
AcDbBlockEnd
   0
BLOCK
   5
AE
 100
AcDbEntity
   8
0
 100
AcDbBlockBegin
   2
_DOTBLANK
  70
0
  10
0.0
  20
0.0
  30
0.0
   3
_DOTBLANK
   0
CIRCLE
   5
AF
 100
AcDbEntity
   8
0
 370
-2
 100
AcDbCircle
   6
BYBLOCK
  62
0
  10
0.0
  20
0.0
  30
0.0
  40
 0.50000000000000
   0
LINE
   5
B0
 100
AcDbEntity
   8
0
 370
-2
 100
AcDbLine
   6
BYBLOCK
  62
0
  10
-0.50000000000000
  20
0.0
  30
0.0
  11
-1.0000000000000
  21
0.0
  31
0.0
   0
ENDBLK
   5
B1
 100
AcDbEntity
   8
0
 100
AcDbBlockEnd
   0
BLOCK
   5
B2
 100
AcDbEntity
   8
0
 100
AcDbBlockBegin
   2
_INTEGRAL
  70
0
  10
0.0
  20
0.0
  30
0.0
   3
_INTEGRAL
   0
ARC
   5
B3
 100
AcDbEntity
   8
0
 370
-2
   6
BYBLOCK
  62
0
 100
AcDbCircle
  10
 0.44488800000000
  20
-0.91335000000000E-1
  30
0.0
  40
 0.45416700000000
 100
AcDbArc
  50
 102.00000000000
  51
 168.00000000000
   0
ARC
   5
B4
 100
AcDbEntity
   8
0
 370
-2
   6
BYBLOCK
  62
0
 100
AcDbCircle
  10
-0.44488800000000
  20
 0.91335000000000E-1
  30
0.0
  40
 0.45416700000000
 100
AcDbArc
  50
 282.00000000000
  51
 348.00000000000
   0
ENDBLK
   5
B5
 100
AcDbEntity
   8
0
 100
AcDbBlockEnd
   0
BLOCK
   5
B6
 100
AcDbEntity
   8
0
 100
AcDbBlockBegin
   2
*D1
  70
65
  10
0.0
  20
0.0
  30
0.0
   3
*D1
   0
LINE
   5
B7
 100
AcDbEntity
   8
LEVEL001
 370
15
 100
AcDbLine
   6
CONTINUOUS
  62
8
  10
 255.24049881235
  20
 150.22231246252
  30
0.0
  11
 255.24049881235
  21
 140.22231246252
  31
0.0
   0
LINE
   5
B8
 100
AcDbEntity
   8
LEVEL001
 370
15
 100
AcDbLine
   6
CONTINUOUS
  62
8
  10
 279.24049881235
  20
 150.22231246252
  30
0.0
  11
 279.24049881235
  21
 140.22231246252
  31
0.0
   0
LINE
   5
B9
 100
AcDbEntity
   8
LEVEL001
 370
15
 100
AcDbLine
   6
CONTINUOUS
  62
8
  10
 255.24049881235
  20
 141.22231246252
  30
0.0
  11
 267.24049881235
  21
 141.22231246252
  31
0.0
   0
LINE
   5
BA
 100
AcDbEntity
   8
LEVEL001
 370
15
 100
AcDbLine
   6
CONTINUOUS
  62
8
  10
 279.24049881235
  20
 141.22231246252
  30
0.0
  11
 267.24049881235
  21
 141.22231246252
  31
0.0
   0
SOLID
   5
BB
 100
AcDbEntity
   8
LEVEL001
 100
AcDbTrace
   6
CONTINUOUS
  62
8
  10
 255.24049881235
  20
 141.22231246252
  30
0.0
  11
 257.24049881235
  21
 140.86965850111
  31
0.0
  12
 257.24049881235
  22
 141.57496642394
  32
0.0
  13
 257.24049881235
  23
 141.57496642394
  33
0.0
   0
SOLID
   5
BC
 100
AcDbEntity
   8
LEVEL001
 100
AcDbTrace
   6
CONTINUOUS
  62
8
  10
 279.24049881235
  20
 141.22231246252
  30
0.0
  11
 277.24049881235
  21
 141.57496642394
  31
0.0
  12
 277.24049881235
  22
 140.86965850111
  32
0.0
  13
 277.24049881235
  23
 140.86965850111
  33
0.0
   0
MTEXT
   5
BD
 100
AcDbEntity
   8
LEVEL001
 370
15
  62
8
 100
AcDbMText
  10
 267.24049881235
  20
 142.22231246252
  30
0.0
  40
 3.0000000000000
  41
0.0
  71
8
  72
1
   1
\A1;24
   7
GMM002
   0
ENDBLK
   5
BE
 100
AcDbEntity
   8
0
 100
AcDbBlockEnd
   0
BLOCK
   5
BF
 100
AcDbEntity
   8
0
 100
AcDbBlockBegin
   2
*D2
  70
65
  10
0.0
  20
0.0
  30
0.0
   3
*D2
   0
LINE
   5
C0
 100
AcDbEntity
   8
LEVEL001
 370
15
 100
AcDbLine
   6
CONTINUOUS
  62
8
  10
 280.24049881235
  20
 151.22231246252
  30
0.0
  11
 290.64049881235
  21
 151.22231246252
  31
0.0
   0
LINE
   5
C1
 100
AcDbEntity
   8
LEVEL001
 370
15
 100
AcDbLine
   6
CONTINUOUS
  62
8
  10
 280.64049881235
  20
 155.22231246252
  30
0.0
  11
 290.64049881235
  21
 155.22231246252
  31
0.0
   0
LINE
   5
C2
 100
AcDbEntity
   8
LEVEL001
 370
15
 100
AcDbLine
   6
CONTINUOUS
  62
8
  10
 289.64049881235
  20
 146.59337315586
  30
0.0
  11
 289.64049881235
  21
 153.22231246252
  31
0.0
   0
LINE
   5
C3
 100
AcDbEntity
   8
LEVEL001
 370
15
 100
AcDbLine
   6
CONTINUOUS
  62
8
  10
 289.64049881235
  20
 157.72231246252
  30
0.0
  11
 289.64049881235
  21
 153.22231246252
  31
0.0
   0
SOLID
   5
C4
 100
AcDbEntity
   8
LEVEL001
 100
AcDbTrace
   6
CONTINUOUS
  62
8
  10
 289.64049881235
  20
 151.22231246252
  30
0.0
  11
 289.28784485093
  21
 149.22231246252
  31
0.0
  12
 289.99315277377
  22
 149.22231246252
  32
0.0
  13
 289.99315277377
  23
 149.22231246252
  33
0.0
   0
SOLID
   5
C5
 100
AcDbEntity
   8
LEVEL001
 100
AcDbTrace
   6
CONTINUOUS
  62
8
  10
 289.64049881235
  20
 155.22231246252
  30
0.0
  11
 289.99315277377
  21
 157.22231246252
  31
0.0
  12
 289.28784485093
  22
 157.22231246252
  32
0.0
  13
 289.28784485093
  23
 157.22231246252
  33
0.0
   0
MTEXT
   5
C6
 100
AcDbEntity
   8
LEVEL001
 370
15
  62
8
 100
AcDbMText
  10
 288.81575122742
  20
 149.59337315586
  30
0.0
  40
 3.0000000000000
  41
0.0
  71
9
  72
1
   1
\A1;4
   7
GMM002
  11
0.0
  21
 1.0000000000000
  31
0.0
   0
ENDBLK
   5
C7
 100
AcDbEntity
   8
0
 100
AcDbBlockEnd
   0
BLOCK
   5
C8
 100
AcDbEntity
   8
0
 100
AcDbBlockBegin
   2
*D4
  70
65
  10
0.0
  20
0.0
  30
0.0
   3
*D4
   0
LINE
   5
C9
 100
AcDbEntity
   8
LEVEL001
 370
15
 100
AcDbLine
   6
CONTINUOUS
  62
8
  10
 216.21971496437
  20
 151.22231246252
  30
0.0
  11
 226.21971496437
  21
 151.22231246252
  31
0.0
   0
LINE
   5
CA
 100
AcDbEntity
   8
LEVEL001
 370
15
 100
AcDbLine
   6
CONTINUOUS
  62
8
  10
 216.21971496437
  20
 155.22231246252
  30
0.0
  11
 226.21971496437
  21
 155.22231246252
  31
0.0
   0
LINE
   5
CB
 100
AcDbEntity
   8
LEVEL001
 370
15
 100
AcDbLine
   6
CONTINUOUS
  62
8
  10
 225.21971496437
  20
 145.77975736023
  30
0.0
  11
 225.21971496437
  21
 153.22231246252
  31
0.0
   0
LINE
   5
CC
 100
AcDbEntity
   8
LEVEL001
 370
15
 100
AcDbLine
   6
CONTINUOUS
  62
8
  10
 225.21971496437
  20
 157.72231246252
  30
0.0
  11
 225.21971496437
  21
 153.22231246252
  31
0.0
   0
SOLID
   5
CD
 100
AcDbEntity
   8
LEVEL001
 100
AcDbTrace
   6
CONTINUOUS
  62
8
  10
 225.21971496437
  20
 151.22231246252
  30
0.0
  11
 224.86706100295
  21
 149.22231246252
  31
0.0
  12
 225.57236892579
  22
 149.22231246252
  32
0.0
  13
 225.57236892579
  23
 149.22231246252
  33
0.0
   0
SOLID
   5
CE
 100
AcDbEntity
   8
LEVEL001
 100
AcDbTrace
   6
CONTINUOUS
  62
8
  10
 225.21971496437
  20
 155.22231246252
  30
0.0
  11
 225.57236892579
  21
 157.22231246252
  31
0.0
  12
 224.86706100295
  22
 157.22231246252
  32
0.0
  13
 224.86706100295
  23
 157.22231246252
  33
0.0
   0
MTEXT
   5
CF
 100
AcDbEntity
   8
LEVEL001
 370
15
  62
8
 100
AcDbMText
  10
 224.53547865970
  20
 148.77975736023
  30
0.0
  40
 3.0000000000000
  41
0.0
  71
9
  72
1
   1
\A1;4
   7
GMM002
  11
0.0
  21
 1.0000000000000
  31
0.0
   0
ENDBLK
   5
D0
 100
AcDbEntity
   8
0
 100
AcDbBlockEnd
   0
BLOCK
   5
D1
 100
AcDbEntity
   8
0
 100
AcDbBlockBegin
   2
*D5
  70
65
  10
0.0
  20
0.0
  30
0.0
   3
*D5
   0
LINE
   5
D2
 100
AcDbEntity
   8
LEVEL001
 370
15
 100
AcDbLine
   6
CONTINUOUS
  62
8
  10
 191.21971496437
  20
 150.22231246252
  30
0.0
  11
 191.21971496437
  21
 140.22231246252
  31
0.0
   0
LINE
   5
D3
 100
AcDbEntity
   8
LEVEL001
 370
15
 100
AcDbLine
   6
CONTINUOUS
  62
8
  10
 215.21971496437
  20
 150.22231246252
  30
0.0
  11
 215.21971496437
  21
 140.22231246252
  31
0.0
   0
LINE
   5
D4
 100
AcDbEntity
   8
LEVEL001
 370
15
 100
AcDbLine
   6
CONTINUOUS
  62
8
  10
 191.21971496437
  20
 141.22231246252
  30
0.0
  11
 203.21971496437
  21
 141.22231246252
  31
0.0
   0
LINE
   5
D5
 100
AcDbEntity
   8
LEVEL001
 370
15
 100
AcDbLine
   6
CONTINUOUS
  62
8
  10
 215.21971496437
  20
 141.22231246252
  30
0.0
  11
 203.21971496437
  21
 141.22231246252
  31
0.0
   0
SOLID
   5
D6
 100
AcDbEntity
   8
LEVEL001
 100
AcDbTrace
   6
CONTINUOUS
  62
8
  10
 191.21971496437
  20
 141.22231246252
  30
0.0
  11
 193.21971496437
  21
 140.86965850111
  31
0.0
  12
 193.21971496437
  22
 141.57496642394
  32
0.0
  13
 193.21971496437
  23
 141.57496642394
  33
0.0
   0
SOLID
   5
D7
 100
AcDbEntity
   8
LEVEL001
 100
AcDbTrace
   6
CONTINUOUS
  62
8
  10
 215.21971496437
  20
 141.22231246252
  30
0.0
  11
 213.21971496437
  21
 141.57496642394
  31
0.0
  12
 213.21971496437
  22
 140.86965850111
  32
0.0
  13
 213.21971496437
  23
 140.86965850111
  33
0.0
   0
MTEXT
   5
D8
 100
AcDbEntity
   8
LEVEL001
 370
15
  62
8
 100
AcDbMText
  10
 203.21971496437
  20
 142.22231246252
  30
0.0
  40
 3.0000000000000
  41
0.0
  71
8
  72
1
   1
\A1;%%c24
   7
GMM002
   0
ENDBLK
   5
D9
 100
AcDbEntity
   8
0
 100
AcDbBlockEnd
   0
BLOCK
   5
DA
 100
AcDbEntity
   8
0
 100
AcDbBlockBegin
   2
*D6
  70
65
  10
0.0
  20
0.0
  30
0.0
   3
*D6
   0
LINE
   5
DB
 100
AcDbEntity
   8
LEVEL001
 370
15
 100
AcDbLine
   6
CONTINUOUS
  62
8
  10
 150.08254156770
  20
 151.22231246252
  30
0.0
  11
 160.08254156770
  21
 151.22231246252
  31
0.0
   0
LINE
   5
DC
 100
AcDbEntity
   8
LEVEL001
 370
15
 100
AcDbLine
   6
CONTINUOUS
  62
8
  10
 150.08254156770
  20
 155.22231246252
  30
0.0
  11
 160.08254156770
  21
 155.22231246252
  31
0.0
   0
LINE
   5
DD
 100
AcDbEntity
   8
LEVEL001
 370
15
 100
AcDbLine
   6
CONTINUOUS
  62
8
  10
 159.08254156770
  20
 145.77975736023
  30
0.0
  11
 159.08254156770
  21
 153.22231246252
  31
0.0
   0
LINE
   5
DE
 100
AcDbEntity
   8
LEVEL001
 370
15
 100
AcDbLine
   6
CONTINUOUS
  62
8
  10
 159.08254156770
  20
 157.72231246252
  30
0.0
  11
 159.08254156770
  21
 153.22231246252
  31
0.0
   0
SOLID
   5
DF
 100
AcDbEntity
   8
LEVEL001
 100
AcDbTrace
   6
CONTINUOUS
  62
8
  10
 159.08254156770
  20
 151.22231246252
  30
0.0
  11
 158.72988760628
  21
 149.22231246252
  31
0.0
  12
 159.43519552911
  22
 149.22231246252
  32
0.0
  13
 159.43519552911
  23
 149.22231246252
  33
0.0
   0
SOLID
   5
E0
 100
AcDbEntity
   8
LEVEL001
 100
AcDbTrace
   6
CONTINUOUS
  62
8
  10
 159.08254156770
  20
 155.22231246252
  30
0.0
  11
 159.43519552911
  21
 157.22231246252
  31
0.0
  12
 158.72988760628
  22
 157.22231246252
  32
0.0
  13
 158.72988760628
  23
 157.22231246252
  33
0.0
   0
MTEXT
   5
E1
 100
AcDbEntity
   8
LEVEL001
 370
15
  62
8
 100
AcDbMText
  10
 158.39830526303
  20
 148.77975736023
  30
0.0
  40
 3.0000000000000
  41
0.0
  71
9
  72
1
   1
\A1;4
   7
GMM002
  11
0.0
  21
 1.0000000000000
  31
0.0
   0
ENDBLK
   5
E2
 100
AcDbEntity
   8
0
 100
AcDbBlockEnd
   0
BLOCK
   5
E3
 100
AcDbEntity
   8
0
 100
AcDbBlockBegin
   2
*D7
  70
65
  10
0.0
  20
0.0
  30
0.0
   3
*D7
   0
LINE
   5
E4
 100
AcDbEntity
   8
LEVEL001
 370
15
 100
AcDbLine
   6
CONTINUOUS
  62
8
  10
 125.08254156770
  20
 150.22231246252
  30
0.0
  11
 125.08254156770
  21
 140.22231246252
  31
0.0
   0
LINE
   5
E5
 100
AcDbEntity
   8
LEVEL001
 370
15
 100
AcDbLine
   6
CONTINUOUS
  62
8
  10
 149.08254156770
  20
 150.22231246252
  30
0.0
  11
 149.08254156770
  21
 140.22231246252
  31
0.0
   0
LINE
   5
E6
 100
AcDbEntity
   8
LEVEL001
 370
15
 100
AcDbLine
   6
CONTINUOUS
  62
8
  10
 125.08254156770
  20
 141.22231246252
  30
0.0
  11
 137.08254156770
  21
 141.22231246252
  31
0.0
   0
LINE
   5
E7
 100
AcDbEntity
   8
LEVEL001
 370
15
 100
AcDbLine
   6
CONTINUOUS
  62
8
  10
 149.08254156770
  20
 141.22231246252
  30
0.0
  11
 137.08254156770
  21
 141.22231246252
  31
0.0
   0
SOLID
   5
E8
 100
AcDbEntity
   8
LEVEL001
 100
AcDbTrace
   6
CONTINUOUS
  62
8
  10
 125.08254156770
  20
 141.22231246252
  30
0.0
  11
 127.08254156770
  21
 140.86965850111
  31
0.0
  12
 127.08254156770
  22
 141.57496642394
  32
0.0
  13
 127.08254156770
  23
 141.57496642394
  33
0.0
   0
SOLID
   5
E9
 100
AcDbEntity
   8
LEVEL001
 100
AcDbTrace
   6
CONTINUOUS
  62
8
  10
 149.08254156770
  20
 141.22231246252
  30
0.0
  11
 147.08254156770
  21
 141.57496642394
  31
0.0
  12
 147.08254156770
  22
 140.86965850111
  32
0.0
  13
 147.08254156770
  23
 140.86965850111
  33
0.0
   0
MTEXT
   5
EA
 100
AcDbEntity
   8
LEVEL001
 370
15
  62
8
 100
AcDbMText
  10
 137.08254156770
  20
 142.22231246252
  30
0.0
  40
 3.0000000000000
  41
0.0
  71
8
  72
1
   1
\A1;%%c24
   7
GMM002
   0
ENDBLK
   5
EB
 100
AcDbEntity
   8
0
 100
AcDbBlockEnd
   0
BLOCK
   5
EC
 100
AcDbEntity
   8
0
 100
AcDbBlockBegin
   2
*D8
  70
65
  10
0.0
  20
0.0
  30
0.0
   3
*D8
   0
LINE
   5
ED
 100
AcDbEntity
   8
LEVEL001
 370
15
 100
AcDbLine
   6
CONTINUOUS
  62
8
  10
 77.744986625650
  20
 145.22231246252
  30
0.0
  11
 97.744986625650
  21
 145.22231246252
  31
0.0
   0
LINE
   5
EE
 100
AcDbEntity
   8
LEVEL001
 370
15
 100
AcDbLine
   6
CONTINUOUS
  62
8
  10
 68.744986625650
  20
 155.22231246252
  30
0.0
  11
 97.744986625650
  21
 155.22231246252
  31
0.0
   0
LINE
   5
EF
 100
AcDbEntity
   8
LEVEL001
 370
15
 100
AcDbLine
   6
CONTINUOUS
  62
8
  10
 96.744986625650
  20
 145.22231246252
  30
0.0
  11
 96.744986625650
  21
 150.22231246252
  31
0.0
   0
LINE
   5
F0
 100
AcDbEntity
   8
LEVEL001
 370
15
 100
AcDbLine
   6
CONTINUOUS
  62
8
  10
 96.744986625650
  20
 155.22231246252
  30
0.0
  11
 96.744986625650
  21
 150.22231246252
  31
0.0
   0
SOLID
   5
F1
 100
AcDbEntity
   8
LEVEL001
 100
AcDbTrace
   6
CONTINUOUS
  62
8
  10
 96.744986625650
  20
 145.22231246252
  30
0.0
  11
 97.097640587067
  21
 147.22231246252
  31
0.0
  12
 96.392332664233
  22
 147.22231246252
  32
0.0
  13
 96.392332664233
  23
 147.22231246252
  33
0.0
   0
SOLID
   5
F2
 100
AcDbEntity
   8
LEVEL001
 100
AcDbTrace
   6
CONTINUOUS
  62
8
  10
 96.744986625650
  20
 155.22231246252
  30
0.0
  11
 96.392332664233
  21
 153.22231246252
  31
0.0
  12
 97.097640587067
  22
 153.22231246252
  32
0.0
  13
 97.097640587067
  23
 153.22231246252
  33
0.0
   0
MTEXT
   5
F3
 100
AcDbEntity
   8
LEVEL001
 370
15
  62
8
 100
AcDbMText
  10
 95.744986625650
  20
 150.22231246252
  30
0.0
  40
 3.0000000000000
  41
0.0
  71
8
  72
1
   1
\A1;10
   7
GMM002
  11
0.0
  21
 1.0000000000000
  31
0.0
   0
ENDBLK
   5
F4
 100
AcDbEntity
   8
0
 100
AcDbBlockEnd
   0
BLOCK
   5
F5
 100
AcDbEntity
   8
0
 100
AcDbBlockBegin
   2
*D9
  70
65
  10
0.0
  20
0.0
  30
0.0
   3
*D9
   0
LINE
   5
F6
 100
AcDbEntity
   8
LEVEL001
 370
15
 100
AcDbLine
   6
CONTINUOUS
  62
8
  10
 77.744986625650
  20
 145.22231246252
  30
0.0
  11
 87.744986625650
  21
 145.22231246252
  31
0.0
   0
LINE
   5
F7
 100
AcDbEntity
   8
LEVEL001
 370
15
 100
AcDbLine
   6
CONTINUOUS
  62
8
  10
 77.744986625650
  20
 146.22231246252
  30
0.0
  11
 87.744986625650
  21
 146.22231246252
  31
0.0
   0
LINE
   5
F8
 100
AcDbEntity
   8
LEVEL001
 370
15
 100
AcDbLine
   6
CONTINUOUS
  62
8
  10
 86.744986625650
  20
 141.11276463437
  30
0.0
  11
 86.744986625650
  21
 145.72231246252
  31
0.0
   0
LINE
   5
F9
 100
AcDbEntity
   8
LEVEL001
 370
15
 100
AcDbLine
   6
CONTINUOUS
  62
8
  10
 86.744986625650
  20
 148.72231246252
  30
0.0
  11
 86.744986625650
  21
 145.72231246252
  31
0.0
   0
SOLID
   5
FA
 100
AcDbEntity
   8
LEVEL001
 100
AcDbTrace
   6
CONTINUOUS
  62
8
  10
 86.744986625650
  20
 145.22231246252
  30
0.0
  11
 86.392332664233
  21
 143.22231246252
  31
0.0
  12
 87.097640587067
  22
 143.22231246252
  32
0.0
  13
 87.097640587067
  23
 143.22231246252
  33
0.0
   0
SOLID
   5
FB
 100
AcDbEntity
   8
LEVEL001
 100
AcDbTrace
   6
CONTINUOUS
  62
8
  10
 86.744986625650
  20
 146.22231246252
  30
0.0
  11
 87.097640587067
  21
 148.22231246252
  31
0.0
  12
 86.392332664233
  22
 148.22231246252
  32
0.0
  13
 86.392332664233
  23
 148.22231246252
  33
0.0
   0
MTEXT
   5
FC
 100
AcDbEntity
   8
LEVEL001
 370
15
  62
8
 100
AcDbMText
  10
 85.813810874548
  20
 144.11276463437
  30
0.0
  40
 3.0000000000000
  41
0.0
  71
9
  72
1
   1
\A1;1
   7
GMM002
  11
0.0
  21
 1.0000000000000
  31
0.0
   0
ENDBLK
   5
FD
 100
AcDbEntity
   8
0
 100
AcDbBlockEnd
   0
BLOCK
   5
FE
 100
AcDbEntity
   8
0
 100
AcDbBlockBegin
   2
*D10
  70
65
  10
0.0
  20
0.0
  30
0.0
   3
*D10
   0
LINE
   5
FF
 100
AcDbEntity
   8
LEVEL001
 370
15
 100
AcDbLine
   6
CONTINUOUS
  62
8
  10
 49.744986625650
  20
 144.22231246252
  30
0.0
  11
 49.744986625650
  21
 134.22231246252
  31
0.0
   0
LINE
   5
100
 100
AcDbEntity
   8
LEVEL001
 370
15
 100
AcDbLine
   6
CONTINUOUS
  62
8
  10
 59.744986625650
  20
 144.22231246252
  30
0.0
  11
 59.744986625650
  21
 134.22231246252
  31
0.0
   0
LINE
   5
101
 100
AcDbEntity
   8
LEVEL001
 370
15
 100
AcDbLine
   6
CONTINUOUS
  62
8
  10
 49.744986625650
  20
 135.22231246252
  30
0.0
  11
 54.744986625650
  21
 135.22231246252
  31
0.0
   0
LINE
   5
102
 100
AcDbEntity
   8
LEVEL001
 370
15
 100
AcDbLine
   6
CONTINUOUS
  62
8
  10
 59.744986625650
  20
 135.22231246252
  30
0.0
  11
 54.744986625650
  21
 135.22231246252
  31
0.0
   0
SOLID
   5
103
 100
AcDbEntity
   8
LEVEL001
 100
AcDbTrace
   6
CONTINUOUS
  62
8
  10
 49.744986625650
  20
 135.22231246252
  30
0.0
  11
 51.744986625650
  21
 134.86965850111
  31
0.0
  12
 51.744986625650
  22
 135.57496642394
  32
0.0
  13
 51.744986625650
  23
 135.57496642394
  33
0.0
   0
SOLID
   5
104
 100
AcDbEntity
   8
LEVEL001
 100
AcDbTrace
   6
CONTINUOUS
  62
8
  10
 59.744986625650
  20
 135.22231246252
  30
0.0
  11
 57.744986625650
  21
 135.57496642394
  31
0.0
  12
 57.744986625650
  22
 134.86965850111
  32
0.0
  13
 57.744986625650
  23
 134.86965850111
  33
0.0
   0
MTEXT
   5
105
 100
AcDbEntity
   8
LEVEL001
 370
15
  62
8
 100
AcDbMText
  10
 54.744986625650
  20
 136.22231246252
  30
0.0
  40
 3.0000000000000
  41
0.0
  71
8
  72
1
   1
\A1;%%c10
   7
GMM002
   0
ENDBLK
   5
106
 100
AcDbEntity
   8
0
 100
AcDbBlockEnd
   0
BLOCK
   5
107
 100
AcDbEntity
   8
0
 100
AcDbBlockBegin
   2
*D11
  70
65
  10
0.0
  20
0.0
  30
0.0
   3
*D11
   0
LINE
   5
108
 100
AcDbEntity
   8
LEVEL001
 370
15
 100
AcDbLine
   6
CONTINUOUS
  62
8
  10
 32.744986625650
  20
 144.22231246252
  30
0.0
  11
 32.744986625650
  21
 124.22231246252
  31
0.0
   0
LINE
   5
109
 100
AcDbEntity
   8
LEVEL001
 370
15
 100
AcDbLine
   6
CONTINUOUS
  62
8
  10
 76.744986625650
  20
 144.22231246252
  30
0.0
  11
 76.744986625650
  21
 124.22231246252
  31
0.0
   0
LINE
   5
10A
 100
AcDbEntity
   8
LEVEL001
 370
15
 100
AcDbLine
   6
CONTINUOUS
  62
8
  10
 32.744986625650
  20
 125.22231246252
  30
0.0
  11
 54.744986625650
  21
 125.22231246252
  31
0.0
   0
LINE
   5
10B
 100
AcDbEntity
   8
LEVEL001
 370
15
 100
AcDbLine
   6
CONTINUOUS
  62
8
  10
 76.744986625650
  20
 125.22231246252
  30
0.0
  11
 54.744986625650
  21
 125.22231246252
  31
0.0
   0
SOLID
   5
10C
 100
AcDbEntity
   8
LEVEL001
 100
AcDbTrace
   6
CONTINUOUS
  62
8
  10
 32.744986625650
  20
 125.22231246252
  30
0.0
  11
 34.744986625650
  21
 124.86965850111
  31
0.0
  12
 34.744986625650
  22
 125.57496642394
  32
0.0
  13
 34.744986625650
  23
 125.57496642394
  33
0.0
   0
SOLID
   5
10D
 100
AcDbEntity
   8
LEVEL001
 100
AcDbTrace
   6
CONTINUOUS
  62
8
  10
 76.744986625650
  20
 125.22231246252
  30
0.0
  11
 74.744986625650
  21
 125.57496642394
  31
0.0
  12
 74.744986625650
  22
 124.86965850111
  32
0.0
  13
 74.744986625650
  23
 124.86965850111
  33
0.0
   0
MTEXT
   5
10E
 100
AcDbEntity
   8
LEVEL001
 370
15
  62
8
 100
AcDbMText
  10
 54.744986625650
  20
 126.22231246252
  30
0.0
  40
 3.0000000000000
  41
0.0
  71
8
  72
1
   1
\A1;%%c44
   7
GMM002
   0
ENDBLK
   5
10F
 100
AcDbEntity
   8
0
 100
AcDbBlockEnd
   0
BLOCK
   5
110
 100
AcDbEntity
   8
0
 100
AcDbBlockBegin
   2
*D12
  70
65
  10
0.0
  20
0.0
  30
0.0
   3
*D12
   0
LINE
   5
111
 100
AcDbEntity
   8
LEVEL001
 370
15
 100
AcDbLine
   6
CONTINUOUS
  62
8
  10
 47.744986625650
  20
 152.22231246252
  30
0.0
  11
 47.744986625650
  21
 166.22231246252
  31
0.0
   0
LINE
   5
112
 100
AcDbEntity
   8
LEVEL001
 370
15
 100
AcDbLine
   6
CONTINUOUS
  62
8
  10
 61.744986625650
  20
 152.22231246252
  30
0.0
  11
 61.744986625650
  21
 166.22231246252
  31
0.0
   0
LINE
   5
113
 100
AcDbEntity
   8
LEVEL001
 370
15
 100
AcDbLine
   6
CONTINUOUS
  62
8
  10
 47.744986625650
  20
 165.22231246252
  30
0.0
  11
 54.744986625650
  21
 165.22231246252
  31
0.0
   0
LINE
   5
114
 100
AcDbEntity
   8
LEVEL001
 370
15
 100
AcDbLine
   6
CONTINUOUS
  62
8
  10
 61.744986625650
  20
 165.22231246252
  30
0.0
  11
 54.744986625650
  21
 165.22231246252
  31
0.0
   0
SOLID
   5
115
 100
AcDbEntity
   8
LEVEL001
 100
AcDbTrace
   6
CONTINUOUS
  62
8
  10
 47.744986625650
  20
 165.22231246252
  30
0.0
  11
 49.744986625650
  21
 164.86965850111
  31
0.0
  12
 49.744986625650
  22
 165.57496642394
  32
0.0
  13
 49.744986625650
  23
 165.57496642394
  33
0.0
   0
SOLID
   5
116
 100
AcDbEntity
   8
LEVEL001
 100
AcDbTrace
   6
CONTINUOUS
  62
8
  10
 61.744986625650
  20
 165.22231246252
  30
0.0
  11
 59.744986625650
  21
 165.57496642394
  31
0.0
  12
 59.744986625650
  22
 164.86965850111
  32
0.0
  13
 59.744986625650
  23
 164.86965850111
  33
0.0
   0
MTEXT
   5
117
 100
AcDbEntity
   8
LEVEL001
 370
15
  62
8
 100
AcDbMText
  10
 54.744986625650
  20
 166.22231246252
  30
0.0
  40
 3.0000000000000
  41
0.0
  71
8
  72
1
   1
\A1;%%c14
   7
GMM002
   0
ENDBLK
   5
118
 100
AcDbEntity
   8
0
 100
AcDbBlockEnd
   0
BLOCK
   5
119
 100
AcDbEntity
   8
0
 100
AcDbBlockBegin
   2
*D13
  70
65
  10
0.0
  20
0.0
  30
0.0
   3
*D13
   0
LINE
   5
11A
 100
AcDbEntity
   8
LEVEL001
 370
15
 100
AcDbLine
   6
CONTINUOUS
  62
8
  10
 42.744986625650
  20
 156.22231246252
  30
0.0
  11
 42.744986625650
  21
 176.22231246252
  31
0.0
   0
LINE
   5
11B
 100
AcDbEntity
   8
LEVEL001
 370
15
 100
AcDbLine
   6
CONTINUOUS
  62
8
  10
 66.744986625650
  20
 156.22231246252
  30
0.0
  11
 66.744986625650
  21
 176.22231246252
  31
0.0
   0
LINE
   5
11C
 100
AcDbEntity
   8
LEVEL001
 370
15
 100
AcDbLine
   6
CONTINUOUS
  62
8
  10
 42.744986625650
  20
 175.22231246252
  30
0.0
  11
 54.744986625650
  21
 175.22231246252
  31
0.0
   0
LINE
   5
11D
 100
AcDbEntity
   8
LEVEL001
 370
15
 100
AcDbLine
   6
CONTINUOUS
  62
8
  10
 66.744986625650
  20
 175.22231246252
  30
0.0
  11
 54.744986625650
  21
 175.22231246252
  31
0.0
   0
SOLID
   5
11E
 100
AcDbEntity
   8
LEVEL001
 100
AcDbTrace
   6
CONTINUOUS
  62
8
  10
 42.744986625650
  20
 175.22231246252
  30
0.0
  11
 44.744986625650
  21
 174.86965850111
  31
0.0
  12
 44.744986625650
  22
 175.57496642394
  32
0.0
  13
 44.744986625650
  23
 175.57496642394
  33
0.0
   0
SOLID
   5
11F
 100
AcDbEntity
   8
LEVEL001
 100
AcDbTrace
   6
CONTINUOUS
  62
8
  10
 66.744986625650
  20
 175.22231246252
  30
0.0
  11
 64.744986625650
  21
 175.57496642394
  31
0.0
  12
 64.744986625650
  22
 174.86965850111
  32
0.0
  13
 64.744986625650
  23
 174.86965850111
  33
0.0
   0
MTEXT
   5
120
 100
AcDbEntity
   8
LEVEL001
 370
15
  62
8
 100
AcDbMText
  10
 54.744986625650
  20
 176.22231246252
  30
0.0
  40
 3.0000000000000
  41
0.0
  71
8
  72
1
   1
\A1;%%c24
   7
GMM002
   0
ENDBLK
   5
121
 100
AcDbEntity
   8
0
 100
AcDbBlockEnd
   0
BLOCK
   5
122
 100
AcDbEntity
   8
0
 100
AcDbBlockBegin
   2
*D14
  70
65
  10
0.0
  20
0.0
  30
0.0
   3
*D14
   0
LINE
   5
123
 100
AcDbEntity
   8
LEVEL001
 370
15
 100
AcDbLine
   6
CONTINUOUS
  62
8
  10
 41.744986625650
  20
 156.22231246252
  30
0.0
  11
 41.744986625650
  21
 186.22231246252
  31
0.0
   0
LINE
   5
124
 100
AcDbEntity
   8
LEVEL001
 370
15
 100
AcDbLine
   6
CONTINUOUS
  62
8
  10
 67.744986625650
  20
 156.22231246252
  30
0.0
  11
 67.744986625650
  21
 186.22231246252
  31
0.0
   0
LINE
   5
125
 100
AcDbEntity
   8
LEVEL001
 370
15
 100
AcDbLine
   6
CONTINUOUS
  62
8
  10
 41.744986625650
  20
 185.22231246252
  30
0.0
  11
 54.744986625650
  21
 185.22231246252
  31
0.0
   0
LINE
   5
126
 100
AcDbEntity
   8
LEVEL001
 370
15
 100
AcDbLine
   6
CONTINUOUS
  62
8
  10
 67.744986625650
  20
 185.22231246252
  30
0.0
  11
 54.744986625650
  21
 185.22231246252
  31
0.0
   0
SOLID
   5
127
 100
AcDbEntity
   8
LEVEL001
 100
AcDbTrace
   6
CONTINUOUS
  62
8
  10
 41.744986625650
  20
 185.22231246252
  30
0.0
  11
 43.744986625650
  21
 184.86965850111
  31
0.0
  12
 43.744986625650
  22
 185.57496642394
  32
0.0
  13
 43.744986625650
  23
 185.57496642394
  33
0.0
   0
SOLID
   5
128
 100
AcDbEntity
   8
LEVEL001
 100
AcDbTrace
   6
CONTINUOUS
  62
8
  10
 67.744986625650
  20
 185.22231246252
  30
0.0
  11
 65.744986625650
  21
 185.57496642394
  31
0.0
  12
 65.744986625650
  22
 184.86965850111
  32
0.0
  13
 65.744986625650
  23
 184.86965850111
  33
0.0
   0
MTEXT
   5
129
 100
AcDbEntity
   8
LEVEL001
 370
15
  62
8
 100
AcDbMText
  10
 54.744986625650
  20
 186.22231246252
  30
0.0
  40
 3.0000000000000
  41
0.0
  71
8
  72
1
   1
\A1;%%c26
   7
GMM002
   0
ENDBLK
   5
12A
 100
AcDbEntity
   8
0
 100
AcDbBlockEnd
   0
ENDSEC
   0
SECTION
   2
ENTITIES
   0
LINE
   5
12B
 100
AcDbEntity
   8
LEVEL002
 370
30
 100
AcDbLine
   6
CONTINUOUS
  62
7
  10
 344.15000000000
  20
 272.07500000000
  30
0.0
  11
 336.95000000000
  21
 272.07500000000
  31
0.0
   0
LINE
   5
12C
 100
AcDbEntity
   8
LEVEL002
 370
30
 100
AcDbLine
   6
CONTINUOUS
  62
7
  10
 336.95000000000
  20
 272.07500000000
  30
0.0
  11
 336.95000000000
  21
 261.27500000000
  31
0.0
   0
LINE
   5
12D
 100
AcDbEntity
   8
LEVEL002
 370
30
 100
AcDbLine
   6
CONTINUOUS
  62
7
  10
 336.95000000000
  20
 261.27500000000
  30
0.0
  11
 340.55000000000
  21
 261.27500000000
  31
0.0
   0
LINE
   5
12E
 100
AcDbEntity
   8
LEVEL002
 370
30
 100
AcDbLine
   6
CONTINUOUS
  62
7
  10
 340.55000000000
  20
 261.27500000000
  30
0.0
  11
 340.55000000000
  21
 263.07500000000
  31
0.0
   0
LINE
   5
12F
 100
AcDbEntity
   8
LEVEL002
 370
30
 100
AcDbLine
   6
CONTINUOUS
  62
7
  10
 340.55000000000
  20
 263.07500000000
  30
0.0
  11
 344.15000000000
  21
 263.07500000000
  31
0.0
   0
ARC
   5
130
 100
AcDbEntity
   8
LEVEL002
 370
30
   6
CONTINUOUS
  62
7
 100
AcDbCircle
  10
 344.15000000000
  20
 267.57500000000
  30
0.0
  40
 4.5000000000000
 100
AcDbArc
  50
 270.00000000000
  51
 90.000000000000
   0
LINE
   5
131
 100
AcDbEntity
   8
LEVEL002
 370
30
 100
AcDbLine
   6
CONTINUOUS
  62
7
  10
 340.55000000000
  20
 266.67500000000
  30
0.0
  11
 344.15000000000
  21
 266.67500000000
  31
0.0
   0
ARC
   5
132
 100
AcDbEntity
   8
LEVEL002
 370
30
   6
CONTINUOUS
  62
7
 100
AcDbCircle
  10
 344.15000000000
  20
 267.57500000000
  30
0.0
  40
 0.90000000000000
 100
AcDbArc
  50
 270.00000000000
  51
 90.000000000000
   0
LINE
   5
133
 100
AcDbEntity
   8
LEVEL002
 370
30
 100
AcDbLine
   6
CONTINUOUS
  62
7
  10
 344.15000000000
  20
 268.47500000000
  30
0.0
  11
 340.55000000000
  21
 268.47500000000
  31
0.0
   0
LINE
   5
134
 100
AcDbEntity
   8
LEVEL002
 370
30
 100
AcDbLine
   6
CONTINUOUS
  62
7
  10
 340.55000000000
  20
 268.47500000000
  30
0.0
  11
 340.55000000000
  21
 266.67500000000
  31
0.0
   0
LINE
   5
135
 100
AcDbEntity
   8
LEVEL002
 370
30
 100
AcDbLine
   6
CONTINUOUS
  62
7
  10
 345.95000000000
  20
 261.27500000000
  30
0.0
  11
 353.15000000000
  21
 272.07500000000
  31
0.0
   0
LINE
   5
136
 100
AcDbEntity
   8
LEVEL002
 370
30
 100
AcDbLine
   6
CONTINUOUS
  62
7
  10
 353.15000000000
  20
 272.07500000000
  30
0.0
  11
 362.15000000000
  21
 272.07500000000
  31
0.0
   0
LINE
   5
137
 100
AcDbEntity
   8
LEVEL002
 370
30
 100
AcDbLine
   6
CONTINUOUS
  62
7
  10
 362.15000000000
  20
 272.07500000000
  30
0.0
  11
 362.15000000000
  21
 264.87500000000
  31
0.0
   0
LINE
   5
138
 100
AcDbEntity
   8
LEVEL002
 370
30
 100
AcDbLine
   6
CONTINUOUS
  62
7
  10
 362.15000000000
  20
 264.87500000000
  30
0.0
  11
 367.55000000000
  21
 264.87500000000
  31
0.0
   0
LINE
   5
139
 100
AcDbEntity
   8
LEVEL002
 370
30
 100
AcDbLine
   6
CONTINUOUS
  62
7
  10
 367.55000000000
  20
 264.87500000000
  30
0.0
  11
 367.55000000000
  21
 268.47500000000
  31
0.0
   0
LINE
   5
13A
 100
AcDbEntity
   8
LEVEL002
 370
30
 100
AcDbLine
   6
CONTINUOUS
  62
7
  10
 367.55000000000
  20
 268.47500000000
  30
0.0
  11
 363.95000000000
  21
 268.47500000000
  31
0.0
   0
LINE
   5
13B
 100
AcDbEntity
   8
LEVEL002
 370
30
 100
AcDbLine
   6
CONTINUOUS
  62
7
  10
 363.95000000000
  20
 268.47500000000
  30
0.0
  11
 363.95000000000
  21
 272.07500000000
  31
0.0
   0
LINE
   5
13C
 100
AcDbEntity
   8
LEVEL002
 370
30
 100
AcDbLine
   6
CONTINUOUS
  62
7
  10
 363.95000000000
  20
 272.07500000000
  30
0.0
  11
 385.55000000000
  21
 272.07500000000
  31
0.0
   0
LINE
   5
13D
 100
AcDbEntity
   8
LEVEL002
 370
30
 100
AcDbLine
   6
CONTINUOUS
  62
7
  10
 385.55000000000
  20
 272.07500000000
  30
0.0
  11
 385.55000000000
  21
 268.47500000000
  31
0.0
   0
LINE
   5
13E
 100
AcDbEntity
   8
LEVEL002
 370
30
 100
AcDbLine
   6
CONTINUOUS
  62
7
  10
 385.55000000000
  20
 268.47500000000
  30
0.0
  11
 378.35000000000
  21
 268.47500000000
  31
0.0
   0
LINE
   5
13F
 100
AcDbEntity
   8
LEVEL002
 370
30
 100
AcDbLine
   6
CONTINUOUS
  62
7
  10
 378.35000000000
  20
 268.47500000000
  30
0.0
  11
 378.35000000000
  21
 267.57500000000
  31
0.0
   0
LINE
   5
140
 100
AcDbEntity
   8
LEVEL002
 370
30
 100
AcDbLine
   6
CONTINUOUS
  62
7
  10
 378.35000000000
  20
 267.57500000000
  30
0.0
  11
 384.65000000000
  21
 267.57500000000
  31
0.0
   0
LINE
   5
141
 100
AcDbEntity
   8
LEVEL002
 370
30
 100
AcDbLine
   6
CONTINUOUS
  62
7
  10
 384.65000000000
  20
 267.57500000000
  30
0.0
  11
 384.65000000000
  21
 265.77500000000
  31
0.0
   0
LINE
   5
142
 100
AcDbEntity
   8
LEVEL002
 370
30
 100
AcDbLine
   6
CONTINUOUS
  62
7
  10
 384.65000000000
  20
 265.77500000000
  30
0.0
  11
 378.35000000000
  21
 265.77500000000
  31
0.0
   0
LINE
   5
143
 100
AcDbEntity
   8
LEVEL002
 370
30
 100
AcDbLine
   6
CONTINUOUS
  62
7
  10
 378.35000000000
  20
 265.77500000000
  30
0.0
  11
 378.35000000000
  21
 264.87500000000
  31
0.0
   0
LINE
   5
144
 100
AcDbEntity
   8
LEVEL002
 370
30
 100
AcDbLine
   6
CONTINUOUS
  62
7
  10
 378.35000000000
  20
 264.87500000000
  30
0.0
  11
 385.55000000000
  21
 264.87500000000
  31
0.0
   0
LINE
   5
145
 100
AcDbEntity
   8
LEVEL002
 370
30
 100
AcDbLine
   6
CONTINUOUS
  62
7
  10
 385.55000000000
  20
 264.87500000000
  30
0.0
  11
 385.55000000000
  21
 261.27500000000
  31
0.0
   0
LINE
   5
146
 100
AcDbEntity
   8
LEVEL002
 370
30
 100
AcDbLine
   6
CONTINUOUS
  62
7
  10
 385.55000000000
  20
 261.27500000000
  30
0.0
  11
 374.75000000000
  21
 261.27500000000
  31
0.0
   0
LINE
   5
147
 100
AcDbEntity
   8
LEVEL002
 370
30
 100
AcDbLine
   6
CONTINUOUS
  62
7
  10
 374.75000000000
  20
 261.27500000000
  30
0.0
  11
 374.75000000000
  21
 268.47500000000
  31
0.0
   0
LINE
   5
148
 100
AcDbEntity
   8
LEVEL002
 370
30
 100
AcDbLine
   6
CONTINUOUS
  62
7
  10
 374.75000000000
  20
 268.47500000000
  30
0.0
  11
 371.15000000000
  21
 268.47500000000
  31
0.0
   0
LINE
   5
149
 100
AcDbEntity
   8
LEVEL002
 370
30
 100
AcDbLine
   6
CONTINUOUS
  62
7
  10
 371.15000000000
  20
 268.47500000000
  30
0.0
  11
 371.15000000000
  21
 261.27500000000
  31
0.0
   0
LINE
   5
14A
 100
AcDbEntity
   8
LEVEL002
 370
30
 100
AcDbLine
   6
CONTINUOUS
  62
7
  10
 371.15000000000
  20
 261.27500000000
  30
0.0
  11
 358.55000000000
  21
 261.27500000000
  31
0.0
   0
LINE
   5
14B
 100
AcDbEntity
   8
LEVEL002
 370
30
 100
AcDbLine
   6
CONTINUOUS
  62
7
  10
 358.55000000000
  20
 261.27500000000
  30
0.0
  11
 358.55000000000
  21
 272.07500000000
  31
0.0
   0
LINE
   5
14C
 100
AcDbEntity
   8
LEVEL002
 370
30
 100
AcDbLine
   6
CONTINUOUS
  62
7
  10
 358.55000000000
  20
 272.07500000000
  30
0.0
  11
 351.35000000000
  21
 261.27500000000
  31
0.0
   0
LINE
   5
14D
 100
AcDbEntity
   8
LEVEL002
 370
30
 100
AcDbLine
   6
CONTINUOUS
  62
7
  10
 351.35000000000
  20
 261.27500000000
  30
0.0
  11
 345.95000000000
  21
 261.27500000000
  31
0.0
   0
LINE
   5
14E
 100
AcDbEntity
   8
LEVEL002
 370
30
 100
AcDbLine
   6
CONTINUOUS
  62
7
  10
 357.35000000000
  20
 268.11166923470
  30
0.0
  11
 352.79222051020
  21
 261.27500000000
  31
0.0
   0
LINE
   5
14F
 100
AcDbEntity
   8
LEVEL002
 370
30
 100
AcDbLine
   6
CONTINUOUS
  62
7
  10
 352.79222051020
  20
 261.27500000000
  30
0.0
  11
 357.35000000000
  21
 261.27500000000
  31
0.0
   0
LINE
   5
150
 100
AcDbEntity
   8
LEVEL002
 370
30
 100
AcDbLine
   6
CONTINUOUS
  62
7
  10
 357.35000000000
  20
 261.27500000000
  30
0.0
  11
 357.35000000000
  21
 268.11166923470
  31
0.0
   0
ARC
   5
151
 100
AcDbEntity
   8
LEVEL002
 370
30
   6
CONTINUOUS
  62
7
 100
AcDbCircle
  10
 390.95000000000
  20
 266.67500000000
  30
0.0
  40
 5.4000000000000
 100
AcDbArc
  50
 90.000000000000
  51
 270.00000000000
   0
ARC
   5
152
 100
AcDbEntity
   8
LEVEL002
 370
30
   6
CONTINUOUS
  62
7
 100
AcDbCircle
  10
 390.95000000000
  20
 266.67500000000
  30
0.0
  40
 1.8000000000000
 100
AcDbArc
  50
 90.000000000000
  51
 270.00000000000
   0
LINE
   5
153
 100
AcDbEntity
   8
LEVEL002
 370
30
 100
AcDbLine
   6
CONTINUOUS
  62
7
  10
 390.95000000000
  20
 272.07500000000
  30
0.0
  11
 396.35000000000
  21
 272.07500000000
  31
0.0
   0
LINE
   5
154
 100
AcDbEntity
   8
LEVEL002
 370
30
 100
AcDbLine
   6
CONTINUOUS
  62
7
  10
 396.35000000000
  20
 272.07500000000
  30
0.0
  11
 396.35000000000
  21
 268.47500000000
  31
0.0
   0
LINE
   5
155
 100
AcDbEntity
   8
LEVEL002
 370
30
 100
AcDbLine
   6
CONTINUOUS
  62
7
  10
 396.35000000000
  20
 268.47500000000
  30
0.0
  11
 390.95000000000
  21
 268.47500000000
  31
0.0
   0
LINE
   5
156
 100
AcDbEntity
   8
LEVEL002
 370
30
 100
AcDbLine
   6
CONTINUOUS
  62
7
  10
 336.95000000000
  20
 272.07500000000
  30
0.0
  11
 336.95000000000
  21
 261.27500000000
  31
0.0
   0
LINE
   5
157
 100
AcDbEntity
   8
LEVEL002
 370
30
 100
AcDbLine
   6
CONTINUOUS
  62
7
  10
 336.95000000000
  20
 261.27500000000
  30
0.0
  11
 340.55000000000
  21
 261.27500000000
  31
0.0
   0
LINE
   5
158
 100
AcDbEntity
   8
LEVEL002
 370
30
 100
AcDbLine
   6
CONTINUOUS
  62
7
  10
 340.55000000000
  20
 261.27500000000
  30
0.0
  11
 340.55000000000
  21
 263.07500000000
  31
0.0
   0
LINE
   5
159
 100
AcDbEntity
   8
LEVEL002
 370
30
 100
AcDbLine
   6
CONTINUOUS
  62
7
  10
 340.55000000000
  20
 263.07500000000
  30
0.0
  11
 344.15000000000
  21
 263.07500000000
  31
0.0
   0
ARC
   5
15A
 100
AcDbEntity
   8
LEVEL002
 370
30
   6
CONTINUOUS
  62
7
 100
AcDbCircle
  10
 344.15000000000
  20
 267.57500000000
  30
0.0
  40
 4.5000000000000
 100
AcDbArc
  50
 270.00000000000
  51
 90.000000000000
   0
LINE
   5
15B
 100
AcDbEntity
   8
LEVEL002
 370
30
 100
AcDbLine
   6
CONTINUOUS
  62
7
  10
 344.15000000000
  20
 272.07500000000
  30
0.0
  11
 336.95000000000
  21
 272.07500000000
  31
0.0
   0
LINE
   5
15C
 100
AcDbEntity
   8
LEVEL002
 370
30
 100
AcDbLine
   6
CONTINUOUS
  62
7
  10
 340.55000000000
  20
 268.47500000000
  30
0.0
  11
 340.55000000000
  21
 266.67500000000
  31
0.0
   0
LINE
   5
15D
 100
AcDbEntity
   8
LEVEL002
 370
30
 100
AcDbLine
   6
CONTINUOUS
  62
7
  10
 340.55000000000
  20
 266.67500000000
  30
0.0
  11
 344.15000000000
  21
 266.67500000000
  31
0.0
   0
ARC
   5
15E
 100
AcDbEntity
   8
LEVEL002
 370
30
   6
CONTINUOUS
  62
7
 100
AcDbCircle
  10
 344.15000000000
  20
 267.57500000000
  30
0.0
  40
 0.90000000000000
 100
AcDbArc
  50
 270.00000000000
  51
 90.000000000000
   0
LINE
   5
15F
 100
AcDbEntity
   8
LEVEL002
 370
30
 100
AcDbLine
   6
CONTINUOUS
  62
7
  10
 344.15000000000
  20
 268.47500000000
  30
0.0
  11
 340.55000000000
  21
 268.47500000000
  31
0.0
   0
LINE
   5
160
 100
AcDbEntity
   8
LEVEL002
 370
30
 100
AcDbLine
   6
CONTINUOUS
  62
7
  10
 353.15000000000
  20
 272.07500000000
  30
0.0
  11
 345.95000000000
  21
 261.27500000000
  31
0.0
   0
LINE
   5
161
 100
AcDbEntity
   8
LEVEL002
 370
30
 100
AcDbLine
   6
CONTINUOUS
  62
7
  10
 345.95000000000
  20
 261.27500000000
  30
0.0
  11
 351.35000000000
  21
 261.27500000000
  31
0.0
   0
LINE
   5
162
 100
AcDbEntity
   8
LEVEL002
 370
30
 100
AcDbLine
   6
CONTINUOUS
  62
7
  10
 351.35000000000
  20
 261.27500000000
  30
0.0
  11
 358.55000000000
  21
 272.07500000000
  31
0.0
   0
LINE
   5
163
 100
AcDbEntity
   8
LEVEL002
 370
30
 100
AcDbLine
   6
CONTINUOUS
  62
7
  10
 358.55000000000
  20
 272.07500000000
  30
0.0
  11
 353.15000000000
  21
 272.07500000000
  31
0.0
   0
LINE
   5
164
 100
AcDbEntity
   8
LEVEL002
 370
30
 100
AcDbLine
   6
CONTINUOUS
  62
7
  10
 357.35000000000
  20
 261.27500000000
  30
0.0
  11
 357.35000000000
  21
 268.11166923470
  31
0.0
   0
LINE
   5
165
 100
AcDbEntity
   8
LEVEL002
 370
30
 100
AcDbLine
   6
CONTINUOUS
  62
7
  10
 357.35000000000
  20
 268.11166923470
  30
0.0
  11
 352.79222051020
  21
 261.27500000000
  31
0.0
   0
LINE
   5
166
 100
AcDbEntity
   8
LEVEL002
 370
30
 100
AcDbLine
   6
CONTINUOUS
  62
7
  10
 352.79222051020
  20
 261.27500000000
  30
0.0
  11
 357.35000000000
  21
 261.27500000000
  31
0.0
   0
LINE
   5
167
 100
AcDbEntity
   8
LEVEL002
 370
30
 100
AcDbLine
   6
CONTINUOUS
  62
7
  10
 358.55000000000
  20
 261.27500000000
  30
0.0
  11
 371.15000000000
  21
 261.27500000000
  31
0.0
   0
LINE
   5
168
 100
AcDbEntity
   8
LEVEL002
 370
30
 100
AcDbLine
   6
CONTINUOUS
  62
7
  10
 371.15000000000
  20
 261.27500000000
  30
0.0
  11
 371.15000000000
  21
 268.47500000000
  31
0.0
   0
LINE
   5
169
 100
AcDbEntity
   8
LEVEL002
 370
30
 100
AcDbLine
   6
CONTINUOUS
  62
7
  10
 371.15000000000
  20
 268.47500000000
  30
0.0
  11
 374.75000000000
  21
 268.47500000000
  31
0.0
   0
LINE
   5
16A
 100
AcDbEntity
   8
LEVEL002
 370
30
 100
AcDbLine
   6
CONTINUOUS
  62
7
  10
 374.75000000000
  20
 268.47500000000
  30
0.0
  11
 374.75000000000
  21
 261.27500000000
  31
0.0
   0
LINE
   5
16B
 100
AcDbEntity
   8
LEVEL002
 370
30
 100
AcDbLine
   6
CONTINUOUS
  62
7
  10
 374.75000000000
  20
 261.27500000000
  30
0.0
  11
 385.55000000000
  21
 261.27500000000
  31
0.0
   0
LINE
   5
16C
 100
AcDbEntity
   8
LEVEL002
 370
30
 100
AcDbLine
   6
CONTINUOUS
  62
7
  10
 385.55000000000
  20
 261.27500000000
  30
0.0
  11
 385.55000000000
  21
 264.87500000000
  31
0.0
   0
LINE
   5
16D
 100
AcDbEntity
   8
LEVEL002
 370
30
 100
AcDbLine
   6
CONTINUOUS
  62
7
  10
 385.55000000000
  20
 264.87500000000
  30
0.0
  11
 378.35000000000
  21
 264.87500000000
  31
0.0
   0
LINE
   5
16E
 100
AcDbEntity
   8
LEVEL002
 370
30
 100
AcDbLine
   6
CONTINUOUS
  62
7
  10
 378.35000000000
  20
 264.87500000000
  30
0.0
  11
 378.35000000000
  21
 265.77500000000
  31
0.0
   0
LINE
   5
16F
 100
AcDbEntity
   8
LEVEL002
 370
30
 100
AcDbLine
   6
CONTINUOUS
  62
7
  10
 378.35000000000
  20
 265.77500000000
  30
0.0
  11
 384.65000000000
  21
 265.77500000000
  31
0.0
   0
LINE
   5
170
 100
AcDbEntity
   8
LEVEL002
 370
30
 100
AcDbLine
   6
CONTINUOUS
  62
7
  10
 384.65000000000
  20
 265.77500000000
  30
0.0
  11
 384.65000000000
  21
 267.57500000000
  31
0.0
   0
LINE
   5
171
 100
AcDbEntity
   8
LEVEL002
 370
30
 100
AcDbLine
   6
CONTINUOUS
  62
7
  10
 384.65000000000
  20
 267.57500000000
  30
0.0
  11
 378.35000000000
  21
 267.57500000000
  31
0.0
   0
LINE
   5
172
 100
AcDbEntity
   8
LEVEL002
 370
30
 100
AcDbLine
   6
CONTINUOUS
  62
7
  10
 378.35000000000
  20
 267.57500000000
  30
0.0
  11
 378.35000000000
  21
 268.47500000000
  31
0.0
   0
LINE
   5
173
 100
AcDbEntity
   8
LEVEL002
 370
30
 100
AcDbLine
   6
CONTINUOUS
  62
7
  10
 378.35000000000
  20
 268.47500000000
  30
0.0
  11
 385.55000000000
  21
 268.47500000000
  31
0.0
   0
LINE
   5
174
 100
AcDbEntity
   8
LEVEL002
 370
30
 100
AcDbLine
   6
CONTINUOUS
  62
7
  10
 385.55000000000
  20
 268.47500000000
  30
0.0
  11
 385.55000000000
  21
 272.07500000000
  31
0.0
   0
LINE
   5
175
 100
AcDbEntity
   8
LEVEL002
 370
30
 100
AcDbLine
   6
CONTINUOUS
  62
7
  10
 385.55000000000
  20
 272.07500000000
  30
0.0
  11
 363.95000000000
  21
 272.07500000000
  31
0.0
   0
LINE
   5
176
 100
AcDbEntity
   8
LEVEL002
 370
30
 100
AcDbLine
   6
CONTINUOUS
  62
7
  10
 363.95000000000
  20
 272.07500000000
  30
0.0
  11
 363.95000000000
  21
 268.47500000000
  31
0.0
   0
LINE
   5
177
 100
AcDbEntity
   8
LEVEL002
 370
30
 100
AcDbLine
   6
CONTINUOUS
  62
7
  10
 363.95000000000
  20
 268.47500000000
  30
0.0
  11
 367.55000000000
  21
 268.47500000000
  31
0.0
   0
LINE
   5
178
 100
AcDbEntity
   8
LEVEL002
 370
30
 100
AcDbLine
   6
CONTINUOUS
  62
7
  10
 367.55000000000
  20
 268.47500000000
  30
0.0
  11
 367.55000000000
  21
 264.87500000000
  31
0.0
   0
LINE
   5
179
 100
AcDbEntity
   8
LEVEL002
 370
30
 100
AcDbLine
   6
CONTINUOUS
  62
7
  10
 367.55000000000
  20
 264.87500000000
  30
0.0
  11
 362.15000000000
  21
 264.87500000000
  31
0.0
   0
LINE
   5
17A
 100
AcDbEntity
   8
LEVEL002
 370
30
 100
AcDbLine
   6
CONTINUOUS
  62
7
  10
 362.15000000000
  20
 264.87500000000
  30
0.0
  11
 362.15000000000
  21
 272.07500000000
  31
0.0
   0
LINE
   5
17B
 100
AcDbEntity
   8
LEVEL002
 370
30
 100
AcDbLine
   6
CONTINUOUS
  62
7
  10
 362.15000000000
  20
 272.07500000000
  30
0.0
  11
 358.55000000000
  21
 272.07500000000
  31
0.0
   0
LINE
   5
17C
 100
AcDbEntity
   8
LEVEL002
 370
30
 100
AcDbLine
   6
CONTINUOUS
  62
7
  10
 358.55000000000
  20
 272.07500000000
  30
0.0
  11
 358.55000000000
  21
 261.27500000000
  31
0.0
   0
LINE
   5
17D
 100
AcDbEntity
   8
LEVEL002
 370
30
 100
AcDbLine
   6
CONTINUOUS
  62
7
  10
 390.95000000000
  20
 261.27500000000
  30
0.0
  11
 396.35000000000
  21
 261.27500000000
  31
0.0
   0
LINE
   5
17E
 100
AcDbEntity
   8
LEVEL002
 370
30
 100
AcDbLine
   6
CONTINUOUS
  62
7
  10
 396.35000000000
  20
 261.27500000000
  30
0.0
  11
 396.35000000000
  21
 264.87500000000
  31
0.0
   0
LINE
   5
17F
 100
AcDbEntity
   8
LEVEL002
 370
30
 100
AcDbLine
   6
CONTINUOUS
  62
7
  10
 396.35000000000
  20
 264.87500000000
  30
0.0
  11
 390.95000000000
  21
 264.87500000000
  31
0.0
   0
ARC
   5
180
 100
AcDbEntity
   8
LEVEL002
 370
30
   6
CONTINUOUS
  62
7
 100
AcDbCircle
  10
 390.95000000000
  20
 266.67500000000
  30
0.0
  40
 1.8000000000000
 100
AcDbArc
  50
 90.000000000000
  51
 270.00000000000
   0
LINE
   5
181
 100
AcDbEntity
   8
LEVEL002
 370
30
 100
AcDbLine
   6
CONTINUOUS
  62
7
  10
 390.95000000000
  20
 268.47500000000
  30
0.0
  11
 396.35000000000
  21
 268.47500000000
  31
0.0
   0
LINE
   5
182
 100
AcDbEntity
   8
LEVEL002
 370
30
 100
AcDbLine
   6
CONTINUOUS
  62
7
  10
 396.35000000000
  20
 268.47500000000
  30
0.0
  11
 396.35000000000
  21
 272.07500000000
  31
0.0
   0
LINE
   5
183
 100
AcDbEntity
   8
LEVEL002
 370
30
 100
AcDbLine
   6
CONTINUOUS
  62
7
  10
 396.35000000000
  20
 272.07500000000
  30
0.0
  11
 390.95000000000
  21
 272.07500000000
  31
0.0
   0
ARC
   5
184
 100
AcDbEntity
   8
LEVEL002
 370
30
   6
CONTINUOUS
  62
7
 100
AcDbCircle
  10
 390.95000000000
  20
 266.67500000000
  30
0.0
  40
 5.4000000000000
 100
AcDbArc
  50
 90.000000000000
  51
 270.00000000000
   0
MTEXT
   5
186
 100
AcDbEntity
   8
LEVEL002
 370
30
  62
7
 100
AcDbMText
  10
 336.95000000000
  20
 273.87500000000
  30
0.0
  40
 3.7500000000000
  41
0.0
  71
7
  72
1
   1
\T1.000000;ケージーパルテック株式会社
   7
GMM001
  44
 0.79999984000003
   0
LINE
   5
187
 100
AcDbEntity
   8
LEVEL002
 370
30
 100
AcDbLine
   6
CONTINUOUS
  62
7
  10
 333.35000000000
  20
 263.67500000000
  30
0.0
  11
 328.85000000000
  21
 270.87500000000
  31
0.0
   0
LINE
   5
188
 100
AcDbEntity
   8
LEVEL002
 370
30
 100
AcDbLine
   6
CONTINUOUS
  62
7
  10
 328.85000000000
  20
 270.87500000000
  30
0.0
  11
 333.35000000000
  21
 270.87500000000
  31
0.0
   0
LINE
   5
189
 100
AcDbEntity
   8
LEVEL002
 370
30
 100
AcDbLine
   6
CONTINUOUS
  62
7
  10
 333.35000000000
  20
 270.87500000000
  30
0.0
  11
 333.35000000000
  21
 263.67500000000
  31
0.0
   0
LINE
   5
18A
 100
AcDbEntity
   8
LEVEL002
 370
30
 100
AcDbLine
   6
CONTINUOUS
  62
7
  10
 328.85000000000
  20
 270.87500000000
  30
0.0
  11
 333.35000000000
  21
 263.67500000000
  31
0.0
   0
LINE
   5
18B
 100
AcDbEntity
   8
LEVEL002
 370
30
 100
AcDbLine
   6
CONTINUOUS
  62
7
  10
 333.35000000000
  20
 263.67500000000
  30
0.0
  11
 333.35000000000
  21
 270.87500000000
  31
0.0
   0
LINE
   5
18C
 100
AcDbEntity
   8
LEVEL002
 370
30
 100
AcDbLine
   6
CONTINUOUS
  62
7
  10
 333.35000000000
  20
 270.87500000000
  30
0.0
  11
 328.85000000000
  21
 270.87500000000
  31
0.0
   0
LINE
   5
18D
 100
AcDbEntity
   8
LEVEL002
 370
30
 100
AcDbLine
   6
CONTINUOUS
  62
7
  10
 319.05000000000
  20
 280.47500000000
  30
0.0
  11
 312.65000000000
  21
 270.87500000000
  31
0.0
   0
LINE
   5
18E
 100
AcDbEntity
   8
LEVEL002
 370
30
 100
AcDbLine
   6
CONTINUOUS
  62
7
  10
 312.65000000000
  20
 270.87500000000
  30
0.0
  11
 319.05000000000
  21
 261.27500000000
  31
0.0
   0
LINE
   5
18F
 100
AcDbEntity
   8
LEVEL002
 370
30
 100
AcDbLine
   6
CONTINUOUS
  62
7
  10
 324.45000000000
  20
 261.27500000000
  30
0.0
  11
 318.05000000000
  21
 270.87500000000
  31
0.0
   0
LINE
   5
190
 100
AcDbEntity
   8
LEVEL002
 370
30
 100
AcDbLine
   6
CONTINUOUS
  62
7
  10
 318.05000000000
  20
 270.87500000000
  30
0.0
  11
 324.45000000000
  21
 280.47500000000
  31
0.0
   0
LINE
   5
191
 100
AcDbEntity
   8
LEVEL002
 370
30
 100
AcDbLine
   6
CONTINUOUS
  62
7
  10
 327.15000000000
  20
 280.47500000000
  30
0.0
  11
 320.75000000000
  21
 270.87500000000
  31
0.0
   0
LINE
   5
192
 100
AcDbEntity
   8
LEVEL002
 370
30
 100
AcDbLine
   6
CONTINUOUS
  62
7
  10
 320.75000000000
  20
 270.87500000000
  30
0.0
  11
 327.15000000000
  21
 261.27500000000
  31
0.0
   0
LINE
   5
193
 100
AcDbEntity
   8
LEVEL002
 370
30
 100
AcDbLine
   6
CONTINUOUS
  62
7
  10
 332.55000000000
  20
 261.27500000000
  30
0.0
  11
 326.15000000000
  21
 270.87500000000
  31
0.0
   0
LINE
   5
194
 100
AcDbEntity
   8
LEVEL002
 370
30
 100
AcDbLine
   6
CONTINUOUS
  62
7
  10
 326.15000000000
  20
 270.87500000000
  30
0.0
  11
 332.55000000000
  21
 280.47500000000
  31
0.0
   0
LINE
   5
195
 100
AcDbEntity
   8
LEVEL002
 370
30
 100
AcDbLine
   6
CONTINUOUS
  62
7
  10
 319.05000000000
  20
 261.27500000000
  30
0.0
  11
 312.65000000000
  21
 270.87500000000
  31
0.0
   0
LINE
   5
196
 100
AcDbEntity
   8
LEVEL002
 370
30
 100
AcDbLine
   6
CONTINUOUS
  62
7
  10
 312.65000000000
  20
 270.87500000000
  30
0.0
  11
 319.05000000000
  21
 280.47500000000
  31
0.0
   0
LINE
   5
197
 100
AcDbEntity
   8
LEVEL002
 370
30
 100
AcDbLine
   6
CONTINUOUS
  62
7
  10
 319.05000000000
  20
 280.47500000000
  30
0.0
  11
 324.45000000000
  21
 280.47500000000
  31
0.0
   0
LINE
   5
198
 100
AcDbEntity
   8
LEVEL002
 370
30
 100
AcDbLine
   6
CONTINUOUS
  62
7
  10
 324.45000000000
  20
 280.47500000000
  30
0.0
  11
 318.05000000000
  21
 270.87500000000
  31
0.0
   0
LINE
   5
199
 100
AcDbEntity
   8
LEVEL002
 370
30
 100
AcDbLine
   6
CONTINUOUS
  62
7
  10
 318.05000000000
  20
 270.87500000000
  30
0.0
  11
 324.45000000000
  21
 261.27500000000
  31
0.0
   0
LINE
   5
19A
 100
AcDbEntity
   8
LEVEL002
 370
30
 100
AcDbLine
   6
CONTINUOUS
  62
7
  10
 324.45000000000
  20
 261.27500000000
  30
0.0
  11
 319.05000000000
  21
 261.27500000000
  31
0.0
   0
LINE
   5
19B
 100
AcDbEntity
   8
LEVEL002
 370
30
 100
AcDbLine
   6
CONTINUOUS
  62
7
  10
 327.15000000000
  20
 261.27500000000
  30
0.0
  11
 320.75000000000
  21
 270.87500000000
  31
0.0
   0
LINE
   5
19C
 100
AcDbEntity
   8
LEVEL002
 370
30
 100
AcDbLine
   6
CONTINUOUS
  62
7
  10
 320.75000000000
  20
 270.87500000000
  30
0.0
  11
 327.15000000000
  21
 280.47500000000
  31
0.0
   0
LINE
   5
19D
 100
AcDbEntity
   8
LEVEL002
 370
30
 100
AcDbLine
   6
CONTINUOUS
  62
7
  10
 327.15000000000
  20
 280.47500000000
  30
0.0
  11
 332.55000000000
  21
 280.47500000000
  31
0.0
   0
LINE
   5
19E
 100
AcDbEntity
   8
LEVEL002
 370
30
 100
AcDbLine
   6
CONTINUOUS
  62
7
  10
 332.55000000000
  20
 280.47500000000
  30
0.0
  11
 326.15000000000
  21
 270.87500000000
  31
0.0
   0
LINE
   5
19F
 100
AcDbEntity
   8
LEVEL002
 370
30
 100
AcDbLine
   6
CONTINUOUS
  62
7
  10
 326.15000000000
  20
 270.87500000000
  30
0.0
  11
 332.55000000000
  21
 261.27500000000
  31
0.0
   0
LINE
   5
1A0
 100
AcDbEntity
   8
LEVEL002
 370
30
 100
AcDbLine
   6
CONTINUOUS
  62
7
  10
 332.55000000000
  20
 261.27500000000
  30
0.0
  11
 327.15000000000
  21
 261.27500000000
  31
0.0
   0
LINE
   5
1A1
 100
AcDbEntity
   8
LEVEL001
 370
30
 100
AcDbLine
   6
DOT
  62
7
  10
0.0
  20
0.0
  30
0.0
  11
 420.00000000000
  21
0.0
  31
0.0
   0
LINE
   5
1A2
 100
AcDbEntity
   8
LEVEL001
 370
30
 100
AcDbLine
   6
DOT
  62
7
  10
 420.00000000000
  20
0.0
  30
0.0
  11
 420.00000000000
  21
 297.00000000000
  31
0.0
   0
LINE
   5
1A3
 100
AcDbEntity
   8
LEVEL001
 370
30
 100
AcDbLine
   6
DOT
  62
7
  10
 420.00000000000
  20
 297.00000000000
  30
0.0
  11
0.0
  21
 297.00000000000
  31
0.0
   0
LINE
   5
1A4
 100
AcDbEntity
   8
LEVEL001
 370
30
 100
AcDbLine
   6
DOT
  62
7
  10
0.0
  20
 297.00000000000
  30
0.0
  11
0.0
  21
0.0
  31
0.0
   0
LINE
   5
1A5
 100
AcDbEntity
   8
LEVEL002
 370
40
 100
AcDbLine
   6
CONTINUOUS
  62
3
  10
 15.499999999950
  20
 275.00000000000
  30
0.0
  11
 304.49999999995
  21
 275.00000000000
  31
0.0
   0
LINE
   5
1A6
 100
AcDbEntity
   8
LEVEL002
 370
40
 100
AcDbLine
   6
CONTINUOUS
  62
3
  10
 304.49999999995
  20
 256.75000000000
  30
0.0
  11
 404.49999999995
  21
 256.75000000000
  31
0.0
   0
LINE
   5
1A7
 100
AcDbEntity
   8
LEVEL002
 370
40
 100
AcDbLine
   6
CONTINUOUS
  62
3
  10
 304.49999999995
  20
 236.75000000000
  30
0.0
  11
 404.49999999995
  21
 236.75000000000
  31
0.0
   0
LINE
   5
1A8
 100
AcDbEntity
   8
LEVEL002
 370
40
 100
AcDbLine
   6
CONTINUOUS
  62
3
  10
 304.49999999995
  20
 216.75000000000
  30
0.0
  11
 404.49999999995
  21
 216.75000000000
  31
0.0
   0
LINE
   5
1A9
 100
AcDbEntity
   8
LEVEL002
 370
40
 100
AcDbLine
   6
CONTINUOUS
  62
3
  10
 304.49999999995
  20
 72.000000000010
  30
0.0
  11
 404.49999999995
  21
 72.000000000010
  31
0.0
   0
LINE
   5
1AA
 100
AcDbEntity
   8
LEVEL002
 370
40
 100
AcDbLine
   6
CONTINUOUS
  62
3
  10
 304.49999999995
  20
 52.000000000010
  30
0.0
  11
 404.49999999995
  21
 52.000000000010
  31
0.0
   0
LINE
   5
1AB
 100
AcDbEntity
   8
LEVEL002
 370
40
 100
AcDbLine
   6
CONTINUOUS
  62
3
  10
 304.49999999995
  20
 32.000000000010
  30
0.0
  11
 404.49999999995
  21
 32.000000000010
  31
0.0
   0
LINE
   5
1AC
 100
AcDbEntity
   8
LEVEL002
 370
40
 100
AcDbLine
   6
CONTINUOUS
  62
3
  10
 354.49999999995
  20
 52.000000000010
  30
0.0
  11
 354.49999999995
  21
 12.000000000010
  31
0.0
   0
LINE
   5
1AD
 100
AcDbEntity
   8
LEVEL002
 370
40
 100
AcDbLine
   6
CONTINUOUS
  62
3
  10
 354.49999999995
  20
 38.666666666680
  30
0.0
  11
 404.49999999995
  21
 38.666666666680
  31
0.0
   0
LINE
   5
1AE
 100
AcDbEntity
   8
LEVEL002
 370
40
 100
AcDbLine
   6
CONTINUOUS
  62
3
  10
 354.49999999995
  20
 45.333333333345
  30
0.0
  11
 404.49999999995
  21
 45.333333333345
  31
0.0
   0
LINE
   5
1AF
 100
AcDbEntity
   8
LEVEL002
 370
50
 100
AcDbLine
   6
CONTINUOUS
  62
4
  10
 404.49999999995
  20
 285.00000000000
  30
0.0
  11
 15.499999999950
  21
 285.00000000000
  31
0.0
   0
LINE
   5
1B0
 100
AcDbEntity
   8
LEVEL002
 370
50
 100
AcDbLine
   6
CONTINUOUS
  62
4
  10
 304.49999999995
  20
 285.00000000000
  30
0.0
  11
 304.49999999995
  21
 12.000000000010
  31
0.0
   0
LINE
   5
1B1
 100
AcDbEntity
   8
LEVEL002
 370
50
 100
AcDbLine
   6
CONTINUOUS
  62
4
  10
 404.49999999995
  20
 12.000000000010
  30
0.0
  11
 404.49999999995
  21
 285.00000000000
  31
0.0
   0
LINE
   5
1B2
 100
AcDbEntity
   8
LEVEL002
 370
50
 100
AcDbLine
   6
CONTINUOUS
  62
4
  10
 15.499999999950
  20
 285.00000000000
  30
0.0
  11
 15.499999999950
  21
 12.000000000010
  31
0.0
   0
LINE
   5
1B3
 100
AcDbEntity
   8
LEVEL002
 370
50
 100
AcDbLine
   6
CONTINUOUS
  62
4
  10
 15.499999999950
  20
 12.000000000010
  30
0.0
  11
 404.49999999995
  21
 12.000000000010
  31
0.0
   0
HATCH
   5
1B4
 100
AcDbEntity
   8
LEVEL001
  62
1
 100
AcDbHatch
  10
0.0
  20
0.0
  30
0.0
 210
0.0
 220
0.0
 230
 1.0000000000000
   2
SOLID
  70
1
  71
1
  91
7
  92
1
  93
6
  72
1
  10
 324.45000000000
  20
 280.47500000000
  11
 318.05000000000
  21
 270.87500000000
  72
1
  10
 318.05000000000
  20
 270.87500000000
  11
 324.45000000000
  21
 261.27500000000
  72
1
  10
 324.45000000000
  20
 261.27500000000
  11
 319.05000000000
  21
 261.27500000000
  72
1
  10
 319.05000000000
  20
 261.27500000000
  11
 312.65000000000
  21
 270.87500000000
  72
1
  10
 312.65000000000
  20
 270.87500000000
  11
 319.05000000000
  21
 280.47500000000
  72
1
  10
 319.05000000000
  20
 280.47500000000
  11
 324.45000000000
  21
 280.47500000000
  97
1
 330

  92
16
  93
6
  72
1
  10
 327.15000000000
  20
 280.47500000000
  11
 332.55000000000
  21
 280.47500000000
  72
1
  10
 332.55000000000
  20
 280.47500000000
  11
 326.15000000000
  21
 270.87500000000
  72
1
  10
 326.15000000000
  20
 270.87500000000
  11
 332.55000000000
  21
 261.27500000000
  72
1
  10
 332.55000000000
  20
 261.27500000000
  11
 327.15000000000
  21
 261.27500000000
  72
1
  10
 327.15000000000
  20
 261.27500000000
  11
 320.75000000000
  21
 270.87500000000
  72
1
  10
 320.75000000000
  20
 270.87500000000
  11
 327.15000000000
  21
 280.47500000000
  97
1
 330

  92
16
  93
3
  72
1
  10
 333.35000000000
  20
 270.87500000000
  11
 328.85000000000
  21
 270.87500000000
  72
1
  10
 328.85000000000
  20
 270.87500000000
  11
 333.35000000000
  21
 263.67500000000
  72
1
  10
 333.35000000000
  20
 263.67500000000
  11
 333.35000000000
  21
 270.87500000000
  97
1
 330

  92
16
  93
6
  72
1
  10
 336.95000000000
  20
 272.07500000000
  11
 344.15000000000
  21
 272.07500000000
  72
2
  10
 344.15000000000
  20
 267.57500000000
  40
 4.5000000000000
  50
 270.00000000000
  51
 90.000000000000
  73
0
  72
1
  10
 344.15000000000
  20
 263.07500000000
  11
 340.55000000000
  21
 263.07500000000
  72
1
  10
 340.55000000000
  20
 263.07500000000
  11
 340.55000000000
  21
 261.27500000000
  72
1
  10
 340.55000000000
  20
 261.27500000000
  11
 336.95000000000
  21
 261.27500000000
  72
1
  10
 336.95000000000
  20
 261.27500000000
  11
 336.95000000000
  21
 272.07500000000
  97
1
 330

  92
16
  93
4
  72
1
  10
 344.15000000000
  20
 268.47500000000
  11
 340.55000000000
  21
 268.47500000000
  72
1
  10
 340.55000000000
  20
 268.47500000000
  11
 340.55000000000
  21
 266.67500000000
  72
1
  10
 340.55000000000
  20
 266.67500000000
  11
 344.15000000000
  21
 266.67500000000
  72
2
  10
 344.15000000000
  20
 267.57500000000
  40
 0.90000000000000
  50
 270.00000000000
  51
 90.000000000000
  73
1
  97
1
 330

  92
16
  93
4
  72
1
  10
 345.95000000000
  20
 261.27500000000
  11
 353.15000000000
  21
 272.07500000000
  72
1
  10
 353.15000000000
  20
 272.07500000000
  11
 358.55000000000
  21
 272.07500000000
  72
1
  10
 358.55000000000
  20
 272.07500000000
  11
 351.35000000000
  21
 261.27500000000
  72
1
  10
 351.35000000000
  20
 261.27500000000
  11
 345.95000000000
  21
 261.27500000000
  97
1
 330

  92
16
  93
3
  72
1
  10
 357.35000000000
  20
 268.11166923470
  11
 352.79222051020
  21
 261.27500000000
  72
1
  10
 352.79222051020
  20
 261.27500000000
  11
 357.35000000000
  21
 261.27500000000
  72
1
  10
 357.35000000000
  20
 261.27500000000
  11
 357.35000000000
  21
 268.11166923470
  97
1
 330

  75
0
  76
1
  98
1
  10
0.0
  20
0.0
   0
HATCH
   5
1B5
 100
AcDbEntity
   8
LEVEL001
  62
1
 100
AcDbHatch
  10
0.0
  20
0.0
  30
0.0
 210
0.0
 220
0.0
 230
 1.0000000000000
   2
SOLID
  70
1
  71
1
  91
1
  92
1
  93
22
  72
1
  10
 358.55000000000
  20
 272.07500000000
  11
 362.15000000000
  21
 272.07500000000
  72
1
  10
 362.15000000000
  20
 272.07500000000
  11
 362.15000000000
  21
 264.87500000000
  72
1
  10
 362.15000000000
  20
 264.87500000000
  11
 367.55000000000
  21
 264.87500000000
  72
1
  10
 367.55000000000
  20
 264.87500000000
  11
 367.55000000000
  21
 268.47500000000
  72
1
  10
 367.55000000000
  20
 268.47500000000
  11
 363.95000000000
  21
 268.47500000000
  72
1
  10
 363.95000000000
  20
 268.47500000000
  11
 363.95000000000
  21
 272.07500000000
  72
1
  10
 363.95000000000
  20
 272.07500000000
  11
 385.55000000000
  21
 272.07500000000
  72
1
  10
 385.55000000000
  20
 272.07500000000
  11
 385.55000000000
  21
 268.47500000000
  72
1
  10
 385.55000000000
  20
 268.47500000000
  11
 378.35000000000
  21
 268.47500000000
  72
1
  10
 378.35000000000
  20
 268.47500000000
  11
 378.35000000000
  21
 267.57500000000
  72
1
  10
 378.35000000000
  20
 267.57500000000
  11
 384.65000000000
  21
 267.57500000000
  72
1
  10
 384.65000000000
  20
 267.57500000000
  11
 384.65000000000
  21
 265.77500000000
  72
1
  10
 384.65000000000
  20
 265.77500000000
  11
 378.35000000000
  21
 265.77500000000
  72
1
  10
 378.35000000000
  20
 265.77500000000
  11
 378.35000000000
  21
 264.87500000000
  72
1
  10
 378.35000000000
  20
 264.87500000000
  11
 385.55000000000
  21
 264.87500000000
  72
1
  10
 385.55000000000
  20
 264.87500000000
  11
 385.55000000000
  21
 261.27500000000
  72
1
  10
 385.55000000000
  20
 261.27500000000
  11
 374.75000000000
  21
 261.27500000000
  72
1
  10
 374.75000000000
  20
 261.27500000000
  11
 374.75000000000
  21
 268.47500000000
  72
1
  10
 374.75000000000
  20
 268.47500000000
  11
 371.15000000000
  21
 268.47500000000
  72
1
  10
 371.15000000000
  20
 268.47500000000
  11
 371.15000000000
  21
 261.27500000000
  72
1
  10
 371.15000000000
  20
 261.27500000000
  11
 358.55000000000
  21
 261.27500000000
  72
1
  10
 358.55000000000
  20
 261.27500000000
  11
 358.55000000000
  21
 272.07500000000
  97
1
 330

  75
0
  76
1
  98
1
  10
0.0
  20
0.0
   0
HATCH
   5
1B6
 100
AcDbEntity
   8
LEVEL001
  62
1
 100
AcDbHatch
  10
0.0
  20
0.0
  30
0.0
 210
0.0
 220
0.0
 230
 1.0000000000000
   2
SOLID
  70
1
  71
1
  91
1
  92
1
  93
8
  72
1
  10
 396.35000000000
  20
 272.07500000000
  11
 390.95000000000
  21
 272.07500000000
  72
2
  10
 390.95000000000
  20
 266.67500000000
  40
 5.4000000000000
  50
 90.000000000000
  51
 270.00000000000
  73
1
  72
1
  10
 390.95000000000
  20
 261.27500000000
  11
 396.35000000000
  21
 261.27500000000
  72
1
  10
 396.35000000000
  20
 261.27500000000
  11
 396.35000000000
  21
 264.87500000000
  72
1
  10
 396.35000000000
  20
 264.87500000000
  11
 390.95000000000
  21
 264.87500000000
  72
2
  10
 390.95000000000
  20
 266.67500000000
  40
 1.8000000000000
  50
 90.000000000000
  51
 270.00000000000
  73
0
  72
1
  10
 390.95000000000
  20
 268.47500000000
  11
 396.35000000000
  21
 268.47500000000
  72
1
  10
 396.35000000000
  20
 268.47500000000
  11
 396.35000000000
  21
 272.07500000000
  97
1
 330

  75
0
  76
1
  98
1
  10
0.0
  20
0.0
   0
MTEXT
   5
1B8
 100
AcDbEntity
   8
LEVEL002
 370
15
  62
8
 100
AcDbMText
  10
 310.79999999995
  20
 28.250000000010
  30
0.0
  40
 3.0000000000000
  41
0.0
  71
5
  72
1
   1
\T1.000000;サイズ：
   7
GMM002
  44
 0.79999984000003
   0
MTEXT
   5
1BA
 100
AcDbEntity
   8
LEVEL002
 370
15
  62
8
 100
AcDbMText
  10
 309.29999999995
  20
 48.250000000010
  30
0.0
  40
 3.0000000000000
  41
0.0
  71
5
  72
1
   1
\T1.000000;縮尺：
   7
GMM002
  44
 0.79999984000003
   0
MTEXT
   5
1BC
 100
AcDbEntity
   8
LEVEL002
 370
15
  62
8
 100
AcDbMText
  10
 312.29999999995
  20
 68.250000000010
  30
0.0
  40
 3.0000000000000
  41
0.0
  71
5
  72
1
   1
\T1.000000;図面名称：
   7
GMM002
  44
 0.79999984000003
   0
MTEXT
   5
1BE
 100
AcDbEntity
   8
LEVEL002
 370
15
  62
8
 100
AcDbMText
  10
 363.79999999995
  20
 28.250000000010
  30
0.0
  40
 3.0000000000000
  41
0.0
  71
5
  72
1
   1
\T1.000000;ファイル名：
   7
GMM002
  44
 0.79999984000003
   0
MTEXT
   5
1C0
 100
AcDbEntity
   8
LEVEL002
 370
15
  62
8
 100
AcDbMText
  10
 362.29999999995
  20
 48.666666666680
  30
0.0
  40
 2.8000000000000
  41
0.0
  71
5
  72
1
   1
\T1.000000;作成日付：
   7
GMM003
  44
 0.79999984000003
   0
MTEXT
   5
1C2
 100
AcDbEntity
   8
LEVEL002
 370
15
  62
8
 100
AcDbMText
  10
 362.29999999995
  20
 42.000000000010
  30
0.0
  40
 2.8000000000000
  41
0.0
  71
5
  72
1
   1
\T1.000000;変更日付：
   7
GMM003
  44
 0.79999984000003
   0
MTEXT
   5
1C4
 100
AcDbEntity
   8
LEVEL002
 370
15
  62
8
 100
AcDbMText
  10
 329.49999999995
  20
 18.250000000010
  30
0.0
  40
 3.7500000000000
  41
0.0
  71
5
  72
1
   1
\T1.000000;Ａ３
   7
GMM002
  44
 0.79999984000003
   0
MTEXT
   5
1C6
 100
AcDbEntity
   8
LEVEL002
 370
15
  62
8
 100
AcDbMText
  10
 309.29999999995
  20
 213.00000000000
  30
0.0
  40
 3.0000000000000
  41
0.0
  71
5
  72
1
   1
\T1.000000;仕様：
   7
GMM002
  44
 0.79999984000003
   0
MTEXT
   5
1C8
 100
AcDbEntity
   8
LEVEL002
 370
15
  62
8
 100
AcDbMText
  10
 309.29999999995
  20
 233.00000000000
  30
0.0
  40
 3.0000000000000
  41
0.0
  71
5
  72
1
   1
\T1.000000;形式：
   7
GMM002
  44
 0.79999984000003
   0
MTEXT
   5
1CA
 100
AcDbEntity
   8
LEVEL002
 370
15
  62
8
 100
AcDbMText
  10
 310.79999999995
  20
 253.00000000000
  30
0.0
  40
 3.0000000000000
  41
0.0
  71
5
  72
1
   1
\T1.000000;商品名：
   7
GMM002
  44
 0.79999984000003
   0
MTEXT
   5
1CC
 100
AcDbEntity
   8
LEVEL002
 370
15
  62
8
 100
AcDbMText
  10
 387.21508456075
  20
 35.333333333345
  30
0.0
  40
 3.0000000000000
  41
0.0
  71
5
  72
1
   1
\T1.000000;平成　　年　　月　　日
   7
GMM002
  44
 0.79999984000003
   0
MTEXT
   5
1CE
 100
AcDbEntity
   8
LEVEL002
 370
15
  62
8
 100
AcDbMText
  10
 387.21508456075
  20
 42.000000000010
  30
0.0
  40
 3.0000000000000
  41
0.0
  71
5
  72
1
   1
\T1.000000;平成　　年　　月　　日
   7
GMM002
  44
 0.79999984000003
   0
MTEXT
   5
1D0
 100
AcDbEntity
   8
LEVEL002
 370
15
  62
8
 100
AcDbMText
  10
 346.89999999995
  20
 76.870803459012
  30
0.0
  40
 4.0000000000000
  41
0.0
  71
5
  72
1
   1
\T1.000000;　※本製品は予告無しに変更する事があります。
   7
GMM002
  44
 0.79999984000003
   0
MTEXT
   5
1D2
 100
AcDbEntity
   8
LEVEL002
 370
15
  62
8
 100
AcDbMText
  10
 387.21508456075
  20
 48.666666666680
  30
0.0
  40
 3.0000000000000
  41
0.0
  71
5
  72
1
   1
\T1.000000;令和０５年０５月２４日
   7
GMM002
  44
 0.79999984000003
   0
MTEXT
   5
1D4
 100
AcDbEntity
   8
LEVEL002
 370
15
  62
8
 100
AcDbMText
  10
 329.49999999995
  20
 38.250000000010
  30
0.0
  40
 3.7500000000000
  41
0.0
  71
5
  72
1
   1
\T1.000000;Ｓ＝１：１
   7
GMM002
  44
 0.79999984000003
   0
MTEXT
   5
1D6
 100
AcDbEntity
   8
LEVEL002
 370
15
  62
8
 100
AcDbMText
  10
 379.49999999995
  20
 20.083333333345
  30
0.0
  40
 2.5000000000000
  41
0.0
  71
5
  72
1
   1
\T1.000000;ＰＳ２２
   7
GMM002
  44
 0.79999984000003
   0
MTEXT
   5
1D8
 100
AcDbEntity
   8
LEVEL001
 370
15
  62
8
 100
AcDbMText
  10
 15.799999999950
  20
 280.00000000000
  30
0.0
  40
 3.0000000000000
  41
0.0
  71
4
  72
1
   1
\W0.500000;\T1.000000; \W1.000000;\T1.000000;　ＰＳ２２（警告用点鋲）
   7
GMM002
  44
 0.79999984000003
   0
MTEXT
   5
1DA
 100
AcDbEntity
   8
LEVEL002
 370
15
  62
8
 100
AcDbMText
  10
 319.49999999995
  20
 207.91666666670
  30
0.0
  40
 3.5000000000000
  41
0.0
  71
1
  72
1
   3
{\T1.000000;・警告用点鋲}\P{\T1.000000;　ＰＳ２２ＳＮ}\P{\T1.000000;　　カラー／ステンレス}\P{\T1.000000;　　　　　　ノンスリップ}\P\P{\T1.000000;　ＰＳ２２ＳＨ}\P{\T1.000000;　　カラー／ステンレス}\P{\T1.000000;　　　　　　ヘアーライン}\P\P{\T1.0000
   1
00;　ＰＳ２２ＰＣＹ}\P{\T1.000000;　　カラー／イエロー}\P\P{\T1.000000;　ＰＳ２２ＰＣＤ}\P{\T1.000000;　　カラー／ダークグレイ}\P\P{\T1.000000;　ＰＳ２２ＰＣＳ}\P{\T1.000000;　　カラー／シルバー}
   7
GMM002
  44
 0.79999984000003
   0
DIMENSION
   5
1DB
 100
AcDbEntity
   8
LEVEL001
 370
15
   6
CONTINUOUS
  62
8
 100
AcDbDimension
   2
*D1
  10
 279.24049881235
  20
 141.22231246252
  30
0.0
  11
 267.24049881235
  21
 141.22231246252
  31
0.0
  70
0
   3
GMM001
 100
AcDbAlignedDimension
  13
 255.24049881235
  23
 151.22231246252
  33
0.0
  14
 279.24049881235
  24
 151.22231246252
  34
0.0
 100
AcDbRotatedDimension
   0
DIMENSION
   5
1DC
 100
AcDbEntity
   8
LEVEL001
 370
15
   6
CONTINUOUS
  62
8
 100
AcDbDimension
   2
*D2
  10
 289.64049881235
  20
 155.22231246252
  30
0.0
  11
 289.64049881235
  21
 149.59337315586
  31
0.0
  70
128
   3
GMM002
 100
AcDbAlignedDimension
  13
 279.24049881235
  23
 151.22231246252
  33
0.0
  14
 279.64049881235
  24
 155.22231246252
  34
0.0
  50
 90.000000000000
 100
AcDbRotatedDimension
   0
LINE
   5
1DD
 100
AcDbEntity
   8
LEVEL002
 370
15
 100
AcDbLine
   6
DASHDOT
  62
8
  10
 267.24049881235
  20
 156.50046516271
  30
0.0
  11
 267.24049881235
  21
 148.64969468420
  31
0.0
   0
LINE
   5
1DE
 100
AcDbEntity
   8
LEVEL002
 370
25
 100
AcDbLine
   6
CONTINUOUS
  62
1
  10
 265.11917846863
  20
 196.68313384663
  30
0.0
  11
 267.24049881235
  21
 198.80445419035
  31
0.0
   0
LINE
   5
1DF
 100
AcDbEntity
   8
LEVEL002
 370
25
 100
AcDbLine
   6
CONTINUOUS
  62
1
  10
 267.24049881235
  20
 194.56181350290
  30
0.0
  11
 265.11917846863
  21
 196.68313384663
  31
0.0
   0
LINE
   5
1E0
 100
AcDbEntity
   8
LEVEL002
 370
25
 100
AcDbLine
   6
CONTINUOUS
  62
1
  10
 267.24049881235
  20
 194.56181350290
  30
0.0
  11
 269.36181915608
  21
 196.68313384663
  31
0.0
   0
LINE
   5
1E1
 100
AcDbEntity
   8
LEVEL002
 370
25
 100
AcDbLine
   6
CONTINUOUS
  62
1
  10
 269.36181915608
  20
 196.68313384663
  30
0.0
  11
 267.24049881235
  21
 198.80445419035
  31
0.0
   0
LINE
   5
1E2
 100
AcDbEntity
   8
LEVEL002
 370
25
 100
AcDbLine
   6
CONTINUOUS
  62
1
  10
 267.94760559348
  20
 199.51156097148
  30
0.0
  11
 270.06892593721
  21
 201.63288131520
  31
0.0
   0
LINE
   5
1E3
 100
AcDbEntity
   8
LEVEL002
 370
25
 100
AcDbLine
   6
CONTINUOUS
  62
1
  10
 270.06892593721
  20
 197.39024062776
  30
0.0
  11
 267.94760559348
  21
 199.51156097148
  31
0.0
   0
LINE
   5
1E4
 100
AcDbEntity
   8
LEVEL002
 370
25
 100
AcDbLine
   6
CONTINUOUS
  62
1
  10
 270.06892593721
  20
 197.39024062776
  30
0.0
  11
 272.19024628093
  21
 199.51156097148
  31
0.0
   0
LINE
   5
1E5
 100
AcDbEntity
   8
LEVEL002
 370
25
 100
AcDbLine
   6
CONTINUOUS
  62
1
  10
 272.19024628093
  20
 199.51156097148
  30
0.0
  11
 270.06892593721
  21
 201.63288131520
  31
0.0
   0
LINE
   5
1E6
 100
AcDbEntity
   8
LEVEL002
 370
25
 100
AcDbLine
   6
CONTINUOUS
  62
1
  10
 272.89735306206
  20
 200.21866775261
  30
0.0
  11
 270.77603271834
  21
 202.33998809633
  31
0.0
   0
LINE
   5
1E7
 100
AcDbEntity
   8
LEVEL002
 370
25
 100
AcDbLine
   6
CONTINUOUS
  62
1
  10
 272.89735306206
  20
 200.21866775261
  30
0.0
  11
 275.01867340579
  21
 202.33998809633
  31
0.0
   0
LINE
   5
1E8
 100
AcDbEntity
   8
LEVEL002
 370
25
 100
AcDbLine
   6
CONTINUOUS
  62
1
  10
 267.94760559348
  20
 193.85470672177
  30
0.0
  11
 270.06892593721
  21
 191.73338637805
  31
0.0
   0
LINE
   5
1E9
 100
AcDbEntity
   8
LEVEL002
 370
25
 100
AcDbLine
   6
CONTINUOUS
  62
1
  10
 270.06892593721
  20
 195.97602706549
  30
0.0
  11
 267.94760559348
  21
 193.85470672177
  31
0.0
   0
LINE
   5
1EA
 100
AcDbEntity
   8
LEVEL002
 370
25
 100
AcDbLine
   6
CONTINUOUS
  62
1
  10
 270.06892593721
  20
 195.97602706549
  30
0.0
  11
 272.19024628093
  21
 193.85470672177
  31
0.0
   0
LINE
   5
1EB
 100
AcDbEntity
   8
LEVEL002
 370
25
 100
AcDbLine
   6
CONTINUOUS
  62
1
  10
 272.19024628093
  20
 193.85470672177
  30
0.0
  11
 270.06892593721
  21
 191.73338637805
  31
0.0
   0
LINE
   5
1EC
 100
AcDbEntity
   8
LEVEL002
 370
25
 100
AcDbLine
   6
CONTINUOUS
  62
1
  10
 275.01867340579
  20
 196.68313384663
  30
0.0
  11
 272.89735306206
  21
 198.80445419035
  31
0.0
   0
LINE
   5
1ED
 100
AcDbEntity
   8
LEVEL002
 370
25
 100
AcDbLine
   6
CONTINUOUS
  62
1
  10
 272.89735306206
  20
 194.56181350290
  30
0.0
  11
 275.01867340579
  21
 196.68313384663
  31
0.0
   0
LINE
   5
1EE
 100
AcDbEntity
   8
LEVEL002
 370
25
 100
AcDbLine
   6
CONTINUOUS
  62
1
  10
 272.89735306206
  20
 194.56181350290
  30
0.0
  11
 270.77603271834
  21
 196.68313384663
  31
0.0
   0
LINE
   5
1EF
 100
AcDbEntity
   8
LEVEL002
 370
25
 100
AcDbLine
   6
CONTINUOUS
  62
1
  10
 270.77603271834
  20
 196.68313384663
  30
0.0
  11
 272.89735306206
  21
 198.80445419035
  31
0.0
   0
LINE
   5
1F0
 100
AcDbEntity
   8
LEVEL002
 370
25
 100
AcDbLine
   6
CONTINUOUS
  62
1
  10
 273.60445984319
  20
 193.85470672177
  30
0.0
  11
 275.72578018692
  21
 191.73338637805
  31
0.0
   0
LINE
   5
1F1
 100
AcDbEntity
   8
LEVEL002
 370
25
 100
AcDbLine
   6
CONTINUOUS
  62
1
  10
 275.72578018692
  20
 195.97602706549
  30
0.0
  11
 277.84710053064
  21
 193.85470672177
  31
0.0
   0
LINE
   5
1F2
 100
AcDbEntity
   8
LEVEL002
 370
25
 100
AcDbLine
   6
CONTINUOUS
  62
1
  10
 275.72578018692
  20
 195.97602706549
  30
0.0
  11
 273.60445984319
  21
 193.85470672177
  31
0.0
   0
LINE
   5
1F3
 100
AcDbEntity
   8
LEVEL002
 370
25
 100
AcDbLine
   6
CONTINUOUS
  62
1
  10
 275.72578018692
  20
 197.39024062776
  30
0.0
  11
 273.60445984319
  21
 199.51156097148
  31
0.0
   0
LINE
   5
1F4
 100
AcDbEntity
   8
LEVEL002
 370
25
 100
AcDbLine
   6
CONTINUOUS
  62
1
  10
 273.60445984319
  20
 199.51156097148
  30
0.0
  11
 275.72578018692
  21
 201.63288131520
  31
0.0
   0
LINE
   5
1F5
 100
AcDbEntity
   8
LEVEL002
 370
25
 100
AcDbLine
   6
CONTINUOUS
  62
1
  10
 278.55420731177
  20
 194.56181350290
  30
0.0
  11
 276.43288696804
  21
 196.68313384663
  31
0.0
   0
LINE
   5
1F6
 100
AcDbEntity
   8
LEVEL002
 370
25
 100
AcDbLine
   6
CONTINUOUS
  62
1
  10
 278.55420731177
  20
 193.14759994064
  30
0.0
  11
 276.43288696805
  21
 191.02627959692
  31
0.0
   0
LINE
   5
1F7
 100
AcDbEntity
   8
LEVEL002
 370
25
 100
AcDbLine
   6
CONTINUOUS
  62
1
  10
 267.94760559348
  20
 205.16841522119
  30
0.0
  11
 270.06892593721
  21
 203.04709487746
  31
0.0
   0
LINE
   5
1F8
 100
AcDbEntity
   8
LEVEL002
 370
25
 100
AcDbLine
   6
CONTINUOUS
  62
1
  10
 265.11917846863
  20
 202.33998809633
  30
0.0
  11
 267.24049881235
  21
 200.21866775261
  31
0.0
   0
LINE
   5
1F9
 100
AcDbEntity
   8
LEVEL002
 370
25
 100
AcDbLine
   6
CONTINUOUS
  62
1
  10
 267.24049881235
  20
 204.46130844006
  30
0.0
  11
 265.11917846863
  21
 202.33998809633
  31
0.0
   0
LINE
   5
1FA
 100
AcDbEntity
   8
LEVEL002
 370
25
 100
AcDbLine
   6
CONTINUOUS
  62
1
  10
 267.24049881235
  20
 204.46130844006
  30
0.0
  11
 269.36181915608
  21
 202.33998809633
  31
0.0
   0
LINE
   5
1FB
 100
AcDbEntity
   8
LEVEL002
 370
25
 100
AcDbLine
   6
CONTINUOUS
  62
1
  10
 269.36181915608
  20
 202.33998809633
  30
0.0
  11
 267.24049881235
  21
 200.21866775261
  31
0.0
   0
LINE
   5
1FC
 100
AcDbEntity
   8
LEVEL002
 370
25
 100
AcDbLine
   6
CONTINUOUS
  62
1
  10
 264.41207168750
  20
 197.39024062776
  30
0.0
  11
 262.29075134377
  21
 199.51156097148
  31
0.0
   0
LINE
   5
1FD
 100
AcDbEntity
   8
LEVEL002
 370
25
 100
AcDbLine
   6
CONTINUOUS
  62
1
  10
 262.29075134377
  20
 199.51156097148
  30
0.0
  11
 264.41207168750
  21
 201.63288131520
  31
0.0
   0
LINE
   5
1FE
 100
AcDbEntity
   8
LEVEL002
 370
25
 100
AcDbLine
   6
CONTINUOUS
  62
1
  10
 261.58364456264
  20
 200.21866775261
  30
0.0
  11
 263.70496490637
  21
 202.33998809633
  31
0.0
   0
LINE
   5
1FF
 100
AcDbEntity
   8
LEVEL002
 370
25
 100
AcDbLine
   6
CONTINUOUS
  62
1
  10
 261.58364456264
  20
 200.21866775261
  30
0.0
  11
 259.46232421892
  21
 202.33998809633
  31
0.0
   0
LINE
   5
200
 100
AcDbEntity
   8
LEVEL002
 370
25
 100
AcDbLine
   6
CONTINUOUS
  62
1
  10
 264.41207168750
  20
 195.97602706549
  30
0.0
  11
 262.29075134377
  21
 193.85470672177
  31
0.0
   0
LINE
   5
201
 100
AcDbEntity
   8
LEVEL002
 370
25
 100
AcDbLine
   6
CONTINUOUS
  62
1
  10
 262.29075134377
  20
 193.85470672177
  30
0.0
  11
 264.41207168750
  21
 191.73338637805
  31
0.0
   0
LINE
   5
202
 100
AcDbEntity
   8
LEVEL002
 370
25
 100
AcDbLine
   6
CONTINUOUS
  62
1
  10
 261.58364456264
  20
 193.14759994064
  30
0.0
  11
 263.70496490637
  21
 191.02627959692
  31
0.0
   0
LINE
   5
203
 100
AcDbEntity
   8
LEVEL002
 370
25
 100
AcDbLine
   6
CONTINUOUS
  62
1
  10
 261.58364456264
  20
 193.14759994064
  30
0.0
  11
 259.46232421892
  21
 191.02627959692
  31
0.0
   0
LINE
   5
204
 100
AcDbEntity
   8
LEVEL002
 370
25
 100
AcDbLine
   6
CONTINUOUS
  62
1
  10
 259.46232421892
  20
 191.02627959692
  30
0.0
  11
 261.58364456264
  21
 188.90495925319
  31
0.0
   0
LINE
   5
205
 100
AcDbEntity
   8
LEVEL002
 370
25
 100
AcDbLine
   6
CONTINUOUS
  62
1
  10
 263.70496490637
  20
 191.02627959692
  30
0.0
  11
 261.58364456264
  21
 188.90495925319
  31
0.0
   0
LINE
   5
206
 100
AcDbEntity
   8
LEVEL002
 370
25
 100
AcDbLine
   6
CONTINUOUS
  62
1
  10
 259.46232421892
  20
 196.68313384663
  30
0.0
  11
 261.58364456264
  21
 198.80445419035
  31
0.0
   0
LINE
   5
207
 100
AcDbEntity
   8
LEVEL002
 370
25
 100
AcDbLine
   6
CONTINUOUS
  62
1
  10
 261.58364456264
  20
 194.56181350290
  30
0.0
  11
 259.46232421892
  21
 196.68313384663
  31
0.0
   0
LINE
   5
208
 100
AcDbEntity
   8
LEVEL002
 370
25
 100
AcDbLine
   6
CONTINUOUS
  62
1
  10
 261.58364456264
  20
 194.56181350290
  30
0.0
  11
 263.70496490637
  21
 196.68313384663
  31
0.0
   0
LINE
   5
209
 100
AcDbEntity
   8
LEVEL002
 370
25
 100
AcDbLine
   6
CONTINUOUS
  62
1
  10
 263.70496490637
  20
 196.68313384663
  30
0.0
  11
 261.58364456264
  21
 198.80445419035
  31
0.0
   0
LINE
   5
20A
 100
AcDbEntity
   8
LEVEL002
 370
25
 100
AcDbLine
   6
CONTINUOUS
  62
1
  10
 256.63389709407
  20
 193.85470672177
  30
0.0
  11
 258.75521743779
  21
 191.73338637805
  31
0.0
   0
LINE
   5
20B
 100
AcDbEntity
   8
LEVEL002
 370
25
 100
AcDbLine
   6
CONTINUOUS
  62
1
  10
 260.87653778151
  20
 193.85470672177
  30
0.0
  11
 258.75521743779
  21
 191.73338637805
  31
0.0
   0
LINE
   5
20C
 100
AcDbEntity
   8
LEVEL002
 370
25
 100
AcDbLine
   6
CONTINUOUS
  62
1
  10
 258.75521743779
  20
 195.97602706549
  30
0.0
  11
 256.63389709407
  21
 193.85470672177
  31
0.0
   0
LINE
   5
20D
 100
AcDbEntity
   8
LEVEL002
 370
25
 100
AcDbLine
   6
CONTINUOUS
  62
1
  10
 258.75521743779
  20
 195.97602706549
  30
0.0
  11
 260.87653778151
  21
 193.85470672177
  31
0.0
   0
LINE
   5
20E
 100
AcDbEntity
   8
LEVEL002
 370
25
 100
AcDbLine
   6
CONTINUOUS
  62
1
  10
 258.75521743779
  20
 197.39024062776
  30
0.0
  11
 256.63389709407
  21
 199.51156097148
  31
0.0
   0
LINE
   5
20F
 100
AcDbEntity
   8
LEVEL002
 370
25
 100
AcDbLine
   6
CONTINUOUS
  62
1
  10
 258.75521743779
  20
 197.39024062776
  30
0.0
  11
 260.87653778151
  21
 199.51156097148
  31
0.0
   0
LINE
   5
210
 100
AcDbEntity
   8
LEVEL002
 370
25
 100
AcDbLine
   6
CONTINUOUS
  62
1
  10
 256.63389709407
  20
 199.51156097148
  30
0.0
  11
 258.75521743779
  21
 201.63288131520
  31
0.0
   0
LINE
   5
211
 100
AcDbEntity
   8
LEVEL002
 370
25
 100
AcDbLine
   6
CONTINUOUS
  62
1
  10
 260.87653778151
  20
 199.51156097148
  30
0.0
  11
 258.75521743779
  21
 201.63288131520
  31
0.0
   0
LINE
   5
212
 100
AcDbEntity
   8
LEVEL002
 370
25
 100
AcDbLine
   6
CONTINUOUS
  62
1
  10
 255.92679031294
  20
 194.56181350290
  30
0.0
  11
 258.04811065666
  21
 196.68313384663
  31
0.0
   0
LINE
   5
213
 100
AcDbEntity
   8
LEVEL002
 370
25
 100
AcDbLine
   6
CONTINUOUS
  62
1
  10
 255.92679031294
  20
 193.14759994064
  30
0.0
  11
 258.04811065666
  21
 191.02627959692
  31
0.0
   0
LINE
   5
214
 100
AcDbEntity
   8
LEVEL002
 370
25
 100
AcDbLine
   6
CONTINUOUS
  62
1
  10
 266.53339203122
  20
 205.16841522119
  30
0.0
  11
 264.41207168750
  21
 203.04709487746
  31
0.0
   0
LINE
   5
215
 100
AcDbEntity
   8
LEVEL002
 370
25
 100
AcDbLine
   6
CONTINUOUS
  62
1
  10
 264.41207168750
  20
 197.39024062776
  30
0.0
  11
 266.53339203122
  21
 199.51156097148
  31
0.0
   0
LINE
   5
216
 100
AcDbEntity
   8
LEVEL002
 370
25
 100
AcDbLine
   6
CONTINUOUS
  62
1
  10
 266.53339203122
  20
 199.51156097148
  30
0.0
  11
 264.41207168750
  21
 201.63288131520
  31
0.0
   0
LINE
   5
217
 100
AcDbEntity
   8
LEVEL002
 370
25
 100
AcDbLine
   6
CONTINUOUS
  62
1
  10
 264.41207168750
  20
 195.97602706549
  30
0.0
  11
 266.53339203122
  21
 193.85470672177
  31
0.0
   0
LINE
   5
218
 100
AcDbEntity
   8
LEVEL002
 370
25
 100
AcDbLine
   6
CONTINUOUS
  62
1
  10
 266.53339203122
  20
 193.85470672177
  30
0.0
  11
 264.41207168750
  21
 191.73338637805
  31
0.0
   0
LINE
   5
219
 100
AcDbEntity
   8
LEVEL002
 370
25
 100
AcDbLine
   6
CONTINUOUS
  62
1
  10
 265.11917846863
  20
 191.02627959724
  30
0.0
  11
 267.24049881235
  21
 188.90495925351
  31
0.0
   0
LINE
   5
21A
 100
AcDbEntity
   8
LEVEL002
 370
25
 100
AcDbLine
   6
CONTINUOUS
  62
1
  10
 267.24049881235
  20
 193.14759994096
  30
0.0
  11
 265.11917846863
  21
 191.02627959724
  31
0.0
   0
LINE
   5
21B
 100
AcDbEntity
   8
LEVEL002
 370
25
 100
AcDbLine
   6
CONTINUOUS
  62
1
  10
 267.24049881235
  20
 193.14759994096
  30
0.0
  11
 269.36181915608
  21
 191.02627959724
  31
0.0
   0
LINE
   5
21C
 100
AcDbEntity
   8
LEVEL002
 370
25
 100
AcDbLine
   6
CONTINUOUS
  62
1
  10
 269.36181915608
  20
 191.02627959724
  30
0.0
  11
 267.24049881235
  21
 188.90495925351
  31
0.0
   0
LINE
   5
21D
 100
AcDbEntity
   8
LEVEL002
 370
25
 100
AcDbLine
   6
CONTINUOUS
  62
1
  10
 267.94760559348
  20
 188.19785247238
  30
0.0
  11
 270.06892593721
  21
 186.07653212866
  31
0.0
   0
LINE
   5
21E
 100
AcDbEntity
   8
LEVEL002
 370
25
 100
AcDbLine
   6
CONTINUOUS
  62
1
  10
 270.06892593721
  20
 190.31917281611
  30
0.0
  11
 267.94760559348
  21
 188.19785247238
  31
0.0
   0
LINE
   5
21F
 100
AcDbEntity
   8
LEVEL002
 370
25
 100
AcDbLine
   6
CONTINUOUS
  62
1
  10
 270.06892593721
  20
 190.31917281611
  30
0.0
  11
 272.19024628093
  21
 188.19785247238
  31
0.0
   0
LINE
   5
220
 100
AcDbEntity
   8
LEVEL002
 370
25
 100
AcDbLine
   6
CONTINUOUS
  62
1
  10
 272.19024628093
  20
 188.19785247238
  30
0.0
  11
 270.06892593721
  21
 186.07653212866
  31
0.0
   0
LINE
   5
221
 100
AcDbEntity
   8
LEVEL002
 370
25
 100
AcDbLine
   6
CONTINUOUS
  62
1
  10
 272.89735306206
  20
 187.49074569125
  30
0.0
  11
 270.77603271834
  21
 185.36942534753
  31
0.0
   0
LINE
   5
222
 100
AcDbEntity
   8
LEVEL002
 370
25
 100
AcDbLine
   6
CONTINUOUS
  62
1
  10
 272.89735306206
  20
 187.49074569125
  30
0.0
  11
 275.01867340579
  21
 185.36942534753
  31
0.0
   0
LINE
   5
223
 100
AcDbEntity
   8
LEVEL002
 370
25
 100
AcDbLine
   6
CONTINUOUS
  62
1
  10
 275.01867340579
  20
 191.02627959724
  30
0.0
  11
 272.89735306206
  21
 188.90495925351
  31
0.0
   0
LINE
   5
224
 100
AcDbEntity
   8
LEVEL002
 370
25
 100
AcDbLine
   6
CONTINUOUS
  62
1
  10
 272.89735306206
  20
 193.14759994096
  30
0.0
  11
 275.01867340579
  21
 191.02627959724
  31
0.0
   0
LINE
   5
225
 100
AcDbEntity
   8
LEVEL002
 370
25
 100
AcDbLine
   6
CONTINUOUS
  62
1
  10
 272.89735306206
  20
 193.14759994096
  30
0.0
  11
 270.77603271834
  21
 191.02627959724
  31
0.0
   0
LINE
   5
226
 100
AcDbEntity
   8
LEVEL002
 370
25
 100
AcDbLine
   6
CONTINUOUS
  62
1
  10
 270.77603271834
  20
 191.02627959724
  30
0.0
  11
 272.89735306206
  21
 188.90495925351
  31
0.0
   0
LINE
   5
227
 100
AcDbEntity
   8
LEVEL002
 370
25
 100
AcDbLine
   6
CONTINUOUS
  62
1
  10
 275.72578018692
  20
 191.73338637837
  30
0.0
  11
 277.84710053064
  21
 193.85470672209
  31
0.0
   0
LINE
   5
228
 100
AcDbEntity
   8
LEVEL002
 370
25
 100
AcDbLine
   6
CONTINUOUS
  62
1
  10
 275.72578018692
  20
 190.31917281611
  30
0.0
  11
 273.60445984319
  21
 188.19785247238
  31
0.0
   0
LINE
   5
229
 100
AcDbEntity
   8
LEVEL002
 370
25
 100
AcDbLine
   6
CONTINUOUS
  62
1
  10
 273.60445984319
  20
 188.19785247238
  30
0.0
  11
 275.72578018692
  21
 186.07653212866
  31
0.0
   0
LINE
   5
22A
 100
AcDbEntity
   8
LEVEL002
 370
25
 100
AcDbLine
   6
CONTINUOUS
  62
1
  10
 267.94760559348
  20
 182.54099822268
  30
0.0
  11
 270.06892593721
  21
 184.66231856640
  31
0.0
   0
LINE
   5
22B
 100
AcDbEntity
   8
LEVEL002
 370
25
 100
AcDbLine
   6
CONTINUOUS
  62
1
  10
 265.11917846863
  20
 185.36942534753
  30
0.0
  11
 267.24049881235
  21
 187.49074569125
  31
0.0
   0
LINE
   5
22C
 100
AcDbEntity
   8
LEVEL002
 370
25
 100
AcDbLine
   6
CONTINUOUS
  62
1
  10
 267.24049881235
  20
 183.24810500381
  30
0.0
  11
 265.11917846863
  21
 185.36942534753
  31
0.0
   0
LINE
   5
22D
 100
AcDbEntity
   8
LEVEL002
 370
25
 100
AcDbLine
   6
CONTINUOUS
  62
1
  10
 267.24049881235
  20
 183.24810500381
  30
0.0
  11
 269.36181915608
  21
 185.36942534753
  31
0.0
   0
LINE
   5
22E
 100
AcDbEntity
   8
LEVEL002
 370
25
 100
AcDbLine
   6
CONTINUOUS
  62
1
  10
 269.36181915608
  20
 185.36942534753
  30
0.0
  11
 267.24049881235
  21
 187.49074569125
  31
0.0
   0
LINE
   5
22F
 100
AcDbEntity
   8
LEVEL002
 370
25
 100
AcDbLine
   6
CONTINUOUS
  62
1
  10
 264.41207168750
  20
 190.31917281611
  30
0.0
  11
 262.29075134377
  21
 188.19785247238
  31
0.0
   0
LINE
   5
230
 100
AcDbEntity
   8
LEVEL002
 370
25
 100
AcDbLine
   6
CONTINUOUS
  62
1
  10
 262.29075134377
  20
 188.19785247238
  30
0.0
  11
 264.41207168750
  21
 186.07653212866
  31
0.0
   0
LINE
   5
231
 100
AcDbEntity
   8
LEVEL002
 370
25
 100
AcDbLine
   6
CONTINUOUS
  62
1
  10
 261.58364456264
  20
 187.49074569125
  30
0.0
  11
 263.70496490637
  21
 185.36942534753
  31
0.0
   0
LINE
   5
232
 100
AcDbEntity
   8
LEVEL002
 370
25
 100
AcDbLine
   6
CONTINUOUS
  62
1
  10
 261.58364456264
  20
 187.49074569125
  30
0.0
  11
 259.46232421892
  21
 185.36942534753
  31
0.0
   0
LINE
   5
233
 100
AcDbEntity
   8
LEVEL002
 370
25
 100
AcDbLine
   6
CONTINUOUS
  62
1
  10
 258.75521743779
  20
 190.31917281611
  30
0.0
  11
 260.87653778151
  21
 188.19785247238
  31
0.0
   0
LINE
   5
234
 100
AcDbEntity
   8
LEVEL002
 370
25
 100
AcDbLine
   6
CONTINUOUS
  62
1
  10
 260.87653778151
  20
 188.19785247238
  30
0.0
  11
 258.75521743779
  21
 186.07653212866
  31
0.0
   0
LINE
   5
235
 100
AcDbEntity
   8
LEVEL002
 370
25
 100
AcDbLine
   6
CONTINUOUS
  62
1
  10
 266.53339203122
  20
 182.54099822268
  30
0.0
  11
 264.41207168750
  21
 184.66231856640
  31
0.0
   0
LINE
   5
236
 100
AcDbEntity
   8
LEVEL002
 370
25
 100
AcDbLine
   6
CONTINUOUS
  62
1
  10
 264.41207168750
  20
 190.31917281611
  30
0.0
  11
 266.53339203122
  21
 188.19785247238
  31
0.0
   0
LINE
   5
237
 100
AcDbEntity
   8
LEVEL002
 370
25
 100
AcDbLine
   6
CONTINUOUS
  62
1
  10
 266.53339203122
  20
 188.19785247238
  30
0.0
  11
 264.41207168750
  21
 186.07653212866
  31
0.0
   0
LINE
   5
238
 100
AcDbEntity
   8
LEVEL002
 370
25
 100
AcDbLine
   6
CONTINUOUS
  62
1
  10
 265.91997902180
  20
 205.78182823061
  30
0.0
  11
 266.53339203122
  21
 205.16841522119
  31
0.0
   0
LINE
   5
239
 100
AcDbEntity
   8
LEVEL002
 370
25
 100
AcDbLine
   6
CONTINUOUS
  62
1
  10
 262.55641296641
  20
 204.90275359855
  30
0.0
  11
 264.41207168750
  21
 203.04709487746
  31
0.0
   0
LINE
   5
23A
 100
AcDbEntity
   8
LEVEL002
 370
25
 100
AcDbLine
   6
CONTINUOUS
  62
1
  10
 263.70496490637
  20
 202.33998809633
  30
0.0
  11
 261.59903100620
  21
 204.44592199650
  31
0.0
   0
LINE
   5
23B
 100
AcDbEntity
   8
LEVEL002
 370
25
 100
AcDbLine
   6
CONTINUOUS
  62
1
  10
 259.46232421892
  20
 202.33998809633
  30
0.0
  11
 261.53261075623
  21
 204.41027463364
  31
0.0
   0
LINE
   5
23C
 100
AcDbEntity
   8
LEVEL002
 370
25
 100
AcDbLine
   6
CONTINUOUS
  62
1
  10
 268.56101860290
  20
 205.78182823061
  30
0.0
  11
 267.94760559348
  21
 205.16841522119
  31
0.0
   0
LINE
   5
23D
 100
AcDbEntity
   8
LEVEL002
 370
25
 100
AcDbLine
   6
CONTINUOUS
  62
1
  10
 271.92458465829
  20
 204.90275359855
  30
0.0
  11
 270.06892593721
  21
 203.04709487746
  31
0.0
   0
LINE
   5
23E
 100
AcDbEntity
   8
LEVEL002
 370
25
 100
AcDbLine
   6
CONTINUOUS
  62
1
  10
 275.01867340579
  20
 202.33998809633
  30
0.0
  11
 272.94838686847
  21
 204.41027463364
  31
0.0
   0
LINE
   5
23F
 100
AcDbEntity
   8
LEVEL002
 370
25
 100
AcDbLine
   6
CONTINUOUS
  62
1
  10
 270.77603271834
  20
 202.33998809633
  30
0.0
  11
 272.88196661850
  21
 204.44592199650
  31
0.0
   0
LINE
   5
240
 100
AcDbEntity
   8
LEVEL002
 370
25
 100
AcDbLine
   6
CONTINUOUS
  62
1
  10
 277.79606672407
  20
 199.56259477805
  30
0.0
  11
 275.72578018692
  21
 201.63288131520
  31
0.0
   0
LINE
   5
241
 100
AcDbEntity
   8
LEVEL002
 370
25
 100
AcDbLine
   6
CONTINUOUS
  62
1
  10
 275.72578018692
  20
 197.39024062776
  30
0.0
  11
 277.83171408703
  21
 199.49617452787
  31
0.0
   0
LINE
   5
242
 100
AcDbEntity
   8
LEVEL002
 370
25
 100
AcDbLine
   6
CONTINUOUS
  62
1
  10
 276.43288696804
  20
 196.68313384663
  30
0.0
  11
 278.28854568906
  21
 198.53879256764
  31
0.0
   0
LINE
   5
243
 100
AcDbEntity
   8
LEVEL002
 370
25
 100
AcDbLine
   6
CONTINUOUS
  62
1
  10
 278.55420731177
  20
 194.56181350290
  30
0.0
  11
 279.16762032106
  21
 195.17522651219
  31
0.0
   0
LINE
   5
244
 100
AcDbEntity
   8
LEVEL002
 370
25
 100
AcDbLine
   6
CONTINUOUS
  62
1
  10
 278.55420731177
  20
 193.14759994096
  30
0.0
  11
 279.16762032106
  21
 192.53418693167
  31
0.0
   0
LINE
   5
245
 100
AcDbEntity
   8
LEVEL002
 370
25
 100
AcDbLine
   6
CONTINUOUS
  62
1
  10
 276.43288696805
  20
 191.02627959692
  30
0.0
  11
 278.28854568897
  21
 189.17062087599
  31
0.0
   0
LINE
   5
246
 100
AcDbEntity
   8
LEVEL002
 370
25
 100
AcDbLine
   6
CONTINUOUS
  62
1
  10
 277.79606672407
  20
 188.14681866581
  30
0.0
  11
 275.72578018692
  21
 186.07653212866
  31
0.0
   0
LINE
   5
247
 100
AcDbEntity
   8
LEVEL002
 370
25
 100
AcDbLine
   6
CONTINUOUS
  62
1
  10
 275.72578018692
  20
 190.31917281611
  30
0.0
  11
 277.83171408703
  21
 188.21323891599
  31
0.0
   0
LINE
   5
248
 100
AcDbEntity
   8
LEVEL002
 370
25
 100
AcDbLine
   6
CONTINUOUS
  62
1
  10
 270.77603271834
  20
 185.36942534753
  30
0.0
  11
 272.88196661850
  21
 183.26349144737
  31
0.0
   0
LINE
   5
249
 100
AcDbEntity
   8
LEVEL002
 370
25
 100
AcDbLine
   6
CONTINUOUS
  62
1
  10
 275.01867340579
  20
 185.36942534753
  30
0.0
  11
 272.94838686847
  21
 183.29913881022
  31
0.0
   0
LINE
   5
24A
 100
AcDbEntity
   8
LEVEL002
 370
25
 100
AcDbLine
   6
CONTINUOUS
  62
1
  10
 271.92458465829
  20
 182.80665984532
  30
0.0
  11
 270.06892593721
  21
 184.66231856640
  31
0.0
   0
LINE
   5
24B
 100
AcDbEntity
   8
LEVEL002
 370
25
 100
AcDbLine
   6
CONTINUOUS
  62
1
  10
 268.56101860290
  20
 181.92758521325
  30
0.0
  11
 267.94760559348
  21
 182.54099822268
  31
0.0
   0
LINE
   5
24C
 100
AcDbEntity
   8
LEVEL002
 370
25
 100
AcDbLine
   6
CONTINUOUS
  62
1
  10
 265.91997902180
  20
 181.92758521325
  30
0.0
  11
 266.53339203122
  21
 182.54099822268
  31
0.0
   0
LINE
   5
24D
 100
AcDbEntity
   8
LEVEL002
 370
25
 100
AcDbLine
   6
CONTINUOUS
  62
1
  10
 262.55641296641
  20
 182.80665984532
  30
0.0
  11
 264.41207168750
  21
 184.66231856640
  31
0.0
   0
LINE
   5
24E
 100
AcDbEntity
   8
LEVEL002
 370
25
 100
AcDbLine
   6
CONTINUOUS
  62
1
  10
 263.70496490637
  20
 185.36942534753
  30
0.0
  11
 261.59903100620
  21
 183.26349144737
  31
0.0
   0
LINE
   5
24F
 100
AcDbEntity
   8
LEVEL002
 370
25
 100
AcDbLine
   6
CONTINUOUS
  62
1
  10
 259.46232421892
  20
 185.36942534753
  30
0.0
  11
 261.53261075623
  21
 183.29913881022
  31
0.0
   0
LINE
   5
250
 100
AcDbEntity
   8
LEVEL002
 370
25
 100
AcDbLine
   6
CONTINUOUS
  62
1
  10
 256.68493090064
  20
 188.14681866581
  30
0.0
  11
 258.75521743779
  21
 186.07653212866
  31
0.0
   0
LINE
   5
251
 100
AcDbEntity
   8
LEVEL002
 370
25
 100
AcDbLine
   6
CONTINUOUS
  62
1
  10
 258.75521743779
  20
 190.31917281611
  30
0.0
  11
 256.64928353767
  21
 188.21323891599
  31
0.0
   0
LINE
   5
252
 100
AcDbEntity
   8
LEVEL002
 370
25
 100
AcDbLine
   6
CONTINUOUS
  62
1
  10
 258.04811065666
  20
 191.02627959692
  30
0.0
  11
 256.19245193574
  21
 189.17062087599
  31
0.0
   0
LINE
   5
253
 100
AcDbEntity
   8
LEVEL002
 370
25
 100
AcDbLine
   6
CONTINUOUS
  62
1
  10
 255.92679031294
  20
 193.14759994064
  30
0.0
  11
 255.31337730367
  21
 192.53418693138
  31
0.0
   0
LINE
   5
254
 100
AcDbEntity
   8
LEVEL002
 370
25
 100
AcDbLine
   6
CONTINUOUS
  62
1
  10
 255.92679031294
  20
 194.56181350290
  30
0.0
  11
 255.31337730364
  21
 195.17522651219
  31
0.0
   0
LINE
   5
255
 100
AcDbEntity
   8
LEVEL002
 370
25
 100
AcDbLine
   6
CONTINUOUS
  62
1
  10
 258.04811065666
  20
 196.68313384663
  30
0.0
  11
 256.19245193564
  21
 198.53879256764
  31
0.0
   0
HATCH
   5
256
 100
AcDbEntity
   8
LEVEL002
  62
1
 100
AcDbHatch
  10
0.0
  20
0.0
  30
0.0
 210
0.0
 220
0.0
 230
 1.0000000000000
   2
SOLID
  70
1
  71
1
  91
1
  92
1
  93
4
  72
1
  10
 256.19245193564
  20
 198.53879256764
  11
 258.04811065666
  21
 196.68313384663
  72
1
  10
 258.04811065666
  20
 196.68313384663
  11
 255.92679031294
  21
 194.56181350290
  72
1
  10
 255.92679031294
  20
 194.56181350290
  11
 255.31337730364
  21
 195.17522651219
  72
2
  10
 267.24049881235
  20
 193.85470672193
  40
 12.000000000000
  50
 186.31781254370
  51
 202.97568716179
  73
0
  97
1
 330

  75
0
  76
1
  98
1
  10
0.0
  20
0.0
   0
HATCH
   5
257
 100
AcDbEntity
   8
LEVEL002
  62
1
 100
AcDbHatch
  10
0.0
  20
0.0
  30
0.0
 210
0.0
 220
0.0
 230
 1.0000000000000
   2
SOLID
  70
1
  71
1
  91
1
  92
1
  93
5
  72
1
  10
 258.75521743779
  20
 201.63288131520
  11
 260.87653778151
  21
 199.51156097148
  72
1
  10
 260.87653778151
  20
 199.51156097148
  11
 258.75521743779
  21
 197.39024062776
  72
1
  10
 258.75521743779
  20
 197.39024062776
  11
 256.64928353767
  21
 199.49617452787
  72
2
  10
 267.24049881235
  20
 193.85470672192
  40
 12.000000000000
  50
 208.04223669852
  51
 208.40215787062
  73
0
  72
1
  10
 256.68493090064
  20
 199.56259477805
  11
 258.75521743779
  21
 201.63288131520
  97
1
 330

  75
0
  76
1
  98
1
  10
0.0
  20
0.0
   0
HATCH
   5
258
 100
AcDbEntity
   8
LEVEL002
  62
1
 100
AcDbHatch
  10
0.0
  20
0.0
  30
0.0
 210
0.0
 220
0.0
 230
 1.0000000000000
   2
SOLID
  70
1
  71
1
  91
1
  92
1
  93
5
  72
1
  10
 261.59903100620
  20
 204.44592199650
  11
 263.70496490637
  21
 202.33998809633
  72
1
  10
 263.70496490637
  20
 202.33998809633
  11
 261.58364456264
  21
 200.21866775261
  72
1
  10
 261.58364456264
  20
 200.21866775261
  11
 259.46232421892
  21
 202.33998809633
  72
1
  10
 259.46232421892
  20
 202.33998809633
  11
 261.53261075623
  21
 204.41027463364
  72
2
  10
 267.24049881235
  20
 193.85470672193
  40
 12.000000000000
  50
 241.59784212946
  51
 241.95776330043
  73
0
  97
1
 330

  75
0
  76
1
  98
1
  10
0.0
  20
0.0
   0
HATCH
   5
259
 100
AcDbEntity
   8
LEVEL002
  62
1
 100
AcDbHatch
  10
0.0
  20
0.0
  30
0.0
 210
0.0
 220
0.0
 230
 1.0000000000000
   2
SOLID
  70
1
  71
1
  91
1
  92
1
  93
4
  72
2
  10
 267.24049881235
  20
 193.85470672193
  40
 12.000000000000
  50
 247.02431283704
  51
 263.68218745491
  73
0
  72
1
  10
 265.91997902180
  20
 205.78182823061
  11
 266.53339203122
  21
 205.16841522119
  72
1
  10
 266.53339203122
  20
 205.16841522119
  11
 264.41207168750
  21
 203.04709487746
  72
1
  10
 264.41207168750
  20
 203.04709487746
  11
 262.55641296641
  21
 204.90275359855
  97
1
 330

  75
0
  76
1
  98
1
  10
0.0
  20
0.0
   0
HATCH
   5
25A
 100
AcDbEntity
   8
LEVEL002
  62
1
 100
AcDbHatch
  10
0.0
  20
0.0
  30
0.0
 210
0.0
 220
0.0
 230
 1.0000000000000
   2
SOLID
  70
1
  71
1
  91
1
  92
1
  93
4
  72
2
  10
 267.24049881235
  20
 193.85470672193
  40
 12.000000000000
  50
 276.31781254509
  51
 292.97568716296
  73
0
  72
1
  10
 271.92458465829
  20
 204.90275359855
  11
 270.06892593721
  21
 203.04709487746
  72
1
  10
 270.06892593721
  20
 203.04709487746
  11
 267.94760559348
  21
 205.16841522119
  72
1
  10
 267.94760559348
  20
 205.16841522119
  11
 268.56101860290
  21
 205.78182823061
  97
1
 330

  75
0
  76
1
  98
1
  10
0.0
  20
0.0
   0
HATCH
   5
25B
 100
AcDbEntity
   8
LEVEL002
  62
1
 100
AcDbHatch
  10
0.0
  20
0.0
  30
0.0
 210
0.0
 220
0.0
 230
 1.0000000000000
   2
SOLID
  70
1
  71
1
  91
1
  92
1
  93
5
  72
1
  10
 270.77603271834
  20
 202.33998809633
  11
 272.88196661850
  21
 204.44592199650
  72
2
  10
 267.24049881235
  20
 193.85470672193
  40
 12.000000000000
  50
 298.04223669963
  51
 298.40215787059
  73
0
  72
1
  10
 272.94838686847
  20
 204.41027463364
  11
 275.01867340579
  21
 202.33998809633
  72
1
  10
 275.01867340579
  20
 202.33998809633
  11
 272.89735306206
  21
 200.21866775261
  72
1
  10
 272.89735306206
  20
 200.21866775261
  11
 270.77603271834
  21
 202.33998809633
  97
1
 330

  75
0
  76
1
  98
1
  10
0.0
  20
0.0
   0
HATCH
   5
25C
 100
AcDbEntity
   8
LEVEL002
  62
1
 100
AcDbHatch
  10
0.0
  20
0.0
  30
0.0
 210
0.0
 220
0.0
 230
 1.0000000000000
   2
SOLID
  70
1
  71
1
  91
1
  92
1
  93
5
  72
1
  10
 275.72578018692
  20
 201.63288131520
  11
 277.79606672407
  21
 199.56259477805
  72
2
  10
 267.24049881235
  20
 193.85470672193
  40
 12.000000000000
  50
 331.59784212942
  51
 331.95776330152
  73
0
  72
1
  10
 277.83171408703
  20
 199.49617452787
  11
 275.72578018692
  21
 197.39024062776
  72
1
  10
 275.72578018692
  20
 197.39024062776
  11
 273.60445984319
  21
 199.51156097148
  72
1
  10
 273.60445984319
  20
 199.51156097148
  11
 275.72578018692
  21
 201.63288131520
  97
1
 330

  75
0
  76
1
  98
1
  10
0.0
  20
0.0
   0
HATCH
   5
25D
 100
AcDbEntity
   8
LEVEL002
  62
1
 100
AcDbHatch
  10
0.0
  20
0.0
  30
0.0
 210
0.0
 220
0.0
 230
 1.0000000000000
   2
SOLID
  70
1
  71
1
  91
1
  92
1
  93
4
  72
1
  10
 276.43288696804
  20
 196.68313384663
  11
 278.28854568906
  21
 198.53879256764
  72
2
  10
 267.24049881235
  20
 193.85470672193
  40
 12.000000000000
  50
 337.02431283821
  51
 353.68218745630
  73
0
  72
1
  10
 279.16762032106
  20
 195.17522651219
  11
 278.55420731177
  21
 194.56181350290
  72
1
  10
 278.55420731177
  20
 194.56181350290
  11
 276.43288696804
  21
 196.68313384663
  97
1
 330

  75
0
  76
1
  98
1
  10
0.0
  20
0.0
   0
HATCH
   5
25E
 100
AcDbEntity
   8
LEVEL002
  62
1
 100
AcDbHatch
  10
0.0
  20
0.0
  30
0.0
 210
0.0
 220
0.0
 230
 1.0000000000000
   2
SOLID
  70
1
  71
1
  91
1
  92
1
  93
4
  72
1
  10
 275.72578018692
  20
 195.97602706549
  11
 277.84710053064
  21
 193.85470672177
  72
1
  10
 277.84710053064
  20
 193.85470672177
  11
 275.72578018692
  21
 191.73338637837
  72
1
  10
 275.72578018692
  20
 191.73338637837
  11
 273.60445984319
  21
 193.85470672177
  72
1
  10
 273.60445984319
  20
 193.85470672177
  11
 275.72578018692
  21
 195.97602706549
  97
1
 330

  75
0
  76
1
  98
1
  10
0.0
  20
0.0
   0
HATCH
   5
25F
 100
AcDbEntity
   8
LEVEL002
  62
1
 100
AcDbHatch
  10
0.0
  20
0.0
  30
0.0
 210
0.0
 220
0.0
 230
 1.0000000000000
   2
SOLID
  70
1
  71
1
  91
1
  92
1
  93
4
  72
1
  10
 270.77603271834
  20
 196.68313384663
  11
 272.89735306206
  21
 198.80445419035
  72
1
  10
 272.89735306206
  20
 198.80445419035
  11
 275.01867340579
  21
 196.68313384663
  72
1
  10
 275.01867340579
  20
 196.68313384663
  11
 272.89735306206
  21
 194.56181350290
  72
1
  10
 272.89735306206
  20
 194.56181350290
  11
 270.77603271834
  21
 196.68313384663
  97
1
 330

  75
0
  76
1
  98
1
  10
0.0
  20
0.0
   0
HATCH
   5
260
 100
AcDbEntity
   8
LEVEL002
  62
1
 100
AcDbHatch
  10
0.0
  20
0.0
  30
0.0
 210
0.0
 220
0.0
 230
 1.0000000000000
   2
SOLID
  70
1
  71
1
  91
1
  92
1
  93
4
  72
1
  10
 267.94760559348
  20
 199.51156097148
  11
 270.06892593721
  21
 201.63288131520
  72
1
  10
 270.06892593721
  20
 201.63288131520
  11
 272.19024628093
  21
 199.51156097148
  72
1
  10
 272.19024628093
  20
 199.51156097148
  11
 270.06892593721
  21
 197.39024062776
  72
1
  10
 270.06892593721
  20
 197.39024062776
  11
 267.94760559348
  21
 199.51156097148
  97
1
 330

  75
0
  76
1
  98
1
  10
0.0
  20
0.0
   0
HATCH
   5
261
 100
AcDbEntity
   8
LEVEL002
  62
1
 100
AcDbHatch
  10
0.0
  20
0.0
  30
0.0
 210
0.0
 220
0.0
 230
 1.0000000000000
   2
SOLID
  70
1
  71
1
  91
1
  92
1
  93
4
  72
1
  10
 265.11917846863
  20
 202.33998809633
  11
 267.24049881235
  21
 204.46130844006
  72
1
  10
 267.24049881235
  20
 204.46130844006
  11
 269.36181915608
  21
 202.33998809633
  72
1
  10
 269.36181915608
  20
 202.33998809633
  11
 267.24049881235
  21
 200.21866775261
  72
1
  10
 267.24049881235
  20
 200.21866775261
  11
 265.11917846863
  21
 202.33998809633
  97
1
 330

  75
0
  76
1
  98
1
  10
0.0
  20
0.0
   0
HATCH
   5
262
 100
AcDbEntity
   8
LEVEL002
  62
1
 100
AcDbHatch
  10
0.0
  20
0.0
  30
0.0
 210
0.0
 220
0.0
 230
 1.0000000000000
   2
SOLID
  70
1
  71
1
  91
1
  92
1
  93
4
  72
1
  10
 264.41207168750
  20
 201.63288131520
  11
 266.53339203122
  21
 199.51156097148
  72
1
  10
 266.53339203122
  20
 199.51156097148
  11
 264.41207168750
  21
 197.39024062776
  72
1
  10
 264.41207168750
  20
 197.39024062776
  11
 262.29075134377
  21
 199.51156097148
  72
1
  10
 262.29075134377
  20
 199.51156097148
  11
 264.41207168750
  21
 201.63288131520
  97
1
 330

  75
0
  76
1
  98
1
  10
0.0
  20
0.0
   0
HATCH
   5
263
 100
AcDbEntity
   8
LEVEL002
  62
1
 100
AcDbHatch
  10
0.0
  20
0.0
  30
0.0
 210
0.0
 220
0.0
 230
 1.0000000000000
   2
SOLID
  70
1
  71
1
  91
1
  92
1
  93
4
  72
1
  10
 261.58364456264
  20
 198.80445419035
  11
 263.70496490637
  21
 196.68313384663
  72
1
  10
 263.70496490637
  20
 196.68313384663
  11
 261.58364456264
  21
 194.56181350290
  72
1
  10
 261.58364456264
  20
 194.56181350290
  11
 259.46232421892
  21
 196.68313384663
  72
1
  10
 259.46232421892
  20
 196.68313384663
  11
 261.58364456264
  21
 198.80445419035
  97
1
 330

  75
0
  76
1
  98
1
  10
0.0
  20
0.0
   0
HATCH
   5
264
 100
AcDbEntity
   8
LEVEL002
  62
1
 100
AcDbHatch
  10
0.0
  20
0.0
  30
0.0
 210
0.0
 220
0.0
 230
 1.0000000000000
   2
SOLID
  70
1
  71
1
  91
1
  92
1
  93
4
  72
1
  10
 258.75521743779
  20
 195.97602706549
  11
 260.87653778151
  21
 193.85470672177
  72
1
  10
 260.87653778151
  20
 193.85470672177
  11
 258.75521743779
  21
 191.73338637805
  72
1
  10
 258.75521743779
  20
 191.73338637805
  11
 256.63389709407
  21
 193.85470672177
  72
1
  10
 256.63389709407
  20
 193.85470672177
  11
 258.75521743779
  21
 195.97602706549
  97
1
 330

  75
0
  76
1
  98
1
  10
0.0
  20
0.0
   0
HATCH
   5
265
 100
AcDbEntity
   8
LEVEL002
  62
1
 100
AcDbHatch
  10
0.0
  20
0.0
  30
0.0
 210
0.0
 220
0.0
 230
 1.0000000000000
   2
SOLID
  70
1
  71
1
  91
1
  92
1
  93
4
  72
1
  10
 264.41207168750
  20
 195.97602706549
  11
 266.53339203122
  21
 193.85470672177
  72
1
  10
 266.53339203122
  20
 193.85470672177
  11
 264.41207168750
  21
 191.73338637805
  72
1
  10
 264.41207168750
  20
 191.73338637805
  11
 262.29075134377
  21
 193.85470672177
  72
1
  10
 262.29075134377
  20
 193.85470672177
  11
 264.41207168750
  21
 195.97602706549
  97
1
 330

  75
0
  76
1
  98
1
  10
0.0
  20
0.0
   0
HATCH
   5
266
 100
AcDbEntity
   8
LEVEL002
  62
1
 100
AcDbHatch
  10
0.0
  20
0.0
  30
0.0
 210
0.0
 220
0.0
 230
 1.0000000000000
   2
SOLID
  70
1
  71
1
  91
1
  92
1
  93
4
  72
1
  10
 270.06892593721
  20
 195.97602706549
  11
 272.19024628093
  21
 193.85470672177
  72
1
  10
 272.19024628093
  20
 193.85470672177
  11
 270.06892593721
  21
 191.73338637805
  72
1
  10
 270.06892593721
  20
 191.73338637805
  11
 267.94760559348
  21
 193.85470672177
  72
1
  10
 267.94760559348
  20
 193.85470672177
  11
 270.06892593721
  21
 195.97602706549
  97
1
 330

  75
0
  76
1
  98
1
  10
0.0
  20
0.0
   0
HATCH
   5
267
 100
AcDbEntity
   8
LEVEL002
  62
1
 100
AcDbHatch
  10
0.0
  20
0.0
  30
0.0
 210
0.0
 220
0.0
 230
 1.0000000000000
   2
SOLID
  70
1
  71
1
  91
1
  92
1
  93
4
  72
1
  10
 256.19245193564
  20
 189.17062087622
  11
 258.04811065666
  21
 191.02627959724
  72
1
  10
 258.04811065666
  20
 191.02627959724
  11
 255.92679031294
  21
 193.14759994096
  72
1
  10
 255.92679031294
  20
 193.14759994096
  11
 255.31337730364
  21
 192.53418693167
  72
2
  10
 267.24049881235
  20
 193.85470672193
  40
 12.000000000000
  50
 186.31781254370
  51
 202.97568716179
  73
1
  97
1
 330

  75
0
  76
1
  98
1
  10
0.0
  20
0.0
   0
HATCH
   5
268
 100
AcDbEntity
   8
LEVEL002
  62
1
 100
AcDbHatch
  10
0.0
  20
0.0
  30
0.0
 210
0.0
 220
0.0
 230
 1.0000000000000
   2
SOLID
  70
1
  71
1
  91
1
  92
1
  93
5
  72
1
  10
 258.75521743779
  20
 186.07653212866
  11
 260.87653778151
  21
 188.19785247238
  72
1
  10
 260.87653778151
  20
 188.19785247238
  11
 258.75521743779
  21
 190.31917281611
  72
1
  10
 258.75521743779
  20
 190.31917281611
  11
 256.64928353767
  21
 188.21323891599
  72
2
  10
 267.24049881235
  20
 193.85470672194
  40
 12.000000000000
  50
 208.04223669852
  51
 208.40215787062
  73
1
  72
1
  10
 256.68493090064
  20
 188.14681866581
  11
 258.75521743779
  21
 186.07653212866
  97
1
 330

  75
0
  76
1
  98
1
  10
0.0
  20
0.0
   0
HATCH
   5
269
 100
AcDbEntity
   8
LEVEL002
  62
1
 100
AcDbHatch
  10
0.0
  20
0.0
  30
0.0
 210
0.0
 220
0.0
 230
 1.0000000000000
   2
SOLID
  70
1
  71
1
  91
1
  92
1
  93
5
  72
1
  10
 261.59903100620
  20
 183.26349144737
  11
 263.70496490637
  21
 185.36942534753
  72
1
  10
 263.70496490637
  20
 185.36942534753
  11
 261.58364456264
  21
 187.49074569125
  72
1
  10
 261.58364456264
  20
 187.49074569125
  11
 259.46232421892
  21
 185.36942534753
  72
1
  10
 259.46232421892
  20
 185.36942534753
  11
 261.53261075623
  21
 183.29913881022
  72
2
  10
 267.24049881235
  20
 193.85470672193
  40
 12.000000000000
  50
 241.59784212946
  51
 241.95776330043
  73
1
  97
1
 330

  75
0
  76
1
  98
1
  10
0.0
  20
0.0
   0
HATCH
   5
26A
 100
AcDbEntity
   8
LEVEL002
  62
1
 100
AcDbHatch
  10
0.0
  20
0.0
  30
0.0
 210
0.0
 220
0.0
 230
 1.0000000000000
   2
SOLID
  70
1
  71
1
  91
1
  92
1
  93
4
  72
2
  10
 267.24049881235
  20
 193.85470672193
  40
 12.000000000000
  50
 247.02431283704
  51
 263.68218745491
  73
1
  72
1
  10
 265.91997902180
  20
 181.92758521325
  11
 266.53339203122
  21
 182.54099822268
  72
1
  10
 266.53339203122
  20
 182.54099822268
  11
 264.41207168750
  21
 184.66231856640
  72
1
  10
 264.41207168750
  20
 184.66231856640
  11
 262.55641296641
  21
 182.80665984532
  97
1
 330

  75
0
  76
1
  98
1
  10
0.0
  20
0.0
   0
HATCH
   5
26B
 100
AcDbEntity
   8
LEVEL002
  62
1
 100
AcDbHatch
  10
0.0
  20
0.0
  30
0.0
 210
0.0
 220
0.0
 230
 1.0000000000000
   2
SOLID
  70
1
  71
1
  91
1
  92
1
  93
4
  72
2
  10
 267.24049881235
  20
 193.85470672193
  40
 12.000000000000
  50
 276.31781254509
  51
 292.97568716296
  73
1
  72
1
  10
 271.92458465829
  20
 182.80665984532
  11
 270.06892593721
  21
 184.66231856640
  72
1
  10
 270.06892593721
  20
 184.66231856640
  11
 267.94760559348
  21
 182.54099822268
  72
1
  10
 267.94760559348
  20
 182.54099822268
  11
 268.56101860290
  21
 181.92758521325
  97
1
 330

  75
0
  76
1
  98
1
  10
0.0
  20
0.0
   0
HATCH
   5
26C
 100
AcDbEntity
   8
LEVEL002
  62
1
 100
AcDbHatch
  10
0.0
  20
0.0
  30
0.0
 210
0.0
 220
0.0
 230
 1.0000000000000
   2
SOLID
  70
1
  71
1
  91
1
  92
1
  93
5
  72
1
  10
 270.77603271834
  20
 185.36942534753
  11
 272.88196661850
  21
 183.26349144737
  72
2
  10
 267.24049881235
  20
 193.85470672193
  40
 12.000000000000
  50
 298.04223669963
  51
 298.40215787059
  73
1
  72
1
  10
 272.94838686847
  20
 183.29913881022
  11
 275.01867340579
  21
 185.36942534753
  72
1
  10
 275.01867340579
  20
 185.36942534753
  11
 272.89735306206
  21
 187.49074569125
  72
1
  10
 272.89735306206
  20
 187.49074569125
  11
 270.77603271834
  21
 185.36942534753
  97
1
 330

  75
0
  76
1
  98
1
  10
0.0
  20
0.0
   0
HATCH
   5
26D
 100
AcDbEntity
   8
LEVEL002
  62
1
 100
AcDbHatch
  10
0.0
  20
0.0
  30
0.0
 210
0.0
 220
0.0
 230
 1.0000000000000
   2
SOLID
  70
1
  71
1
  91
1
  92
1
  93
5
  72
1
  10
 275.72578018692
  20
 186.07653212866
  11
 277.79606672407
  21
 188.14681866581
  72
2
  10
 267.24049881236
  20
 193.85470672194
  40
 12.000000000000
  50
 331.59784212938
  51
 331.95776330148
  73
1
  72
1
  10
 277.83171408703
  20
 188.21323891599
  11
 275.72578018692
  21
 190.31917281611
  72
1
  10
 275.72578018692
  20
 190.31917281611
  11
 273.60445984319
  21
 188.19785247238
  72
1
  10
 273.60445984319
  20
 188.19785247238
  11
 275.72578018692
  21
 186.07653212866
  97
1
 330

  75
0
  76
1
  98
1
  10
0.0
  20
0.0
   0
HATCH
   5
26E
 100
AcDbEntity
   8
LEVEL002
  62
1
 100
AcDbHatch
  10
0.0
  20
0.0
  30
0.0
 210
0.0
 220
0.0
 230
 1.0000000000000
   2
SOLID
  70
1
  71
1
  91
1
  92
1
  93
4
  72
1
  10
 276.43288696804
  20
 191.02627959724
  11
 278.28854568906
  21
 189.17062087622
  72
2
  10
 267.24049881235
  20
 193.85470672193
  40
 12.000000000000
  50
 337.02431283821
  51
 353.68218745630
  73
1
  72
1
  10
 279.16762032106
  20
 192.53418693167
  11
 278.55420731177
  21
 193.14759994096
  72
1
  10
 278.55420731177
  20
 193.14759994096
  11
 276.43288696804
  21
 191.02627959724
  97
1
 330

  75
0
  76
1
  98
1
  10
0.0
  20
0.0
   0
HATCH
   5
26F
 100
AcDbEntity
   8
LEVEL002
  62
1
 100
AcDbHatch
  10
0.0
  20
0.0
  30
0.0
 210
0.0
 220
0.0
 230
 1.0000000000000
   2
SOLID
  70
1
  71
1
  91
1
  92
1
  93
4
  72
1
  10
 270.77603271834
  20
 191.02627959724
  11
 272.89735306206
  21
 188.90495925351
  72
1
  10
 272.89735306206
  20
 188.90495925351
  11
 275.01867340579
  21
 191.02627959724
  72
1
  10
 275.01867340579
  20
 191.02627959724
  11
 272.89735306206
  21
 193.14759994096
  72
1
  10
 272.89735306206
  20
 193.14759994096
  11
 270.77603271834
  21
 191.02627959724
  97
1
 330

  75
0
  76
1
  98
1
  10
0.0
  20
0.0
   0
HATCH
   5
270
 100
AcDbEntity
   8
LEVEL002
  62
1
 100
AcDbHatch
  10
0.0
  20
0.0
  30
0.0
 210
0.0
 220
0.0
 230
 1.0000000000000
   2
SOLID
  70
1
  71
1
  91
1
  92
1
  93
4
  72
1
  10
 267.94760559348
  20
 188.19785247238
  11
 270.06892593721
  21
 186.07653212866
  72
1
  10
 270.06892593721
  20
 186.07653212866
  11
 272.19024628093
  21
 188.19785247238
  72
1
  10
 272.19024628093
  20
 188.19785247238
  11
 270.06892593721
  21
 190.31917281611
  72
1
  10
 270.06892593721
  20
 190.31917281611
  11
 267.94760559348
  21
 188.19785247238
  97
1
 330

  75
0
  76
1
  98
1
  10
0.0
  20
0.0
   0
HATCH
   5
271
 100
AcDbEntity
   8
LEVEL002
  62
1
 100
AcDbHatch
  10
0.0
  20
0.0
  30
0.0
 210
0.0
 220
0.0
 230
 1.0000000000000
   2
SOLID
  70
1
  71
1
  91
1
  92
1
  93
4
  72
1
  10
 265.11917846863
  20
 185.36942534753
  11
 267.24049881235
  21
 183.24810500381
  72
1
  10
 267.24049881235
  20
 183.24810500381
  11
 269.36181915608
  21
 185.36942534753
  72
1
  10
 269.36181915608
  20
 185.36942534753
  11
 267.24049881235
  21
 187.49074569125
  72
1
  10
 267.24049881235
  20
 187.49074569125
  11
 265.11917846863
  21
 185.36942534753
  97
1
 330

  75
0
  76
1
  98
1
  10
0.0
  20
0.0
   0
HATCH
   5
272
 100
AcDbEntity
   8
LEVEL002
  62
1
 100
AcDbHatch
  10
0.0
  20
0.0
  30
0.0
 210
0.0
 220
0.0
 230
 1.0000000000000
   2
SOLID
  70
1
  71
1
  91
1
  92
1
  93
4
  72
1
  10
 264.41207168750
  20
 186.07653212866
  11
 266.53339203122
  21
 188.19785247238
  72
1
  10
 266.53339203122
  20
 188.19785247238
  11
 264.41207168750
  21
 190.31917281611
  72
1
  10
 264.41207168750
  20
 190.31917281611
  11
 262.29075134377
  21
 188.19785247238
  72
1
  10
 262.29075134377
  20
 188.19785247238
  11
 264.41207168750
  21
 186.07653212866
  97
1
 330

  75
0
  76
1
  98
1
  10
0.0
  20
0.0
   0
HATCH
   5
273
 100
AcDbEntity
   8
LEVEL002
  62
1
 100
AcDbHatch
  10
0.0
  20
0.0
  30
0.0
 210
0.0
 220
0.0
 230
 1.0000000000000
   2
SOLID
  70
1
  71
1
  91
1
  92
1
  93
4
  72
1
  10
 261.58364456264
  20
 188.90495925351
  11
 263.70496490637
  21
 191.02627959724
  72
1
  10
 263.70496490637
  20
 191.02627959724
  11
 261.58364456264
  21
 193.14759994096
  72
1
  10
 261.58364456264
  20
 193.14759994096
  11
 259.46232421892
  21
 191.02627959724
  72
1
  10
 259.46232421892
  20
 191.02627959724
  11
 261.58364456264
  21
 188.90495925351
  97
1
 330

  75
0
  76
1
  98
1
  10
0.0
  20
0.0
   0
HATCH
   5
274
 100
AcDbEntity
   8
LEVEL002
  62
1
 100
AcDbHatch
  10
0.0
  20
0.0
  30
0.0
 210
0.0
 220
0.0
 230
 1.0000000000000
   2
SOLID
  70
1
  71
1
  91
1
  92
1
  93
4
  72
1
  10
 267.24049881235
  20
 193.14759994096
  11
 269.36181915608
  21
 191.02627959724
  72
1
  10
 269.36181915608
  20
 191.02627959724
  11
 267.24049881235
  21
 188.90495925351
  72
1
  10
 267.24049881235
  20
 188.90495925351
  11
 265.11917846863
  21
 191.02627959724
  72
1
  10
 265.11917846863
  20
 191.02627959724
  11
 267.24049881235
  21
 193.14759994096
  97
1
 330

  75
0
  76
1
  98
1
  10
0.0
  20
0.0
   0
HATCH
   5
275
 100
AcDbEntity
   8
LEVEL002
  62
1
 100
AcDbHatch
  10
0.0
  20
0.0
  30
0.0
 210
0.0
 220
0.0
 230
 1.0000000000000
   2
SOLID
  70
1
  71
1
  91
1
  92
1
  93
4
  72
1
  10
 267.24049881235
  20
 198.80445419035
  11
 269.36181915608
  21
 196.68313384663
  72
1
  10
 269.36181915608
  20
 196.68313384663
  11
 267.24049881235
  21
 194.56181350290
  72
1
  10
 267.24049881235
  20
 194.56181350290
  11
 265.11917846863
  21
 196.68313384663
  72
1
  10
 265.11917846863
  20
 196.68313384663
  11
 267.24049881235
  21
 198.80445419035
  97
1
 330

  75
0
  76
1
  98
1
  10
0.0
  20
0.0
   0
LINE
   5
276
 100
AcDbEntity
   8
LEVEL002
 370
30
 100
AcDbLine
   6
CONTINUOUS
  62
7
  10
 266.24049881235
  20
 205.81296746503
  30
0.0
  11
 266.24049881235
  21
 206.25470672193
  31
0.0
   0
LINE
   5
277
 100
AcDbEntity
   8
LEVEL002
 370
30
 100
AcDbLine
   6
CONTINUOUS
  62
7
  10
 266.24049881235
  20
 206.25470672193
  30
0.0
  11
 268.24049881235
  21
 206.25470672193
  31
0.0
   0
LINE
   5
278
 100
AcDbEntity
   8
LEVEL002
 370
30
 100
AcDbLine
   6
CONTINUOUS
  62
7
  10
 268.24049881235
  20
 205.81296746503
  30
0.0
  11
 268.24049881235
  21
 206.25470672193
  31
0.0
   0
LINE
   5
279
 100
AcDbEntity
   8
LEVEL002
 370
30
 100
AcDbLine
   6
CONTINUOUS
  62
7
  10
 255.28223806925
  20
 192.85470672193
  30
0.0
  11
 254.84049881235
  21
 192.85470672193
  31
0.0
   0
LINE
   5
27A
 100
AcDbEntity
   8
LEVEL002
 370
30
 100
AcDbLine
   6
CONTINUOUS
  62
7
  10
 254.84049881235
  20
 192.85470672193
  30
0.0
  11
 254.84049881235
  21
 194.85470672193
  31
0.0
   0
LINE
   5
27B
 100
AcDbEntity
   8
LEVEL002
 370
30
 100
AcDbLine
   6
CONTINUOUS
  62
7
  10
 255.28223806925
  20
 194.85470672193
  30
0.0
  11
 254.84049881235
  21
 194.85470672193
  31
0.0
   0
LINE
   5
27C
 100
AcDbEntity
   8
LEVEL002
 370
30
 100
AcDbLine
   6
CONTINUOUS
  62
7
  10
 268.24049881235
  20
 181.89644597883
  30
0.0
  11
 268.24049881235
  21
 181.45470672193
  31
0.0
   0
LINE
   5
27D
 100
AcDbEntity
   8
LEVEL002
 370
30
 100
AcDbLine
   6
CONTINUOUS
  62
7
  10
 268.24049881235
  20
 181.45470672193
  30
0.0
  11
 266.24049881235
  21
 181.45470672193
  31
0.0
   0
LINE
   5
27E
 100
AcDbEntity
   8
LEVEL002
 370
30
 100
AcDbLine
   6
CONTINUOUS
  62
7
  10
 266.24049881235
  20
 181.89644597883
  30
0.0
  11
 266.24049881235
  21
 181.45470672193
  31
0.0
   0
LINE
   5
27F
 100
AcDbEntity
   8
LEVEL002
 370
30
 100
AcDbLine
   6
CONTINUOUS
  62
7
  10
 279.19875955545
  20
 194.85470672193
  30
0.0
  11
 279.64049881235
  21
 194.85470672193
  31
0.0
   0
LINE
   5
280
 100
AcDbEntity
   8
LEVEL002
 370
30
 100
AcDbLine
   6
CONTINUOUS
  62
7
  10
 279.64049881235
  20
 194.85470672193
  30
0.0
  11
 279.64049881235
  21
 192.85470672193
  31
0.0
   0
LINE
   5
281
 100
AcDbEntity
   8
LEVEL002
 370
30
 100
AcDbLine
   6
CONTINUOUS
  62
7
  10
 279.19875955545
  20
 192.85470672193
  30
0.0
  11
 279.64049881235
  21
 192.85470672193
  31
0.0
   0
LEADER
   5
282
 100
AcDbEntity
   8
LEVEL001
 370
15
   6
CONTINUOUS
  62
8
 100
AcDbLeader
   3
GMM003
  73
0
  74
1
  75
0
  40
 3.0000000000000
  41
 13.000000000000
  76
2
  10
 254.84049881235
  20
 194.85470672193
  30
0.0
  10
 249.46277294500
  20
 200.69912595804
  30
0.0
  77
8
 340
283
 213
0.0
 223
-1.0000000000000
 233
0.0
   0
MTEXT
   5
283
 102
{ACAD_REACTORS
 330
282
 102
}
 100
AcDbEntity
   8
LEVEL001
 370
15
  62
8
 100
AcDbMText
  10
 236.46277294500
  20
 201.69912595804
  30
0.0
  40
 3.0000000000000
  41
0.0
  71
7
  72
1
   1
\A1;突起４ヶ所
   7
GMM002
   0
CIRCLE
   5
284
 100
AcDbEntity
   8
LEVEL002
 370
40
 100
AcDbCircle
   6
CONTINUOUS
  62
3
  10
 267.24049881235
  20
 193.85470672193
  30
0.0
  40
 12.000000000000
   0
LINE
   5
285
 100
AcDbEntity
   8
LEVEL002
 370
15
 100
AcDbLine
   6
DASHDOT
  62
8
  10
 267.24049881235
  20
 208.31199430084
  30
0.0
  11
 267.24049881235
  21
 179.38309459822
  31
0.0
   0
LINE
   5
286
 100
AcDbEntity
   8
LEVEL002
 370
15
 100
AcDbLine
   6
DASHDOT
  62
8
  10
 252.14313700736
  20
 193.85470672193
  30
0.0
  11
 281.07203670998
  21
 193.85470672193
  31
0.0
   0
LINE
   5
287
 100
AcDbEntity
   8
LEVEL001
 370
15
 100
AcDbLine
   6
CONTINUOUS
  62
8
  10
 249.43948974352
  20
 120.62477971462
  30
0.0
  11
 292.99041299067
  21
 120.62477971462
  31
0.0
   0
LINE
   5
288
 100
AcDbEntity
   8
LEVEL002
 370
40
 100
AcDbLine
   6
CONTINUOUS
  62
3
  10
 255.24049881235
  20
 155.22231246252
  30
0.0
  11
 255.24049881235
  21
 151.22231246252
  31
0.0
   0
LINE
   5
289
 100
AcDbEntity
   8
LEVEL002
 370
40
 100
AcDbLine
   6
CONTINUOUS
  62
3
  10
 255.24049881235
  20
 151.22231246252
  30
0.0
  11
 279.24049881235
  21
 151.22231246252
  31
0.0
   0
LINE
   5
28A
 100
AcDbEntity
   8
LEVEL002
 370
40
 100
AcDbLine
   6
CONTINUOUS
  62
3
  10
 279.24049881235
  20
 155.22231246252
  30
0.0
  11
 279.24049881235
  21
 151.22231246252
  31
0.0
   0
LINE
   5
28B
 100
AcDbEntity
   8
LEVEL002
 370
40
 100
AcDbLine
   6
CONTINUOUS
  62
3
  10
 254.84049881235
  20
 155.22231246252
  30
0.0
  11
 279.64049881235
  21
 155.22231246252
  31
0.0
   0
LINE
   5
28C
 100
AcDbEntity
   8
LEVEL002
 370
30
 100
AcDbLine
   6
CONTINUOUS
  62
7
  10
 254.84049881235
  20
 155.22231246252
  30
0.0
  11
 254.84049881235
  21
 152.71513278555
  31
0.0
   0
LINE
   5
28D
 100
AcDbEntity
   8
LEVEL002
 370
30
 100
AcDbLine
   6
CONTINUOUS
  62
7
  10
 254.84049881235
  20
 152.71513278555
  30
0.0
  11
 255.24049881235
  21
 151.22231246252
  31
0.0
   0
LINE
   5
28E
 100
AcDbEntity
   8
LEVEL002
 370
30
 100
AcDbLine
   6
CONTINUOUS
  62
7
  10
 266.24049881235
  20
 155.22231246252
  30
0.0
  11
 266.24049881235
  21
 151.22231246252
  31
0.0
   0
LINE
   5
28F
 100
AcDbEntity
   8
LEVEL002
 370
30
 100
AcDbLine
   6
CONTINUOUS
  62
7
  10
 266.24049881235
  20
 152.71513278555
  30
0.0
  11
 268.24049881235
  21
 152.71513278555
  31
0.0
   0
LINE
   5
290
 100
AcDbEntity
   8
LEVEL002
 370
30
 100
AcDbLine
   6
CONTINUOUS
  62
7
  10
 268.24049881235
  20
 155.22231246252
  30
0.0
  11
 268.24049881235
  21
 151.22231246252
  31
0.0
   0
LINE
   5
291
 100
AcDbEntity
   8
LEVEL002
 370
30
 100
AcDbLine
   6
CONTINUOUS
  62
7
  10
 279.64049881235
  20
 155.22231246252
  30
0.0
  11
 279.64049881235
  21
 152.71513278555
  31
0.0
   0
LINE
   5
292
 100
AcDbEntity
   8
LEVEL002
 370
30
 100
AcDbLine
   6
CONTINUOUS
  62
7
  10
 279.64049881235
  20
 152.71513278555
  30
0.0
  11
 279.24049881235
  21
 151.22231246252
  31
0.0
   0
MTEXT
   5
294
 100
AcDbEntity
   8
LEVEL001
 370
15
  62
8
 100
AcDbMText
  10
 271.21495136710
  20
 127.97514467813
  30
0.0
  40
 3.5000000000000
  41
0.0
  71
2
  72
1
   1
{\T1.000000;点鋲－樹脂ピース}\P{\T1.000000;材質－ポリカーボネート}
   7
GMM002
  44
 0.79999984000003
   0
MTEXT
   5
296
 100
AcDbEntity
   8
LEVEL003
 370
15
  62
8
 100
AcDbMText
  10
 249.84512168340
  20
 118.79631256134
  30
0.0
  40
 3.0000000000000
  41
0.0
  71
1
  72
1
   3
{\W1.000000;\T1.000000;カラー／イエロ－\W0.500000;\T1.000000;(\W1.000000;\T1.000000;Ｙ\W0.500000;\T1.000000;)}\P{\W1.000000;\T1.000000;　　　　ダークグレイ\W0.500000;\T1.000000;  (\W1.000000;\T1.000000;Ｄ\W0.500000;\T1.000000;)}\P{\W1.000000;\T1.0000
   1
00;　　　　シルバー\W0.500000;\T1.000000;(\W1.000000;\T1.000000;Ｓ\W0.500000;\T1.000000;)}
   7
GMM002
  44
 0.79999984000003
   0
DIMENSION
   5
297
 100
AcDbEntity
   8
LEVEL001
 370
15
   6
CONTINUOUS
  62
8
 100
AcDbDimension
   2
*D4
  10
 225.21971496437
  20
 155.22231246252
  30
0.0
  11
 225.21971496437
  21
 148.77975736023
  31
0.0
  70
128
   3
GMM004
 100
AcDbAlignedDimension
  13
 215.21971496437
  23
 151.22231246252
  33
0.0
  14
 215.21971496437
  24
 155.22231246252
  34
0.0
  50
 90.000000000000
 100
AcDbRotatedDimension
   0
DIMENSION
   5
298
 100
AcDbEntity
   8
LEVEL001
 370
15
   6
CONTINUOUS
  62
8
 100
AcDbDimension
   2
*D5
  10
 215.21971496437
  20
 141.22231246252
  30
0.0
  11
 203.21971496437
  21
 141.22231246252
  31
0.0
  70
0
   3
GMM005
 100
AcDbAlignedDimension
  13
 191.21971496437
  23
 151.22231246252
  33
0.0
  14
 215.21971496437
  24
 151.22231246252
  34
0.0
 100
AcDbRotatedDimension
   0
LINE
   5
299
 100
AcDbEntity
   8
LEVEL002
 370
15
 100
AcDbLine
   6
DASHDOT
  62
2
  10
 203.21971496437
  20
 207.52811627218
  30
0.0
  11
 203.21971496437
  21
 179.83630767526
  31
0.0
   0
LINE
   5
29A
 100
AcDbEntity
   8
LEVEL002
 370
15
 100
AcDbLine
   6
DASHDOT
  62
2
  10
 188.57657084677
  20
 193.85470672193
  30
0.0
  11
 216.60144243369
  21
 193.85470672193
  31
0.0
   0
CIRCLE
   5
29B
 100
AcDbEntity
   8
LEVEL002
 370
40
 100
AcDbCircle
   6
CONTINUOUS
  62
3
  10
 203.21971496437
  20
 193.85470672193
  30
0.0
  40
 12.000000000000
   0
LINE
   5
29C
 100
AcDbEntity
   8
LEVEL002
 370
40
 100
AcDbLine
   6
CONTINUOUS
  62
3
  10
 191.21971496437
  20
 155.22231246252
  30
0.0
  11
 191.21971496437
  21
 151.22231246252
  31
0.0
   0
LINE
   5
29D
 100
AcDbEntity
   8
LEVEL002
 370
40
 100
AcDbLine
   6
CONTINUOUS
  62
3
  10
 191.21971496437
  20
 151.22231246252
  30
0.0
  11
 215.21971496437
  21
 151.22231246252
  31
0.0
   0
LINE
   5
29E
 100
AcDbEntity
   8
LEVEL002
 370
40
 100
AcDbLine
   6
CONTINUOUS
  62
3
  10
 215.21971496437
  20
 155.22231246252
  30
0.0
  11
 215.21971496437
  21
 151.22231246252
  31
0.0
   0
LINE
   5
29F
 100
AcDbEntity
   8
LEVEL002
 370
40
 100
AcDbLine
   6
CONTINUOUS
  62
3
  10
 191.21971496437
  20
 155.22231246252
  30
0.0
  11
 215.21971496437
  21
 155.22231246252
  31
0.0
   0
LINE
   5
2A0
 100
AcDbEntity
   8
LEVEL002
 370
15
 100
AcDbLine
   6
DASHDOT
  62
8
  10
 203.21971496437
  20
 156.27664841187
  30
0.0
  11
 203.21971496437
  21
 148.71136049621
  31
0.0
   0
DIMENSION
   5
2A1
 100
AcDbEntity
   8
LEVEL001
 370
15
   6
CONTINUOUS
  62
8
 100
AcDbDimension
   2
*D6
  10
 159.08254156770
  20
 155.22231246252
  30
0.0
  11
 159.08254156770
  21
 148.77975736023
  31
0.0
  70
128
   3
GMM004
 100
AcDbAlignedDimension
  13
 149.08254156770
  23
 151.22231246252
  33
0.0
  14
 149.08254156770
  24
 155.22231246252
  34
0.0
  50
 90.000000000000
 100
AcDbRotatedDimension
   0
DIMENSION
   5
2A2
 100
AcDbEntity
   8
LEVEL001
 370
15
   6
CONTINUOUS
  62
8
 100
AcDbDimension
   2
*D7
  10
 149.08254156770
  20
 141.22231246252
  30
0.0
  11
 137.08254156770
  21
 141.22231246252
  31
0.0
  70
0
   3
GMM005
 100
AcDbAlignedDimension
  13
 125.08254156770
  23
 151.22231246252
  33
0.0
  14
 149.08254156770
  24
 151.22231246252
  34
0.0
 100
AcDbRotatedDimension
   0
LINE
   5
2A3
 100
AcDbEntity
   8
LEVEL002
 370
25
 100
AcDbLine
   6
CONTINUOUS
  62
1
  10
 134.96122122414
  20
 196.68313384668
  30
0.0
  11
 137.08254156770
  21
 194.56181350312
  31
0.0
   0
LINE
   5
2A4
 100
AcDbEntity
   8
LEVEL002
 370
25
 100
AcDbLine
   6
CONTINUOUS
  62
1
  10
 137.08254156770
  20
 198.80445419024
  30
0.0
  11
 134.96122122414
  21
 196.68313384668
  31
0.0
   0
LINE
   5
2A5
 100
AcDbEntity
   8
LEVEL002
 370
25
 100
AcDbLine
   6
CONTINUOUS
  62
1
  10
 139.20386191126
  20
 196.68313384668
  30
0.0
  11
 137.08254156770
  21
 194.56181350312
  31
0.0
   0
LINE
   5
2A6
 100
AcDbEntity
   8
LEVEL002
 370
25
 100
AcDbLine
   6
CONTINUOUS
  62
1
  10
 137.08254156770
  20
 198.80445419024
  30
0.0
  11
 139.20386191126
  21
 196.68313384668
  31
0.0
   0
LINE
   5
2A7
 100
AcDbEntity
   8
LEVEL002
 370
25
 100
AcDbLine
   6
CONTINUOUS
  62
1
  10
 139.91096869244
  20
 201.63288131498
  30
0.0
  11
 142.03228903600
  21
 199.51156097142
  31
0.0
   0
LINE
   5
2A8
 100
AcDbEntity
   8
LEVEL002
 370
25
 100
AcDbLine
   6
CONTINUOUS
  62
1
  10
 139.91096869244
  20
 201.63288131498
  30
0.0
  11
 137.78964834888
  21
 199.51156097142
  31
0.0
   0
LINE
   5
2A9
 100
AcDbEntity
   8
LEVEL002
 370
25
 100
AcDbLine
   6
CONTINUOUS
  62
1
  10
 142.79042962263
  20
 204.41027463428
  30
0.0
  11
 144.86071616075
  21
 202.33998809617
  31
0.0
   0
LINE
   5
2AA
 100
AcDbEntity
   8
LEVEL002
 370
25
 100
AcDbLine
   6
CONTINUOUS
  62
1
  10
 142.72400937392
  20
 204.44592199646
  30
0.0
  11
 140.61807547363
  21
 202.33998809617
  31
0.0
   0
LINE
   5
2AB
 100
AcDbEntity
   8
LEVEL002
 370
25
 100
AcDbLine
   6
CONTINUOUS
  62
1
  10
 144.86071616075
  20
 202.33998809617
  30
0.0
  11
 142.73939581719
  21
 200.21866775261
  31
0.0
   0
LINE
   5
2AC
 100
AcDbEntity
   8
LEVEL002
 370
25
 100
AcDbLine
   6
CONTINUOUS
  62
1
  10
 140.61807547363
  20
 202.33998809617
  30
0.0
  11
 142.73939581719
  21
 200.21866775261
  31
0.0
   0
LINE
   5
2AD
 100
AcDbEntity
   8
LEVEL002
 370
25
 100
AcDbLine
   6
CONTINUOUS
  62
1
  10
 134.25411444295
  20
 201.63288131498
  30
0.0
  11
 132.13279409939
  21
 199.51156097142
  31
0.0
   0
LINE
   5
2AE
 100
AcDbEntity
   8
LEVEL002
 370
25
 100
AcDbLine
   6
CONTINUOUS
  62
1
  10
 133.54700766176
  20
 202.33998809617
  30
0.0
  11
 131.42568731820
  21
 200.21866775261
  31
0.0
   0
LINE
   5
2AF
 100
AcDbEntity
   8
LEVEL002
 370
25
 100
AcDbLine
   6
CONTINUOUS
  62
1
  10
 131.37465351276
  20
 204.41027463428
  30
0.0
  11
 129.30436697464
  21
 202.33998809617
  31
0.0
   0
LINE
   5
2B0
 100
AcDbEntity
   8
LEVEL002
 370
25
 100
AcDbLine
   6
CONTINUOUS
  62
1
  10
 136.37543478651
  20
 199.51156097142
  30
0.0
  11
 134.25411444295
  21
 197.39024062786
  31
0.0
   0
LINE
   5
2B1
 100
AcDbEntity
   8
LEVEL002
 370
25
 100
AcDbLine
   6
CONTINUOUS
  62
1
  10
 134.25411444295
  20
 201.63288131498
  30
0.0
  11
 136.37543478651
  21
 199.51156097142
  31
0.0
   0
LINE
   5
2B2
 100
AcDbEntity
   8
LEVEL002
 370
25
 100
AcDbLine
   6
CONTINUOUS
  62
1
  10
 132.13279409939
  20
 199.51156097142
  30
0.0
  11
 134.25411444295
  21
 197.39024062786
  31
0.0
   0
LINE
   5
2B3
 100
AcDbEntity
   8
LEVEL002
 370
25
 100
AcDbLine
   6
CONTINUOUS
  62
1
  10
 129.30436697464
  20
 202.33998809617
  30
0.0
  11
 131.42568731820
  21
 200.21866775261
  31
0.0
   0
LINE
   5
2B4
 100
AcDbEntity
   8
LEVEL002
 370
25
 100
AcDbLine
   6
CONTINUOUS
  62
1
  10
 131.44107376148
  20
 204.44592199646
  30
0.0
  11
 133.54700766176
  21
 202.33998809617
  31
0.0
   0
LINE
   5
2B5
 100
AcDbEntity
   8
LEVEL002
 370
25
 100
AcDbLine
   6
CONTINUOUS
  62
1
  10
 142.03228903600
  20
 199.51156097142
  30
0.0
  11
 139.91096869244
  21
 197.39024062786
  31
0.0
   0
LINE
   5
2B6
 100
AcDbEntity
   8
LEVEL002
 370
25
 100
AcDbLine
   6
CONTINUOUS
  62
1
  10
 137.78964834888
  20
 199.51156097142
  30
0.0
  11
 139.91096869244
  21
 197.39024062786
  31
0.0
   0
LINE
   5
2B7
 100
AcDbEntity
   8
LEVEL002
 370
25
 100
AcDbLine
   6
CONTINUOUS
  62
1
  10
 137.08254156770
  20
 204.46130843973
  30
0.0
  11
 134.96122122414
  21
 202.33998809617
  31
0.0
   0
LINE
   5
2B8
 100
AcDbEntity
   8
LEVEL002
 370
25
 100
AcDbLine
   6
CONTINUOUS
  62
1
  10
 134.96122122414
  20
 202.33998809617
  30
0.0
  11
 137.08254156770
  21
 200.21866775261
  31
0.0
   0
LINE
   5
2B9
 100
AcDbEntity
   8
LEVEL002
 370
25
 100
AcDbLine
   6
CONTINUOUS
  62
1
  10
 139.20386191126
  20
 202.33998809617
  30
0.0
  11
 137.08254156770
  21
 200.21866775261
  31
0.0
   0
LINE
   5
2BA
 100
AcDbEntity
   8
LEVEL002
 370
25
 100
AcDbLine
   6
CONTINUOUS
  62
1
  10
 137.08254156770
  20
 204.46130843973
  30
0.0
  11
 139.20386191126
  21
 202.33998809617
  31
0.0
   0
LINE
   5
2BB
 100
AcDbEntity
   8
LEVEL002
 370
25
 100
AcDbLine
   6
CONTINUOUS
  62
1
  10
 137.78964834888
  20
 205.16841522092
  30
0.0
  11
 139.91096869244
  21
 203.04709487736
  31
0.0
   0
LINE
   5
2BC
 100
AcDbEntity
   8
LEVEL002
 370
25
 100
AcDbLine
   6
CONTINUOUS
  62
1
  10
 136.37543478651
  20
 205.16841522092
  30
0.0
  11
 134.25411444295
  21
 203.04709487736
  31
0.0
   0
LINE
   5
2BD
 100
AcDbEntity
   8
LEVEL002
 370
25
 100
AcDbLine
   6
CONTINUOUS
  62
1
  10
 131.42568731820
  20
 198.80445419024
  30
0.0
  11
 129.30436697464
  21
 196.68313384668
  31
0.0
   0
LINE
   5
2BE
 100
AcDbEntity
   8
LEVEL002
 370
25
 100
AcDbLine
   6
CONTINUOUS
  62
1
  10
 129.30436697464
  20
 196.68313384668
  30
0.0
  11
 131.42568731820
  21
 194.56181350312
  31
0.0
   0
LINE
   5
2BF
 100
AcDbEntity
   8
LEVEL002
 370
25
 100
AcDbLine
   6
CONTINUOUS
  62
1
  10
 132.13279409939
  20
 193.85470672193
  30
0.0
  11
 134.25411444295
  21
 191.73338637837
  31
0.0
   0
LINE
   5
2C0
 100
AcDbEntity
   8
LEVEL002
 370
25
 100
AcDbLine
   6
CONTINUOUS
  62
1
  10
 134.25411444295
  20
 195.97602706549
  30
0.0
  11
 132.13279409939
  21
 193.85470672193
  31
0.0
   0
LINE
   5
2C1
 100
AcDbEntity
   8
LEVEL002
 370
25
 100
AcDbLine
   6
CONTINUOUS
  62
1
  10
 133.54700766176
  20
 196.68313384668
  30
0.0
  11
 131.42568731820
  21
 194.56181350312
  31
0.0
   0
LINE
   5
2C2
 100
AcDbEntity
   8
LEVEL002
 370
25
 100
AcDbLine
   6
CONTINUOUS
  62
1
  10
 131.42568731820
  20
 198.80445419024
  30
0.0
  11
 133.54700766176
  21
 196.68313384668
  31
0.0
   0
LINE
   5
2C3
 100
AcDbEntity
   8
LEVEL002
 370
25
 100
AcDbLine
   6
CONTINUOUS
  62
1
  10
 134.25411444295
  20
 195.97602706549
  30
0.0
  11
 136.37543478651
  21
 193.85470672193
  31
0.0
   0
LINE
   5
2C4
 100
AcDbEntity
   8
LEVEL002
 370
25
 100
AcDbLine
   6
CONTINUOUS
  62
1
  10
 136.37543478651
  20
 193.85470672193
  30
0.0
  11
 134.25411444295
  21
 191.73338637837
  31
0.0
   0
LINE
   5
2C5
 100
AcDbEntity
   8
LEVEL002
 370
25
 100
AcDbLine
   6
CONTINUOUS
  62
1
  10
 130.71858053702
  20
 199.51156097142
  30
0.0
  11
 128.59726019346
  21
 197.39024062786
  31
0.0
   0
LINE
   5
2C6
 100
AcDbEntity
   8
LEVEL002
 370
25
 100
AcDbLine
   6
CONTINUOUS
  62
1
  10
 128.59726019346
  20
 201.63288131498
  30
0.0
  11
 130.71858053702
  21
 199.51156097142
  31
0.0
   0
LINE
   5
2C7
 100
AcDbEntity
   8
LEVEL002
 370
25
 100
AcDbLine
   6
CONTINUOUS
  62
1
  10
 128.59726019346
  20
 195.97602706549
  30
0.0
  11
 126.47593984990
  21
 193.85470672193
  31
0.0
   0
LINE
   5
2C8
 100
AcDbEntity
   8
LEVEL002
 370
25
 100
AcDbLine
   6
CONTINUOUS
  62
1
  10
 126.47593984990
  20
 193.85470672193
  30
0.0
  11
 128.59726019346
  21
 191.73338637837
  31
0.0
   0
LINE
   5
2C9
 100
AcDbEntity
   8
LEVEL002
 370
25
 100
AcDbLine
   6
CONTINUOUS
  62
1
  10
 127.89015341227
  20
 196.68313384668
  30
0.0
  11
 125.76883306871
  21
 194.56181350312
  31
0.0
   0
LINE
   5
2CA
 100
AcDbEntity
   8
LEVEL002
 370
25
 100
AcDbLine
   6
CONTINUOUS
  62
1
  10
 128.59726019346
  20
 195.97602706549
  30
0.0
  11
 130.71858053702
  21
 193.85470672193
  31
0.0
   0
LINE
   5
2CB
 100
AcDbEntity
   8
LEVEL002
 370
25
 100
AcDbLine
   6
CONTINUOUS
  62
1
  10
 129.30436697464
  20
 191.02627959718
  30
0.0
  11
 131.42568731820
  21
 188.90495925363
  31
0.0
   0
LINE
   5
2CC
 100
AcDbEntity
   8
LEVEL002
 370
25
 100
AcDbLine
   6
CONTINUOUS
  62
1
  10
 131.42568731820
  20
 193.14759994074
  30
0.0
  11
 129.30436697464
  21
 191.02627959718
  31
0.0
   0
LINE
   5
2CD
 100
AcDbEntity
   8
LEVEL002
 370
25
 100
AcDbLine
   6
CONTINUOUS
  62
1
  10
 130.71858053702
  20
 193.85470672193
  30
0.0
  11
 128.59726019346
  21
 191.73338637837
  31
0.0
   0
LINE
   5
2CE
 100
AcDbEntity
   8
LEVEL002
 370
25
 100
AcDbLine
   6
CONTINUOUS
  62
1
  10
 131.42568731820
  20
 193.14759994074
  30
0.0
  11
 133.54700766176
  21
 191.02627959718
  31
0.0
   0
LINE
   5
2CF
 100
AcDbEntity
   8
LEVEL002
 370
25
 100
AcDbLine
   6
CONTINUOUS
  62
1
  10
 133.54700766176
  20
 191.02627959718
  30
0.0
  11
 131.42568731820
  21
 188.90495925363
  31
0.0
   0
LINE
   5
2D0
 100
AcDbEntity
   8
LEVEL002
 370
25
 100
AcDbLine
   6
CONTINUOUS
  62
1
  10
 125.76883306871
  20
 193.14759994074
  30
0.0
  11
 127.89015341227
  21
 191.02627959718
  31
0.0
   0
LINE
   5
2D1
 100
AcDbEntity
   8
LEVEL002
 370
25
 100
AcDbLine
   6
CONTINUOUS
  62
1
  10
 128.59726019346
  20
 190.31917281600
  30
0.0
  11
 130.71858053702
  21
 188.19785247244
  31
0.0
   0
LINE
   5
2D2
 100
AcDbEntity
   8
LEVEL002
 370
25
 100
AcDbLine
   6
CONTINUOUS
  62
1
  10
 130.71858053702
  20
 188.19785247244
  30
0.0
  11
 128.59726019346
  21
 186.07653212888
  31
0.0
   0
LINE
   5
2D3
 100
AcDbEntity
   8
LEVEL002
 370
25
 100
AcDbLine
   6
CONTINUOUS
  62
1
  10
 132.13279409939
  20
 188.19785247244
  30
0.0
  11
 134.25411444295
  21
 186.07653212888
  31
0.0
   0
LINE
   5
2D4
 100
AcDbEntity
   8
LEVEL002
 370
25
 100
AcDbLine
   6
CONTINUOUS
  62
1
  10
 136.37543478651
  20
 188.19785247244
  30
0.0
  11
 134.25411444295
  21
 186.07653212888
  31
0.0
   0
LINE
   5
2D5
 100
AcDbEntity
   8
LEVEL002
 370
25
 100
AcDbLine
   6
CONTINUOUS
  62
1
  10
 131.42568731820
  20
 187.49074569125
  30
0.0
  11
 133.54700766176
  21
 185.36942534769
  31
0.0
   0
LINE
   5
2D6
 100
AcDbEntity
   8
LEVEL002
 370
25
 100
AcDbLine
   6
CONTINUOUS
  62
1
  10
 134.96122122414
  20
 191.02627959718
  30
0.0
  11
 137.08254156770
  21
 188.90495925363
  31
0.0
   0
LINE
   5
2D7
 100
AcDbEntity
   8
LEVEL002
 370
25
 100
AcDbLine
   6
CONTINUOUS
  62
1
  10
 139.20386191126
  20
 191.02627959718
  30
0.0
  11
 137.08254156770
  21
 188.90495925363
  31
0.0
   0
LINE
   5
2D8
 100
AcDbEntity
   8
LEVEL002
 370
25
 100
AcDbLine
   6
CONTINUOUS
  62
1
  10
 134.25411444295
  20
 190.31917281600
  30
0.0
  11
 136.37543478651
  21
 188.19785247244
  31
0.0
   0
LINE
   5
2D9
 100
AcDbEntity
   8
LEVEL002
 370
25
 100
AcDbLine
   6
CONTINUOUS
  62
1
  10
 137.78964834888
  20
 193.85470672193
  30
0.0
  11
 139.91096869244
  21
 191.73338637837
  31
0.0
   0
LINE
   5
2DA
 100
AcDbEntity
   8
LEVEL002
 370
25
 100
AcDbLine
   6
CONTINUOUS
  62
1
  10
 137.08254156770
  20
 193.14759994074
  30
0.0
  11
 134.96122122414
  21
 191.02627959718
  31
0.0
   0
LINE
   5
2DB
 100
AcDbEntity
   8
LEVEL002
 370
25
 100
AcDbLine
   6
CONTINUOUS
  62
1
  10
 137.08254156770
  20
 193.14759994074
  30
0.0
  11
 139.20386191126
  21
 191.02627959718
  31
0.0
   0
LINE
   5
2DC
 100
AcDbEntity
   8
LEVEL002
 370
25
 100
AcDbLine
   6
CONTINUOUS
  62
1
  10
 134.25411444295
  20
 190.31917281600
  30
0.0
  11
 132.13279409939
  21
 188.19785247244
  31
0.0
   0
LINE
   5
2DD
 100
AcDbEntity
   8
LEVEL002
 370
25
 100
AcDbLine
   6
CONTINUOUS
  62
1
  10
 131.42568731820
  20
 187.49074569125
  30
0.0
  11
 129.30436697464
  21
 185.36942534769
  31
0.0
   0
LINE
   5
2DE
 100
AcDbEntity
   8
LEVEL002
 370
25
 100
AcDbLine
   6
CONTINUOUS
  62
1
  10
 139.91096869244
  20
 195.97602706549
  30
0.0
  11
 137.78964834888
  21
 193.85470672193
  31
0.0
   0
LINE
   5
2DF
 100
AcDbEntity
   8
LEVEL002
 370
25
 100
AcDbLine
   6
CONTINUOUS
  62
1
  10
 142.03228903600
  20
 193.85470672193
  30
0.0
  11
 139.91096869244
  21
 191.73338637837
  31
0.0
   0
LINE
   5
2E0
 100
AcDbEntity
   8
LEVEL002
 370
25
 100
AcDbLine
   6
CONTINUOUS
  62
1
  10
 139.91096869244
  20
 195.97602706549
  30
0.0
  11
 142.03228903600
  21
 193.85470672193
  31
0.0
   0
LINE
   5
2E1
 100
AcDbEntity
   8
LEVEL002
 370
25
 100
AcDbLine
   6
CONTINUOUS
  62
1
  10
 144.86071616075
  20
 196.68313384668
  30
0.0
  11
 142.73939581719
  21
 194.56181350312
  31
0.0
   0
LINE
   5
2E2
 100
AcDbEntity
   8
LEVEL002
 370
25
 100
AcDbLine
   6
CONTINUOUS
  62
1
  10
 140.61807547363
  20
 196.68313384668
  30
0.0
  11
 142.73939581719
  21
 194.56181350312
  31
0.0
   0
LINE
   5
2E3
 100
AcDbEntity
   8
LEVEL002
 370
25
 100
AcDbLine
   6
CONTINUOUS
  62
1
  10
 142.73939581719
  20
 198.80445419024
  30
0.0
  11
 144.86071616075
  21
 196.68313384668
  31
0.0
   0
LINE
   5
2E4
 100
AcDbEntity
   8
LEVEL002
 370
25
 100
AcDbLine
   6
CONTINUOUS
  62
1
  10
 142.73939581719
  20
 198.80445419024
  30
0.0
  11
 140.61807547363
  21
 196.68313384668
  31
0.0
   0
LINE
   5
2E5
 100
AcDbEntity
   8
LEVEL002
 370
25
 100
AcDbLine
   6
CONTINUOUS
  62
1
  10
 143.44650259838
  20
 199.51156097142
  30
0.0
  11
 145.56782294194
  21
 197.39024062786
  31
0.0
   0
LINE
   5
2E6
 100
AcDbEntity
   8
LEVEL002
 370
25
 100
AcDbLine
   6
CONTINUOUS
  62
1
  10
 134.96122122414
  20
 185.36942534769
  30
0.0
  11
 137.08254156770
  21
 183.24810500413
  31
0.0
   0
LINE
   5
2E7
 100
AcDbEntity
   8
LEVEL002
 370
25
 100
AcDbLine
   6
CONTINUOUS
  62
1
  10
 139.20386191126
  20
 185.36942534769
  30
0.0
  11
 137.08254156770
  21
 183.24810500413
  31
0.0
   0
LINE
   5
2E8
 100
AcDbEntity
   8
LEVEL002
 370
25
 100
AcDbLine
   6
CONTINUOUS
  62
1
  10
 134.25411444295
  20
 184.66231856651
  30
0.0
  11
 136.37543478651
  21
 182.54099822295
  31
0.0
   0
LINE
   5
2E9
 100
AcDbEntity
   8
LEVEL002
 370
25
 100
AcDbLine
   6
CONTINUOUS
  62
1
  10
 137.78964834888
  20
 188.19785247244
  30
0.0
  11
 139.91096869244
  21
 186.07653212888
  31
0.0
   0
LINE
   5
2EA
 100
AcDbEntity
   8
LEVEL002
 370
25
 100
AcDbLine
   6
CONTINUOUS
  62
1
  10
 142.03228903600
  20
 188.19785247244
  30
0.0
  11
 139.91096869244
  21
 186.07653212888
  31
0.0
   0
LINE
   5
2EB
 100
AcDbEntity
   8
LEVEL002
 370
25
 100
AcDbLine
   6
CONTINUOUS
  62
1
  10
 137.08254156770
  20
 187.49074569125
  30
0.0
  11
 139.20386191126
  21
 185.36942534769
  31
0.0
   0
LINE
   5
2EC
 100
AcDbEntity
   8
LEVEL002
 370
25
 100
AcDbLine
   6
CONTINUOUS
  62
1
  10
 140.61807547363
  20
 191.02627959718
  30
0.0
  11
 142.73939581719
  21
 188.90495925363
  31
0.0
   0
LINE
   5
2ED
 100
AcDbEntity
   8
LEVEL002
 370
25
 100
AcDbLine
   6
CONTINUOUS
  62
1
  10
 139.91096869244
  20
 190.31917281600
  30
0.0
  11
 137.78964834888
  21
 188.19785247244
  31
0.0
   0
LINE
   5
2EE
 100
AcDbEntity
   8
LEVEL002
 370
25
 100
AcDbLine
   6
CONTINUOUS
  62
1
  10
 139.91096869244
  20
 190.31917281600
  30
0.0
  11
 142.03228903600
  21
 188.19785247244
  31
0.0
   0
LINE
   5
2EF
 100
AcDbEntity
   8
LEVEL002
 370
25
 100
AcDbLine
   6
CONTINUOUS
  62
1
  10
 137.08254156770
  20
 187.49074569125
  30
0.0
  11
 134.96122122414
  21
 185.36942534769
  31
0.0
   0
LINE
   5
2F0
 100
AcDbEntity
   8
LEVEL002
 370
25
 100
AcDbLine
   6
CONTINUOUS
  62
1
  10
 142.73939581719
  20
 193.14759994074
  30
0.0
  11
 140.61807547363
  21
 191.02627959718
  31
0.0
   0
LINE
   5
2F1
 100
AcDbEntity
   8
LEVEL002
 370
25
 100
AcDbLine
   6
CONTINUOUS
  62
1
  10
 144.86071616075
  20
 191.02627959718
  30
0.0
  11
 142.73939581719
  21
 188.90495925363
  31
0.0
   0
LINE
   5
2F2
 100
AcDbEntity
   8
LEVEL002
 370
25
 100
AcDbLine
   6
CONTINUOUS
  62
1
  10
 142.73939581719
  20
 193.14759994074
  30
0.0
  11
 144.86071616075
  21
 191.02627959718
  31
0.0
   0
LINE
   5
2F3
 100
AcDbEntity
   8
LEVEL002
 370
25
 100
AcDbLine
   6
CONTINUOUS
  62
1
  10
 147.68914328550
  20
 193.85470672193
  30
0.0
  11
 145.56782294194
  21
 191.73338637837
  31
0.0
   0
LINE
   5
2F4
 100
AcDbEntity
   8
LEVEL002
 370
25
 100
AcDbLine
   6
CONTINUOUS
  62
1
  10
 143.44650259838
  20
 193.85470672193
  30
0.0
  11
 145.56782294194
  21
 191.73338637837
  31
0.0
   0
LINE
   5
2F5
 100
AcDbEntity
   8
LEVEL002
 370
25
 100
AcDbLine
   6
CONTINUOUS
  62
1
  10
 145.56782294194
  20
 195.97602706549
  30
0.0
  11
 147.68914328550
  21
 193.85470672193
  31
0.0
   0
LINE
   5
2F6
 100
AcDbEntity
   8
LEVEL002
 370
25
 100
AcDbLine
   6
CONTINUOUS
  62
1
  10
 145.56782294194
  20
 195.97602706549
  30
0.0
  11
 143.44650259838
  21
 193.85470672193
  31
0.0
   0
LINE
   5
2F7
 100
AcDbEntity
   8
LEVEL002
 370
25
 100
AcDbLine
   6
CONTINUOUS
  62
1
  10
 146.27492972312
  20
 196.68313384668
  30
0.0
  11
 148.39625006668
  21
 194.56181350312
  31
0.0
   0
LINE
   5
2F8
 100
AcDbEntity
   8
LEVEL002
 370
25
 100
AcDbLine
   6
CONTINUOUS
  62
1
  10
 143.44650259838
  20
 188.19785247244
  30
0.0
  11
 145.56782294194
  21
 186.07653212888
  31
0.0
   0
LINE
   5
2F9
 100
AcDbEntity
   8
LEVEL002
 370
25
 100
AcDbLine
   6
CONTINUOUS
  62
1
  10
 148.39625006668
  20
 193.14759994074
  30
0.0
  11
 146.27492972312
  21
 191.02627959718
  31
0.0
   0
LINE
   5
2FA
 100
AcDbEntity
   8
LEVEL002
 370
25
 100
AcDbLine
   6
CONTINUOUS
  62
1
  10
 145.56782294194
  20
 190.31917281600
  30
0.0
  11
 143.44650259838
  21
 188.19785247244
  31
0.0
   0
LINE
   5
2FB
 100
AcDbEntity
   8
LEVEL002
 370
25
 100
AcDbLine
   6
CONTINUOUS
  62
1
  10
 142.73939581719
  20
 187.49074569125
  30
0.0
  11
 140.61807547363
  21
 185.36942534769
  31
0.0
   0
LINE
   5
2FC
 100
AcDbEntity
   8
LEVEL002
 370
25
 100
AcDbLine
   6
CONTINUOUS
  62
1
  10
 142.73939581719
  20
 187.49074569125
  30
0.0
  11
 144.86071616075
  21
 185.36942534769
  31
0.0
   0
LINE
   5
2FD
 100
AcDbEntity
   8
LEVEL002
 370
25
 100
AcDbLine
   6
CONTINUOUS
  62
1
  10
 139.91096869244
  20
 184.66231856651
  30
0.0
  11
 137.78964834888
  21
 182.54099822295
  31
0.0
   0
LINE
   5
2FE
 100
AcDbEntity
   8
LEVEL002
 370
25
 100
AcDbLine
   6
CONTINUOUS
  62
1
  10
 126.03449469108
  20
 198.53879256787
  30
0.0
  11
 127.89015341227
  21
 196.68313384668
  31
0.0
   0
LINE
   5
2FF
 100
AcDbEntity
   8
LEVEL002
 370
25
 100
AcDbLine
   6
CONTINUOUS
  62
1
  10
 125.15542005905
  20
 195.17522651278
  30
0.0
  11
 125.76883306871
  21
 194.56181350312
  31
0.0
   0
LINE
   5
300
 100
AcDbEntity
   8
LEVEL002
 370
25
 100
AcDbLine
   6
CONTINUOUS
  62
1
  10
 125.76883306871
  20
 193.14759994074
  30
0.0
  11
 125.15542005905
  21
 192.53418693108
  31
0.0
   0
LINE
   5
301
 100
AcDbEntity
   8
LEVEL002
 370
25
 100
AcDbLine
   6
CONTINUOUS
  62
1
  10
 127.89015341227
  20
 191.02627959718
  30
0.0
  11
 126.03449469108
  21
 189.17062087599
  31
0.0
   0
LINE
   5
302
 100
AcDbEntity
   8
LEVEL002
 370
25
 100
AcDbLine
   6
CONTINUOUS
  62
1
  10
 126.52697365534
  20
 188.14681866699
  30
0.0
  11
 128.59726019346
  21
 186.07653212888
  31
0.0
   0
LINE
   5
303
 100
AcDbEntity
   8
LEVEL002
 370
25
 100
AcDbLine
   6
CONTINUOUS
  62
1
  10
 128.59726019346
  20
 190.31917281600
  30
0.0
  11
 126.49132629317
  21
 188.21323891571
  31
0.0
   0
LINE
   5
304
 100
AcDbEntity
   8
LEVEL002
 370
25
 100
AcDbLine
   6
CONTINUOUS
  62
1
  10
 129.30436697464
  20
 185.36942534769
  30
0.0
  11
 131.37465351276
  21
 183.29913880958
  31
0.0
   0
LINE
   5
305
 100
AcDbEntity
   8
LEVEL002
 370
25
 100
AcDbLine
   6
CONTINUOUS
  62
1
  10
 133.54700766176
  20
 185.36942534769
  30
0.0
  11
 131.44107376148
  21
 183.26349144740
  31
0.0
   0
LINE
   5
306
 100
AcDbEntity
   8
LEVEL002
 370
25
 100
AcDbLine
   6
CONTINUOUS
  62
1
  10
 134.25411444295
  20
 184.66231856651
  30
0.0
  11
 132.39845572176
  21
 182.80665984532
  31
0.0
   0
LINE
   5
307
 100
AcDbEntity
   8
LEVEL002
 370
25
 100
AcDbLine
   6
CONTINUOUS
  62
1
  10
 136.37543478651
  20
 182.54099822295
  30
0.0
  11
 135.76202177685
  21
 181.92758521329
  31
0.0
   0
LINE
   5
308
 100
AcDbEntity
   8
LEVEL002
 370
25
 100
AcDbLine
   6
CONTINUOUS
  62
1
  10
 137.78964834888
  20
 182.54099822295
  30
0.0
  11
 138.40306135854
  21
 181.92758521329
  31
0.0
   0
LINE
   5
309
 100
AcDbEntity
   8
LEVEL002
 370
25
 100
AcDbLine
   6
CONTINUOUS
  62
1
  10
 139.91096869244
  20
 184.66231856651
  30
0.0
  11
 141.76662741363
  21
 182.80665984532
  31
0.0
   0
LINE
   5
30A
 100
AcDbEntity
   8
LEVEL002
 370
25
 100
AcDbLine
   6
CONTINUOUS
  62
1
  10
 144.86071616075
  20
 185.36942534769
  30
0.0
  11
 142.79042962264
  21
 183.29913880958
  31
0.0
   0
LINE
   5
30B
 100
AcDbEntity
   8
LEVEL002
 370
25
 100
AcDbLine
   6
CONTINUOUS
  62
1
  10
 140.61807547363
  20
 185.36942534769
  30
0.0
  11
 142.72400937392
  21
 183.26349144740
  31
0.0
   0
LINE
   5
30C
 100
AcDbEntity
   8
LEVEL002
 370
25
 100
AcDbLine
   6
CONTINUOUS
  62
1
  10
 145.56782294194
  20
 190.31917281600
  30
0.0
  11
 147.67375684222
  21
 188.21323891571
  31
0.0
   0
LINE
   5
30D
 100
AcDbEntity
   8
LEVEL002
 370
25
 100
AcDbLine
   6
CONTINUOUS
  62
1
  10
 147.63810948005
  20
 188.14681866699
  30
0.0
  11
 145.56782294194
  21
 186.07653212888
  31
0.0
   0
LINE
   5
30E
 100
AcDbEntity
   8
LEVEL002
 370
25
 100
AcDbLine
   6
CONTINUOUS
  62
1
  10
 146.27492972312
  20
 191.02627959718
  30
0.0
  11
 148.13058844431
  21
 189.17062087599
  31
0.0
   0
LINE
   5
30F
 100
AcDbEntity
   8
LEVEL002
 370
25
 100
AcDbLine
   6
CONTINUOUS
  62
1
  10
 148.39625006668
  20
 193.14759994074
  30
0.0
  11
 149.00966307634
  21
 192.53418693108
  31
0.0
   0
LINE
   5
310
 100
AcDbEntity
   8
LEVEL002
 370
25
 100
AcDbLine
   6
CONTINUOUS
  62
1
  10
 149.00966307634
  20
 195.17522651278
  30
0.0
  11
 148.39625006668
  21
 194.56181350312
  31
0.0
   0
LINE
   5
311
 100
AcDbEntity
   8
LEVEL002
 370
25
 100
AcDbLine
   6
CONTINUOUS
  62
1
  10
 148.13058844431
  20
 198.53879256787
  30
0.0
  11
 146.27492972312
  21
 196.68313384668
  31
0.0
   0
LINE
   5
312
 100
AcDbEntity
   8
LEVEL002
 370
25
 100
AcDbLine
   6
CONTINUOUS
  62
1
  10
 147.67375684222
  20
 199.49617452815
  30
0.0
  11
 145.56782294194
  21
 197.39024062786
  31
0.0
   0
LINE
   5
313
 100
AcDbEntity
   8
LEVEL002
 370
25
 100
AcDbLine
   6
CONTINUOUS
  62
1
  10
 145.56782294194
  20
 201.63288131498
  30
0.0
  11
 147.63810948005
  21
 199.56259477687
  31
0.0
   0
LINE
   5
314
 100
AcDbEntity
   8
LEVEL002
 370
25
 100
AcDbLine
   6
CONTINUOUS
  62
1
  10
 145.56782294194
  20
 201.63288131498
  30
0.0
  11
 143.44650259838
  21
 199.51156097142
  31
0.0
   0
LINE
   5
315
 100
AcDbEntity
   8
LEVEL002
 370
25
 100
AcDbLine
   6
CONTINUOUS
  62
1
  10
 132.39845572176
  20
 204.90275359855
  30
0.0
  11
 134.25411444295
  21
 203.04709487736
  31
0.0
   0
LINE
   5
316
 100
AcDbEntity
   8
LEVEL002
 370
25
 100
AcDbLine
   6
CONTINUOUS
  62
1
  10
 135.76202177685
  20
 205.78182823058
  30
0.0
  11
 136.37543478651
  21
 205.16841522092
  31
0.0
   0
LINE
   5
317
 100
AcDbEntity
   8
LEVEL002
 370
25
 100
AcDbLine
   6
CONTINUOUS
  62
1
  10
 138.40306135854
  20
 205.78182823058
  30
0.0
  11
 137.78964834888
  21
 205.16841522092
  31
0.0
   0
LINE
   5
318
 100
AcDbEntity
   8
LEVEL002
 370
25
 100
AcDbLine
   6
CONTINUOUS
  62
1
  10
 141.76662741363
  20
 204.90275359855
  30
0.0
  11
 139.91096869244
  21
 203.04709487736
  31
0.0
   0
LINE
   5
319
 100
AcDbEntity
   8
LEVEL002
 370
25
 100
AcDbLine
   6
CONTINUOUS
  62
1
  10
 126.49132629317
  20
 199.49617452815
  30
0.0
  11
 128.59726019346
  21
 197.39024062786
  31
0.0
   0
LINE
   5
31A
 100
AcDbEntity
   8
LEVEL002
 370
25
 100
AcDbLine
   6
CONTINUOUS
  62
1
  10
 128.59726019346
  20
 201.63288131498
  30
0.0
  11
 126.52697365534
  21
 199.56259477687
  31
0.0
   0
HATCH
   5
31B
 100
AcDbEntity
   8
LEVEL002
  62
1
 100
AcDbHatch
  10
0.0
  20
0.0
  30
0.0
 210
0.0
 220
0.0
 230
 1.0000000000000
   2
SOLID
  70
1
  71
1
  91
17
  92
1
  93
72
  72
1
  10
 129.30436697464
  20
 202.33998809617
  11
 131.42568731820
  21
 200.21866775261
  72
1
  10
 131.42568731820
  20
 200.21866775261
  11
 133.54700766176
  21
 202.33998809617
  72
1
  10
 133.54700766176
  20
 202.33998809617
  11
 131.44107376148
  21
 204.44592199646
  72
2
  10
 137.08254156770
  20
 193.85470672193
  40
 12.000000000000
  50
 241.95776330000
  51
 247.02431283704
  73
0
  72
1
  10
 132.39845572176
  20
 204.90275359855
  11
 134.25411444295
  21
 203.04709487736
  72
1
  10
 134.25411444295
  20
 203.04709487736
  11
 136.37543478651
  21
 205.16841522092
  72
1
  10
 136.37543478651
  20
 205.16841522092
  11
 135.76202177685
  21
 205.78182823058
  72
2
  10
 137.08254156770
  20
 193.85470672193
  40
 12.000000000000
  50
 263.68218745349
  51
 276.31781254651
  73
0
  72
1
  10
 138.40306135854
  20
 205.78182823058
  11
 137.78964834888
  21
 205.16841522092
  72
1
  10
 137.78964834888
  20
 205.16841522092
  11
 139.91096869244
  21
 203.04709487736
  72
1
  10
 139.91096869244
  20
 203.04709487736
  11
 141.76662741363
  21
 204.90275359855
  72
2
  10
 137.08254156770
  20
 193.85470672193
  40
 12.000000000000
  50
 292.97568716296
  51
 298.04223670000
  73
0
  72
1
  10
 142.72400937392
  20
 204.44592199646
  11
 140.61807547363
  21
 202.33998809617
  72
1
  10
 140.61807547363
  20
 202.33998809617
  11
 142.73939581719
  21
 200.21866775261
  72
1
  10
 142.73939581719
  20
 200.21866775261
  11
 144.86071616075
  21
 202.33998809617
  72
1
  10
 144.86071616075
  20
 202.33998809617
  11
 142.79042962263
  21
 204.41027463428
  72
2
  10
 137.08254156770
  20
 193.85470672193
  40
 12.000000000000
  50
 298.40215786413
  51
 331.59784213586
  73
0
  72
1
  10
 147.63810948005
  20
 199.56259477687
  11
 145.56782294194
  21
 201.63288131498
  72
1
  10
 145.56782294194
  20
 201.63288131498
  11
 143.44650259838
  21
 199.51156097142
  72
1
  10
 143.44650259838
  20
 199.51156097142
  11
 145.56782294194
  21
 197.39024062786
  72
1
  10
 145.56782294194
  20
 197.39024062786
  11
 147.67375684222
  21
 199.49617452815
  72
2
  10
 137.08254156770
  20
 193.85470672193
  40
 12.000000000000
  50
 331.95776330000
  51
 337.02431283704
  73
0
  72
1
  10
 148.13058844431
  20
 198.53879256787
  11
 146.27492972312
  21
 196.68313384668
  72
1
  10
 146.27492972312
  20
 196.68313384668
  11
 148.39625006668
  21
 194.56181350312
  72
1
  10
 148.39625006668
  20
 194.56181350312
  11
 149.00966307634
  21
 195.17522651278
  72
2
  10
 137.08254156770
  20
 193.85470672193
  40
 12.000000000000
  50
 353.68218745349
  51
 6.3178125465098
  73
0
  72
1
  10
 149.00966307634
  20
 192.53418693108
  11
 148.39625006668
  21
 193.14759994074
  72
1
  10
 148.39625006668
  20
 193.14759994074
  11
 146.27492972312
  21
 191.02627959718
  72
1
  10
 146.27492972312
  20
 191.02627959718
  11
 148.13058844431
  21
 189.17062087599
  72
2
  10
 137.08254156770
  20
 193.85470672193
  40
 12.000000000000
  50
 22.975687162960
  51
 28.042236699999
  73
0
  72
1
  10
 147.67375684222
  20
 188.21323891571
  11
 145.56782294194
  21
 190.31917281600
  72
1
  10
 145.56782294194
  20
 190.31917281600
  11
 143.44650259838
  21
 188.19785247244
  72
1
  10
 143.44650259838
  20
 188.19785247244
  11
 145.56782294194
  21
 186.07653212888
  72
1
  10
 145.56782294194
  20
 186.07653212888
  11
 147.63810948005
  21
 188.14681866699
  72
2
  10
 137.08254156770
  20
 193.85470672193
  40
 12.000000000000
  50
 28.402157864139
  51
 61.597842135861
  73
0
  72
1
  10
 142.79042962264
  20
 183.29913880958
  11
 144.86071616075
  21
 185.36942534769
  72
1
  10
 144.86071616075
  20
 185.36942534769
  11
 142.73939581719
  21
 187.49074569125
  72
1
  10
 142.73939581719
  20
 187.49074569125
  11
 140.61807547363
  21
 185.36942534769
  72
1
  10
 140.61807547363
  20
 185.36942534769
  11
 142.72400937392
  21
 183.26349144740
  72
2
  10
 137.08254156770
  20
 193.85470672193
  40
 12.000000000000
  50
 61.957763300000
  51
 67.024312837037
  73
0
  72
1
  10
 141.76662741363
  20
 182.80665984532
  11
 139.91096869244
  21
 184.66231856651
  72
1
  10
 139.91096869244
  20
 184.66231856651
  11
 137.78964834888
  21
 182.54099822295
  72
1
  10
 137.78964834888
  20
 182.54099822295
  11
 138.40306135854
  21
 181.92758521329
  72
2
  10
 137.08254156770
  20
 193.85470672193
  40
 12.000000000000
  50
 83.682187453488
  51
 96.317812546507
  73
0
  72
1
  10
 135.76202177685
  20
 181.92758521329
  11
 136.37543478651
  21
 182.54099822295
  72
1
  10
 136.37543478651
  20
 182.54099822295
  11
 134.25411444295
  21
 184.66231856651
  72
1
  10
 134.25411444295
  20
 184.66231856651
  11
 132.39845572176
  21
 182.80665984532
  72
2
  10
 137.08254156770
  20
 193.85470672193
  40
 12.000000000000
  50
 112.97568716296
  51
 118.04223670000
  73
0
  72
1
  10
 131.44107376148
  20
 183.26349144740
  11
 133.54700766176
  21
 185.36942534769
  72
1
  10
 133.54700766176
  20
 185.36942534769
  11
 131.42568731820
  21
 187.49074569125
  72
1
  10
 131.42568731820
  20
 187.49074569125
  11
 129.30436697464
  21
 185.36942534769
  72
1
  10
 129.30436697464
  20
 185.36942534769
  11
 131.37465351276
  21
 183.29913880958
  72
2
  10
 137.08254156770
  20
 193.85470672193
  40
 12.000000000000
  50
 118.40215786414
  51
 151.59784213586
  73
0
  72
1
  10
 126.52697365534
  20
 188.14681866699
  11
 128.59726019346
  21
 186.07653212888
  72
1
  10
 128.59726019346
  20
 186.07653212888
  11
 130.71858053702
  21
 188.19785247244
  72
1
  10
 130.71858053702
  20
 188.19785247244
  11
 128.59726019346
  21
 190.31917281600
  72
1
  10
 128.59726019346
  20
 190.31917281600
  11
 126.49132629317
  21
 188.21323891571
  72
2
  10
 137.08254156770
  20
 193.85470672193
  40
 12.000000000000
  50
 151.95776330001
  51
 157.02431283704
  73
0
  72
1
  10
 126.03449469108
  20
 189.17062087599
  11
 127.89015341227
  21
 191.02627959718
  72
1
  10
 127.89015341227
  20
 191.02627959718
  11
 125.76883306871
  21
 193.14759994074
  72
1
  10
 125.76883306871
  20
 193.14759994074
  11
 125.15542005905
  21
 192.53418693108
  72
2
  10
 137.08254156770
  20
 193.85470672193
  40
 12.000000000000
  50
 173.68218745349
  51
 186.31781254651
  73
0
  72
1
  10
 125.15542005905
  20
 195.17522651278
  11
 125.76883306871
  21
 194.56181350312
  72
1
  10
 125.76883306871
  20
 194.56181350312
  11
 127.89015341227
  21
 196.68313384668
  72
1
  10
 127.89015341227
  20
 196.68313384668
  11
 126.03449469108
  21
 198.53879256787
  72
2
  10
 137.08254156770
  20
 193.85470672193
  40
 12.000000000000
  50
 202.97568716297
  51
 208.04223670001
  73
0
  72
1
  10
 126.49132629317
  20
 199.49617452815
  11
 128.59726019346
  21
 197.39024062786
  72
1
  10
 128.59726019346
  20
 197.39024062786
  11
 130.71858053702
  21
 199.51156097142
  72
1
  10
 130.71858053702
  20
 199.51156097142
  11
 128.59726019346
  21
 201.63288131498
  72
1
  10
 128.59726019346
  20
 201.63288131498
  11
 126.52697365534
  21
 199.56259477687
  72
2
  10
 137.08254156770
  20
 193.85470672193
  40
 12.000000000000
  50
 208.40215786414
  51
 241.59784213587
  73
0
  72
1
  10
 131.37465351276
  20
 204.41027463428
  11
 129.30436697464
  21
 202.33998809617
  97
1
 330

  92
16
  93
4
  72
1
  10
 137.08254156770
  20
 198.80445419024
  11
 134.96122122414
  21
 196.68313384668
  72
1
  10
 134.96122122414
  20
 196.68313384668
  11
 137.08254156770
  21
 194.56181350312
  72
1
  10
 137.08254156770
  20
 194.56181350312
  11
 139.20386191126
  21
 196.68313384668
  72
1
  10
 139.20386191126
  20
 196.68313384668
  11
 137.08254156770
  21
 198.80445419024
  97
1
 330

  92
16
  93
4
  72
1
  10
 139.91096869244
  20
 201.63288131498
  11
 137.78964834888
  21
 199.51156097142
  72
1
  10
 137.78964834888
  20
 199.51156097142
  11
 139.91096869244
  21
 197.39024062786
  72
1
  10
 139.91096869244
  20
 197.39024062786
  11
 142.03228903600
  21
 199.51156097142
  72
1
  10
 142.03228903600
  20
 199.51156097142
  11
 139.91096869244
  21
 201.63288131498
  97
1
 330

  92
16
  93
4
  72
1
  10
 134.25411444295
  20
 201.63288131498
  11
 132.13279409939
  21
 199.51156097142
  72
1
  10
 132.13279409939
  20
 199.51156097142
  11
 134.25411444295
  21
 197.39024062786
  72
1
  10
 134.25411444295
  20
 197.39024062786
  11
 136.37543478651
  21
 199.51156097142
  72
1
  10
 136.37543478651
  20
 199.51156097142
  11
 134.25411444295
  21
 201.63288131498
  97
1
 330

  92
16
  93
4
  72
1
  10
 134.96122122414
  20
 202.33998809617
  11
 137.08254156770
  21
 200.21866775261
  72
1
  10
 137.08254156770
  20
 200.21866775261
  11
 139.20386191126
  21
 202.33998809617
  72
1
  10
 139.20386191126
  20
 202.33998809617
  11
 137.08254156770
  21
 204.46130843973
  72
1
  10
 137.08254156770
  20
 204.46130843973
  11
 134.96122122414
  21
 202.33998809617
  97
1
 330

  92
16
  93
4
  72
1
  10
 131.42568731820
  20
 198.80445419024
  11
 129.30436697464
  21
 196.68313384668
  72
1
  10
 129.30436697464
  20
 196.68313384668
  11
 131.42568731820
  21
 194.56181350312
  72
1
  10
 131.42568731820
  20
 194.56181350312
  11
 133.54700766176
  21
 196.68313384668
  72
1
  10
 133.54700766176
  20
 196.68313384668
  11
 131.42568731820
  21
 198.80445419024
  97
1
 330

  92
16
  93
4
  72
1
  10
 134.25411444295
  20
 195.97602706549
  11
 132.13279409939
  21
 193.85470672193
  72
1
  10
 132.13279409939
  20
 193.85470672193
  11
 134.25411444295
  21
 191.73338637837
  72
1
  10
 134.25411444295
  20
 191.73338637837
  11
 136.37543478651
  21
 193.85470672193
  72
1
  10
 136.37543478651
  20
 193.85470672193
  11
 134.25411444295
  21
 195.97602706549
  97
1
 330

  92
16
  93
4
  72
1
  10
 130.71858053702
  20
 193.85470672193
  11
 128.59726019346
  21
 195.97602706549
  72
1
  10
 128.59726019346
  20
 195.97602706549
  11
 126.47593984990
  21
 193.85470672193
  72
1
  10
 126.47593984990
  20
 193.85470672193
  11
 128.59726019346
  21
 191.73338637837
  72
1
  10
 128.59726019346
  20
 191.73338637837
  11
 130.71858053702
  21
 193.85470672193
  97
1
 330

  92
16
  93
4
  72
1
  10
 131.42568731820
  20
 193.14759994074
  11
 129.30436697464
  21
 191.02627959718
  72
1
  10
 129.30436697464
  20
 191.02627959718
  11
 131.42568731820
  21
 188.90495925363
  72
1
  10
 131.42568731820
  20
 188.90495925363
  11
 133.54700766176
  21
 191.02627959718
  72
1
  10
 133.54700766176
  20
 191.02627959718
  11
 131.42568731820
  21
 193.14759994074
  97
1
 330

  92
16
  93
4
  72
1
  10
 134.25411444295
  20
 190.31917281600
  11
 132.13279409939
  21
 188.19785247244
  72
1
  10
 132.13279409939
  20
 188.19785247244
  11
 134.25411444295
  21
 186.07653212888
  72
1
  10
 134.25411444295
  20
 186.07653212888
  11
 136.37543478651
  21
 188.19785247244
  72
1
  10
 136.37543478651
  20
 188.19785247244
  11
 134.25411444295
  21
 190.31917281600
  97
1
 330

  92
16
  93
4
  72
1
  10
 137.08254156770
  20
 193.14759994074
  11
 134.96122122414
  21
 191.02627959718
  72
1
  10
 134.96122122414
  20
 191.02627959718
  11
 137.08254156770
  21
 188.90495925363
  72
1
  10
 137.08254156770
  20
 188.90495925363
  11
 139.20386191126
  21
 191.02627959718
  72
1
  10
 139.20386191126
  20
 191.02627959718
  11
 137.08254156770
  21
 193.14759994074
  97
1
 330

  92
16
  93
4
  72
1
  10
 139.91096869244
  20
 195.97602706549
  11
 137.78964834888
  21
 193.85470672193
  72
1
  10
 137.78964834888
  20
 193.85470672193
  11
 139.91096869244
  21
 191.73338637837
  72
1
  10
 139.91096869244
  20
 191.73338637837
  11
 142.03228903600
  21
 193.85470672193
  72
1
  10
 142.03228903600
  20
 193.85470672193
  11
 139.91096869244
  21
 195.97602706549
  97
1
 330

  92
16
  93
4
  72
1
  10
 142.73939581719
  20
 198.80445419024
  11
 140.61807547363
  21
 196.68313384668
  72
1
  10
 140.61807547363
  20
 196.68313384668
  11
 142.73939581719
  21
 194.56181350312
  72
1
  10
 142.73939581719
  20
 194.56181350312
  11
 144.86071616075
  21
 196.68313384668
  72
1
  10
 144.86071616075
  20
 196.68313384668
  11
 142.73939581719
  21
 198.80445419024
  97
1
 330

  92
16
  93
4
  72
1
  10
 137.08254156770
  20
 187.49074569125
  11
 134.96122122414
  21
 185.36942534769
  72
1
  10
 134.96122122414
  20
 185.36942534769
  11
 137.08254156770
  21
 183.24810500413
  72
1
  10
 137.08254156770
  20
 183.24810500413
  11
 139.20386191126
  21
 185.36942534769
  72
1
  10
 139.20386191126
  20
 185.36942534769
  11
 137.08254156770
  21
 187.49074569125
  97
1
 330

  92
16
  93
4
  72
1
  10
 139.91096869244
  20
 190.31917281600
  11
 137.78964834888
  21
 188.19785247244
  72
1
  10
 137.78964834888
  20
 188.19785247244
  11
 139.91096869244
  21
 186.07653212888
  72
1
  10
 139.91096869244
  20
 186.07653212888
  11
 142.03228903600
  21
 188.19785247244
  72
1
  10
 142.03228903600
  20
 188.19785247244
  11
 139.91096869244
  21
 190.31917281600
  97
1
 330

  92
16
  93
4
  72
1
  10
 142.73939581719
  20
 193.14759994074
  11
 140.61807547363
  21
 191.02627959718
  72
1
  10
 140.61807547363
  20
 191.02627959718
  11
 142.73939581719
  21
 188.90495925363
  72
1
  10
 142.73939581719
  20
 188.90495925363
  11
 144.86071616075
  21
 191.02627959718
  72
1
  10
 144.86071616075
  20
 191.02627959718
  11
 142.73939581719
  21
 193.14759994074
  97
1
 330

  92
16
  93
4
  72
1
  10
 145.56782294194
  20
 195.97602706549
  11
 143.44650259838
  21
 193.85470672193
  72
1
  10
 143.44650259838
  20
 193.85470672193
  11
 145.56782294194
  21
 191.73338637837
  72
1
  10
 145.56782294194
  20
 191.73338637837
  11
 147.68914328550
  21
 193.85470672193
  72
1
  10
 147.68914328550
  20
 193.85470672193
  11
 145.56782294194
  21
 195.97602706549
  97
1
 330

  75
0
  76
1
  98
1
  10
0.0
  20
0.0
   0
LINE
   5
31C
 100
AcDbEntity
   8
LEVEL002
 370
15
 100
AcDbLine
   6
DASHDOT
  62
2
  10
 137.08254156770
  20
 207.52811627218
  30
0.0
  11
 137.08254156770
  21
 179.83630767526
  31
0.0
   0
LINE
   5
31D
 100
AcDbEntity
   8
LEVEL002
 370
15
 100
AcDbLine
   6
DASHDOT
  62
2
  10
 122.43939745010
  20
 193.85470672193
  30
0.0
  11
 150.46426903702
  21
 193.85470672193
  31
0.0
   0
CIRCLE
   5
31E
 100
AcDbEntity
   8
LEVEL002
 370
40
 100
AcDbCircle
   6
CONTINUOUS
  62
3
  10
 137.08254156770
  20
 193.85470672193
  30
0.0
  40
 12.000000000000
   0
LINE
   5
31F
 100
AcDbEntity
   8
LEVEL002
 370
40
 100
AcDbLine
   6
CONTINUOUS
  62
3
  10
 125.08254156770
  20
 155.22231246252
  30
0.0
  11
 125.08254156770
  21
 151.22231246252
  31
0.0
   0
LINE
   5
320
 100
AcDbEntity
   8
LEVEL002
 370
40
 100
AcDbLine
   6
CONTINUOUS
  62
3
  10
 125.08254156770
  20
 151.22231246252
  30
0.0
  11
 149.08254156770
  21
 151.22231246252
  31
0.0
   0
LINE
   5
321
 100
AcDbEntity
   8
LEVEL002
 370
40
 100
AcDbLine
   6
CONTINUOUS
  62
3
  10
 149.08254156770
  20
 155.22231246252
  30
0.0
  11
 149.08254156770
  21
 151.22231246252
  31
0.0
   0
LINE
   5
322
 100
AcDbEntity
   8
LEVEL002
 370
40
 100
AcDbLine
   6
CONTINUOUS
  62
3
  10
 125.08254156770
  20
 155.22231246252
  30
0.0
  11
 149.08254156770
  21
 155.22231246252
  31
0.0
   0
LINE
   5
323
 100
AcDbEntity
   8
LEVEL002
 370
15
 100
AcDbLine
   6
DASHDOT
  62
8
  10
 137.08254156770
  20
 156.27664841187
  30
0.0
  11
 137.08254156770
  21
 148.71136049621
  31
0.0
   0
DIMENSION
   5
324
 100
AcDbEntity
   8
LEVEL001
 370
15
   6
CONTINUOUS
  62
8
 100
AcDbDimension
   2
*D8
  10
 96.744986625650
  20
 155.22231246252
  30
0.0
  11
 96.744986625650
  21
 150.22231246252
  31
0.0
  70
0
   3
GMM001
 100
AcDbAlignedDimension
  13
 76.744986625650
  23
 145.22231246252
  33
0.0
  14
 67.744986625650
  24
 155.22231246252
  34
0.0
  50
 90.000000000000
 100
AcDbRotatedDimension
   0
LINE
   5
325
 100
AcDbEntity
   8
LEVEL002
 370
15
 100
AcDbLine
   6
CONTINUOUS
  62
5
  10
 41.704999588432
  20
 145.22231246252
  30
0.0
  11
 47.704999588432
  21
 151.22231246252
  31
0.0
   0
LINE
   5
326
 100
AcDbEntity
   8
LEVEL002
 370
15
 100
AcDbLine
   6
CONTINUOUS
  62
5
  10
 40.290786026058
  20
 145.22231246252
  30
0.0
  11
 46.290786026058
  21
 151.22231246252
  31
0.0
   0
LINE
   5
327
 100
AcDbEntity
   8
LEVEL002
 370
15
 100
AcDbLine
   6
CONTINUOUS
  62
5
  10
 38.876572463684
  20
 145.22231246252
  30
0.0
  11
 44.876572463684
  21
 151.22231246252
  31
0.0
   0
LINE
   5
328
 100
AcDbEntity
   8
LEVEL002
 370
15
 100
AcDbLine
   6
CONTINUOUS
  62
5
  10
 37.462358901312
  20
 145.22231246252
  30
0.0
  11
 43.462358901312
  21
 151.22231246252
  31
0.0
   0
LINE
   5
329
 100
AcDbEntity
   8
LEVEL002
 370
15
 100
AcDbLine
   6
CONTINUOUS
  62
5
  10
 36.048145338938
  20
 145.22231246252
  30
0.0
  11
 42.744986625650
  21
 151.91915374924
  31
0.0
   0
LINE
   5
32A
 100
AcDbEntity
   8
LEVEL002
 370
15
 100
AcDbLine
   6
CONTINUOUS
  62
5
  10
 34.633931776566
  20
 145.22231246252
  30
0.0
  11
 42.744986625650
  21
 153.33336731161
  31
0.0
   0
LINE
   5
32B
 100
AcDbEntity
   8
LEVEL002
 370
15
 100
AcDbLine
   6
CONTINUOUS
  62
5
  10
 33.219718214192
  20
 145.22231246252
  30
0.0
  11
 42.744986625650
  21
 154.74758087398
  31
0.0
   0
LINE
   5
32C
 100
AcDbEntity
   8
LEVEL002
 370
15
 100
AcDbLine
   6
CONTINUOUS
  62
5
  10
 32.744986625650
  20
 146.16179443636
  30
0.0
  11
 41.805504651820
  21
 155.22231246252
  31
0.0
   0
LINE
   5
32D
 100
AcDbEntity
   8
LEVEL002
 370
15
 100
AcDbLine
   6
CONTINUOUS
  62
5
  10
 47.361853837924
  20
 145.22231246252
  30
0.0
  11
 49.744986625650
  21
 147.60544525025
  31
0.0
   0
LINE
   5
32E
 100
AcDbEntity
   8
LEVEL002
 370
15
 100
AcDbLine
   6
CONTINUOUS
  62
5
  10
 45.947640275550
  20
 145.22231246252
  30
0.0
  11
 49.744986625650
  21
 149.01965881263
  31
0.0
   0
LINE
   5
32F
 100
AcDbEntity
   8
LEVEL002
 370
15
 100
AcDbLine
   6
CONTINUOUS
  62
5
  10
 44.533426713178
  20
 145.22231246252
  30
0.0
  11
 49.139206669414
  21
 149.82809241876
  31
0.0
   0
LINE
   5
330
 100
AcDbEntity
   8
LEVEL002
 370
15
 100
AcDbLine
   6
CONTINUOUS
  62
5
  10
 43.119213150804
  20
 145.22231246252
  30
0.0
  11
 48.432099888228
  21
 150.53519919995
  31
0.0
   0
LINE
   5
331
 100
AcDbEntity
   8
LEVEL002
 370
15
 100
AcDbLine
   6
CONTINUOUS
  62
5
  10
 59.744986625650
  20
 149.12016387601
  30
0.0
  11
 61.847135212162
  21
 151.22231246252
  31
0.0
   0
LINE
   5
332
 100
AcDbEntity
   8
LEVEL002
 370
15
 100
AcDbLine
   6
CONTINUOUS
  62
5
  10
 69.989270835894
  20
 145.22231246252
  30
0.0
  11
 73.867128730772
  21
 149.10017035740
  31
0.0
   0
LINE
   5
333
 100
AcDbEntity
   8
LEVEL002
 370
15
 100
AcDbLine
   6
CONTINUOUS
  62
5
  10
 68.575057273520
  20
 145.22231246252
  30
0.0
  11
 73.160021949586
  21
 149.80727713859
  31
0.0
   0
LINE
   5
334
 100
AcDbEntity
   8
LEVEL002
 370
15
 100
AcDbLine
   6
CONTINUOUS
  62
5
  10
 67.160843711146
  20
 145.22231246252
  30
0.0
  11
 72.452915168398
  21
 150.51438391978
  31
0.0
   0
LINE
   5
335
 100
AcDbEntity
   8
LEVEL002
 370
15
 100
AcDbLine
   6
CONTINUOUS
  62
5
  10
 65.746630148774
  20
 145.22231246252
  30
0.0
  11
 71.745808387212
  21
 151.22149070096
  31
0.0
   0
LINE
   5
336
 100
AcDbEntity
   8
LEVEL002
 370
15
 100
AcDbLine
   6
CONTINUOUS
  62
5
  10
 64.332416586400
  20
 145.22231246252
  30
0.0
  11
 71.038701606026
  21
 151.92859748215
  31
0.0
   0
LINE
   5
337
 100
AcDbEntity
   8
LEVEL002
 370
15
 100
AcDbLine
   6
CONTINUOUS
  62
5
  10
 62.918203024028
  20
 145.22231246252
  30
0.0
  11
 70.331594824840
  21
 152.63570426334
  31
0.0
   0
LINE
   5
338
 100
AcDbEntity
   8
LEVEL002
 370
15
 100
AcDbLine
   6
CONTINUOUS
  62
5
  10
 61.624488043652
  20
 145.34281104452
  30
0.0
  11
 69.624488043652
  21
 153.34281104452
  31
0.0
   0
LINE
   5
339
 100
AcDbEntity
   8
LEVEL002
 370
15
 100
AcDbLine
   6
CONTINUOUS
  62
5
  10
 60.917381262466
  20
 146.04991782571
  30
0.0
  11
 66.089775899282
  21
 151.22231246252
  31
0.0
   0
LINE
   5
33A
 100
AcDbEntity
   8
LEVEL002
 370
15
 100
AcDbLine
   6
CONTINUOUS
  62
5
  10
 66.744986625650
  20
 151.87752318889
  30
0.0
  11
 68.917381262466
  21
 154.04991782571
  31
0.0
   0
LINE
   5
33B
 100
AcDbEntity
   8
LEVEL002
 370
15
 100
AcDbLine
   6
CONTINUOUS
  62
5
  10
 60.210274481280
  20
 146.75702460690
  30
0.0
  11
 64.675562336908
  21
 151.22231246252
  31
0.0
   0
LINE
   5
33C
 100
AcDbEntity
   8
LEVEL002
 370
15
 100
AcDbLine
   6
CONTINUOUS
  62
5
  10
 66.744986625650
  20
 153.29173675127
  30
0.0
  11
 68.210274481280
  21
 154.75702460690
  31
0.0
   0
LINE
   5
33D
 100
AcDbEntity
   8
LEVEL002
 370
15
 100
AcDbLine
   6
CONTINUOUS
  62
5
  10
 59.744986625650
  20
 147.70595031364
  30
0.0
  11
 63.261348774536
  21
 151.22231246252
  31
0.0
   0
LINE
   5
33E
 100
AcDbEntity
   8
LEVEL002
 370
15
 100
AcDbLine
   6
CONTINUOUS
  62
5
  10
 66.744986625650
  20
 154.70595031364
  30
0.0
  11
 67.261348774536
  21
 155.22231246252
  31
0.0
   0
LINE
   5
33F
 100
AcDbEntity
   8
LEVEL002
 370
15
 100
AcDbLine
   6
CONTINUOUS
  62
5
  10
 75.646125085386
  20
 145.22231246252
  30
0.0
  11
 76.695555855518
  21
 146.27174323266
  31
0.0
   0
LINE
   5
340
 100
AcDbEntity
   8
LEVEL002
 370
15
 100
AcDbLine
   6
CONTINUOUS
  62
5
  10
 74.231911523012
  20
 145.22231246252
  30
0.0
  11
 75.988449074332
  21
 146.97885001384
  31
0.0
   0
LINE
   5
341
 100
AcDbEntity
   8
LEVEL002
 370
15
 100
AcDbLine
   6
CONTINUOUS
  62
5
  10
 72.817697960640
  20
 145.22231246252
  30
0.0
  11
 75.281342293146
  21
 147.68595679503
  31
0.0
   0
LINE
   5
342
 100
AcDbEntity
   8
LEVEL002
 370
15
 100
AcDbLine
   6
CONTINUOUS
  62
5
  10
 71.403484398266
  20
 145.22231246252
  30
0.0
  11
 74.574235511958
  21
 148.39306357622
  31
0.0
   0
LINE
   5
343
 100
AcDbEntity
   8
LEVEL002
 370
15
 100
AcDbLine
   6
DASHDOT
  62
8
  10
 54.744986625650
  20
 157.03098113970
  30
0.0
  11
 54.744986625650
  21
 142.89959427839
  31
0.0
   0
LINE
   5
344
 100
AcDbEntity
   8
LEVEL002
 370
40
 100
AcDbLine
   6
CONTINUOUS
  62
3
  10
 32.744986625650
  20
 146.22231246252
  30
0.0
  11
 32.744986625650
  21
 145.22231246252
  31
0.0
   0
LINE
   5
345
 100
AcDbEntity
   8
LEVEL002
 370
40
 100
AcDbLine
   6
CONTINUOUS
  62
3
  10
 76.744986625650
  20
 146.22231246252
  30
0.0
  11
 76.744986625650
  21
 145.22231246252
  31
0.0
   0
LINE
   5
346
 100
AcDbEntity
   8
LEVEL002
 370
40
 100
AcDbLine
   6
CONTINUOUS
  62
3
  10
 42.744986625650
  20
 155.22231246252
  30
0.0
  11
 42.744986625650
  21
 151.22231246252
  31
0.0
   0
LINE
   5
347
 100
AcDbEntity
   8
LEVEL002
 370
40
 100
AcDbLine
   6
CONTINUOUS
  62
3
  10
 42.744986625650
  20
 151.22231246252
  30
0.0
  11
 66.744986625650
  21
 151.22231246252
  31
0.0
   0
LINE
   5
348
 100
AcDbEntity
   8
LEVEL002
 370
40
 100
AcDbLine
   6
CONTINUOUS
  62
3
  10
 66.744986625650
  20
 155.22231246252
  30
0.0
  11
 66.744986625650
  21
 151.22231246252
  31
0.0
   0
LINE
   5
349
 100
AcDbEntity
   8
LEVEL002
 370
40
 100
AcDbLine
   6
CONTINUOUS
  62
3
  10
 67.744986625650
  20
 155.22231246252
  30
0.0
  11
 76.744986625650
  21
 146.22231246252
  31
0.0
   0
LINE
   5
34A
 100
AcDbEntity
   8
LEVEL002
 370
40
 100
AcDbLine
   6
CONTINUOUS
  62
3
  10
 41.744986625650
  20
 155.22231246252
  30
0.0
  11
 32.744986625650
  21
 146.22231246252
  31
0.0
   0
LINE
   5
34B
 100
AcDbEntity
   8
LEVEL002
 370
40
 100
AcDbLine
   6
CONTINUOUS
  62
3
  10
 41.744986625650
  20
 155.22231246252
  30
0.0
  11
 67.744986625650
  21
 155.22231246252
  31
0.0
   0
LINE
   5
34C
 100
AcDbEntity
   8
LEVEL002
 370
40
 100
AcDbLine
   6
CONTINUOUS
  62
3
  10
 47.744986625650
  20
 151.22231246252
  30
0.0
  11
 49.744986625650
  21
 149.22231246252
  31
0.0
   0
LINE
   5
34D
 100
AcDbEntity
   8
LEVEL002
 370
40
 100
AcDbLine
   6
CONTINUOUS
  62
3
  10
 61.744986625650
  20
 151.22231246252
  30
0.0
  11
 59.744986625650
  21
 149.22231246252
  31
0.0
   0
LINE
   5
34E
 100
AcDbEntity
   8
LEVEL002
 370
40
 100
AcDbLine
   6
CONTINUOUS
  62
3
  10
 49.744986625650
  20
 149.22231246252
  30
0.0
  11
 59.744986625650
  21
 149.22231246252
  31
0.0
   0
POINT
   5
34F
 100
AcDbEntity
   8
LEVEL002
 100
AcDbPoint
  62
3
  10
 49.744986625650
  20
 145.22231246252
  30
0.0
   0
POINT
   5
350
 100
AcDbEntity
   8
LEVEL002
 100
AcDbPoint
  62
3
  10
 59.744986625650
  20
 145.22231246252
  30
0.0
   0
LINE
   5
351
 100
AcDbEntity
   8
LEVEL002
 370
40
 100
AcDbLine
   6
CONTINUOUS
  62
3
  10
 47.744986625650
  20
 145.22231246252
  30
0.0
  11
 49.744986625650
  21
 147.22231246252
  31
0.0
   0
LINE
   5
352
 100
AcDbEntity
   8
LEVEL002
 370
40
 100
AcDbLine
   6
CONTINUOUS
  62
3
  10
 49.744986625650
  20
 149.22231246252
  30
0.0
  11
 49.744986625650
  21
 147.22231246252
  31
0.0
   0
LINE
   5
353
 100
AcDbEntity
   8
LEVEL002
 370
40
 100
AcDbLine
   6
CONTINUOUS
  62
3
  10
 49.744986625650
  20
 147.22231246252
  30
0.0
  11
 54.744986625650
  21
 147.22231246252
  31
0.0
   0
LINE
   5
354
 100
AcDbEntity
   8
LEVEL002
 370
40
 100
AcDbLine
   6
CONTINUOUS
  62
3
  10
 32.744986625650
  20
 145.22231246252
  30
0.0
  11
 54.744986625650
  21
 145.22231246252
  31
0.0
   0
LINE
   5
355
 100
AcDbEntity
   8
LEVEL002
 370
40
 100
AcDbLine
   6
CONTINUOUS
  62
3
  10
 61.744986625650
  20
 145.22231246252
  30
0.0
  11
 59.744986625650
  21
 147.22231246252
  31
0.0
   0
LINE
   5
356
 100
AcDbEntity
   8
LEVEL002
 370
40
 100
AcDbLine
   6
CONTINUOUS
  62
3
  10
 76.744986625650
  20
 145.22231246252
  30
0.0
  11
 54.744986625650
  21
 145.22231246252
  31
0.0
   0
LINE
   5
357
 100
AcDbEntity
   8
LEVEL002
 370
40
 100
AcDbLine
   6
CONTINUOUS
  62
3
  10
 59.744986625650
  20
 149.22231246252
  30
0.0
  11
 59.744986625650
  21
 147.22231246252
  31
0.0
   0
LINE
   5
358
 100
AcDbEntity
   8
LEVEL002
 370
40
 100
AcDbLine
   6
CONTINUOUS
  62
3
  10
 59.744986625650
  20
 147.22231246252
  30
0.0
  11
 54.744986625650
  21
 147.22231246252
  31
0.0
   0
DIMENSION
   5
359
 100
AcDbEntity
   8
LEVEL001
 370
15
   6
CONTINUOUS
  62
8
 100
AcDbDimension
   2
*D9
  10
 86.744986625650
  20
 146.22231246252
  30
0.0
  11
 86.744986625650
  21
 144.11276463437
  31
0.0
  70
128
   3
GMM006
 100
AcDbAlignedDimension
  13
 76.744986625650
  23
 145.22231246252
  33
0.0
  14
 76.744986625650
  24
 146.22231246252
  34
0.0
  50
 90.000000000000
 100
AcDbRotatedDimension
   0
LINE
   5
35A
 100
AcDbEntity
   8
LEVEL001
 370
15
 100
AcDbLine
   6
DASHDOT
  62
8
  10
 54.744986625650
  20
 197.14128122081
  30
0.0
  11
 54.744986625650
  21
 249.83994409209
  31
0.0
   0
LINE
   5
35B
 100
AcDbEntity
   8
LEVEL001
 370
15
 100
AcDbLine
   6
DASHDOT
  62
8
  10
 28.256546482102
  20
 223.49061265645
  30
0.0
  11
 81.233426769198
  21
 223.49061265645
  31
0.0
   0
CIRCLE
   5
35C
 100
AcDbEntity
   8
LEVEL002
 370
40
 100
AcDbCircle
   6
CONTINUOUS
  62
3
  10
 54.744986625650
  20
 223.49061265645
  30
0.0
  40
 5.0000000000000
   0
CIRCLE
   5
35D
 100
AcDbEntity
   8
LEVEL002
 370
40
 100
AcDbCircle
   6
CONTINUOUS
  62
3
  10
 54.744986625650
  20
 223.49061265645
  30
0.0
  40
 12.000000000000
   0
CIRCLE
   5
35E
 100
AcDbEntity
   8
LEVEL002
 370
40
 100
AcDbCircle
   6
CONTINUOUS
  62
3
  10
 54.744986625650
  20
 223.49061265645
  30
0.0
  40
 22.000000000000
   0
CIRCLE
   5
35F
 100
AcDbEntity
   8
LEVEL002
 370
30
 100
AcDbCircle
   6
CONTINUOUS
  62
7
  10
 54.744986625650
  20
 223.49061265645
  30
0.0
  40
 13.000000000000
   0
CIRCLE
   5
360
 100
AcDbEntity
   8
LEVEL002
 370
30
 100
AcDbCircle
   6
CONTINUOUS
  62
7
  10
 54.744986625650
  20
 223.49061265645
  30
0.0
  40
 7.0000000000000
   0
DIMENSION
   5
361
 100
AcDbEntity
   8
LEVEL001
 370
15
   6
CONTINUOUS
  62
8
 100
AcDbDimension
   2
*D10
  10
 59.744986625650
  20
 135.22231246252
  30
0.0
  11
 54.744986625650
  21
 135.22231246252
  31
0.0
  70
0
   3
GMM005
 100
AcDbAlignedDimension
  13
 49.744986625650
  23
 145.22231246252
  33
0.0
  14
 59.744986625650
  24
 145.22231246252
  34
0.0
 100
AcDbRotatedDimension
   0
DIMENSION
   5
362
 100
AcDbEntity
   8
LEVEL001
 370
15
   6
CONTINUOUS
  62
8
 100
AcDbDimension
   2
*D11
  10
 76.744986625650
  20
 125.22231246252
  30
0.0
  11
 54.744986625650
  21
 125.22231246252
  31
0.0
  70
0
   3
GMM005
 100
AcDbAlignedDimension
  13
 32.744986625650
  23
 145.22231246252
  33
0.0
  14
 76.744986625650
  24
 145.22231246252
  34
0.0
 100
AcDbRotatedDimension
   0
DIMENSION
   5
363
 100
AcDbEntity
   8
LEVEL001
 370
15
   6
CONTINUOUS
  62
8
 100
AcDbDimension
   2
*D12
  10
 61.744986625650
  20
 165.22231246252
  30
0.0
  11
 54.744986625650
  21
 165.22231246252
  31
0.0
  70
0
   3
GMM005
 100
AcDbAlignedDimension
  13
 47.744986625650
  23
 151.22231246252
  33
0.0
  14
 61.744986625650
  24
 151.22231246252
  34
0.0
 100
AcDbRotatedDimension
   0
DIMENSION
   5
364
 100
AcDbEntity
   8
LEVEL001
 370
15
   6
CONTINUOUS
  62
8
 100
AcDbDimension
   2
*D13
  10
 66.744986625650
  20
 175.22231246252
  30
0.0
  11
 54.744986625650
  21
 175.22231246252
  31
0.0
  70
0
   3
GMM005
 100
AcDbAlignedDimension
  13
 42.744986625650
  23
 155.22231246252
  33
0.0
  14
 66.744986625650
  24
 155.22231246252
  34
0.0
 100
AcDbRotatedDimension
   0
DIMENSION
   5
365
 100
AcDbEntity
   8
LEVEL001
 370
15
   6
CONTINUOUS
  62
8
 100
AcDbDimension
   2
*D14
  10
 67.744986625650
  20
 185.22231246252
  30
0.0
  11
 54.744986625650
  21
 185.22231246252
  31
0.0
  70
0
   3
GMM005
 100
AcDbAlignedDimension
  13
 41.744986625650
  23
 155.22231246252
  33
0.0
  14
 67.744986625650
  24
 155.22231246252
  34
0.0
 100
AcDbRotatedDimension
   0
MTEXT
   5
367
 100
AcDbEntity
   8
LEVEL001
 370
15
  62
8
 100
AcDbMText
  10
 54.744986625650
  20
 114.96784540805
  30
0.0
  40
 3.5000000000000
  41
0.0
  71
2
  72
1
   1
{\T1.000000;点鋲－ベース}\P{\T1.000000;材質－ＳＵＳ３０３}
   7
GMM002
  44
 0.79999984000003
   0
LINE
   5
368
 100
AcDbEntity
   8
LEVEL001
 370
15
 100
AcDbLine
   6
CONTINUOUS
  62
8
  10
 32.969525002078
  20
 107.61748044455
  30
0.0
  11
 76.520448249222
  21
 107.61748044455
  31
0.0
   0
LEADER
   5
369
 100
AcDbEntity
   8
LEVEL001
 370
15
   6
CONTINUOUS
  62
8
 100
AcDbLeader
   3
GMM003
  73
0
  74
1
  75
0
  40
 3.0000000000000
  41
 27.750000000000
  76
2
  10
 127.38776187292
  20
 198.05961127082
  30
0.0
  10
 124.01549909919
  20
 203.80494784828
  30
0.0
  77
8
 340
36A
 213
0.0
 223
-1.0000000000000
 233
0.0
   0
MTEXT
   5
36A
 102
{ACAD_REACTORS
 330
369
 102
}
 100
AcDbEntity
   8
LEVEL001
 370
15
  62
8
 100
AcDbMText
  10
 96.265499099194
  20
 204.80494784828
  30
0.0
  40
 3.0000000000000
  41
0.0
  71
7
  72
1
   1
\A1;表面：梨地クロス模様
   7
GMM002
   0
MTEXT
   5
36C
 100
AcDbEntity
   8
LEVEL001
 370
15
  62
8
 100
AcDbMText
  10
 141.05699412244
  20
 129.72514467813
  30
0.0
  40
 3.5000000000000
  41
0.0
  71
2
  72
1
   1
{\T1.000000;点鋲－ステンピース}\P{\T1.000000;　　　ノンスリップ}\P{\T1.000000;材質－ＳＵＳ３０４}
   7
GMM002
  44
 0.79999984000003
   0
MTEXT
   5
36E
 100
AcDbEntity
   8
LEVEL001
 370
15
  62
8
 100
AcDbMText
  10
 207.19416751912
  20
 129.72514467813
  30
0.0
  40
 3.5000000000000
  41
0.0
  71
2
  72
1
   1
{\T1.000000;点鋲－ステンピース}\P{\T1.000000;　　　ヘアーライン}\P{\T1.000000;材質－ＳＵＳ３０４}
   7
GMM002
  44
 0.79999984000003
   0
LINE
   5
36F
 100
AcDbEntity
   8
LEVEL001
 370
15
 100
AcDbLine
   6
CONTINUOUS
  62
8
  10
 185.41870589554
  20
 116.18586698337
  30
0.0
  11
 228.96962914269
  21
 116.18586698337
  31
0.0
   0
LINE
   5
370
 100
AcDbEntity
   8
LEVEL001
 370
15
 100
AcDbLine
   6
CONTINUOUS
  62
8
  10
 119.28153249887
  20
 116.18586698337
  30
0.0
  11
 162.83245574601
  21
 116.18586698337
  31
0.0
   0
MTEXT
   5
372
 100
AcDbEntity
   8
LEVEL002
 370
15
  62
8
 100
AcDbMText
  10
 342.49999999995
  20
 244.50000000000
  30
0.0
  40
 4.5000000000000
  41
0.0
  71
7
  72
1
   1
\T1.000000;　パル点字鋲
   7
GMM004
  44
 0.79999984000003
   0
MTEXT
   5
374
 100
AcDbEntity
   8
LEVEL002
 370
15
  62
8
 100
AcDbMText
  10
 354.49999999995
  20
 226.75000000000
  30
0.0
  40
 4.0000000000000
  41
0.0
  71
5
  72
1
   1
\T1.000000;ＰＳ２２（警告用点鋲）
   7
GMM002
  44
 0.79999984000003
   0
ENDSEC
  0
SECTION
  2
OBJECTS
  0
DICTIONARY
  5
C
100
AcDbDictionary
  3
ACAD_GROUP
350
D
  3
ACAD_MLINESTYLE
350
1B
  3
DWGPROPS
350
1C
  0
DICTIONARY
  5
D
102
{ACAD_REACTORS
330
C
102
}
100
AcDbDictionary
  0
DICTIONARY
  5
1B
102
{ACAD_REACTORS
330
C
102
}
100
AcDbDictionary
  3
STANDARD
350
1D
  0
MLINESTYLE
  5
1D
102
{ACAD_REACTORS
330
1B
102
}
100
AcDbMlineStyle
  2
STANDARD
 70
     0
  3

 62
   256
 51
90.0
 52
90.0
 71
     2
 49
0.5
 62
   256
  6
BYLAYER
 49
-0.5
 62
   256
  6
BYLAYER
   0
XRECORD
   5
1C
 102
{ACAD_REACTORS
 330
C
 102
}
 330
C
 100
AcDbXrecord
 280
1
   1
DWGPROPS COOKIE
   2
 
   3
 
   4
 
   6
 
   7
点鋲
   8
 
   9

 300
 = 
 301
 = 
 302
 = 
 303
 = 
 304
 = 
 305
 = 
 306
 = 
 307
 = 
 308
 = 
 309
 = 
  40
0.0
  41
 2460088.5000000
  42
 2460114.5000000
   1

  90
10
   0
ENDSEC
   0
EOF
