   0
SECTION
   2
HEADER
   9
$ACADVER
   1
AC1015
   9
$DWGCODEPAGE
   3
ANSI_932
   9
$LIMMIN
  10
0.0
  20
0.0
   9
$LIMMAX
  10
 840.00000000000
  20
 594.00000000000
   9
$EXTMIN
  10
0.0
  20
0.0
  30
0.0
   9
$EXTMAX
  10
 840.00000000000
  20
 594.00000000000
  30
0.0
   9
$LTSCALE
  40
 16.800000000000
   9
$HANDSEED
   5
43B
   0
ENDSEC
   0
SECTION
   2
TABLES
  0
TABLE
  2
VPORT
  5
8
100
AcDbSymbolTable
 70
     1
  0
VPORT
  5
43A
100
AcDbSymbolTableRecord
100
AcDbViewportTableRecord
  2
*ACTIVE
 70
     0
 10
0.0
 20
0.0
 11
1.0
 21
1.0
  12
 420.00000000000
  22
 297.00000000000
 13
0.0
 23
0.0
 14
1.0
 24
1.0
 15
0.0
 25
0.0
 16
0.0
 26
0.0
 36
1.0
 17
0.0
 27
0.0
 37
0.0
  40
 840.00000000000
  41
 1.4787878787879
 42
50.0
 43
0.0
 44
0.0
 50
0.0
 51
0.0
 71
     0
 72
   100
 73
     1
 74
     1
 75
     0
 76
     0
 77
     0
 78
     0
  0
ENDTAB
  0
TABLE
  2
LTYPE
  5
5
100
AcDbSymbolTable
 70
    25
  0
LTYPE
  5
12
100
AcDbSymbolTableRecord
100
AcDbLinetypeTableRecord
  2
BYBLOCK
 70
     0
  3

 72
    65
 73
     0
 40
0.0
  0
LTYPE
  5
13
100
AcDbSymbolTableRecord
100
AcDbLinetypeTableRecord
  2
BYLAYER
 70
     0
  3

 72
    65
 73
     0
 40
0.0
  0
LTYPE
  5
14
100
AcDbSymbolTableRecord
100
AcDbLinetypeTableRecord
  2
CONTINUOUS
 70
     0
  3
Solid line
 72
    65
 73
     0
 40
0.0
  0
LTYPE
  5
20
100
AcDbSymbolTableRecord
100
AcDbLinetypeTableRecord
  2
BORDER
 70
     0
  3
__ __ . __ __ . __ __ . __ __ . __ __ . __ __ .
 72
    65
 73
     6
 40
1.75
 49
0.5
 74
     0
 49
-0.25
 74
     0
 49
0.5
 74
     0
 49
-0.25
 74
     0
 49
0.0
 74
     0
 49
-0.25
 74
     0
  0
LTYPE
  5
21
100
AcDbSymbolTableRecord
100
AcDbLinetypeTableRecord
  2
BORDER2
 70
     0
  3
__.__.__.__.__.__.__.__.__.__.__.__.__.__.__.__
 72
    65
 73
     6
 40
0.875
 49
0.25
 74
     0
 49
-0.125
 74
     0
 49
0.25
 74
     0
 49
-0.125
 74
     0
 49
0.0
 74
     0
 49
-0.125
 74
     0
  0
LTYPE
  5
22
100
AcDbSymbolTableRecord
100
AcDbLinetypeTableRecord
  2
BORDERX2
 70
     0
  3
____  ____  .  ____  ____  .  ____  ____  .  __
 72
    65
 73
     6
 40
3.5
 49
1.0
 74
     0
 49
-0.5
 74
     0
 49
1.0
 74
     0
 49
-0.5
 74
     0
 49
0.0
 74
     0
 49
-0.5
 74
     0
  0
LTYPE
  5
23
100
AcDbSymbolTableRecord
100
AcDbLinetypeTableRecord
  2
CENTER
 70
     0
  3
____ _ ____ _ ____ _ ____ _ ____ _ ____ _ ____ 
 72
    65
 73
     4
 40
2.0
 49
1.25
 74
     0
 49
-0.25
 74
     0
 49
0.25
 74
     0
 49
-0.25
 74
     0
  0
LTYPE
  5
24
100
AcDbSymbolTableRecord
100
AcDbLinetypeTableRecord
  2
CENTER2
 70
     0
  3
___ _ ___ _ ___ _ ___ _ ___ _ ___ _ ___ _ ___ _
 72
    65
 73
     4
 40
1.125
 49
0.75
 74
     0
 49
-0.125
 74
     0
 49
0.125
 74
     0
 49
-0.125
 74
     0
  0
LTYPE
  5
25
100
AcDbSymbolTableRecord
100
AcDbLinetypeTableRecord
  2
CENTERX2
 70
     0
  3
________  __  ________  __  ________  __  _____
 72
    65
 73
     4
 40
4.0
 49
2.5
 74
     0
 49
-0.5
 74
     0
 49
0.5
 74
     0
 49
-0.5
 74
     0
  0
LTYPE
  5
26
100
AcDbSymbolTableRecord
100
AcDbLinetypeTableRecord
  2
DASHDOT
 70
     0
  3
__ . __ . __ . __ . __ . __ . __ . __ . __ . __
 72
    65
 73
     4
 40
1.0
 49
0.5
 74
     0
 49
-0.25
 74
     0
 49
0.0
 74
     0
 49
-0.25
 74
     0
  0
LTYPE
  5
27
100
AcDbSymbolTableRecord
100
AcDbLinetypeTableRecord
  2
DASHDOT2
 70
     0
  3
_._._._._._._._._._._._._._._._._._._._._._._._
 72
    65
 73
     4
 40
0.5
 49
0.25
 74
     0
 49
-0.125
 74
     0
 49
0.0
 74
     0
 49
-0.125
 74
     0
  0
LTYPE
  5
28
100
AcDbSymbolTableRecord
100
AcDbLinetypeTableRecord
  2
DASHDOTX2
 70
     0
  3
____  .  ____  .  ____  .  ____  .  ____  .  __
 72
    65
 73
     4
 40
2.0
 49
1.0
 74
     0
 49
-0.5
 74
     0
 49
0.0
 74
     0
 49
-0.5
 74
     0
  0
LTYPE
  5
29
100
AcDbSymbolTableRecord
100
AcDbLinetypeTableRecord
  2
DASHED
 70
     0
  3
__ __ __ __ __ __ __ __ __ __ __ __ __ __ __ __
 72
    65
 73
     2
 40
0.75
 49
0.5
 74
     0
 49
-0.25
 74
     0
  0
LTYPE
  5
2A
100
AcDbSymbolTableRecord
100
AcDbLinetypeTableRecord
  2
DASHED2
 70
     0
  3
_ _ _ _ _ _ _ _ _ _ _ _ _ _ _ _ _ _ _ _ _ _ _ _
 72
    65
 73
     2
 40
0.375
 49
0.25
 74
     0
 49
-0.125
 74
     0
  0
LTYPE
  5
2B
100
AcDbSymbolTableRecord
100
AcDbLinetypeTableRecord
  2
DASHEDX2
 70
     0
  3
____  ____  ____  ____  ____  ____  ____  ____ 
 72
    65
 73
     2
 40
1.5
 49
1.0
 74
     0
 49
-0.5
 74
     0
  0
LTYPE
  5
2C
100
AcDbSymbolTableRecord
100
AcDbLinetypeTableRecord
  2
DIVIDE
 70
     0
  3
____ . . ____ . . ____ . . ____ . . ____ . . __
 72
    65
 73
     6
 40
1.25
 49
0.5
 74
     0
 49
-0.25
 74
     0
 49
0.0
 74
     0
 49
-0.25
 74
     0
 49
0.0
 74
     0
 49
-0.25
 74
     0
  0
LTYPE
  5
2D
100
AcDbSymbolTableRecord
100
AcDbLinetypeTableRecord
  2
DIVIDE2
 70
     0
  3
__..__..__..__..__..__..__..__..__..__..__..__.
 72
    65
 73
     6
 40
0.625
 49
0.25
 74
     0
 49
-0.125
 74
     0
 49
0.0
 74
     0
 49
-0.125
 74
     0
 49
0.0
 74
     0
 49
-0.125
 74
     0
  0
LTYPE
  5
2E
100
AcDbSymbolTableRecord
100
AcDbLinetypeTableRecord
  2
DIVIDEX2
 70
     0
  3
________  .  .  ________  .  .  ________  .  . 
 72
    65
 73
     6
 40
2.5
 49
1.0
 74
     0
 49
-0.5
 74
     0
 49
0.0
 74
     0
 49
-0.5
 74
     0
 49
0.0
 74
     0
 49
-0.5
 74
     0
  0
LTYPE
  5
2F
100
AcDbSymbolTableRecord
100
AcDbLinetypeTableRecord
  2
DOT
 70
     0
  3
. . . . . . . . . . . . . . . . . . . . . . . .
 72
    65
 73
     2
 40
0.25
 49
0.0
 74
     0
 49
-0.25
 74
     0
  0
LTYPE
  5
30
100
AcDbSymbolTableRecord
100
AcDbLinetypeTableRecord
  2
DOT2
 70
     0
  3
...............................................
 72
    65
 73
     2
 40
0.125
 49
0.0
 74
     0
 49
-0.125
 74
     0
  0
LTYPE
  5
31
100
AcDbSymbolTableRecord
100
AcDbLinetypeTableRecord
  2
DOTX2
 70
     0
  3
.  .  .  .  .  .  .  .  .  .  .  .  .  .  .  . 
 72
    65
 73
     2
 40
0.5
 49
0.0
 74
     0
 49
-0.5
 74
     0
  0
LTYPE
  5
32
100
AcDbSymbolTableRecord
100
AcDbLinetypeTableRecord
  2
HIDDEN
 70
     0
  3
__ __ __ __ __ __ __ __ __ __ __ __ __ __ __ __
 72
    65
 73
     2
 40
0.375
 49
0.25
 74
     0
 49
-0.125
 74
     0
  0
LTYPE
  5
33
100
AcDbSymbolTableRecord
100
AcDbLinetypeTableRecord
  2
HIDDEN2
 70
     0
  3
_ _ _ _ _ _ _ _ _ _ _ _ _ _ _ _ _ _ _ _ _ _ _ _
 72
    65
 73
     2
 40
0.1875
 49
0.125
 74
     0
 49
-0.0625
 74
     0
  0
LTYPE
  5
34
100
AcDbSymbolTableRecord
100
AcDbLinetypeTableRecord
  2
HIDDENX2
 70
     0
  3
____ ____ ____ ____ ____ ____ ____ ____ ____ __
 72
    65
 73
     2
 40
0.75
 49
0.5
 74
     0
 49
-0.25
 74
     0
  0
LTYPE
  5
35
100
AcDbSymbolTableRecord
100
AcDbLinetypeTableRecord
  2
PHANTOM
 70
     0
  3
______  __  __  ______  __  __  ______  __  __ 
 72
    65
 73
     6
 40
2.5
 49
1.25
 74
     0
 49
-0.25
 74
     0
 49
0.25
 74
     0
 49
-0.25
 74
     0
 49
0.25
 74
     0
 49
-0.25
 74
     0
  0
LTYPE
  5
36
100
AcDbSymbolTableRecord
100
AcDbLinetypeTableRecord
  2
PHANTOM2
 70
     0
  3
___ _ _ ___ _ _ ___ _ _ ___ _ _ ___ _ _ ___ _ _
 72
    65
 73
     6
 40
1.25
 49
0.625
 74
     0
 49
-0.125
 74
     0
 49
0.125
 74
     0
 49
-0.125
 74
     0
 49
0.125
 74
     0
 49
-0.125
 74
     0
  0
LTYPE
  5
37
100
AcDbSymbolTableRecord
100
AcDbLinetypeTableRecord
  2
PHANTOMX2
 70
     0
  3
____________    ____    ____    ____________   
 72
    65
 73
     6
 40
5.0
 49
2.5
 74
     0
 49
-0.5
 74
     0
 49
0.5
 74
     0
 49
-0.5
 74
     0
 49
0.5
 74
     0
 49
-0.5
 74
     0
  0
ENDTAB
   0
TABLE
   2
LAYER
   5
2
 100
AcDbSymbolTable
  70
3
   0
LAYER
   5
E
 100
AcDbSymbolTableRecord
 100
AcDbLayerTableRecord
   2
0
  70
0
  62
7
   6
CONTINUOUS
 390
30
   0
LAYER
   5
39
 100
AcDbSymbolTableRecord
 100
AcDbLayerTableRecord
   2
LEVEL001
  70
0
  62
7
   6
CONTINUOUS
 390
30
   0
LAYER
   5
3A
 100
AcDbSymbolTableRecord
 100
AcDbLayerTableRecord
   2
LEVEL002
  70
0
  62
7
   6
CONTINUOUS
 390
30
   0
ENDTAB
  0
TABLE
  2
STYLE
  5
3
100
AcDbSymbolTable
  70
6
  0
STYLE
  5
F
100
AcDbSymbolTableRecord
100
AcDbTextStyleTableRecord
  2
STANDARD
 70
     0
 40
0.0
 41
1.0
 50
0.0
 71
     0
 42
0.2
  3
TXT
  4
BIGFONT
  0
STYLE
  5
38
100
AcDbSymbolTableRecord
100
AcDbTextStyleTableRecord
  2
STANDARD1
 70
     4
 40
0.0
 41
1.0
 50
0.0
 71
     0
 42
0.2
  3
TXT
  4
BIGFONT
   0
STYLE
   5
3B
 100
AcDbSymbolTableRecord
 100
AcDbTextStyleTableRecord
   2
GMM001
  70
0
  40
0.0
  41
 0.80000000000000
  50
0.0
  71
     0
  42
1.0
   3
txt.shx
   4
bigfont.shx
   0
STYLE
   5
3C
 100
AcDbSymbolTableRecord
 100
AcDbTextStyleTableRecord
   2
GMM002
  70
0
  40
0.0
  41
 1.0000000000000
  50
0.0
  71
     0
  42
1.0
   3
txt.shx
   4
bigfont.shx
   0
STYLE
   5
3D
 100
AcDbSymbolTableRecord
 100
AcDbTextStyleTableRecord
   2
GMM003
  70
0
  40
0.0
  41
 1.0714285714286
  50
0.0
  71
     0
  42
1.0
   3
txt.shx
   4
bigfont.shx
   0
STYLE
   5
3E
 100
AcDbSymbolTableRecord
 100
AcDbTextStyleTableRecord
   2
GMM004
  70
0
  40
0.0
  41
 0.88888888888889
  50
0.0
  71
     0
  42
1.0
   3
txt.shx
   4
bigfont.shx
   0
ENDTAB
  0
TABLE
  2
VIEW
  5
6
100
AcDbSymbolTable
 70
     0
  0
ENDTAB
  0
TABLE
  2
UCS
  5
7
100
AcDbSymbolTable
 70
     0
  0
ENDTAB
  0
TABLE
  2
APPID
  5
9
100
AcDbSymbolTable
 70
     1
  0
APPID
  5
10
100
AcDbSymbolTableRecord
100
AcDbRegAppTableRecord
  2
ACAD
 70
     0
  0
ENDTAB
   0
TABLE
   2
DIMSTYLE
   5
A
 100
AcDbSymbolTable
  70
9
 100
AcDbDimStyleTable
  0
DIMSTYLE
105
1D
100
AcDbSymbolTableRecord
100
AcDbDimStyleTableRecord
  2
STANDARD
 70
     0
  3

  4

  5

  6

  7

 40
1.0
 41
0.18
 42
0.0625
 43
0.38
 44
0.18
 45
0.0
 46
0.0
 47
0.0
 48
0.0
140
0.18
141
0.09
142
0.0
143
25.4
144
1.0
145
0.0
146
1.0
147
0.09
 71
     0
 72
     0
 73
     1
 74
     1
 75
     0
 76
     0
 77
     0
 78
     0
170
     0
171
     2
172
     0
173
     0
174
     0
175
     0
176
     0
177
     0
178
     0
270
     2
271
     4
272
     4
273
     2
274
     2
340
F
275
     0
280
     0
281
     0
282
     0
283
     1
284
     0
285
     0
286
     0
287
     3
288
     0
   0
DIMSTYLE
 105
3F
 100
AcDbSymbolTableRecord
 100
AcDbDimStyleTableRecord
   2
GMM001
  70
0
   3

   4

   5

   6
_DOT
   7
_DOT
  40
 1.0000000000000
  41
 0.80000000000000
  42
 2.0000000000000
  43
 16.000000000000
  44
 2.0000000000000
  45
0.0
  46
0.0
  47
0.0
  48
0.0
 140
 6.0000000000000
 141
 2.0000000000000
 142
0.0
 143
 0.39400000000000E-1
 144
 1.0000000000000
 145
0.0
 146
 0.83333333333333
 147
 2.0000000000000
  71
0
  72
0
  73
0
  74
0
  75
0
  76
0
  77
3
  78
8
 170
0
 171
2
 172
1
 173
1
 174
0
 175
0
 176
8
 177
8
 178
8
 270
2
 271
6
 272
0
 273
2
 274
2
 340
3C
 275
1
 280
0
 281
0
 282
0
 283
1
 284
0
 285
0
 286
0
 287
3
 288
0
   0
DIMSTYLE
 105
40
 100
AcDbSymbolTableRecord
 100
AcDbDimStyleTableRecord
   2
GMM002
  70
0
   3

   4

   5

   6

   7

  40
 1.0000000000000
  41
 4.0000000000000
  42
 2.0000000000000
  43
 16.000000000000
  44
 2.0000000000000
  45
0.0
  46
0.0
  47
0.0
  48
0.0
 140
 6.0000000000000
 141
 2.0000000000000
 142
0.0
 143
 0.39400000000000E-1
 144
 1.0000000000000
 145
0.0
 146
 0.83333333333333
 147
0.0
  71
0
  72
0
  73
0
  74
0
  75
0
  76
0
  77
1
  78
8
 170
0
 171
2
 172
1
 173
1
 174
0
 175
0
 176
8
 177
8
 178
8
 270
2
 271
6
 272
0
 273
2
 274
2
 340
3C
 275
1
 280
0
 281
0
 282
0
 283
1
 284
0
 285
0
 286
0
 287
3
 288
0
   0
DIMSTYLE
 105
41
 100
AcDbSymbolTableRecord
 100
AcDbDimStyleTableRecord
   2
GMM003
  70
0
   3

   4

   5

   6
_DOT
   7
_DOT
  40
 1.0000000000000
  41
 0.80000000000000
  42
 2.0000000000000
  43
 16.000000000000
  44
 2.0000000000000
  45
0.0
  46
0.0
  47
0.0
  48
0.0
 140
 6.0000000000000
 141
 2.0000000000000
 142
0.0
 143
 0.39400000000000E-1
 144
 1.0000000000000
 145
0.0
 146
 0.83333333333333
 147
 2.2633805918267
  71
0
  72
0
  73
0
  74
0
  75
0
  76
0
  77
3
  78
8
 170
0
 171
2
 172
1
 173
1
 174
0
 175
0
 176
8
 177
8
 178
8
 270
2
 271
6
 272
0
 273
2
 274
2
 340
3C
 275
1
 280
0
 281
0
 282
0
 283
1
 284
0
 285
0
 286
0
 287
3
 288
1
   0
DIMSTYLE
 105
42
 100
AcDbSymbolTableRecord
 100
AcDbDimStyleTableRecord
   2
GMM004
  70
0
   3

   4

   5

   6
_DOT
   7
_DOT
  40
 1.0000000000000
  41
 0.80000000000000
  42
 2.0000000000000
  43
 16.000000000000
  44
 2.0000000000000
  45
0.0
  46
0.0
  47
0.0
  48
0.0
 140
 6.0000000000000
 141
 2.0000000000000
 142
0.0
 143
 0.39400000000000E-1
 144
 1.0000000000000
 145
0.0
 146
 0.83333333333333
 147
 2.0257188335584
  71
0
  72
0
  73
0
  74
0
  75
0
  76
0
  77
3
  78
8
 170
0
 171
2
 172
1
 173
1
 174
0
 175
0
 176
8
 177
8
 178
8
 270
2
 271
6
 272
0
 273
2
 274
2
 340
3C
 275
1
 280
0
 281
0
 282
0
 283
1
 284
0
 285
0
 286
0
 287
3
 288
1
   0
DIMSTYLE
 105
43
 100
AcDbSymbolTableRecord
 100
AcDbDimStyleTableRecord
   2
GMM005
  70
0
   3

   4

   5

   6
_DOT
   7
_DOT
  40
 1.0000000000000
  41
 0.80000000000000
  42
 2.0000000000000
  43
 16.000000000000
  44
 2.0000000000000
  45
0.0
  46
0.0
  47
0.0
  48
0.0
 140
 6.0000000000000
 141
 2.0000000000000
 142
0.0
 143
 0.39400000000000E-1
 144
 1.0000000000000
 145
0.0
 146
 0.83333333333333
 147
 2.1308058483517
  71
0
  72
0
  73
0
  74
0
  75
0
  76
0
  77
3
  78
8
 170
0
 171
2
 172
1
 173
1
 174
0
 175
0
 176
8
 177
8
 178
8
 270
2
 271
6
 272
0
 273
2
 274
2
 340
3C
 275
1
 280
0
 281
0
 282
0
 283
1
 284
0
 285
0
 286
0
 287
3
 288
1
   0
DIMSTYLE
 105
44
 100
AcDbSymbolTableRecord
 100
AcDbDimStyleTableRecord
   2
GMM006
  70
0
   3

   4

   5

   6
_DOT
   7
_DOT
  40
 1.0000000000000
  41
 0.80000000000000
  42
 2.0000000000000
  43
 16.000000000000
  44
 2.0000000000000
  45
0.0
  46
0.0
  47
0.0
  48
0.0
 140
 6.0000000000000
 141
 2.0000000000000
 142
0.0
 143
 0.39400000000000E-1
 144
 1.0000000000000
 145
0.0
 146
 0.83333333333333
 147
 1.8942596636703
  71
0
  72
0
  73
0
  74
0
  75
0
  76
0
  77
3
  78
8
 170
0
 171
2
 172
1
 173
1
 174
0
 175
0
 176
8
 177
8
 178
8
 270
2
 271
6
 272
0
 273
2
 274
2
 340
3C
 275
1
 280
0
 281
0
 282
0
 283
1
 284
0
 285
0
 286
0
 287
3
 288
1
   0
DIMSTYLE
 105
45
 100
AcDbSymbolTableRecord
 100
AcDbDimStyleTableRecord
   2
GMM007
  70
0
   3

   4

   5

   6
_DOT
   7
_DOT
  40
 1.0000000000000
  41
 0.80000000000000
  42
 2.0000000000000
  43
 16.000000000000
  44
 2.0000000000000
  45
0.0
  46
0.0
  47
0.0
  48
0.0
 140
 6.0000000000000
 141
 2.0000000000000
 142
0.0
 143
 0.39400000000000E-1
 144
 1.0000000000000
 145
0.0
 146
 0.83333333333333
 147
 1.7990789408361
  71
0
  72
0
  73
0
  74
0
  75
0
  76
0
  77
3
  78
8
 170
0
 171
2
 172
1
 173
1
 174
0
 175
0
 176
8
 177
8
 178
8
 270
2
 271
6
 272
0
 273
2
 274
2
 340
3C
 275
1
 280
0
 281
0
 282
0
 283
1
 284
0
 285
0
 286
0
 287
3
 288
1
   0
ENDTAB
  0
TABLE
  2
BLOCK_RECORD
  5
1
100
AcDbSymbolTable
 70
     0
  0
BLOCK_RECORD
  5
18
100
AcDbSymbolTableRecord
100
AcDbBlockTableRecord
  2
*MODEL_SPACE
  0
BLOCK_RECORD
  5
15
100
AcDbSymbolTableRecord
100
AcDbBlockTableRecord
  2
*PAPER_SPACE
   0
BLOCK_RECORD
   5
46
 100
AcDbSymbolTableRecord
 100
AcDbBlockTableRecord
   2
*D1
   0
BLOCK_RECORD
   5
47
 100
AcDbSymbolTableRecord
 100
AcDbBlockTableRecord
   2
*D2
   0
BLOCK_RECORD
   5
48
 100
AcDbSymbolTableRecord
 100
AcDbBlockTableRecord
   2
*D3
   0
BLOCK_RECORD
   5
49
 100
AcDbSymbolTableRecord
 100
AcDbBlockTableRecord
   2
*D6
   0
BLOCK_RECORD
   5
4A
 100
AcDbSymbolTableRecord
 100
AcDbBlockTableRecord
   2
*D7
   0
BLOCK_RECORD
   5
4B
 100
AcDbSymbolTableRecord
 100
AcDbBlockTableRecord
   2
*D8
   0
BLOCK_RECORD
   5
4C
 100
AcDbSymbolTableRecord
 100
AcDbBlockTableRecord
   2
*D11
   0
BLOCK_RECORD
   5
4D
 100
AcDbSymbolTableRecord
 100
AcDbBlockTableRecord
   2
*D12
   0
BLOCK_RECORD
   5
4E
 100
AcDbSymbolTableRecord
 100
AcDbBlockTableRecord
   2
*D15
   0
BLOCK_RECORD
   5
4F
 100
AcDbSymbolTableRecord
 100
AcDbBlockTableRecord
   2
*D16
   0
BLOCK_RECORD
   5
50
 100
AcDbSymbolTableRecord
 100
AcDbBlockTableRecord
   2
*D17
   0
BLOCK_RECORD
   5
51
 100
AcDbSymbolTableRecord
 100
AcDbBlockTableRecord
   2
*D20
   0
BLOCK_RECORD
   5
52
 100
AcDbSymbolTableRecord
 100
AcDbBlockTableRecord
   2
*D21
   0
BLOCK_RECORD
   5
53
 100
AcDbSymbolTableRecord
 100
AcDbBlockTableRecord
   2
*D24
   0
BLOCK_RECORD
   5
54
 100
AcDbSymbolTableRecord
 100
AcDbBlockTableRecord
   2
*D25
   0
BLOCK_RECORD
   5
55
 100
AcDbSymbolTableRecord
 100
AcDbBlockTableRecord
   2
*D26
   0
BLOCK_RECORD
   5
56
 100
AcDbSymbolTableRecord
 100
AcDbBlockTableRecord
   2
_ARCHTICK
   0
BLOCK_RECORD
   5
57
 100
AcDbSymbolTableRecord
 100
AcDbBlockTableRecord
   2
_BOXBLANK
   0
BLOCK_RECORD
   5
58
 100
AcDbSymbolTableRecord
 100
AcDbBlockTableRecord
   2
_BOXFILLED
   0
BLOCK_RECORD
   5
59
 100
AcDbSymbolTableRecord
 100
AcDbBlockTableRecord
   2
_CLOSED
   0
BLOCK_RECORD
   5
5A
 100
AcDbSymbolTableRecord
 100
AcDbBlockTableRecord
   2
_CLOSEDBLANK
   0
BLOCK_RECORD
   5
5B
 100
AcDbSymbolTableRecord
 100
AcDbBlockTableRecord
   2
_DATUMBLANK
   0
BLOCK_RECORD
   5
5C
 100
AcDbSymbolTableRecord
 100
AcDbBlockTableRecord
   2
_DATUMFILLED
   0
BLOCK_RECORD
   5
5D
 100
AcDbSymbolTableRecord
 100
AcDbBlockTableRecord
   2
_DOT
   0
BLOCK_RECORD
   5
5E
 100
AcDbSymbolTableRecord
 100
AcDbBlockTableRecord
   2
_DOTBLANK
   0
BLOCK_RECORD
   5
5F
 100
AcDbSymbolTableRecord
 100
AcDbBlockTableRecord
   2
_DOTSMALL
   0
BLOCK_RECORD
   5
60
 100
AcDbSymbolTableRecord
 100
AcDbBlockTableRecord
   2
_INTEGRAL
   0
BLOCK_RECORD
   5
61
 100
AcDbSymbolTableRecord
 100
AcDbBlockTableRecord
   2
_NONE
   0
BLOCK_RECORD
   5
62
 100
AcDbSymbolTableRecord
 100
AcDbBlockTableRecord
   2
_OBLIQUE
   0
BLOCK_RECORD
   5
63
 100
AcDbSymbolTableRecord
 100
AcDbBlockTableRecord
   2
_OPEN
   0
BLOCK_RECORD
   5
64
 100
AcDbSymbolTableRecord
 100
AcDbBlockTableRecord
   2
_OPEN30
   0
BLOCK_RECORD
   5
65
 100
AcDbSymbolTableRecord
 100
AcDbBlockTableRecord
   2
_OPEN90
   0
BLOCK_RECORD
   5
66
 100
AcDbSymbolTableRecord
 100
AcDbBlockTableRecord
   2
_ORIGIN
   0
ENDTAB
   0
ENDSEC
  0
SECTION
  2
BLOCKS
  0
BLOCK
  5
19
100
AcDbEntity
  8
0
100
AcDbBlockBegin
  2
*MODEL_SPACE
 70
     0
 10
0.0
 20
0.0
 30
0.0
  3
*MODEL_SPACE
  1

  0
ENDBLK
  5
1A
100
AcDbEntity
  8
0
100
AcDbBlockEnd
  0
BLOCK
  5
16
100
AcDbEntity
 67
     1
  8
0
100
AcDbBlockBegin
  2
*PAPER_SPACE
 70
     0
 10
0.0
 20
0.0
 30
0.0
  3
*PAPER_SPACE
  1

  0
ENDBLK
  5
17
100
AcDbEntity
 67
     1
  8
0
100
AcDbBlockEnd
   0
BLOCK
   5
67
 100
AcDbEntity
   8
0
 100
AcDbBlockBegin
   2
_ARCHTICK
  70
0
  10
0.0
  20
0.0
  30
0.0
   3
_ARCHTICK
   0
POLYLINE
   5
68
 100
AcDbEntity
   8
0
 370
-2
   6
BYBLOCK
  62
0
 100
AcDb2dPolyline
  66
1
  10
0.0
  20
0.0
  30
0.0
  70
1
  40
 0.15000000000000
  41
 0.15000000000000
   0
VERTEX
   5
69
 100
AcDbEntity
   8
0
   6
BYBLOCK
  62
0
 100
AcDbVertex
 100
AcDb2dVertex
  10
-0.50000000000000
  20
-0.50000000000000
  30
0.0
  40
 0.15000000000000
  41
 0.15000000000000
   0
VERTEX
   5
6A
 100
AcDbEntity
   8
0
   6
BYBLOCK
  62
0
 100
AcDbVertex
 100
AcDb2dVertex
  10
 0.50000000000000
  20
 0.50000000000000
  30
0.0
  40
 0.15000000000000
  41
 0.15000000000000
   0
SEQEND
   5
6B
 100
AcDbEntity
   8
0
   6
BYBLOCK
  62
0
   0
ENDBLK
   5
6C
 100
AcDbEntity
   8
0
 100
AcDbBlockEnd
   0
BLOCK
   5
6D
 100
AcDbEntity
   8
0
 100
AcDbBlockBegin
   2
_OBLIQUE
  70
0
  10
0.0
  20
0.0
  30
0.0
   3
_OBLIQUE
   0
LINE
   5
6E
 100
AcDbEntity
   8
0
 370
-2
 100
AcDbLine
   6
BYBLOCK
  62
0
  10
-0.50000000000000
  20
-0.50000000000000
  30
0.0
  11
 0.50000000000000
  21
 0.50000000000000
  31
0.0
   0
ENDBLK
   5
6F
 100
AcDbEntity
   8
0
 100
AcDbBlockEnd
   0
BLOCK
   5
70
 100
AcDbEntity
   8
0
 100
AcDbBlockBegin
   2
_BOXBLANK
  70
0
  10
0.0
  20
0.0
  30
0.0
   3
_BOXBLANK
   0
LINE
   5
71
 100
AcDbEntity
   8
0
 370
-2
 100
AcDbLine
   6
BYBLOCK
  62
0
  10
-0.50000000000000
  20
-0.50000000000000
  30
0.0
  11
 0.50000000000000
  21
-0.50000000000000
  31
0.0
   0
LINE
   5
72
 100
AcDbEntity
   8
0
 370
-2
 100
AcDbLine
   6
BYBLOCK
  62
0
  10
 0.50000000000000
  20
-0.50000000000000
  30
0.0
  11
 0.50000000000000
  21
 0.50000000000000
  31
0.0
   0
LINE
   5
73
 100
AcDbEntity
   8
0
 370
-2
 100
AcDbLine
   6
BYBLOCK
  62
0
  10
 0.50000000000000
  20
 0.50000000000000
  30
0.0
  11
-0.50000000000000
  21
 0.50000000000000
  31
0.0
   0
LINE
   5
74
 100
AcDbEntity
   8
0
 370
-2
 100
AcDbLine
   6
BYBLOCK
  62
0
  10
-0.50000000000000
  20
 0.50000000000000
  30
0.0
  11
-0.50000000000000
  21
-0.50000000000000
  31
0.0
   0
LINE
   5
75
 100
AcDbEntity
   8
0
 370
-2
 100
AcDbLine
   6
BYBLOCK
  62
0
  10
-0.50000000000000
  20
0.0
  30
0.0
  11
-1.0000000000000
  21
0.0
  31
0.0
   0
ENDBLK
   5
76
 100
AcDbEntity
   8
0
 100
AcDbBlockEnd
   0
BLOCK
   5
77
 100
AcDbEntity
   8
0
 100
AcDbBlockBegin
   2
_BOXFILLED
  70
0
  10
0.0
  20
0.0
  30
0.0
   3
_BOXFILLED
   0
SOLID
   5
78
 100
AcDbEntity
   8
0
 100
AcDbTrace
   6
BYBLOCK
  62
0
  10
-0.50000000000000
  20
 0.50000000000000
  30
0.0
  11
 0.50000000000000
  21
 0.50000000000000
  31
0.0
  12
-0.50000000000000
  22
-0.50000000000000
  32
0.0
  13
 0.50000000000000
  23
-0.50000000000000
  33
0.0
   0
LINE
   5
79
 100
AcDbEntity
   8
0
 370
-2
 100
AcDbLine
   6
BYBLOCK
  62
0
  10
-0.50000000000000
  20
0.0
  30
0.0
  11
-1.0000000000000
  21
0.0
  31
0.0
   0
ENDBLK
   5
7A
 100
AcDbEntity
   8
0
 100
AcDbBlockEnd
   0
BLOCK
   5
7B
 100
AcDbEntity
   8
0
 100
AcDbBlockBegin
   2
_CLOSED
  70
0
  10
0.0
  20
0.0
  30
0.0
   3
_CLOSED
   0
LINE
   5
7C
 100
AcDbEntity
   8
0
 370
-2
 100
AcDbLine
   6
BYBLOCK
  62
0
  10
-1.0000000000000
  20
 0.16666666666667
  30
0.0
  11
0.0
  21
0.0
  31
0.0
   0
LINE
   5
7D
 100
AcDbEntity
   8
0
 370
-2
 100
AcDbLine
   6
BYBLOCK
  62
0
  10
0.0
  20
0.0
  30
0.0
  11
-1.0000000000000
  21
-0.16666666666667
  31
0.0
   0
LINE
   5
7E
 100
AcDbEntity
   8
0
 370
-2
 100
AcDbLine
   6
BYBLOCK
  62
0
  10
-1.0000000000000
  20
 0.16666666666667
  30
0.0
  11
-1.0000000000000
  21
-0.16666666666667
  31
0.0
   0
LINE
   5
7F
 100
AcDbEntity
   8
0
 370
-2
 100
AcDbLine
   6
BYBLOCK
  62
0
  10
0.0
  20
0.0
  30
0.0
  11
-1.0000000000000
  21
0.0
  31
0.0
   0
ENDBLK
   5
80
 100
AcDbEntity
   8
0
 100
AcDbBlockEnd
   0
BLOCK
   5
81
 100
AcDbEntity
   8
0
 100
AcDbBlockBegin
   2
_OPEN
  70
0
  10
0.0
  20
0.0
  30
0.0
   3
_OPEN
   0
LINE
   5
82
 100
AcDbEntity
   8
0
 370
-2
 100
AcDbLine
   6
BYBLOCK
  62
0
  10
-1.0000000000000
  20
 0.16666666666667
  30
0.0
  11
0.0
  21
0.0
  31
0.0
   0
LINE
   5
83
 100
AcDbEntity
   8
0
 370
-2
 100
AcDbLine
   6
BYBLOCK
  62
0
  10
0.0
  20
0.0
  30
0.0
  11
-1.0000000000000
  21
-0.16666666666667
  31
0.0
   0
LINE
   5
84
 100
AcDbEntity
   8
0
 370
-2
 100
AcDbLine
   6
BYBLOCK
  62
0
  10
0.0
  20
0.0
  30
0.0
  11
-1.0000000000000
  21
0.0
  31
0.0
   0
ENDBLK
   5
85
 100
AcDbEntity
   8
0
 100
AcDbBlockEnd
   0
BLOCK
   5
86
 100
AcDbEntity
   8
0
 100
AcDbBlockBegin
   2
_OPEN30
  70
0
  10
0.0
  20
0.0
  30
0.0
   3
_OPEN30
   0
LINE
   5
87
 100
AcDbEntity
   8
0
 370
-2
 100
AcDbLine
   6
BYBLOCK
  62
0
  10
-1.0000000000000
  20
 0.26794919243110
  30
0.0
  11
0.0
  21
0.0
  31
0.0
   0
LINE
   5
88
 100
AcDbEntity
   8
0
 370
-2
 100
AcDbLine
   6
BYBLOCK
  62
0
  10
0.0
  20
0.0
  30
0.0
  11
-1.0000000000000
  21
-0.26794919243110
  31
0.0
   0
LINE
   5
89
 100
AcDbEntity
   8
0
 370
-2
 100
AcDbLine
   6
BYBLOCK
  62
0
  10
0.0
  20
0.0
  30
0.0
  11
-1.0000000000000
  21
0.0
  31
0.0
   0
ENDBLK
   5
8A
 100
AcDbEntity
   8
0
 100
AcDbBlockEnd
   0
BLOCK
   5
8B
 100
AcDbEntity
   8
0
 100
AcDbBlockBegin
   2
_OPEN90
  70
0
  10
0.0
  20
0.0
  30
0.0
   3
_OPEN90
   0
LINE
   5
8C
 100
AcDbEntity
   8
0
 370
-2
 100
AcDbLine
   6
BYBLOCK
  62
0
  10
-0.50000000000000
  20
 0.50000000000000
  30
0.0
  11
0.0
  21
0.0
  31
0.0
   0
LINE
   5
8D
 100
AcDbEntity
   8
0
 370
-2
 100
AcDbLine
   6
BYBLOCK
  62
0
  10
0.0
  20
0.0
  30
0.0
  11
-0.50000000000000
  21
-0.50000000000000
  31
0.0
   0
LINE
   5
8E
 100
AcDbEntity
   8
0
 370
-2
 100
AcDbLine
   6
BYBLOCK
  62
0
  10
0.0
  20
0.0
  30
0.0
  11
-1.0000000000000
  21
0.0
  31
0.0
   0
ENDBLK
   5
8F
 100
AcDbEntity
   8
0
 100
AcDbBlockEnd
   0
BLOCK
   5
90
 100
AcDbEntity
   8
0
 100
AcDbBlockBegin
   2
_CLOSEDBLANK
  70
0
  10
0.0
  20
0.0
  30
0.0
   3
_CLOSEDBLANK
   0
LINE
   5
91
 100
AcDbEntity
   8
0
 370
-2
 100
AcDbLine
   6
BYBLOCK
  62
0
  10
-1.0000000000000
  20
 0.16666666666667
  30
0.0
  11
0.0
  21
0.0
  31
0.0
   0
LINE
   5
92
 100
AcDbEntity
   8
0
 370
-2
 100
AcDbLine
   6
BYBLOCK
  62
0
  10
0.0
  20
0.0
  30
0.0
  11
-1.0000000000000
  21
-0.16666666666667
  31
0.0
   0
LINE
   5
93
 100
AcDbEntity
   8
0
 370
-2
 100
AcDbLine
   6
BYBLOCK
  62
0
  10
-1.0000000000000
  20
 0.16666666666667
  30
0.0
  11
-1.0000000000000
  21
-0.16666666666667
  31
0.0
   0
ENDBLK
   5
94
 100
AcDbEntity
   8
0
 100
AcDbBlockEnd
   0
BLOCK
   5
95
 100
AcDbEntity
   8
0
 100
AcDbBlockBegin
   2
_DOT
  70
0
  10
0.0
  20
0.0
  30
0.0
   3
_DOT
   0
POLYLINE
   5
96
 100
AcDbEntity
   8
0
 370
-2
   6
BYBLOCK
  62
0
 100
AcDb2dPolyline
  66
1
  10
0.0
  20
0.0
  30
0.0
  70
1
  40
 0.50000000000000
  41
 0.50000000000000
   0
VERTEX
   5
97
 100
AcDbEntity
   8
0
   6
BYBLOCK
  62
0
 100
AcDbVertex
 100
AcDb2dVertex
  10
-0.25000000000000
  20
0.0
  30
0.0
  42
 1.0000000000000
  40
 0.50000000000000
  41
 0.50000000000000
   0
VERTEX
   5
98
 100
AcDbEntity
   8
0
   6
BYBLOCK
  62
0
 100
AcDbVertex
 100
AcDb2dVertex
  10
 0.25000000000000
  20
0.0
  30
0.0
  42
 1.0000000000000
  40
 0.50000000000000
  41
 0.50000000000000
   0
SEQEND
   5
99
 100
AcDbEntity
   8
0
   6
BYBLOCK
  62
0
   0
LINE
   5
9A
 100
AcDbEntity
   8
0
 370
-2
 100
AcDbLine
   6
BYBLOCK
  62
0
  10
-0.50000000000000
  20
0.0
  30
0.0
  11
-1.0000000000000
  21
0.0
  31
0.0
   0
ENDBLK
   5
9B
 100
AcDbEntity
   8
0
 100
AcDbBlockEnd
   0
BLOCK
   5
9C
 100
AcDbEntity
   8
0
 100
AcDbBlockBegin
   2
_DOTSMALL
  70
0
  10
0.0
  20
0.0
  30
0.0
   3
_DOTSMALL
   0
POLYLINE
   5
9D
 100
AcDbEntity
   8
0
 370
-2
   6
BYBLOCK
  62
0
 100
AcDb2dPolyline
  66
1
  10
0.0
  20
0.0
  30
0.0
  70
1
  40
 0.50000000000000
  41
 0.50000000000000
   0
VERTEX
   5
9E
 100
AcDbEntity
   8
0
   6
BYBLOCK
  62
0
 100
AcDbVertex
 100
AcDb2dVertex
  10
-0.62500000000000E-1
  20
0.0
  30
0.0
  42
 1.0000000000000
  40
 0.50000000000000
  41
 0.50000000000000
   0
VERTEX
   5
9F
 100
AcDbEntity
   8
0
   6
BYBLOCK
  62
0
 100
AcDbVertex
 100
AcDb2dVertex
  10
 0.62500000000000E-1
  20
0.0
  30
0.0
  42
 1.0000000000000
  40
 0.50000000000000
  41
 0.50000000000000
   0
SEQEND
   5
A0
 100
AcDbEntity
   8
0
   6
BYBLOCK
  62
0
   0
ENDBLK
   5
A1
 100
AcDbEntity
   8
0
 100
AcDbBlockEnd
   0
BLOCK
   5
A2
 100
AcDbEntity
   8
0
 100
AcDbBlockBegin
   2
_DATUMBLANK
  70
0
  10
0.0
  20
0.0
  30
0.0
   3
_DATUMBLANK
   0
LINE
   5
A3
 100
AcDbEntity
   8
0
 370
-2
 100
AcDbLine
   6
BYBLOCK
  62
0
  10
0.0
  20
 0.57735027000000
  30
0.0
  11
-1.0000000000000
  21
0.0
  31
0.0
   0
LINE
   5
A4
 100
AcDbEntity
   8
0
 370
-2
 100
AcDbLine
   6
BYBLOCK
  62
0
  10
-1.0000000000000
  20
0.0
  30
0.0
  11
0.0
  21
-0.57735027000000
  31
0.0
   0
LINE
   5
A5
 100
AcDbEntity
   8
0
 370
-2
 100
AcDbLine
   6
BYBLOCK
  62
0
  10
0.0
  20
-0.57735027000000
  30
0.0
  11
0.0
  21
 0.57735027000000
  31
0.0
   0
ENDBLK
   5
A6
 100
AcDbEntity
   8
0
 100
AcDbBlockEnd
   0
BLOCK
   5
A7
 100
AcDbEntity
   8
0
 100
AcDbBlockBegin
   2
_DATUMFILLED
  70
0
  10
0.0
  20
0.0
  30
0.0
   3
_DATUMFILLED
   0
SOLID
   5
A8
 100
AcDbEntity
   8
0
 100
AcDbTrace
   6
BYBLOCK
  62
0
  10
0.0
  20
 0.57735027000000
  30
0.0
  11
-1.0000000000000
  21
0.0
  31
0.0
  12
0.0
  22
-0.57735027000000
  32
0.0
  13
0.0
  23
-0.57735027000000
  33
0.0
   0
ENDBLK
   5
A9
 100
AcDbEntity
   8
0
 100
AcDbBlockEnd
   0
BLOCK
   5
AA
 100
AcDbEntity
   8
0
 100
AcDbBlockBegin
   2
_ORIGIN
  70
0
  10
0.0
  20
0.0
  30
0.0
   3
_ORIGIN
   0
CIRCLE
   5
AB
 100
AcDbEntity
   8
0
 370
-2
 100
AcDbCircle
   6
BYBLOCK
  62
0
  10
0.0
  20
0.0
  30
0.0
  40
 0.50000000000000
   0
LINE
   5
AC
 100
AcDbEntity
   8
0
 370
-2
 100
AcDbLine
   6
BYBLOCK
  62
0
  10
0.0
  20
0.0
  30
0.0
  11
-1.0000000000000
  21
0.0
  31
0.0
   0
ENDBLK
   5
AD
 100
AcDbEntity
   8
0
 100
AcDbBlockEnd
   0
BLOCK
   5
AE
 100
AcDbEntity
   8
0
 100
AcDbBlockBegin
   2
_NONE
  70
0
  10
0.0
  20
0.0
  30
0.0
   3
_NONE
   0
CIRCLE
   5
AF
 100
AcDbEntity
   8
0
 370
-2
 100
AcDbCircle
   6
BYBLOCK
  62
0
  10
0.0
  20
0.0
  30
0.0
  40
 0.25000000000000
   0
ENDBLK
   5
B0
 100
AcDbEntity
   8
0
 100
AcDbBlockEnd
   0
BLOCK
   5
B1
 100
AcDbEntity
   8
0
 100
AcDbBlockBegin
   2
_DOTBLANK
  70
0
  10
0.0
  20
0.0
  30
0.0
   3
_DOTBLANK
   0
CIRCLE
   5
B2
 100
AcDbEntity
   8
0
 370
-2
 100
AcDbCircle
   6
BYBLOCK
  62
0
  10
0.0
  20
0.0
  30
0.0
  40
 0.50000000000000
   0
LINE
   5
B3
 100
AcDbEntity
   8
0
 370
-2
 100
AcDbLine
   6
BYBLOCK
  62
0
  10
-0.50000000000000
  20
0.0
  30
0.0
  11
-1.0000000000000
  21
0.0
  31
0.0
   0
ENDBLK
   5
B4
 100
AcDbEntity
   8
0
 100
AcDbBlockEnd
   0
BLOCK
   5
B5
 100
AcDbEntity
   8
0
 100
AcDbBlockBegin
   2
_INTEGRAL
  70
0
  10
0.0
  20
0.0
  30
0.0
   3
_INTEGRAL
   0
ARC
   5
B6
 100
AcDbEntity
   8
0
 370
-2
   6
BYBLOCK
  62
0
 100
AcDbCircle
  10
 0.44488800000000
  20
-0.91335000000000E-1
  30
0.0
  40
 0.45416700000000
 100
AcDbArc
  50
 102.00000000000
  51
 168.00000000000
   0
ARC
   5
B7
 100
AcDbEntity
   8
0
 370
-2
   6
BYBLOCK
  62
0
 100
AcDbCircle
  10
-0.44488800000000
  20
 0.91335000000000E-1
  30
0.0
  40
 0.45416700000000
 100
AcDbArc
  50
 282.00000000000
  51
 348.00000000000
   0
ENDBLK
   5
B8
 100
AcDbEntity
   8
0
 100
AcDbBlockEnd
   0
BLOCK
   5
B9
 100
AcDbEntity
   8
0
 100
AcDbBlockBegin
   2
*D1
  70
65
  10
0.0
  20
0.0
  30
0.0
   3
*D1
   0
LINE
   5
BA
 100
AcDbEntity
   8
LEVEL001
 370
15
 100
AcDbLine
   6
CONTINUOUS
  62
8
  10
 88.999999999900
  20
 441.50514335927
  30
0.0
  11
 78.999999999900
  21
 441.50514335927
  31
0.0
   0
LINE
   5
BB
 100
AcDbEntity
   8
LEVEL001
 370
15
 100
AcDbLine
   6
CONTINUOUS
  62
8
  10
 88.999999999900
  20
 459.50000000000
  30
0.0
  11
 78.999999999900
  21
 459.50000000000
  31
0.0
   0
LINE
   5
BC
 100
AcDbEntity
   8
LEVEL001
 370
15
 100
AcDbLine
   6
CONTINUOUS
  62
8
  10
 80.999999999900
  20
 441.50514335927
  30
0.0
  11
 80.999999999900
  21
 450.50257167964
  31
0.0
   0
LINE
   5
BD
 100
AcDbEntity
   8
LEVEL001
 370
15
 100
AcDbLine
   6
CONTINUOUS
  62
8
  10
 80.999999999900
  20
 459.50000000000
  30
0.0
  11
 80.999999999900
  21
 450.50257167964
  31
0.0
   0
INSERT
   5
BE
 100
AcDbEntity
   8
LEVEL001
   6
CONTINUOUS
  62
8
 100
AcDbBlockReference
   2
_DOT
  10
 80.999999999900
  20
 441.50514335927
  30
0.0
  41
 0.80000000000000
  42
 0.80000000000000
  43
 0.80000000000000
  50
 270.00000000000
   0
INSERT
   5
BF
 100
AcDbEntity
   8
LEVEL001
   6
CONTINUOUS
  62
8
 100
AcDbBlockReference
   2
_DOT
  10
 80.999999999900
  20
 459.50000000000
  30
0.0
  41
 0.80000000000000
  42
 0.80000000000000
  43
 0.80000000000000
  50
 90.000000000000
   0
MTEXT
   5
C0
 100
AcDbEntity
   8
LEVEL001
 370
15
  62
8
 100
AcDbMText
  10
 78.999999999900
  20
 456.50257167964
  30
0.0
  40
 6.0000000000000
  41
0.0
  71
8
  72
1
   1
\A1;18
   7
GMM002
  11
0.0
  21
 1.0000000000000
  31
0.0
  44
 0.79999984000003
   0
ENDBLK
   5
C1
 100
AcDbEntity
   8
0
 100
AcDbBlockEnd
   0
BLOCK
   5
C2
 100
AcDbEntity
   8
0
 100
AcDbBlockBegin
   2
*D2
  70
65
  10
0.0
  20
0.0
  30
0.0
   3
*D2
   0
LINE
   5
C3
 100
AcDbEntity
   8
LEVEL001
 370
15
 100
AcDbLine
   6
CONTINUOUS
  62
8
  10
 90.999999999900
  20
 461.50000000000
  30
0.0
  11
 90.999999999900
  21
 471.50000000000
  31
0.0
   0
LINE
   5
C4
 100
AcDbEntity
   8
LEVEL001
 370
15
 100
AcDbLine
   6
CONTINUOUS
  62
8
  10
 125.99999999990
  20
 461.50000000000
  30
0.0
  11
 125.99999999990
  21
 471.50000000000
  31
0.0
   0
LINE
   5
C5
 100
AcDbEntity
   8
LEVEL001
 370
15
 100
AcDbLine
   6
CONTINUOUS
  62
8
  10
 90.999999999900
  20
 469.50000000000
  30
0.0
  11
 108.49999999990
  21
 469.50000000000
  31
0.0
   0
LINE
   5
C6
 100
AcDbEntity
   8
LEVEL001
 370
15
 100
AcDbLine
   6
CONTINUOUS
  62
8
  10
 125.99999999990
  20
 469.50000000000
  30
0.0
  11
 108.49999999990
  21
 469.50000000000
  31
0.0
   0
INSERT
   5
C7
 100
AcDbEntity
   8
LEVEL001
   6
CONTINUOUS
  62
8
 100
AcDbBlockReference
   2
_DOT
  10
 90.999999999900
  20
 469.50000000000
  30
0.0
  41
 0.80000000000000
  42
 0.80000000000000
  43
 0.80000000000000
  50
 180.00000000000
   0
INSERT
   5
C8
 100
AcDbEntity
   8
LEVEL001
   6
CONTINUOUS
  62
8
 100
AcDbBlockReference
   2
_DOT
  10
 125.99999999990
  20
 469.50000000000
  30
0.0
  41
 0.80000000000000
  42
 0.80000000000000
  43
 0.80000000000000
  50
0.0
   0
MTEXT
   5
C9
 100
AcDbEntity
   8
LEVEL001
 370
15
  62
8
 100
AcDbMText
  10
 108.49999999990
  20
 471.50000000000
  30
0.0
  40
 6.0000000000000
  41
0.0
  71
8
  72
1
   1
\A1;35
   7
GMM002
   0
ENDBLK
   5
CA
 100
AcDbEntity
   8
0
 100
AcDbBlockEnd
   0
BLOCK
   5
CB
 100
AcDbEntity
   8
0
 100
AcDbBlockBegin
   2
*D3
  70
65
  10
0.0
  20
0.0
  30
0.0
   3
*D3
   0
LINE
   5
CC
 100
AcDbEntity
   8
LEVEL001
 370
15
 100
AcDbLine
   6
CONTINUOUS
  62
8
  10
 127.99999999990
  20
 452.50000000000
  30
0.0
  11
 139.99999999990
  21
 452.50000000000
  31
0.0
   0
LINE
   5
CD
 100
AcDbEntity
   8
LEVEL001
 370
15
 100
AcDbLine
   6
CONTINUOUS
  62
8
  10
 127.99999999990
  20
 459.50000000000
  30
0.0
  11
 139.99999999990
  21
 459.50000000000
  31
0.0
   0
LINE
   5
CE
 100
AcDbEntity
   8
LEVEL001
 370
15
 100
AcDbLine
   6
CONTINUOUS
  62
8
  10
 137.99999999990
  20
 452.50000000000
  30
0.0
  11
 137.99999999990
  21
 456.00000000000
  31
0.0
   0
LINE
   5
CF
 100
AcDbEntity
   8
LEVEL001
 370
15
 100
AcDbLine
   6
CONTINUOUS
  62
8
  10
 137.99999999990
  20
 459.50000000000
  30
0.0
  11
 137.99999999990
  21
 456.00000000000
  31
0.0
   0
INSERT
   5
D0
 100
AcDbEntity
   8
LEVEL001
   6
CONTINUOUS
  62
8
 100
AcDbBlockReference
   2
_DOT
  10
 137.99999999990
  20
 452.50000000000
  30
0.0
  41
 0.80000000000000
  42
 0.80000000000000
  43
 0.80000000000000
  50
 270.00000000000
   0
INSERT
   5
D1
 100
AcDbEntity
   8
LEVEL001
   6
CONTINUOUS
  62
8
 100
AcDbBlockReference
   2
_DOT
  10
 137.99999999990
  20
 459.50000000000
  30
0.0
  41
 0.80000000000000
  42
 0.80000000000000
  43
 0.80000000000000
  50
 90.000000000000
   0
MTEXT
   5
D2
 100
AcDbEntity
   8
LEVEL001
 370
15
  62
8
 100
AcDbMText
  10
 135.99999999990
  20
 456.00000000000
  30
0.0
  40
 6.0000000000000
  41
0.0
  71
8
  72
1
   1
\A1;7
   7
GMM002
  11
0.0
  21
 1.0000000000000
  31
0.0
   0
ENDBLK
   5
D3
 100
AcDbEntity
   8
0
 100
AcDbBlockEnd
   0
BLOCK
   5
D4
 100
AcDbEntity
   8
0
 100
AcDbBlockBegin
   2
*D6
  70
65
  10
0.0
  20
0.0
  30
0.0
   3
*D6
   0
LINE
   5
D5
 100
AcDbEntity
   8
LEVEL001
 370
15
 100
AcDbLine
   6
CONTINUOUS
  62
8
  10
 233.49999999990
  20
 439.50263863159
  30
0.0
  11
 223.49999999990
  21
 439.50263863159
  31
0.0
   0
LINE
   5
D6
 100
AcDbEntity
   8
LEVEL001
 370
15
 100
AcDbLine
   6
CONTINUOUS
  62
8
  10
 233.49999999990
  20
 459.50000000002
  30
0.0
  11
 223.49999999990
  21
 459.50000000002
  31
0.0
   0
LINE
   5
D7
 100
AcDbEntity
   8
LEVEL001
 370
15
 100
AcDbLine
   6
CONTINUOUS
  62
8
  10
 225.49999999990
  20
 439.50263863159
  30
0.0
  11
 225.49999999990
  21
 449.50131931581
  31
0.0
   0
LINE
   5
D8
 100
AcDbEntity
   8
LEVEL001
 370
15
 100
AcDbLine
   6
CONTINUOUS
  62
8
  10
 225.49999999990
  20
 459.50000000002
  30
0.0
  11
 225.49999999990
  21
 449.50131931581
  31
0.0
   0
INSERT
   5
D9
 100
AcDbEntity
   8
LEVEL001
   6
CONTINUOUS
  62
8
 100
AcDbBlockReference
   2
_DOT
  10
 225.49999999990
  20
 439.50263863159
  30
0.0
  41
 0.80000000000000
  42
 0.80000000000000
  43
 0.80000000000000
  50
 270.00000000000
   0
INSERT
   5
DA
 100
AcDbEntity
   8
LEVEL001
   6
CONTINUOUS
  62
8
 100
AcDbBlockReference
   2
_DOT
  10
 225.49999999990
  20
 459.50000000002
  30
0.0
  41
 0.80000000000000
  42
 0.80000000000000
  43
 0.80000000000000
  50
 90.000000000000
   0
MTEXT
   5
DB
 100
AcDbEntity
   8
LEVEL001
 370
15
  62
8
 100
AcDbMText
  10
 223.49999999990
  20
 449.50131931581
  30
0.0
  40
 6.0000000000000
  41
0.0
  71
8
  72
1
   1
\A1;20
   7
GMM002
  11
0.0
  21
 1.0000000000000
  31
0.0
   0
ENDBLK
   5
DC
 100
AcDbEntity
   8
0
 100
AcDbBlockEnd
   0
BLOCK
   5
DD
 100
AcDbEntity
   8
0
 100
AcDbBlockBegin
   2
*D7
  70
65
  10
0.0
  20
0.0
  30
0.0
   3
*D7
   0
LINE
   5
DE
 100
AcDbEntity
   8
LEVEL001
 370
15
 100
AcDbLine
   6
CONTINUOUS
  62
8
  10
 235.49999999990
  20
 461.50000000002
  30
0.0
  11
 235.49999999990
  21
 471.50000000002
  31
0.0
   0
LINE
   5
DF
 100
AcDbEntity
   8
LEVEL001
 370
15
 100
AcDbLine
   6
CONTINUOUS
  62
8
  10
 275.49999999990
  20
 461.50000000002
  30
0.0
  11
 275.49999999990
  21
 471.50000000002
  31
0.0
   0
LINE
   5
E0
 100
AcDbEntity
   8
LEVEL001
 370
15
 100
AcDbLine
   6
CONTINUOUS
  62
8
  10
 235.49999999990
  20
 469.50000000002
  30
0.0
  11
 255.49999999990
  21
 469.50000000002
  31
0.0
   0
LINE
   5
E1
 100
AcDbEntity
   8
LEVEL001
 370
15
 100
AcDbLine
   6
CONTINUOUS
  62
8
  10
 275.49999999990
  20
 469.50000000002
  30
0.0
  11
 255.49999999990
  21
 469.50000000002
  31
0.0
   0
INSERT
   5
E2
 100
AcDbEntity
   8
LEVEL001
   6
CONTINUOUS
  62
8
 100
AcDbBlockReference
   2
_DOT
  10
 235.49999999990
  20
 469.50000000002
  30
0.0
  41
 0.80000000000000
  42
 0.80000000000000
  43
 0.80000000000000
  50
 180.00000000000
   0
INSERT
   5
E3
 100
AcDbEntity
   8
LEVEL001
   6
CONTINUOUS
  62
8
 100
AcDbBlockReference
   2
_DOT
  10
 275.49999999990
  20
 469.50000000002
  30
0.0
  41
 0.80000000000000
  42
 0.80000000000000
  43
 0.80000000000000
  50
0.0
   0
MTEXT
   5
E4
 100
AcDbEntity
   8
LEVEL001
 370
15
  62
8
 100
AcDbMText
  10
 255.49999999990
  20
 471.50000000002
  30
0.0
  40
 6.0000000000000
  41
0.0
  71
8
  72
1
   1
\A1;40
   7
GMM002
   0
ENDBLK
   5
E5
 100
AcDbEntity
   8
0
 100
AcDbBlockEnd
   0
BLOCK
   5
E6
 100
AcDbEntity
   8
0
 100
AcDbBlockBegin
   2
*D8
  70
65
  10
0.0
  20
0.0
  30
0.0
   3
*D8
   0
LINE
   5
E7
 100
AcDbEntity
   8
LEVEL001
 370
15
 100
AcDbLine
   6
CONTINUOUS
  62
8
  10
 277.49999999990
  20
 452.00000000002
  30
0.0
  11
 289.49999999990
  21
 452.00000000002
  31
0.0
   0
LINE
   5
E8
 100
AcDbEntity
   8
LEVEL001
 370
15
 100
AcDbLine
   6
CONTINUOUS
  62
8
  10
 277.49999999990
  20
 459.50000000002
  30
0.0
  11
 289.49999999990
  21
 459.50000000002
  31
0.0
   0
LINE
   5
E9
 100
AcDbEntity
   8
LEVEL001
 370
15
 100
AcDbLine
   6
CONTINUOUS
  62
8
  10
 287.49999999990
  20
 452.00000000002
  30
0.0
  11
 287.49999999990
  21
 455.75000000002
  31
0.0
   0
LINE
   5
EA
 100
AcDbEntity
   8
LEVEL001
 370
15
 100
AcDbLine
   6
CONTINUOUS
  62
8
  10
 287.49999999990
  20
 474.02576995887
  30
0.0
  11
 287.49999999990
  21
 455.75000000002
  31
0.0
   0
INSERT
   5
EB
 100
AcDbEntity
   8
LEVEL001
   6
CONTINUOUS
  62
8
 100
AcDbBlockReference
   2
_DOT
  10
 287.49999999990
  20
 452.00000000002
  30
0.0
  41
 0.80000000000000
  42
 0.80000000000000
  43
 0.80000000000000
  50
 270.00000000000
   0
INSERT
   5
EC
 100
AcDbEntity
   8
LEVEL001
   6
CONTINUOUS
  62
8
 100
AcDbBlockReference
   2
_DOT
  10
 287.49999999990
  20
 459.50000000002
  30
0.0
  41
 0.80000000000000
  42
 0.80000000000000
  43
 0.80000000000000
  50
 90.000000000000
   0
MTEXT
   5
ED
 100
AcDbEntity
   8
LEVEL001
 370
15
  62
8
 100
AcDbMText
  10
 285.23661940807
  20
 460.52576995887
  30
0.0
  40
 6.0000000000000
  41
0.0
  71
7
  72
1
   1
\A1;7.5
   7
GMM002
  11
0.0
  21
 1.0000000000000
  31
0.0
   0
ENDBLK
   5
EE
 100
AcDbEntity
   8
0
 100
AcDbBlockEnd
   0
BLOCK
   5
EF
 100
AcDbEntity
   8
0
 100
AcDbBlockBegin
   2
*D11
  70
65
  10
0.0
  20
0.0
  30
0.0
   3
*D11
   0
LINE
   5
F0
 100
AcDbEntity
   8
LEVEL001
 370
15
 100
AcDbLine
   6
CONTINUOUS
  62
8
  10
 524.49999999989
  20
 190.10000000000
  30
0.0
  11
 524.49999999989
  21
 198.50000000000
  31
0.0
   0
LINE
   5
F1
 100
AcDbEntity
   8
LEVEL001
 370
15
 100
AcDbLine
   6
CONTINUOUS
  62
8
  10
 564.49999999989
  20
 190.10000000000
  30
0.0
  11
 564.49999999989
  21
 198.50000000000
  31
0.0
   0
LINE
   5
F2
 100
AcDbEntity
   8
LEVEL001
 370
15
 100
AcDbLine
   6
CONTINUOUS
  62
8
  10
 524.49999999989
  20
 196.50000000000
  30
0.0
  11
 544.49999999989
  21
 196.50000000000
  31
0.0
   0
LINE
   5
F3
 100
AcDbEntity
   8
LEVEL001
 370
15
 100
AcDbLine
   6
CONTINUOUS
  62
8
  10
 564.49999999989
  20
 196.50000000000
  30
0.0
  11
 544.49999999989
  21
 196.50000000000
  31
0.0
   0
INSERT
   5
F4
 100
AcDbEntity
   8
LEVEL001
   6
CONTINUOUS
  62
8
 100
AcDbBlockReference
   2
_DOT
  10
 524.49999999989
  20
 196.50000000000
  30
0.0
  41
 0.80000000000000
  42
 0.80000000000000
  43
 0.80000000000000
  50
 180.00000000000
   0
INSERT
   5
F5
 100
AcDbEntity
   8
LEVEL001
   6
CONTINUOUS
  62
8
 100
AcDbBlockReference
   2
_DOT
  10
 564.49999999989
  20
 196.50000000000
  30
0.0
  41
 0.80000000000000
  42
 0.80000000000000
  43
 0.80000000000000
  50
0.0
   0
MTEXT
   5
F6
 100
AcDbEntity
   8
LEVEL001
 370
15
  62
8
 100
AcDbMText
  10
 544.49999999989
  20
 198.50000000000
  30
0.0
  40
 6.0000000000000
  41
0.0
  71
8
  72
1
   1
\A1;40
   7
GMM002
   0
ENDBLK
   5
F7
 100
AcDbEntity
   8
0
 100
AcDbBlockEnd
   0
BLOCK
   5
F8
 100
AcDbEntity
   8
0
 100
AcDbBlockBegin
   2
*D12
  70
65
  10
0.0
  20
0.0
  30
0.0
   3
*D12
   0
LINE
   5
F9
 100
AcDbEntity
   8
LEVEL001
 370
15
 100
AcDbLine
   6
CONTINUOUS
  62
8
  10
 566.49999999989
  20
 183.50000000000
  30
0.0
  11
 578.49999999989
  21
 183.50000000000
  31
0.0
   0
LINE
   5
FA
 100
AcDbEntity
   8
LEVEL001
 370
15
 100
AcDbLine
   6
CONTINUOUS
  62
8
  10
 566.49999999989
  20
 186.50000000000
  30
0.0
  11
 578.49999999989
  21
 186.50000000000
  31
0.0
   0
LINE
   5
FB
 100
AcDbEntity
   8
LEVEL001
 370
15
 100
AcDbLine
   6
CONTINUOUS
  62
8
  10
 576.49999999989
  20
 183.50000000000
  30
0.0
  11
 576.49999999989
  21
 185.00000000000
  31
0.0
   0
LINE
   5
FC
 100
AcDbEntity
   8
LEVEL001
 370
15
 100
AcDbLine
   6
CONTINUOUS
  62
8
  10
 576.49999999989
  20
 194.08311043176
  30
0.0
  11
 576.49999999989
  21
 185.00000000000
  31
0.0
   0
INSERT
   5
FD
 100
AcDbEntity
   8
LEVEL001
   6
CONTINUOUS
  62
8
 100
AcDbBlockReference
   2
_DOT
  10
 576.49999999989
  20
 183.50000000000
  30
0.0
  41
 0.80000000000000
  42
 0.80000000000000
  43
 0.80000000000000
  50
 270.00000000000
   0
INSERT
   5
FE
 100
AcDbEntity
   8
LEVEL001
   6
CONTINUOUS
  62
8
 100
AcDbBlockReference
   2
_DOT
  10
 576.49999999989
  20
 186.50000000000
  30
0.0
  41
 0.80000000000000
  42
 0.80000000000000
  43
 0.80000000000000
  50
 90.000000000000
   0
MTEXT
   5
FF
 100
AcDbEntity
   8
LEVEL001
 370
15
  62
8
 100
AcDbMText
  10
 574.47428116633
  20
 188.08311043176
  30
0.0
  40
 6.0000000000000
  41
0.0
  71
7
  72
1
   1
\A1;3
   7
GMM002
  11
0.0
  21
 1.0000000000000
  31
0.0
   0
ENDBLK
   5
100
 100
AcDbEntity
   8
0
 100
AcDbBlockEnd
   0
BLOCK
   5
101
 100
AcDbEntity
   8
0
 100
AcDbBlockBegin
   2
*D15
  70
65
  10
0.0
  20
0.0
  30
0.0
   3
*D15
   0
LINE
   5
102
 100
AcDbEntity
   8
LEVEL001
 370
15
 100
AcDbLine
   6
CONTINUOUS
  62
8
  10
 377.99999999990
  20
 166.50000000000
  30
0.0
  11
 367.99999999990
  21
 166.50000000000
  31
0.0
   0
LINE
   5
103
 100
AcDbEntity
   8
LEVEL001
 370
15
 100
AcDbLine
   6
CONTINUOUS
  62
8
  10
 377.99999999990
  20
 186.50000000000
  30
0.0
  11
 367.99999999990
  21
 186.50000000000
  31
0.0
   0
LINE
   5
104
 100
AcDbEntity
   8
LEVEL001
 370
15
 100
AcDbLine
   6
CONTINUOUS
  62
8
  10
 369.99999999990
  20
 166.50000000000
  30
0.0
  11
 369.99999999990
  21
 176.50000000000
  31
0.0
   0
LINE
   5
105
 100
AcDbEntity
   8
LEVEL001
 370
15
 100
AcDbLine
   6
CONTINUOUS
  62
8
  10
 369.99999999990
  20
 186.50000000000
  30
0.0
  11
 369.99999999990
  21
 176.50000000000
  31
0.0
   0
INSERT
   5
106
 100
AcDbEntity
   8
LEVEL001
   6
CONTINUOUS
  62
8
 100
AcDbBlockReference
   2
_DOT
  10
 369.99999999990
  20
 166.50000000000
  30
0.0
  41
 0.80000000000000
  42
 0.80000000000000
  43
 0.80000000000000
  50
 270.00000000000
   0
INSERT
   5
107
 100
AcDbEntity
   8
LEVEL001
   6
CONTINUOUS
  62
8
 100
AcDbBlockReference
   2
_DOT
  10
 369.99999999990
  20
 186.50000000000
  30
0.0
  41
 0.80000000000000
  42
 0.80000000000000
  43
 0.80000000000000
  50
 90.000000000000
   0
MTEXT
   5
108
 100
AcDbEntity
   8
LEVEL001
 370
15
  62
8
 100
AcDbMText
  10
 367.99999999990
  20
 176.50000000000
  30
0.0
  40
 6.0000000000000
  41
0.0
  71
8
  72
1
   1
\A1;20
   7
GMM002
  11
0.0
  21
 1.0000000000000
  31
0.0
   0
ENDBLK
   5
109
 100
AcDbEntity
   8
0
 100
AcDbBlockEnd
   0
BLOCK
   5
10A
 100
AcDbEntity
   8
0
 100
AcDbBlockBegin
   2
*D16
  70
65
  10
0.0
  20
0.0
  30
0.0
   3
*D16
   0
LINE
   5
10B
 100
AcDbEntity
   8
LEVEL001
 370
15
 100
AcDbLine
   6
CONTINUOUS
  62
8
  10
 421.96372915306
  20
 183.50000000000
  30
0.0
  11
 433.99999999990
  21
 183.50000000000
  31
0.0
   0
LINE
   5
10C
 100
AcDbEntity
   8
LEVEL001
 370
15
 100
AcDbLine
   6
CONTINUOUS
  62
8
  10
 421.96372915306
  20
 186.50000000000
  30
0.0
  11
 433.99999999990
  21
 186.50000000000
  31
0.0
   0
LINE
   5
10D
 100
AcDbEntity
   8
LEVEL001
 370
15
 100
AcDbLine
   6
CONTINUOUS
  62
8
  10
 431.99999999990
  20
 183.50000000000
  30
0.0
  11
 431.99999999990
  21
 185.00000000000
  31
0.0
   0
LINE
   5
10E
 100
AcDbEntity
   8
LEVEL001
 370
15
 100
AcDbLine
   6
CONTINUOUS
  62
8
  10
 431.99999999990
  20
 194.22447589361
  30
0.0
  11
 431.99999999990
  21
 185.00000000000
  31
0.0
   0
INSERT
   5
10F
 100
AcDbEntity
   8
LEVEL001
   6
CONTINUOUS
  62
8
 100
AcDbBlockReference
   2
_DOT
  10
 431.99999999990
  20
 183.50000000000
  30
0.0
  41
 0.80000000000000
  42
 0.80000000000000
  43
 0.80000000000000
  50
 270.00000000000
   0
INSERT
   5
110
 100
AcDbEntity
   8
LEVEL001
   6
CONTINUOUS
  62
8
 100
AcDbBlockReference
   2
_DOT
  10
 431.99999999990
  20
 186.50000000000
  30
0.0
  41
 0.80000000000000
  42
 0.80000000000000
  43
 0.80000000000000
  50
 90.000000000000
   0
MTEXT
   5
111
 100
AcDbEntity
   8
LEVEL001
 370
15
  62
8
 100
AcDbMText
  10
 429.86919415155
  20
 188.22447589361
  30
0.0
  40
 6.0000000000000
  41
0.0
  71
7
  72
1
   1
\A1;3
   7
GMM002
  11
0.0
  21
 1.0000000000000
  31
0.0
   0
ENDBLK
   5
112
 100
AcDbEntity
   8
0
 100
AcDbBlockEnd
   0
BLOCK
   5
113
 100
AcDbEntity
   8
0
 100
AcDbBlockBegin
   2
*D17
  70
65
  10
0.0
  20
0.0
  30
0.0
   3
*D17
   0
LINE
   5
114
 100
AcDbEntity
   8
LEVEL001
 370
15
 100
AcDbLine
   6
CONTINUOUS
  62
8
  10
 379.99999999990
  20
 189.40000000000
  30
0.0
  11
 379.99999999990
  21
 198.50000000000
  31
0.0
   0
LINE
   5
115
 100
AcDbEntity
   8
LEVEL001
 370
15
 100
AcDbLine
   6
CONTINUOUS
  62
8
  10
 419.99999999990
  20
 189.40000000000
  30
0.0
  11
 419.99999999990
  21
 198.50000000000
  31
0.0
   0
LINE
   5
116
 100
AcDbEntity
   8
LEVEL001
 370
15
 100
AcDbLine
   6
CONTINUOUS
  62
8
  10
 379.99999999990
  20
 196.50000000000
  30
0.0
  11
 399.99999999990
  21
 196.50000000000
  31
0.0
   0
LINE
   5
117
 100
AcDbEntity
   8
LEVEL001
 370
15
 100
AcDbLine
   6
CONTINUOUS
  62
8
  10
 419.99999999990
  20
 196.50000000000
  30
0.0
  11
 399.99999999990
  21
 196.50000000000
  31
0.0
   0
INSERT
   5
118
 100
AcDbEntity
   8
LEVEL001
   6
CONTINUOUS
  62
8
 100
AcDbBlockReference
   2
_DOT
  10
 379.99999999990
  20
 196.50000000000
  30
0.0
  41
 0.80000000000000
  42
 0.80000000000000
  43
 0.80000000000000
  50
 180.00000000000
   0
INSERT
   5
119
 100
AcDbEntity
   8
LEVEL001
   6
CONTINUOUS
  62
8
 100
AcDbBlockReference
   2
_DOT
  10
 419.99999999990
  20
 196.50000000000
  30
0.0
  41
 0.80000000000000
  42
 0.80000000000000
  43
 0.80000000000000
  50
0.0
   0
MTEXT
   5
11A
 100
AcDbEntity
   8
LEVEL001
 370
15
  62
8
 100
AcDbMText
  10
 399.99999999990
  20
 198.50000000000
  30
0.0
  40
 6.0000000000000
  41
0.0
  71
8
  72
1
   1
\A1;40
   7
GMM002
   0
ENDBLK
   5
11B
 100
AcDbEntity
   8
0
 100
AcDbBlockEnd
   0
BLOCK
   5
11C
 100
AcDbEntity
   8
0
 100
AcDbBlockBegin
   2
*D20
  70
65
  10
0.0
  20
0.0
  30
0.0
   3
*D20
   0
LINE
   5
11D
 100
AcDbEntity
   8
LEVEL001
 370
15
 100
AcDbLine
   6
CONTINUOUS
  62
8
  10
 235.49999999990
  20
 189.20000000000
  30
0.0
  11
 235.49999999990
  21
 198.50000000000
  31
0.0
   0
LINE
   5
11E
 100
AcDbEntity
   8
LEVEL001
 370
15
 100
AcDbLine
   6
CONTINUOUS
  62
8
  10
 275.49999999990
  20
 189.20000000000
  30
0.0
  11
 275.49999999990
  21
 198.50000000000
  31
0.0
   0
LINE
   5
11F
 100
AcDbEntity
   8
LEVEL001
 370
15
 100
AcDbLine
   6
CONTINUOUS
  62
8
  10
 235.49999999990
  20
 196.50000000000
  30
0.0
  11
 255.49999999990
  21
 196.50000000000
  31
0.0
   0
LINE
   5
120
 100
AcDbEntity
   8
LEVEL001
 370
15
 100
AcDbLine
   6
CONTINUOUS
  62
8
  10
 275.49999999990
  20
 196.50000000000
  30
0.0
  11
 255.49999999990
  21
 196.50000000000
  31
0.0
   0
INSERT
   5
121
 100
AcDbEntity
   8
LEVEL001
   6
CONTINUOUS
  62
8
 100
AcDbBlockReference
   2
_DOT
  10
 235.49999999990
  20
 196.50000000000
  30
0.0
  41
 0.80000000000000
  42
 0.80000000000000
  43
 0.80000000000000
  50
 180.00000000000
   0
INSERT
   5
122
 100
AcDbEntity
   8
LEVEL001
   6
CONTINUOUS
  62
8
 100
AcDbBlockReference
   2
_DOT
  10
 275.49999999990
  20
 196.50000000000
  30
0.0
  41
 0.80000000000000
  42
 0.80000000000000
  43
 0.80000000000000
  50
0.0
   0
MTEXT
   5
123
 100
AcDbEntity
   8
LEVEL001
 370
15
  62
8
 100
AcDbMText
  10
 255.49999999990
  20
 198.50000000000
  30
0.0
  40
 6.0000000000000
  41
0.0
  71
8
  72
1
   1
\A1;40
   7
GMM002
   0
ENDBLK
   5
124
 100
AcDbEntity
   8
0
 100
AcDbBlockEnd
   0
BLOCK
   5
125
 100
AcDbEntity
   8
0
 100
AcDbBlockBegin
   2
*D21
  70
65
  10
0.0
  20
0.0
  30
0.0
   3
*D21
   0
LINE
   5
126
 100
AcDbEntity
   8
LEVEL001
 370
15
 100
AcDbLine
   6
CONTINUOUS
  62
8
  10
 277.49999999990
  20
 183.50000000000
  30
0.0
  11
 289.49999999990
  21
 183.50000000000
  31
0.0
   0
LINE
   5
127
 100
AcDbEntity
   8
LEVEL001
 370
15
 100
AcDbLine
   6
CONTINUOUS
  62
8
  10
 277.49999999990
  20
 186.50000000000
  30
0.0
  11
 289.49999999990
  21
 186.50000000000
  31
0.0
   0
LINE
   5
128
 100
AcDbEntity
   8
LEVEL001
 370
15
 100
AcDbLine
   6
CONTINUOUS
  62
8
  10
 287.49999999990
  20
 183.50000000000
  30
0.0
  11
 287.49999999990
  21
 185.00000000000
  31
0.0
   0
LINE
   5
129
 100
AcDbEntity
   8
LEVEL001
 370
15
 100
AcDbLine
   6
CONTINUOUS
  62
8
  10
 287.49999999990
  20
 193.37628312253
  30
0.0
  11
 287.49999999990
  21
 185.00000000000
  31
0.0
   0
INSERT
   5
12A
 100
AcDbEntity
   8
LEVEL001
   6
CONTINUOUS
  62
8
 100
AcDbBlockReference
   2
_DOT
  10
 287.49999999990
  20
 183.50000000000
  30
0.0
  41
 0.80000000000000
  42
 0.80000000000000
  43
 0.80000000000000
  50
 270.00000000000
   0
INSERT
   5
12B
 100
AcDbEntity
   8
LEVEL001
   6
CONTINUOUS
  62
8
 100
AcDbBlockReference
   2
_DOT
  10
 287.49999999990
  20
 186.50000000000
  30
0.0
  41
 0.80000000000000
  42
 0.80000000000000
  43
 0.80000000000000
  50
 90.000000000000
   0
MTEXT
   5
12C
 100
AcDbEntity
   8
LEVEL001
 370
15
  62
8
 100
AcDbMText
  10
 285.60574033623
  20
 187.37628312253
  30
0.0
  40
 6.0000000000000
  41
0.0
  71
7
  72
1
   1
\A1;3
   7
GMM002
  11
0.0
  21
 1.0000000000000
  31
0.0
   0
ENDBLK
   5
12D
 100
AcDbEntity
   8
0
 100
AcDbBlockEnd
   0
BLOCK
   5
12E
 100
AcDbEntity
   8
0
 100
AcDbBlockBegin
   2
*D24
  70
65
  10
0.0
  20
0.0
  30
0.0
   3
*D24
   0
LINE
   5
12F
 100
AcDbEntity
   8
LEVEL001
 370
15
 100
AcDbLine
   6
CONTINUOUS
  62
8
  10
 90.999999999900
  20
 189.20000000000
  30
0.0
  11
 90.999999999900
  21
 198.50000000000
  31
0.0
   0
LINE
   5
130
 100
AcDbEntity
   8
LEVEL001
 370
15
 100
AcDbLine
   6
CONTINUOUS
  62
8
  10
 130.99999999990
  20
 189.20000000000
  30
0.0
  11
 130.99999999990
  21
 198.50000000000
  31
0.0
   0
LINE
   5
131
 100
AcDbEntity
   8
LEVEL001
 370
15
 100
AcDbLine
   6
CONTINUOUS
  62
8
  10
 90.999999999900
  20
 196.50000000000
  30
0.0
  11
 110.99999999990
  21
 196.50000000000
  31
0.0
   0
LINE
   5
132
 100
AcDbEntity
   8
LEVEL001
 370
15
 100
AcDbLine
   6
CONTINUOUS
  62
8
  10
 130.99999999990
  20
 196.50000000000
  30
0.0
  11
 110.99999999990
  21
 196.50000000000
  31
0.0
   0
INSERT
   5
133
 100
AcDbEntity
   8
LEVEL001
   6
CONTINUOUS
  62
8
 100
AcDbBlockReference
   2
_DOT
  10
 90.999999999900
  20
 196.50000000000
  30
0.0
  41
 0.80000000000000
  42
 0.80000000000000
  43
 0.80000000000000
  50
 180.00000000000
   0
INSERT
   5
134
 100
AcDbEntity
   8
LEVEL001
   6
CONTINUOUS
  62
8
 100
AcDbBlockReference
   2
_DOT
  10
 130.99999999990
  20
 196.50000000000
  30
0.0
  41
 0.80000000000000
  42
 0.80000000000000
  43
 0.80000000000000
  50
0.0
   0
MTEXT
   5
135
 100
AcDbEntity
   8
LEVEL001
 370
15
  62
8
 100
AcDbMText
  10
 110.99999999990
  20
 198.50000000000
  30
0.0
  40
 6.0000000000000
  41
0.0
  71
8
  72
1
   1
\A1;40
   7
GMM002
   0
ENDBLK
   5
136
 100
AcDbEntity
   8
0
 100
AcDbBlockEnd
   0
BLOCK
   5
137
 100
AcDbEntity
   8
0
 100
AcDbBlockBegin
   2
*D25
  70
65
  10
0.0
  20
0.0
  30
0.0
   3
*D25
   0
LINE
   5
138
 100
AcDbEntity
   8
LEVEL001
 370
15
 100
AcDbLine
   6
CONTINUOUS
  62
8
  10
 132.99999999990
  20
 183.50000000000
  30
0.0
  11
 144.99999999990
  21
 183.50000000000
  31
0.0
   0
LINE
   5
139
 100
AcDbEntity
   8
LEVEL001
 370
15
 100
AcDbLine
   6
CONTINUOUS
  62
8
  10
 132.99999999990
  20
 186.50000000000
  30
0.0
  11
 144.99999999990
  21
 186.50000000000
  31
0.0
   0
LINE
   5
13A
 100
AcDbEntity
   8
LEVEL001
 370
15
 100
AcDbLine
   6
CONTINUOUS
  62
8
  10
 142.99999999990
  20
 183.50000000000
  30
0.0
  11
 142.99999999990
  21
 185.00000000000
  31
0.0
   0
LINE
   5
13B
 100
AcDbEntity
   8
LEVEL001
 370
15
 100
AcDbLine
   6
CONTINUOUS
  62
8
  10
 142.99999999990
  20
 192.95218673698
  30
0.0
  11
 142.99999999990
  21
 185.00000000000
  31
0.0
   0
INSERT
   5
13C
 100
AcDbEntity
   8
LEVEL001
   6
CONTINUOUS
  62
8
 100
AcDbBlockReference
   2
_DOT
  10
 142.99999999990
  20
 183.50000000000
  30
0.0
  41
 0.80000000000000
  42
 0.80000000000000
  43
 0.80000000000000
  50
 270.00000000000
   0
INSERT
   5
13D
 100
AcDbEntity
   8
LEVEL001
   6
CONTINUOUS
  62
8
 100
AcDbBlockReference
   2
_DOT
  10
 142.99999999990
  20
 186.50000000000
  30
0.0
  41
 0.80000000000000
  42
 0.80000000000000
  43
 0.80000000000000
  50
 90.000000000000
   0
MTEXT
   5
13E
 100
AcDbEntity
   8
LEVEL001
 370
15
  62
8
 100
AcDbMText
  10
 141.20092105906
  20
 186.95218673698
  30
0.0
  40
 6.0000000000000
  41
0.0
  71
7
  72
1
   1
\A1;3
   7
GMM002
  11
0.0
  21
 1.0000000000000
  31
0.0
   0
ENDBLK
   5
13F
 100
AcDbEntity
   8
0
 100
AcDbBlockEnd
   0
BLOCK
   5
140
 100
AcDbEntity
   8
0
 100
AcDbBlockBegin
   2
*D26
  70
65
  10
0.0
  20
0.0
  30
0.0
   3
*D26
   0
LINE
   5
141
 100
AcDbEntity
   8
LEVEL001
 370
15
 100
AcDbLine
   6
CONTINUOUS
  62
8
  10
 88.999999999900
  20
 166.50000000000
  30
0.0
  11
 78.999999999900
  21
 166.50000000000
  31
0.0
   0
LINE
   5
142
 100
AcDbEntity
   8
LEVEL001
 370
15
 100
AcDbLine
   6
CONTINUOUS
  62
8
  10
 88.999999999900
  20
 186.50000000000
  30
0.0
  11
 78.999999999900
  21
 186.50000000000
  31
0.0
   0
LINE
   5
143
 100
AcDbEntity
   8
LEVEL001
 370
15
 100
AcDbLine
   6
CONTINUOUS
  62
8
  10
 80.999999999900
  20
 166.50000000000
  30
0.0
  11
 80.999999999900
  21
 176.50000000000
  31
0.0
   0
LINE
   5
144
 100
AcDbEntity
   8
LEVEL001
 370
15
 100
AcDbLine
   6
CONTINUOUS
  62
8
  10
 80.999999999900
  20
 186.50000000000
  30
0.0
  11
 80.999999999900
  21
 176.50000000000
  31
0.0
   0
INSERT
   5
145
 100
AcDbEntity
   8
LEVEL001
   6
CONTINUOUS
  62
8
 100
AcDbBlockReference
   2
_DOT
  10
 80.999999999900
  20
 166.50000000000
  30
0.0
  41
 0.80000000000000
  42
 0.80000000000000
  43
 0.80000000000000
  50
 270.00000000000
   0
INSERT
   5
146
 100
AcDbEntity
   8
LEVEL001
   6
CONTINUOUS
  62
8
 100
AcDbBlockReference
   2
_DOT
  10
 80.999999999900
  20
 186.50000000000
  30
0.0
  41
 0.80000000000000
  42
 0.80000000000000
  43
 0.80000000000000
  50
 90.000000000000
   0
MTEXT
   5
147
 100
AcDbEntity
   8
LEVEL001
 370
15
  62
8
 100
AcDbMText
  10
 78.999999999900
  20
 176.50000000000
  30
0.0
  40
 6.0000000000000
  41
0.0
  71
8
  72
1
   1
\A1;20
   7
GMM002
  11
0.0
  21
 1.0000000000000
  31
0.0
   0
ENDBLK
   5
148
 100
AcDbEntity
   8
0
 100
AcDbBlockEnd
   0
ENDSEC
   0
SECTION
   2
ENTITIES
   0
LINE
   5
149
 100
AcDbEntity
   8
LEVEL001
 370
30
 100
AcDbLine
   6
DOT
  62
7
  10
 840.00000000000
  20
 594.00000000000
  30
0.0
  11
0.0
  21
 594.00000000000
  31
0.0
   0
LINE
   5
14A
 100
AcDbEntity
   8
LEVEL002
 370
50
 100
AcDbLine
   6
CONTINUOUS
  62
4
  10
 808.99999999990
  20
 570.00000000000
  30
0.0
  11
 30.999999999900
  21
 570.00000000000
  31
0.0
   0
LINE
   5
14B
 100
AcDbEntity
   8
LEVEL002
 370
50
 100
AcDbLine
   6
CONTINUOUS
  62
4
  10
 30.999999999900
  20
 570.00000000000
  30
0.0
  11
 30.999999999900
  21
 24.000000000000
  31
0.0
   0
LINE
   5
14C
 100
AcDbEntity
   8
LEVEL002
 370
50
 100
AcDbLine
   6
CONTINUOUS
  62
4
  10
 608.99999999990
  20
 570.00000000000
  30
0.0
  11
 608.99999999990
  21
 24.000000000000
  31
0.0
   0
LINE
   5
14D
 100
AcDbEntity
   8
LEVEL002
 370
50
 100
AcDbLine
   6
CONTINUOUS
  62
4
  10
 808.99999999990
  20
 24.000000000000
  30
0.0
  11
 808.99999999990
  21
 570.00000000000
  31
0.0
   0
LINE
   5
14E
 100
AcDbEntity
   8
LEVEL002
 370
50
 100
AcDbLine
   6
CONTINUOUS
  62
4
  10
 30.999999999900
  20
 24.000000000000
  30
0.0
  11
 808.99999999990
  21
 24.000000000000
  31
0.0
   0
LINE
   5
14F
 100
AcDbEntity
   8
LEVEL002
 370
40
 100
AcDbLine
   6
CONTINUOUS
  62
3
  10
 708.99999999990
  20
 90.666666666700
  30
0.0
  11
 808.99999999990
  21
 90.666666666700
  31
0.0
   0
LINE
   5
150
 100
AcDbEntity
   8
LEVEL002
 370
40
 100
AcDbLine
   6
CONTINUOUS
  62
3
  10
 708.99999999990
  20
 77.333333333400
  30
0.0
  11
 808.99999999990
  21
 77.333333333400
  31
0.0
   0
LINE
   5
151
 100
AcDbEntity
   8
LEVEL002
 370
40
 100
AcDbLine
   6
CONTINUOUS
  62
3
  10
 30.999999999900
  20
 160.50000000000
  30
0.0
  11
 608.99999999990
  21
 160.50000000000
  31
0.0
   0
LINE
   5
152
 100
AcDbEntity
   8
LEVEL002
 370
40
 100
AcDbLine
   6
CONTINUOUS
  62
3
  10
 30.999999999900
  20
 140.50000000000
  30
0.0
  11
 608.99999999990
  21
 140.50000000000
  31
0.0
   0
LINE
   5
153
 100
AcDbEntity
   8
LEVEL002
 370
40
 100
AcDbLine
   6
CONTINUOUS
  62
3
  10
 175.49999999990
  20
 570.00000000000
  30
0.0
  11
 175.49999999990
  21
 24.000000000000
  31
0.0
   0
LINE
   5
154
 100
AcDbEntity
   8
LEVEL002
 370
40
 100
AcDbLine
   6
CONTINUOUS
  62
3
  10
 319.99999999990
  20
 570.00000000000
  30
0.0
  11
 319.99999999990
  21
 24.000000000000
  31
0.0
   0
LINE
   5
155
 100
AcDbEntity
   8
LEVEL002
 370
40
 100
AcDbLine
   6
CONTINUOUS
  62
3
  10
 464.49999999990
  20
 570.00000000000
  30
0.0
  11
 464.49999999990
  21
 24.000000000000
  31
0.0
   0
LINE
   5
156
 100
AcDbEntity
   8
LEVEL002
 370
40
 100
AcDbLine
   6
CONTINUOUS
  62
3
  10
 30.999999999900
  20
 297.00000000000
  30
0.0
  11
 608.99999999990
  21
 297.00000000000
  31
0.0
   0
LINE
   5
157
 100
AcDbEntity
   8
LEVEL002
 370
40
 100
AcDbLine
   6
CONTINUOUS
  62
3
  10
 30.999999999900
  20
 277.00000000000
  30
0.0
  11
 608.99999999990
  21
 277.00000000000
  31
0.0
   0
LINE
   5
158
 100
AcDbEntity
   8
LEVEL002
 370
40
 100
AcDbLine
   6
CONTINUOUS
  62
3
  10
 30.999999999900
  20
 433.50000000000
  30
0.0
  11
 608.99999999990
  21
 433.50000000000
  31
0.0
   0
LINE
   5
159
 100
AcDbEntity
   8
LEVEL002
 370
40
 100
AcDbLine
   6
CONTINUOUS
  62
3
  10
 30.999999999900
  20
 413.50000000000
  30
0.0
  11
 608.99999999990
  21
 413.50000000000
  31
0.0
   0
LINE
   5
15A
 100
AcDbEntity
   8
LEVEL002
 370
40
 100
AcDbLine
   6
CONTINUOUS
  62
3
  10
 608.99999999990
  20
 144.00000000000
  30
0.0
  11
 808.99999999990
  21
 144.00000000000
  31
0.0
   0
LINE
   5
15B
 100
AcDbEntity
   8
LEVEL002
 370
40
 100
AcDbLine
   6
CONTINUOUS
  62
3
  10
 608.99999999990
  20
 64.000000000000
  30
0.0
  11
 808.99999999990
  21
 64.000000000000
  31
0.0
   0
LINE
   5
15C
 100
AcDbEntity
   8
LEVEL002
 370
40
 100
AcDbLine
   6
CONTINUOUS
  62
3
  10
 608.99999999990
  20
 104.00000000000
  30
0.0
  11
 808.99999999990
  21
 104.00000000000
  31
0.0
   0
LINE
   5
15D
 100
AcDbEntity
   8
LEVEL002
 370
40
 100
AcDbLine
   6
CONTINUOUS
  62
3
  10
 708.99999999990
  20
 104.00000000000
  30
0.0
  11
 708.99999999990
  21
 24.000000000000
  31
0.0
   0
LINE
   5
15E
 100
AcDbEntity
   8
LEVEL002
 370
40
 100
AcDbLine
   6
CONTINUOUS
  62
3
  10
 608.99999999990
  20
 473.50000000000
  30
0.0
  11
 808.99999999990
  21
 473.50000000000
  31
0.0
   0
LINE
   5
15F
 100
AcDbEntity
   8
LEVEL002
 370
40
 100
AcDbLine
   6
CONTINUOUS
  62
3
  10
 608.99999999990
  20
 433.50000000000
  30
0.0
  11
 808.99999999990
  21
 433.50000000000
  31
0.0
   0
LINE
   5
160
 100
AcDbEntity
   8
LEVEL002
 370
40
 100
AcDbLine
   6
CONTINUOUS
  62
3
  10
 608.99999999990
  20
 513.50000000000
  30
0.0
  11
 808.99999999990
  21
 513.50000000000
  31
0.0
   0
LINE
   5
161
 100
AcDbEntity
   8
LEVEL002
 370
40
 100
AcDbLine
   6
CONTINUOUS
  62
3
  10
 30.999999999900
  20
 550.00000000000
  30
0.0
  11
 608.99999999990
  21
 550.00000000000
  31
0.0
   0
LINE
   5
162
 100
AcDbEntity
   8
LEVEL001
 370
30
 100
AcDbLine
   6
DOT
  62
7
  10
0.0
  20
 594.00000000000
  30
0.0
  11
0.0
  21
0.0
  31
0.0
   0
LINE
   5
163
 100
AcDbEntity
   8
LEVEL001
 370
30
 100
AcDbLine
   6
DOT
  62
7
  10
 840.00000000000
  20
0.0
  30
0.0
  11
 840.00000000000
  21
 594.00000000000
  31
0.0
   0
MTEXT
   5
165
 100
AcDbEntity
   8
LEVEL002
 370
30
  62
7
 100
AcDbMText
  10
 673.90000000000
  20
 547.75000000000
  30
0.0
  40
 7.5000000000000
  41
0.0
  71
7
  72
1
   1
\T1.000000;ケージーパルテック株式会社
   7
GMM001
  44
 0.79999984000003
   0
MTEXT
   5
167
 100
AcDbEntity
   8
LEVEL002
 370
15
  62
8
 100
AcDbMText
  10
 621.59999999990
  20
 56.500000000020
  30
0.0
  40
 6.0000000000000
  41
0.0
  71
5
  72
1
   1
\T1.000000;サイズ：
   7
GMM002
  44
 0.79999984000003
   0
MTEXT
   5
169
 100
AcDbEntity
   8
LEVEL002
 370
15
  62
8
 100
AcDbMText
  10
 618.59999999990
  20
 96.500000000020
  30
0.0
  40
 6.0000000000000
  41
0.0
  71
5
  72
1
   1
\T1.000000;縮尺：
   7
GMM002
  44
 0.79999984000003
   0
MTEXT
   5
16B
 100
AcDbEntity
   8
LEVEL002
 370
15
  62
8
 100
AcDbMText
  10
 624.59999999990
  20
 136.50000000002
  30
0.0
  40
 6.0000000000000
  41
0.0
  71
5
  72
1
   1
\T1.000000;図面名称：
   7
GMM002
  44
 0.79999984000003
   0
MTEXT
   5
16D
 100
AcDbEntity
   8
LEVEL002
 370
15
  62
8
 100
AcDbMText
  10
 727.59999999990
  20
 56.500000000020
  30
0.0
  40
 6.0000000000000
  41
0.0
  71
5
  72
1
   1
\T1.000000;ファイル名：
   7
GMM002
  44
 0.79999984000003
   0
MTEXT
   5
16F
 100
AcDbEntity
   8
LEVEL002
 370
15
  62
8
 100
AcDbMText
  10
 724.59999999990
  20
 97.333333333360
  30
0.0
  40
 5.6000000000000
  41
0.0
  71
5
  72
1
   1
\T1.000000;作成日付：
   7
GMM003
  44
 0.79999984000003
   0
MTEXT
   5
171
 100
AcDbEntity
   8
LEVEL002
 370
15
  62
8
 100
AcDbMText
  10
 724.59999999990
  20
 84.000000000020
  30
0.0
  40
 5.6000000000000
  41
0.0
  71
5
  72
1
   1
\T1.000000;変更日付：
   7
GMM003
  44
 0.79999984000003
   0
MTEXT
   5
173
 100
AcDbEntity
   8
LEVEL002
 370
15
  62
8
 100
AcDbMText
  10
 708.99999999990
  20
 116.50000000002
  30
0.0
  40
 7.5000000000000
  41
0.0
  71
5
  72
1
   1
\W1.000000;\T1.000000;平面図\W0.500000;\T1.000000;･\W1.000000;\T1.000000;断面図
   7
GMM002
  44
 0.79999984000003
   0
MTEXT
   5
175
 100
AcDbEntity
   8
LEVEL002
 370
15
  62
8
 100
AcDbMText
  10
 658.99999999990
  20
 76.500000000020
  30
0.0
  40
 7.5000000000000
  41
0.0
  71
5
  72
1
   1
\T1.000000;Ｓ＝１：２
   7
GMM002
  44
 0.79999984000003
   0
MTEXT
   5
177
 100
AcDbEntity
   8
LEVEL002
 370
15
  62
8
 100
AcDbMText
  10
 658.99999999990
  20
 36.500000000020
  30
0.0
  40
 7.5000000000000
  41
0.0
  71
5
  72
1
   1
\T1.000000;Ａ３
   7
GMM002
  44
 0.79999984000003
   0
MTEXT
   5
179
 100
AcDbEntity
   8
LEVEL002
 370
15
  62
8
 100
AcDbMText
  10
 618.59999999990
  20
 426.00000000000
  30
0.0
  40
 6.0000000000000
  41
0.0
  71
5
  72
1
   1
\T1.000000;仕様：
   7
GMM002
  44
 0.79999984000003
   0
MTEXT
   5
17B
 100
AcDbEntity
   8
LEVEL002
 370
15
  62
8
 100
AcDbMText
  10
 618.59999999990
  20
 466.00000000000
  30
0.0
  40
 6.0000000000000
  41
0.0
  71
5
  72
1
   1
\T1.000000;形式：
   7
GMM002
  44
 0.79999984000003
   0
MTEXT
   5
17D
 100
AcDbEntity
   8
LEVEL002
 370
15
  62
8
 100
AcDbMText
  10
 621.59999999990
  20
 506.00000000000
  30
0.0
  40
 6.0000000000000
  41
0.0
  71
5
  72
1
   1
\T1.000000;商品名：
   7
GMM002
  44
 0.79999984000003
   0
LINE
   5
17E
 100
AcDbEntity
   8
LEVEL002
 370
30
 100
AcDbLine
   6
CONTINUOUS
  62
7
  10
 688.30000000000
  20
 544.15000000000
  30
0.0
  11
 673.90000000000
  21
 544.15000000000
  31
0.0
   0
LINE
   5
17F
 100
AcDbEntity
   8
LEVEL002
 370
30
 100
AcDbLine
   6
CONTINUOUS
  62
7
  10
 673.90000000000
  20
 544.15000000000
  30
0.0
  11
 673.90000000000
  21
 522.55000000000
  31
0.0
   0
LINE
   5
180
 100
AcDbEntity
   8
LEVEL002
 370
30
 100
AcDbLine
   6
CONTINUOUS
  62
7
  10
 673.90000000000
  20
 522.55000000000
  30
0.0
  11
 681.10000000000
  21
 522.55000000000
  31
0.0
   0
LINE
   5
181
 100
AcDbEntity
   8
LEVEL002
 370
30
 100
AcDbLine
   6
CONTINUOUS
  62
7
  10
 681.10000000000
  20
 522.55000000000
  30
0.0
  11
 681.10000000000
  21
 526.15000000000
  31
0.0
   0
LINE
   5
182
 100
AcDbEntity
   8
LEVEL002
 370
30
 100
AcDbLine
   6
CONTINUOUS
  62
7
  10
 681.10000000000
  20
 526.15000000000
  30
0.0
  11
 688.30000000000
  21
 526.15000000000
  31
0.0
   0
ARC
   5
183
 100
AcDbEntity
   8
LEVEL002
 370
30
   6
CONTINUOUS
  62
7
 100
AcDbCircle
  10
 688.30000000000
  20
 535.15000000000
  30
0.0
  40
 9.0000000000000
 100
AcDbArc
  50
 270.00000000000
  51
 90.000000000000
   0
LINE
   5
184
 100
AcDbEntity
   8
LEVEL002
 370
30
 100
AcDbLine
   6
CONTINUOUS
  62
7
  10
 681.10000000000
  20
 533.35000000000
  30
0.0
  11
 688.30000000000
  21
 533.35000000000
  31
0.0
   0
ARC
   5
185
 100
AcDbEntity
   8
LEVEL002
 370
30
   6
CONTINUOUS
  62
7
 100
AcDbCircle
  10
 688.30000000000
  20
 535.15000000000
  30
0.0
  40
 1.8000000000000
 100
AcDbArc
  50
 270.00000000000
  51
 90.000000000000
   0
LINE
   5
186
 100
AcDbEntity
   8
LEVEL002
 370
30
 100
AcDbLine
   6
CONTINUOUS
  62
7
  10
 688.30000000000
  20
 536.95000000000
  30
0.0
  11
 681.10000000000
  21
 536.95000000000
  31
0.0
   0
LINE
   5
187
 100
AcDbEntity
   8
LEVEL002
 370
30
 100
AcDbLine
   6
CONTINUOUS
  62
7
  10
 681.10000000000
  20
 536.95000000000
  30
0.0
  11
 681.10000000000
  21
 533.35000000000
  31
0.0
   0
LINE
   5
188
 100
AcDbEntity
   8
LEVEL002
 370
30
 100
AcDbLine
   6
CONTINUOUS
  62
7
  10
 691.90000000000
  20
 522.55000000000
  30
0.0
  11
 706.30000000000
  21
 544.15000000000
  31
0.0
   0
LINE
   5
189
 100
AcDbEntity
   8
LEVEL002
 370
30
 100
AcDbLine
   6
CONTINUOUS
  62
7
  10
 706.30000000000
  20
 544.15000000000
  30
0.0
  11
 724.30000000000
  21
 544.15000000000
  31
0.0
   0
LINE
   5
18A
 100
AcDbEntity
   8
LEVEL002
 370
30
 100
AcDbLine
   6
CONTINUOUS
  62
7
  10
 724.30000000000
  20
 544.15000000000
  30
0.0
  11
 724.30000000000
  21
 529.75000000000
  31
0.0
   0
LINE
   5
18B
 100
AcDbEntity
   8
LEVEL002
 370
30
 100
AcDbLine
   6
CONTINUOUS
  62
7
  10
 724.30000000000
  20
 529.75000000000
  30
0.0
  11
 735.10000000000
  21
 529.75000000000
  31
0.0
   0
LINE
   5
18C
 100
AcDbEntity
   8
LEVEL002
 370
30
 100
AcDbLine
   6
CONTINUOUS
  62
7
  10
 735.10000000000
  20
 529.75000000000
  30
0.0
  11
 735.10000000000
  21
 536.95000000000
  31
0.0
   0
LINE
   5
18D
 100
AcDbEntity
   8
LEVEL002
 370
30
 100
AcDbLine
   6
CONTINUOUS
  62
7
  10
 735.10000000000
  20
 536.95000000000
  30
0.0
  11
 727.90000000000
  21
 536.95000000000
  31
0.0
   0
LINE
   5
18E
 100
AcDbEntity
   8
LEVEL002
 370
30
 100
AcDbLine
   6
CONTINUOUS
  62
7
  10
 727.90000000000
  20
 536.95000000000
  30
0.0
  11
 727.90000000000
  21
 544.15000000000
  31
0.0
   0
LINE
   5
18F
 100
AcDbEntity
   8
LEVEL002
 370
30
 100
AcDbLine
   6
CONTINUOUS
  62
7
  10
 727.90000000000
  20
 544.15000000000
  30
0.0
  11
 771.10000000000
  21
 544.15000000000
  31
0.0
   0
LINE
   5
190
 100
AcDbEntity
   8
LEVEL002
 370
30
 100
AcDbLine
   6
CONTINUOUS
  62
7
  10
 771.10000000000
  20
 544.15000000000
  30
0.0
  11
 771.10000000000
  21
 536.95000000000
  31
0.0
   0
LINE
   5
191
 100
AcDbEntity
   8
LEVEL002
 370
30
 100
AcDbLine
   6
CONTINUOUS
  62
7
  10
 771.10000000000
  20
 536.95000000000
  30
0.0
  11
 756.70000000000
  21
 536.95000000000
  31
0.0
   0
LINE
   5
192
 100
AcDbEntity
   8
LEVEL002
 370
30
 100
AcDbLine
   6
CONTINUOUS
  62
7
  10
 756.70000000000
  20
 536.95000000000
  30
0.0
  11
 756.70000000000
  21
 535.15000000000
  31
0.0
   0
LINE
   5
193
 100
AcDbEntity
   8
LEVEL002
 370
30
 100
AcDbLine
   6
CONTINUOUS
  62
7
  10
 756.70000000000
  20
 535.15000000000
  30
0.0
  11
 769.30000000000
  21
 535.15000000000
  31
0.0
   0
LINE
   5
194
 100
AcDbEntity
   8
LEVEL002
 370
30
 100
AcDbLine
   6
CONTINUOUS
  62
7
  10
 769.30000000000
  20
 535.15000000000
  30
0.0
  11
 769.30000000000
  21
 531.55000000000
  31
0.0
   0
LINE
   5
195
 100
AcDbEntity
   8
LEVEL002
 370
30
 100
AcDbLine
   6
CONTINUOUS
  62
7
  10
 769.30000000000
  20
 531.55000000000
  30
0.0
  11
 756.70000000000
  21
 531.55000000000
  31
0.0
   0
LINE
   5
196
 100
AcDbEntity
   8
LEVEL002
 370
30
 100
AcDbLine
   6
CONTINUOUS
  62
7
  10
 756.70000000000
  20
 531.55000000000
  30
0.0
  11
 756.70000000000
  21
 529.75000000000
  31
0.0
   0
LINE
   5
197
 100
AcDbEntity
   8
LEVEL002
 370
30
 100
AcDbLine
   6
CONTINUOUS
  62
7
  10
 756.70000000000
  20
 529.75000000000
  30
0.0
  11
 771.10000000000
  21
 529.75000000000
  31
0.0
   0
LINE
   5
198
 100
AcDbEntity
   8
LEVEL002
 370
30
 100
AcDbLine
   6
CONTINUOUS
  62
7
  10
 771.10000000000
  20
 529.75000000000
  30
0.0
  11
 771.10000000000
  21
 522.55000000000
  31
0.0
   0
LINE
   5
199
 100
AcDbEntity
   8
LEVEL002
 370
30
 100
AcDbLine
   6
CONTINUOUS
  62
7
  10
 771.10000000000
  20
 522.55000000000
  30
0.0
  11
 749.50000000000
  21
 522.55000000000
  31
0.0
   0
LINE
   5
19A
 100
AcDbEntity
   8
LEVEL002
 370
30
 100
AcDbLine
   6
CONTINUOUS
  62
7
  10
 749.50000000000
  20
 522.55000000000
  30
0.0
  11
 749.50000000000
  21
 536.95000000000
  31
0.0
   0
LINE
   5
19B
 100
AcDbEntity
   8
LEVEL002
 370
30
 100
AcDbLine
   6
CONTINUOUS
  62
7
  10
 749.50000000000
  20
 536.95000000000
  30
0.0
  11
 742.30000000000
  21
 536.95000000000
  31
0.0
   0
LINE
   5
19C
 100
AcDbEntity
   8
LEVEL002
 370
30
 100
AcDbLine
   6
CONTINUOUS
  62
7
  10
 742.30000000000
  20
 536.95000000000
  30
0.0
  11
 742.30000000000
  21
 522.55000000000
  31
0.0
   0
LINE
   5
19D
 100
AcDbEntity
   8
LEVEL002
 370
30
 100
AcDbLine
   6
CONTINUOUS
  62
7
  10
 742.30000000000
  20
 522.55000000000
  30
0.0
  11
 717.10000000000
  21
 522.55000000000
  31
0.0
   0
LINE
   5
19E
 100
AcDbEntity
   8
LEVEL002
 370
30
 100
AcDbLine
   6
CONTINUOUS
  62
7
  10
 717.10000000000
  20
 522.55000000000
  30
0.0
  11
 717.10000000000
  21
 544.15000000000
  31
0.0
   0
LINE
   5
19F
 100
AcDbEntity
   8
LEVEL002
 370
30
 100
AcDbLine
   6
CONTINUOUS
  62
7
  10
 717.10000000000
  20
 544.15000000000
  30
0.0
  11
 702.70000000000
  21
 522.55000000000
  31
0.0
   0
LINE
   5
1A0
 100
AcDbEntity
   8
LEVEL002
 370
30
 100
AcDbLine
   6
CONTINUOUS
  62
7
  10
 702.70000000000
  20
 522.55000000000
  30
0.0
  11
 691.90000000000
  21
 522.55000000000
  31
0.0
   0
LINE
   5
1A1
 100
AcDbEntity
   8
LEVEL002
 370
30
 100
AcDbLine
   6
CONTINUOUS
  62
7
  10
 714.70000000000
  20
 536.22333846940
  30
0.0
  11
 705.58444102040
  21
 522.55000000000
  31
0.0
   0
LINE
   5
1A2
 100
AcDbEntity
   8
LEVEL002
 370
30
 100
AcDbLine
   6
CONTINUOUS
  62
7
  10
 705.58444102040
  20
 522.55000000000
  30
0.0
  11
 714.70000000000
  21
 522.55000000000
  31
0.0
   0
LINE
   5
1A3
 100
AcDbEntity
   8
LEVEL002
 370
30
 100
AcDbLine
   6
CONTINUOUS
  62
7
  10
 714.70000000000
  20
 522.55000000000
  30
0.0
  11
 714.70000000000
  21
 536.22333846940
  31
0.0
   0
ARC
   5
1A4
 100
AcDbEntity
   8
LEVEL002
 370
30
   6
CONTINUOUS
  62
7
 100
AcDbCircle
  10
 781.90000000000
  20
 533.35000000000
  30
0.0
  40
 10.800000000000
 100
AcDbArc
  50
 90.000000000000
  51
 270.00000000000
   0
ARC
   5
1A5
 100
AcDbEntity
   8
LEVEL002
 370
30
   6
CONTINUOUS
  62
7
 100
AcDbCircle
  10
 781.90000000000
  20
 533.35000000000
  30
0.0
  40
 3.6000000000000
 100
AcDbArc
  50
 90.000000000000
  51
 270.00000000000
   0
LINE
   5
1A6
 100
AcDbEntity
   8
LEVEL002
 370
30
 100
AcDbLine
   6
CONTINUOUS
  62
7
  10
 781.90000000000
  20
 544.15000000000
  30
0.0
  11
 792.70000000000
  21
 544.15000000000
  31
0.0
   0
LINE
   5
1A7
 100
AcDbEntity
   8
LEVEL002
 370
30
 100
AcDbLine
   6
CONTINUOUS
  62
7
  10
 792.70000000000
  20
 544.15000000000
  30
0.0
  11
 792.70000000000
  21
 536.95000000000
  31
0.0
   0
LINE
   5
1A8
 100
AcDbEntity
   8
LEVEL002
 370
30
 100
AcDbLine
   6
CONTINUOUS
  62
7
  10
 792.70000000000
  20
 536.95000000000
  30
0.0
  11
 781.90000000000
  21
 536.95000000000
  31
0.0
   0
LINE
   5
1A9
 100
AcDbEntity
   8
LEVEL002
 370
30
 100
AcDbLine
   6
CONTINUOUS
  62
7
  10
 673.90000000000
  20
 544.15000000000
  30
0.0
  11
 673.90000000000
  21
 522.55000000000
  31
0.0
   0
LINE
   5
1AA
 100
AcDbEntity
   8
LEVEL002
 370
30
 100
AcDbLine
   6
CONTINUOUS
  62
7
  10
 673.90000000000
  20
 522.55000000000
  30
0.0
  11
 681.10000000000
  21
 522.55000000000
  31
0.0
   0
LINE
   5
1AB
 100
AcDbEntity
   8
LEVEL002
 370
30
 100
AcDbLine
   6
CONTINUOUS
  62
7
  10
 681.10000000000
  20
 522.55000000000
  30
0.0
  11
 681.10000000000
  21
 526.15000000000
  31
0.0
   0
LINE
   5
1AC
 100
AcDbEntity
   8
LEVEL002
 370
30
 100
AcDbLine
   6
CONTINUOUS
  62
7
  10
 681.10000000000
  20
 526.15000000000
  30
0.0
  11
 688.30000000000
  21
 526.15000000000
  31
0.0
   0
ARC
   5
1AD
 100
AcDbEntity
   8
LEVEL002
 370
30
   6
CONTINUOUS
  62
7
 100
AcDbCircle
  10
 688.30000000000
  20
 535.15000000000
  30
0.0
  40
 9.0000000000000
 100
AcDbArc
  50
 270.00000000000
  51
 90.000000000000
   0
LINE
   5
1AE
 100
AcDbEntity
   8
LEVEL002
 370
30
 100
AcDbLine
   6
CONTINUOUS
  62
7
  10
 688.30000000000
  20
 544.15000000000
  30
0.0
  11
 673.90000000000
  21
 544.15000000000
  31
0.0
   0
LINE
   5
1AF
 100
AcDbEntity
   8
LEVEL002
 370
30
 100
AcDbLine
   6
CONTINUOUS
  62
7
  10
 681.10000000000
  20
 536.95000000000
  30
0.0
  11
 681.10000000000
  21
 533.35000000000
  31
0.0
   0
LINE
   5
1B0
 100
AcDbEntity
   8
LEVEL002
 370
30
 100
AcDbLine
   6
CONTINUOUS
  62
7
  10
 681.10000000000
  20
 533.35000000000
  30
0.0
  11
 688.30000000000
  21
 533.35000000000
  31
0.0
   0
ARC
   5
1B1
 100
AcDbEntity
   8
LEVEL002
 370
30
   6
CONTINUOUS
  62
7
 100
AcDbCircle
  10
 688.30000000000
  20
 535.15000000000
  30
0.0
  40
 1.8000000000000
 100
AcDbArc
  50
 270.00000000000
  51
 90.000000000000
   0
LINE
   5
1B2
 100
AcDbEntity
   8
LEVEL002
 370
30
 100
AcDbLine
   6
CONTINUOUS
  62
7
  10
 688.30000000000
  20
 536.95000000000
  30
0.0
  11
 681.10000000000
  21
 536.95000000000
  31
0.0
   0
LINE
   5
1B3
 100
AcDbEntity
   8
LEVEL002
 370
30
 100
AcDbLine
   6
CONTINUOUS
  62
7
  10
 706.30000000000
  20
 544.15000000000
  30
0.0
  11
 691.90000000000
  21
 522.55000000000
  31
0.0
   0
LINE
   5
1B4
 100
AcDbEntity
   8
LEVEL002
 370
30
 100
AcDbLine
   6
CONTINUOUS
  62
7
  10
 691.90000000000
  20
 522.55000000000
  30
0.0
  11
 702.70000000000
  21
 522.55000000000
  31
0.0
   0
LINE
   5
1B5
 100
AcDbEntity
   8
LEVEL002
 370
30
 100
AcDbLine
   6
CONTINUOUS
  62
7
  10
 702.70000000000
  20
 522.55000000000
  30
0.0
  11
 717.10000000000
  21
 544.15000000000
  31
0.0
   0
LINE
   5
1B6
 100
AcDbEntity
   8
LEVEL002
 370
30
 100
AcDbLine
   6
CONTINUOUS
  62
7
  10
 717.10000000000
  20
 544.15000000000
  30
0.0
  11
 706.30000000000
  21
 544.15000000000
  31
0.0
   0
LINE
   5
1B7
 100
AcDbEntity
   8
LEVEL002
 370
30
 100
AcDbLine
   6
CONTINUOUS
  62
7
  10
 714.70000000000
  20
 522.55000000000
  30
0.0
  11
 714.70000000000
  21
 536.22333846940
  31
0.0
   0
LINE
   5
1B8
 100
AcDbEntity
   8
LEVEL002
 370
30
 100
AcDbLine
   6
CONTINUOUS
  62
7
  10
 714.70000000000
  20
 536.22333846940
  30
0.0
  11
 705.58444102040
  21
 522.55000000000
  31
0.0
   0
LINE
   5
1B9
 100
AcDbEntity
   8
LEVEL002
 370
30
 100
AcDbLine
   6
CONTINUOUS
  62
7
  10
 705.58444102040
  20
 522.55000000000
  30
0.0
  11
 714.70000000000
  21
 522.55000000000
  31
0.0
   0
LINE
   5
1BA
 100
AcDbEntity
   8
LEVEL002
 370
30
 100
AcDbLine
   6
CONTINUOUS
  62
7
  10
 717.10000000000
  20
 522.55000000000
  30
0.0
  11
 742.30000000000
  21
 522.55000000000
  31
0.0
   0
LINE
   5
1BB
 100
AcDbEntity
   8
LEVEL002
 370
30
 100
AcDbLine
   6
CONTINUOUS
  62
7
  10
 742.30000000000
  20
 522.55000000000
  30
0.0
  11
 742.30000000000
  21
 536.95000000000
  31
0.0
   0
LINE
   5
1BC
 100
AcDbEntity
   8
LEVEL002
 370
30
 100
AcDbLine
   6
CONTINUOUS
  62
7
  10
 742.30000000000
  20
 536.95000000000
  30
0.0
  11
 749.50000000000
  21
 536.95000000000
  31
0.0
   0
LINE
   5
1BD
 100
AcDbEntity
   8
LEVEL002
 370
30
 100
AcDbLine
   6
CONTINUOUS
  62
7
  10
 749.50000000000
  20
 536.95000000000
  30
0.0
  11
 749.50000000000
  21
 522.55000000000
  31
0.0
   0
LINE
   5
1BE
 100
AcDbEntity
   8
LEVEL002
 370
30
 100
AcDbLine
   6
CONTINUOUS
  62
7
  10
 749.50000000000
  20
 522.55000000000
  30
0.0
  11
 771.10000000000
  21
 522.55000000000
  31
0.0
   0
LINE
   5
1BF
 100
AcDbEntity
   8
LEVEL002
 370
30
 100
AcDbLine
   6
CONTINUOUS
  62
7
  10
 771.10000000000
  20
 522.55000000000
  30
0.0
  11
 771.10000000000
  21
 529.75000000000
  31
0.0
   0
LINE
   5
1C0
 100
AcDbEntity
   8
LEVEL002
 370
30
 100
AcDbLine
   6
CONTINUOUS
  62
7
  10
 771.10000000000
  20
 529.75000000000
  30
0.0
  11
 756.70000000000
  21
 529.75000000000
  31
0.0
   0
LINE
   5
1C1
 100
AcDbEntity
   8
LEVEL002
 370
30
 100
AcDbLine
   6
CONTINUOUS
  62
7
  10
 756.70000000000
  20
 529.75000000000
  30
0.0
  11
 756.70000000000
  21
 531.55000000000
  31
0.0
   0
LINE
   5
1C2
 100
AcDbEntity
   8
LEVEL002
 370
30
 100
AcDbLine
   6
CONTINUOUS
  62
7
  10
 756.70000000000
  20
 531.55000000000
  30
0.0
  11
 769.30000000000
  21
 531.55000000000
  31
0.0
   0
LINE
   5
1C3
 100
AcDbEntity
   8
LEVEL002
 370
30
 100
AcDbLine
   6
CONTINUOUS
  62
7
  10
 769.30000000000
  20
 531.55000000000
  30
0.0
  11
 769.30000000000
  21
 535.15000000000
  31
0.0
   0
LINE
   5
1C4
 100
AcDbEntity
   8
LEVEL002
 370
30
 100
AcDbLine
   6
CONTINUOUS
  62
7
  10
 769.30000000000
  20
 535.15000000000
  30
0.0
  11
 756.70000000000
  21
 535.15000000000
  31
0.0
   0
LINE
   5
1C5
 100
AcDbEntity
   8
LEVEL002
 370
30
 100
AcDbLine
   6
CONTINUOUS
  62
7
  10
 756.70000000000
  20
 535.15000000000
  30
0.0
  11
 756.70000000000
  21
 536.95000000000
  31
0.0
   0
LINE
   5
1C6
 100
AcDbEntity
   8
LEVEL002
 370
30
 100
AcDbLine
   6
CONTINUOUS
  62
7
  10
 756.70000000000
  20
 536.95000000000
  30
0.0
  11
 771.10000000000
  21
 536.95000000000
  31
0.0
   0
LINE
   5
1C7
 100
AcDbEntity
   8
LEVEL002
 370
30
 100
AcDbLine
   6
CONTINUOUS
  62
7
  10
 771.10000000000
  20
 536.95000000000
  30
0.0
  11
 771.10000000000
  21
 544.15000000000
  31
0.0
   0
LINE
   5
1C8
 100
AcDbEntity
   8
LEVEL002
 370
30
 100
AcDbLine
   6
CONTINUOUS
  62
7
  10
 771.10000000000
  20
 544.15000000000
  30
0.0
  11
 727.90000000000
  21
 544.15000000000
  31
0.0
   0
LINE
   5
1C9
 100
AcDbEntity
   8
LEVEL002
 370
30
 100
AcDbLine
   6
CONTINUOUS
  62
7
  10
 727.90000000000
  20
 544.15000000000
  30
0.0
  11
 727.90000000000
  21
 536.95000000000
  31
0.0
   0
LINE
   5
1CA
 100
AcDbEntity
   8
LEVEL002
 370
30
 100
AcDbLine
   6
CONTINUOUS
  62
7
  10
 727.90000000000
  20
 536.95000000000
  30
0.0
  11
 735.10000000000
  21
 536.95000000000
  31
0.0
   0
LINE
   5
1CB
 100
AcDbEntity
   8
LEVEL002
 370
30
 100
AcDbLine
   6
CONTINUOUS
  62
7
  10
 735.10000000000
  20
 536.95000000000
  30
0.0
  11
 735.10000000000
  21
 529.75000000000
  31
0.0
   0
LINE
   5
1CC
 100
AcDbEntity
   8
LEVEL002
 370
30
 100
AcDbLine
   6
CONTINUOUS
  62
7
  10
 735.10000000000
  20
 529.75000000000
  30
0.0
  11
 724.30000000000
  21
 529.75000000000
  31
0.0
   0
LINE
   5
1CD
 100
AcDbEntity
   8
LEVEL002
 370
30
 100
AcDbLine
   6
CONTINUOUS
  62
7
  10
 724.30000000000
  20
 529.75000000000
  30
0.0
  11
 724.30000000000
  21
 544.15000000000
  31
0.0
   0
LINE
   5
1CE
 100
AcDbEntity
   8
LEVEL002
 370
30
 100
AcDbLine
   6
CONTINUOUS
  62
7
  10
 724.30000000000
  20
 544.15000000000
  30
0.0
  11
 717.10000000000
  21
 544.15000000000
  31
0.0
   0
LINE
   5
1CF
 100
AcDbEntity
   8
LEVEL002
 370
30
 100
AcDbLine
   6
CONTINUOUS
  62
7
  10
 717.10000000000
  20
 544.15000000000
  30
0.0
  11
 717.10000000000
  21
 522.55000000000
  31
0.0
   0
LINE
   5
1D0
 100
AcDbEntity
   8
LEVEL002
 370
30
 100
AcDbLine
   6
CONTINUOUS
  62
7
  10
 781.90000000000
  20
 522.55000000000
  30
0.0
  11
 792.70000000000
  21
 522.55000000000
  31
0.0
   0
LINE
   5
1D1
 100
AcDbEntity
   8
LEVEL002
 370
30
 100
AcDbLine
   6
CONTINUOUS
  62
7
  10
 792.70000000000
  20
 522.55000000000
  30
0.0
  11
 792.70000000000
  21
 529.75000000000
  31
0.0
   0
LINE
   5
1D2
 100
AcDbEntity
   8
LEVEL002
 370
30
 100
AcDbLine
   6
CONTINUOUS
  62
7
  10
 792.70000000000
  20
 529.75000000000
  30
0.0
  11
 781.90000000000
  21
 529.75000000000
  31
0.0
   0
ARC
   5
1D3
 100
AcDbEntity
   8
LEVEL002
 370
30
   6
CONTINUOUS
  62
7
 100
AcDbCircle
  10
 781.90000000000
  20
 533.35000000000
  30
0.0
  40
 3.6000000000000
 100
AcDbArc
  50
 90.000000000000
  51
 270.00000000000
   0
LINE
   5
1D4
 100
AcDbEntity
   8
LEVEL002
 370
30
 100
AcDbLine
   6
CONTINUOUS
  62
7
  10
 781.90000000000
  20
 536.95000000000
  30
0.0
  11
 792.70000000000
  21
 536.95000000000
  31
0.0
   0
LINE
   5
1D5
 100
AcDbEntity
   8
LEVEL002
 370
30
 100
AcDbLine
   6
CONTINUOUS
  62
7
  10
 792.70000000000
  20
 536.95000000000
  30
0.0
  11
 792.70000000000
  21
 544.15000000000
  31
0.0
   0
LINE
   5
1D6
 100
AcDbEntity
   8
LEVEL002
 370
30
 100
AcDbLine
   6
CONTINUOUS
  62
7
  10
 792.70000000000
  20
 544.15000000000
  30
0.0
  11
 781.90000000000
  21
 544.15000000000
  31
0.0
   0
ARC
   5
1D7
 100
AcDbEntity
   8
LEVEL002
 370
30
   6
CONTINUOUS
  62
7
 100
AcDbCircle
  10
 781.90000000000
  20
 533.35000000000
  30
0.0
  40
 10.800000000000
 100
AcDbArc
  50
 90.000000000000
  51
 270.00000000000
   0
LINE
   5
1D8
 100
AcDbEntity
   8
LEVEL002
 370
30
 100
AcDbLine
   6
CONTINUOUS
  62
7
  10
 666.70000000000
  20
 527.35000000000
  30
0.0
  11
 657.70000000000
  21
 541.75000000000
  31
0.0
   0
LINE
   5
1D9
 100
AcDbEntity
   8
LEVEL002
 370
30
 100
AcDbLine
   6
CONTINUOUS
  62
7
  10
 657.70000000000
  20
 541.75000000000
  30
0.0
  11
 666.70000000000
  21
 541.75000000000
  31
0.0
   0
LINE
   5
1DA
 100
AcDbEntity
   8
LEVEL002
 370
30
 100
AcDbLine
   6
CONTINUOUS
  62
7
  10
 666.70000000000
  20
 541.75000000000
  30
0.0
  11
 666.70000000000
  21
 527.35000000000
  31
0.0
   0
LINE
   5
1DB
 100
AcDbEntity
   8
LEVEL002
 370
30
 100
AcDbLine
   6
CONTINUOUS
  62
7
  10
 657.70000000000
  20
 541.75000000000
  30
0.0
  11
 666.70000000000
  21
 527.35000000000
  31
0.0
   0
LINE
   5
1DC
 100
AcDbEntity
   8
LEVEL002
 370
30
 100
AcDbLine
   6
CONTINUOUS
  62
7
  10
 666.70000000000
  20
 527.35000000000
  30
0.0
  11
 666.70000000000
  21
 541.75000000000
  31
0.0
   0
LINE
   5
1DD
 100
AcDbEntity
   8
LEVEL002
 370
30
 100
AcDbLine
   6
CONTINUOUS
  62
7
  10
 666.70000000000
  20
 541.75000000000
  30
0.0
  11
 657.70000000000
  21
 541.75000000000
  31
0.0
   0
LINE
   5
1DE
 100
AcDbEntity
   8
LEVEL002
 370
30
 100
AcDbLine
   6
CONTINUOUS
  62
7
  10
 638.10000000000
  20
 560.95000000000
  30
0.0
  11
 625.30000000000
  21
 541.75000000000
  31
0.0
   0
LINE
   5
1DF
 100
AcDbEntity
   8
LEVEL002
 370
30
 100
AcDbLine
   6
CONTINUOUS
  62
7
  10
 625.30000000000
  20
 541.75000000000
  30
0.0
  11
 638.10000000000
  21
 522.55000000000
  31
0.0
   0
LINE
   5
1E0
 100
AcDbEntity
   8
LEVEL002
 370
30
 100
AcDbLine
   6
CONTINUOUS
  62
7
  10
 648.90000000000
  20
 522.55000000000
  30
0.0
  11
 636.10000000000
  21
 541.75000000000
  31
0.0
   0
LINE
   5
1E1
 100
AcDbEntity
   8
LEVEL002
 370
30
 100
AcDbLine
   6
CONTINUOUS
  62
7
  10
 636.10000000000
  20
 541.75000000000
  30
0.0
  11
 648.90000000000
  21
 560.95000000000
  31
0.0
   0
LINE
   5
1E2
 100
AcDbEntity
   8
LEVEL002
 370
30
 100
AcDbLine
   6
CONTINUOUS
  62
7
  10
 654.30000000000
  20
 560.95000000000
  30
0.0
  11
 641.50000000000
  21
 541.75000000000
  31
0.0
   0
LINE
   5
1E3
 100
AcDbEntity
   8
LEVEL002
 370
30
 100
AcDbLine
   6
CONTINUOUS
  62
7
  10
 641.50000000000
  20
 541.75000000000
  30
0.0
  11
 654.30000000000
  21
 522.55000000000
  31
0.0
   0
LINE
   5
1E4
 100
AcDbEntity
   8
LEVEL002
 370
30
 100
AcDbLine
   6
CONTINUOUS
  62
7
  10
 665.10000000000
  20
 522.55000000000
  30
0.0
  11
 652.30000000000
  21
 541.75000000000
  31
0.0
   0
LINE
   5
1E5
 100
AcDbEntity
   8
LEVEL002
 370
30
 100
AcDbLine
   6
CONTINUOUS
  62
7
  10
 652.30000000000
  20
 541.75000000000
  30
0.0
  11
 665.10000000000
  21
 560.95000000000
  31
0.0
   0
LINE
   5
1E6
 100
AcDbEntity
   8
LEVEL002
 370
30
 100
AcDbLine
   6
CONTINUOUS
  62
7
  10
 638.10000000000
  20
 522.55000000000
  30
0.0
  11
 625.30000000000
  21
 541.75000000000
  31
0.0
   0
LINE
   5
1E7
 100
AcDbEntity
   8
LEVEL002
 370
30
 100
AcDbLine
   6
CONTINUOUS
  62
7
  10
 625.30000000000
  20
 541.75000000000
  30
0.0
  11
 638.10000000000
  21
 560.95000000000
  31
0.0
   0
LINE
   5
1E8
 100
AcDbEntity
   8
LEVEL002
 370
30
 100
AcDbLine
   6
CONTINUOUS
  62
7
  10
 638.10000000000
  20
 560.95000000000
  30
0.0
  11
 648.90000000000
  21
 560.95000000000
  31
0.0
   0
LINE
   5
1E9
 100
AcDbEntity
   8
LEVEL002
 370
30
 100
AcDbLine
   6
CONTINUOUS
  62
7
  10
 648.90000000000
  20
 560.95000000000
  30
0.0
  11
 636.10000000000
  21
 541.75000000000
  31
0.0
   0
LINE
   5
1EA
 100
AcDbEntity
   8
LEVEL002
 370
30
 100
AcDbLine
   6
CONTINUOUS
  62
7
  10
 636.10000000000
  20
 541.75000000000
  30
0.0
  11
 648.90000000000
  21
 522.55000000000
  31
0.0
   0
LINE
   5
1EB
 100
AcDbEntity
   8
LEVEL002
 370
30
 100
AcDbLine
   6
CONTINUOUS
  62
7
  10
 648.90000000000
  20
 522.55000000000
  30
0.0
  11
 638.10000000000
  21
 522.55000000000
  31
0.0
   0
LINE
   5
1EC
 100
AcDbEntity
   8
LEVEL002
 370
30
 100
AcDbLine
   6
CONTINUOUS
  62
7
  10
 654.30000000000
  20
 522.55000000000
  30
0.0
  11
 641.50000000000
  21
 541.75000000000
  31
0.0
   0
LINE
   5
1ED
 100
AcDbEntity
   8
LEVEL002
 370
30
 100
AcDbLine
   6
CONTINUOUS
  62
7
  10
 641.50000000000
  20
 541.75000000000
  30
0.0
  11
 654.30000000000
  21
 560.95000000000
  31
0.0
   0
LINE
   5
1EE
 100
AcDbEntity
   8
LEVEL002
 370
30
 100
AcDbLine
   6
CONTINUOUS
  62
7
  10
 654.30000000000
  20
 560.95000000000
  30
0.0
  11
 665.10000000000
  21
 560.95000000000
  31
0.0
   0
LINE
   5
1EF
 100
AcDbEntity
   8
LEVEL002
 370
30
 100
AcDbLine
   6
CONTINUOUS
  62
7
  10
 665.10000000000
  20
 560.95000000000
  30
0.0
  11
 652.30000000000
  21
 541.75000000000
  31
0.0
   0
LINE
   5
1F0
 100
AcDbEntity
   8
LEVEL002
 370
30
 100
AcDbLine
   6
CONTINUOUS
  62
7
  10
 652.30000000000
  20
 541.75000000000
  30
0.0
  11
 665.10000000000
  21
 522.55000000000
  31
0.0
   0
LINE
   5
1F1
 100
AcDbEntity
   8
LEVEL002
 370
30
 100
AcDbLine
   6
CONTINUOUS
  62
7
  10
 665.10000000000
  20
 522.55000000000
  30
0.0
  11
 654.30000000000
  21
 522.55000000000
  31
0.0
   0
HATCH
   5
1F2
 100
AcDbEntity
   8
LEVEL001
  62
1
 100
AcDbHatch
  10
0.0
  20
0.0
  30
0.0
 210
0.0
 220
0.0
 230
 1.0000000000000
   2
SOLID
  70
1
  71
1
  91
7
  92
1
  93
6
  72
1
  10
 648.90000000000
  20
 560.95000000000
  11
 636.10000000000
  21
 541.75000000000
  72
1
  10
 636.10000000000
  20
 541.75000000000
  11
 648.90000000000
  21
 522.55000000000
  72
1
  10
 648.90000000000
  20
 522.55000000000
  11
 638.10000000000
  21
 522.55000000000
  72
1
  10
 638.10000000000
  20
 522.55000000000
  11
 625.30000000000
  21
 541.75000000000
  72
1
  10
 625.30000000000
  20
 541.75000000000
  11
 638.10000000000
  21
 560.95000000000
  72
1
  10
 638.10000000000
  20
 560.95000000000
  11
 648.90000000000
  21
 560.95000000000
  97
1
 330

  92
16
  93
6
  72
1
  10
 654.30000000000
  20
 560.95000000000
  11
 665.10000000000
  21
 560.95000000000
  72
1
  10
 665.10000000000
  20
 560.95000000000
  11
 652.30000000000
  21
 541.75000000000
  72
1
  10
 652.30000000000
  20
 541.75000000000
  11
 665.10000000000
  21
 522.55000000000
  72
1
  10
 665.10000000000
  20
 522.55000000000
  11
 654.30000000000
  21
 522.55000000000
  72
1
  10
 654.30000000000
  20
 522.55000000000
  11
 641.50000000000
  21
 541.75000000000
  72
1
  10
 641.50000000000
  20
 541.75000000000
  11
 654.30000000000
  21
 560.95000000000
  97
1
 330

  92
16
  93
3
  72
1
  10
 666.70000000000
  20
 541.75000000000
  11
 657.70000000000
  21
 541.75000000000
  72
1
  10
 657.70000000000
  20
 541.75000000000
  11
 666.70000000000
  21
 527.35000000000
  72
1
  10
 666.70000000000
  20
 527.35000000000
  11
 666.70000000000
  21
 541.75000000000
  97
1
 330

  92
16
  93
6
  72
1
  10
 673.90000000000
  20
 544.15000000000
  11
 688.30000000000
  21
 544.15000000000
  72
2
  10
 688.30000000000
  20
 535.15000000000
  40
 9.0000000000000
  50
 270.00000000000
  51
 90.000000000000
  73
0
  72
1
  10
 688.30000000000
  20
 526.15000000000
  11
 681.10000000000
  21
 526.15000000000
  72
1
  10
 681.10000000000
  20
 526.15000000000
  11
 681.10000000000
  21
 522.55000000000
  72
1
  10
 681.10000000000
  20
 522.55000000000
  11
 673.90000000000
  21
 522.55000000000
  72
1
  10
 673.90000000000
  20
 522.55000000000
  11
 673.90000000000
  21
 544.15000000000
  97
1
 330

  92
16
  93
4
  72
1
  10
 688.30000000000
  20
 536.95000000000
  11
 681.10000000000
  21
 536.95000000000
  72
1
  10
 681.10000000000
  20
 536.95000000000
  11
 681.10000000000
  21
 533.35000000000
  72
1
  10
 681.10000000000
  20
 533.35000000000
  11
 688.30000000000
  21
 533.35000000000
  72
2
  10
 688.30000000000
  20
 535.15000000000
  40
 1.8000000000000
  50
 270.00000000000
  51
 90.000000000000
  73
1
  97
1
 330

  92
16
  93
4
  72
1
  10
 691.90000000000
  20
 522.55000000000
  11
 706.30000000000
  21
 544.15000000000
  72
1
  10
 706.30000000000
  20
 544.15000000000
  11
 717.10000000000
  21
 544.15000000000
  72
1
  10
 717.10000000000
  20
 544.15000000000
  11
 702.70000000000
  21
 522.55000000000
  72
1
  10
 702.70000000000
  20
 522.55000000000
  11
 691.90000000000
  21
 522.55000000000
  97
1
 330

  92
16
  93
3
  72
1
  10
 714.70000000000
  20
 536.22333846940
  11
 705.58444102040
  21
 522.55000000000
  72
1
  10
 705.58444102040
  20
 522.55000000000
  11
 714.70000000000
  21
 522.55000000000
  72
1
  10
 714.70000000000
  20
 522.55000000000
  11
 714.70000000000
  21
 536.22333846940
  97
1
 330

  75
0
  76
1
  98
1
  10
0.0
  20
0.0
   0
HATCH
   5
1F3
 100
AcDbEntity
   8
LEVEL001
  62
1
 100
AcDbHatch
  10
0.0
  20
0.0
  30
0.0
 210
0.0
 220
0.0
 230
 1.0000000000000
   2
SOLID
  70
1
  71
1
  91
1
  92
1
  93
22
  72
1
  10
 717.10000000000
  20
 544.15000000000
  11
 724.30000000000
  21
 544.15000000000
  72
1
  10
 724.30000000000
  20
 544.15000000000
  11
 724.30000000000
  21
 529.75000000000
  72
1
  10
 724.30000000000
  20
 529.75000000000
  11
 735.10000000000
  21
 529.75000000000
  72
1
  10
 735.10000000000
  20
 529.75000000000
  11
 735.10000000000
  21
 536.95000000000
  72
1
  10
 735.10000000000
  20
 536.95000000000
  11
 727.90000000000
  21
 536.95000000000
  72
1
  10
 727.90000000000
  20
 536.95000000000
  11
 727.90000000000
  21
 544.15000000000
  72
1
  10
 727.90000000000
  20
 544.15000000000
  11
 771.10000000000
  21
 544.15000000000
  72
1
  10
 771.10000000000
  20
 544.15000000000
  11
 771.10000000000
  21
 536.95000000000
  72
1
  10
 771.10000000000
  20
 536.95000000000
  11
 756.70000000000
  21
 536.95000000000
  72
1
  10
 756.70000000000
  20
 536.95000000000
  11
 756.70000000000
  21
 535.15000000000
  72
1
  10
 756.70000000000
  20
 535.15000000000
  11
 769.30000000000
  21
 535.15000000000
  72
1
  10
 769.30000000000
  20
 535.15000000000
  11
 769.30000000000
  21
 531.55000000000
  72
1
  10
 769.30000000000
  20
 531.55000000000
  11
 756.70000000000
  21
 531.55000000000
  72
1
  10
 756.70000000000
  20
 531.55000000000
  11
 756.70000000000
  21
 529.75000000000
  72
1
  10
 756.70000000000
  20
 529.75000000000
  11
 771.10000000000
  21
 529.75000000000
  72
1
  10
 771.10000000000
  20
 529.75000000000
  11
 771.10000000000
  21
 522.55000000000
  72
1
  10
 771.10000000000
  20
 522.55000000000
  11
 749.50000000000
  21
 522.55000000000
  72
1
  10
 749.50000000000
  20
 522.55000000000
  11
 749.50000000000
  21
 536.95000000000
  72
1
  10
 749.50000000000
  20
 536.95000000000
  11
 742.30000000000
  21
 536.95000000000
  72
1
  10
 742.30000000000
  20
 536.95000000000
  11
 742.30000000000
  21
 522.55000000000
  72
1
  10
 742.30000000000
  20
 522.55000000000
  11
 717.10000000000
  21
 522.55000000000
  72
1
  10
 717.10000000000
  20
 522.55000000000
  11
 717.10000000000
  21
 544.15000000000
  97
1
 330

  75
0
  76
1
  98
1
  10
0.0
  20
0.0
   0
HATCH
   5
1F4
 100
AcDbEntity
   8
LEVEL001
  62
1
 100
AcDbHatch
  10
0.0
  20
0.0
  30
0.0
 210
0.0
 220
0.0
 230
 1.0000000000000
   2
SOLID
  70
1
  71
1
  91
1
  92
1
  93
8
  72
1
  10
 792.70000000000
  20
 544.15000000000
  11
 781.90000000000
  21
 544.15000000000
  72
2
  10
 781.90000000000
  20
 533.35000000000
  40
 10.800000000000
  50
 90.000000000000
  51
 270.00000000000
  73
1
  72
1
  10
 781.90000000000
  20
 522.55000000000
  11
 792.70000000000
  21
 522.55000000000
  72
1
  10
 792.70000000000
  20
 522.55000000000
  11
 792.70000000000
  21
 529.75000000000
  72
1
  10
 792.70000000000
  20
 529.75000000000
  11
 781.90000000000
  21
 529.75000000000
  72
2
  10
 781.90000000000
  20
 533.35000000000
  40
 3.6000000000000
  50
 90.000000000000
  51
 270.00000000000
  73
0
  72
1
  10
 781.90000000000
  20
 536.95000000000
  11
 792.70000000000
  21
 536.95000000000
  72
1
  10
 792.70000000000
  20
 536.95000000000
  11
 792.70000000000
  21
 544.15000000000
  97
1
 330

  75
0
  76
1
  98
1
  10
0.0
  20
0.0
   0
LINE
   5
1F5
 100
AcDbEntity
   8
LEVEL001
 370
30
 100
AcDbLine
   6
DOT
  62
7
  10
0.0
  20
0.0
  30
0.0
  11
 840.00000000000
  21
0.0
  31
0.0
   0
MTEXT
   5
1F7
 100
AcDbEntity
   8
LEVEL002
 370
15
  62
8
 100
AcDbMText
  10
 758.99999999990
  20
 40.166666666690
  30
0.0
  40
 5.0000000000000
  41
0.0
  71
5
  72
1
   1
\T1.000000;パルステップアルミ－３
   7
GMM002
  44
 0.79999984000003
   0
MTEXT
   5
1F9
 100
AcDbEntity
   8
LEVEL002
 370
15
  62
8
 100
AcDbMText
  10
 650.49999999990
  20
 481.50000000000
  30
0.0
  40
 9.0000000000000
  41
0.0
  71
7
  72
1
   1
\W0.888889;\T1.000000;パルステップ\W0.444444;\T1.000000;(\W0.888889;\T1.000000;アルミタイプ\W0.444444;\T1.000000;)
   7
GMM004
  44
 0.79999984000003
   0
MTEXT
   5
1FB
 100
AcDbEntity
   8
LEVEL002
 370
15
  62
8
 100
AcDbMText
  10
 650.49999999990
  20
 493.50000000000
  30
0.0
  40
 9.0000000000000
  41
0.0
  71
7
  72
1
   1
\T1.000000;　屋内用階段すべり止め③
   7
GMM004
  44
 0.79999984000003
   0
MTEXT
   5
1FD
 100
AcDbEntity
   8
LEVEL002
 370
15
  62
8
 100
AcDbMText
  10
 708.99999999990
  20
 453.50000000000
  30
0.0
  40
 8.0000000000000
  41
0.0
  71
5
  72
1
   1
\T1.000000;アルミ③
   7
GMM002
  44
 0.79999984000003
   0
MTEXT
   5
1FF
 100
AcDbEntity
   8
LEVEL002
 370
15
  62
8
 100
AcDbMText
  10
 693.79999999990
  20
 178.73437800234
  30
0.0
  40
 8.0000000000000
  41
0.0
  71
2
  72
1
   1
{\T1.000000;　※インサートのカラーバリエーション}\P{\T1.000000;　　はカタログを参照願います。}\P{\T1.000000;　※本製品は予告無しに変更する事があります。}
   7
GMM002
  44
 0.79999984000003
   0
LINE
   5
200
 100
AcDbEntity
   8
LEVEL002
 370
40
 100
AcDbLine
   6
CONTINUOUS
  62
3
  10
 608.99999999990
  20
 184.00000000000
  30
0.0
  11
 808.99999999990
  21
 184.00000000000
  31
0.0
   0
MTEXT
   5
202
 100
AcDbEntity
   8
LEVEL002
 370
15
  62
8
 100
AcDbMText
  10
 638.99999999990
  20
 415.83333333340
  30
0.0
  40
 7.0000000000000
  41
0.0
  71
1
  72
1
   1
{\W0.500000;\T1.000000;･\W1.000000;\T1.000000;金台}\P{\W0.500000;\T1.000000; \W1.000000;\T1.000000;　　Ａ６０６３Ｓ－Ｔ５}\P{\W1.000000;\T1.000000;　　\W0.500000;\T1.000000; \W1.000000;\T1.000000;仕上げ：Ｂ２シルバー}
   7
GMM002
  44
 0.79999984000003
   0
MTEXT
   5
204
 100
AcDbEntity
   8
LEVEL002
 370
15
  62
8
 100
AcDbMText
  10
 774.43016912150
  20
 97.333333333360
  30
0.0
  40
 6.0000000000000
  41
0.0
  71
5
  72
1
   1
\T1.000000;平成３０年　７月２８日
   7
GMM002
  44
 0.79999984000003
   0
LINE
   5
205
 100
AcDbEntity
   8
LEVEL002
 370
30
 100
AcDbLine
   6
CONTINUOUS
  62
7
  10
 92.499999999900
  20
 459.50000000000
  30
0.0
  11
 94.499999999900
  21
 459.50000000000
  31
0.0
   0
ARC
   5
206
 100
AcDbEntity
   8
LEVEL002
 370
30
   6
CONTINUOUS
  62
7
 100
AcDbCircle
  10
 94.499999999947
  20
 459.00000000003
  30
0.0
  40
 0.50000000000000
 100
AcDbArc
  50
 304.84990457236
  51
 90.000000005485
   0
ARC
   5
207
 100
AcDbEntity
   8
LEVEL002
 370
30
   6
CONTINUOUS
  62
7
 100
AcDbCircle
  10
 96.499999999910
  20
 456.12771867672
  30
0.0
  40
 3.0000000000000
 100
AcDbArc
  50
 124.84990457910
  51
 225.17307738878
   0
LINE
   5
208
 100
AcDbEntity
   8
LEVEL002
 370
30
 100
AcDbLine
   6
CONTINUOUS
  62
7
  10
 94.385097346658
  20
 454.00000000000
  30
0.0
  11
 122.11490265314
  21
 454.00000000000
  31
0.0
   0
ARC
   5
209
 100
AcDbEntity
   8
LEVEL002
 370
30
   6
CONTINUOUS
  62
7
 100
AcDbCircle
  10
 119.99999999991
  20
 456.12771867673
  30
0.0
  40
 3.0000000000000
 100
AcDbArc
  50
 314.82692261092
  51
 55.150095421117
   0
ARC
   5
20A
 100
AcDbEntity
   8
LEVEL002
 370
30
   6
CONTINUOUS
  62
7
 100
AcDbCircle
  10
 121.99999999998
  20
 459.00000000000
  30
0.0
  40
 0.50000000000000
 100
AcDbArc
  50
 90.000000009224
  51
 235.15009541341
   0
LINE
   5
20B
 100
AcDbEntity
   8
LEVEL002
 370
30
 100
AcDbLine
   6
CONTINUOUS
  62
7
  10
 121.99999999990
  20
 459.50000000000
  30
0.0
  11
 125.99999999990
  21
 459.50000000000
  31
0.0
   0
LINE
   5
20C
 100
AcDbEntity
   8
LEVEL002
 370
30
 100
AcDbLine
   6
CONTINUOUS
  62
7
  10
 125.99999999990
  20
 459.50000000000
  30
0.0
  11
 125.99999999990
  21
 457.50000000000
  31
0.0
   0
LINE
   5
20D
 100
AcDbEntity
   8
LEVEL002
 370
30
 100
AcDbLine
   6
CONTINUOUS
  62
7
  10
 125.99999999990
  20
 457.50000000000
  30
0.0
  11
 124.49999999990
  21
 457.50000000000
  31
0.0
   0
LINE
   5
20E
 100
AcDbEntity
   8
LEVEL002
 370
30
 100
AcDbLine
   6
CONTINUOUS
  62
7
  10
 124.49999999990
  20
 457.50000000000
  30
0.0
  11
 124.49999999990
  21
 455.50000000000
  31
0.0
   0
LINE
   5
20F
 100
AcDbEntity
   8
LEVEL002
 370
30
 100
AcDbLine
   6
CONTINUOUS
  62
7
  10
 124.49999999990
  20
 455.50000000000
  30
0.0
  11
 125.99999999990
  21
 455.50000000000
  31
0.0
   0
LINE
   5
210
 100
AcDbEntity
   8
LEVEL002
 370
30
 100
AcDbLine
   6
CONTINUOUS
  62
7
  10
 125.99999999990
  20
 455.50000000000
  30
0.0
  11
 125.49999999990
  21
 452.50000000000
  31
0.0
   0
LINE
   5
211
 100
AcDbEntity
   8
LEVEL002
 370
30
 100
AcDbLine
   6
CONTINUOUS
  62
7
  10
 125.49999999990
  20
 452.50000000000
  30
0.0
  11
 123.54999999990
  21
 452.50000000000
  31
0.0
   0
ARC
   5
212
 100
AcDbEntity
   8
LEVEL002
 370
30
   6
CONTINUOUS
  62
7
 100
AcDbCircle
  10
 123.24999999990
  20
 452.50000000000
  30
0.0
  40
 0.30000000000000
 100
AcDbArc
  50
0.0
  51
 180.00000000000
   0
LINE
   5
213
 100
AcDbEntity
   8
LEVEL002
 370
30
 100
AcDbLine
   6
CONTINUOUS
  62
7
  10
 122.94999999990
  20
 452.50000000000
  30
0.0
  11
 120.54999999990
  21
 452.50000000000
  31
0.0
   0
ARC
   5
214
 100
AcDbEntity
   8
LEVEL002
 370
30
   6
CONTINUOUS
  62
7
 100
AcDbCircle
  10
 120.24999999990
  20
 452.50000000000
  30
0.0
  40
 0.30000000000000
 100
AcDbArc
  50
0.0
  51
 180.00000000000
   0
LINE
   5
215
 100
AcDbEntity
   8
LEVEL002
 370
30
 100
AcDbLine
   6
CONTINUOUS
  62
7
  10
 119.94999999990
  20
 452.50000000000
  30
0.0
  11
 117.54999999990
  21
 452.50000000000
  31
0.0
   0
ARC
   5
216
 100
AcDbEntity
   8
LEVEL002
 370
30
   6
CONTINUOUS
  62
7
 100
AcDbCircle
  10
 117.24999999990
  20
 452.50000000000
  30
0.0
  40
 0.30000000000000
 100
AcDbArc
  50
0.0
  51
 180.00000000000
   0
LINE
   5
217
 100
AcDbEntity
   8
LEVEL002
 370
30
 100
AcDbLine
   6
CONTINUOUS
  62
7
  10
 116.94999999990
  20
 452.50000000000
  30
0.0
  11
 114.54999999990
  21
 452.50000000000
  31
0.0
   0
ARC
   5
218
 100
AcDbEntity
   8
LEVEL002
 370
30
   6
CONTINUOUS
  62
7
 100
AcDbCircle
  10
 114.24999999990
  20
 452.50000000000
  30
0.0
  40
 0.30000000000000
 100
AcDbArc
  50
0.0
  51
 180.00000000000
   0
LINE
   5
219
 100
AcDbEntity
   8
LEVEL002
 370
30
 100
AcDbLine
   6
CONTINUOUS
  62
7
  10
 113.94999999990
  20
 452.50000000000
  30
0.0
  11
 111.54999999990
  21
 452.50000000000
  31
0.0
   0
ARC
   5
21A
 100
AcDbEntity
   8
LEVEL002
 370
30
   6
CONTINUOUS
  62
7
 100
AcDbCircle
  10
 111.24999999990
  20
 452.50000000000
  30
0.0
  40
 0.30000000000000
 100
AcDbArc
  50
0.0
  51
 180.00000000000
   0
LINE
   5
21B
 100
AcDbEntity
   8
LEVEL002
 370
30
 100
AcDbLine
   6
CONTINUOUS
  62
7
  10
 110.94999999990
  20
 452.50000000000
  30
0.0
  11
 105.54999999990
  21
 452.50000000000
  31
0.0
   0
ARC
   5
21C
 100
AcDbEntity
   8
LEVEL002
 370
30
   6
CONTINUOUS
  62
7
 100
AcDbCircle
  10
 105.24999999990
  20
 452.50000000000
  30
0.0
  40
 0.30000000000000
 100
AcDbArc
  50
0.0
  51
 180.00000000000
   0
LINE
   5
21D
 100
AcDbEntity
   8
LEVEL002
 370
30
 100
AcDbLine
   6
CONTINUOUS
  62
7
  10
 104.94999999990
  20
 452.50000000000
  30
0.0
  11
 102.54999999990
  21
 452.50000000000
  31
0.0
   0
ARC
   5
21E
 100
AcDbEntity
   8
LEVEL002
 370
30
   6
CONTINUOUS
  62
7
 100
AcDbCircle
  10
 102.24999999990
  20
 452.50000000000
  30
0.0
  40
 0.30000000000000
 100
AcDbArc
  50
0.0
  51
 180.00000000000
   0
LINE
   5
21F
 100
AcDbEntity
   8
LEVEL002
 370
30
 100
AcDbLine
   6
CONTINUOUS
  62
7
  10
 101.94999999990
  20
 452.50000000000
  30
0.0
  11
 99.549999999900
  21
 452.50000000000
  31
0.0
   0
ARC
   5
220
 100
AcDbEntity
   8
LEVEL002
 370
30
   6
CONTINUOUS
  62
7
 100
AcDbCircle
  10
 99.249999999900
  20
 452.50000000000
  30
0.0
  40
 0.30000000000000
 100
AcDbArc
  50
0.0
  51
 180.00000000000
   0
LINE
   5
221
 100
AcDbEntity
   8
LEVEL002
 370
30
 100
AcDbLine
   6
CONTINUOUS
  62
7
  10
 98.949999999900
  20
 452.50000000000
  30
0.0
  11
 96.549999999900
  21
 452.50000000000
  31
0.0
   0
ARC
   5
222
 100
AcDbEntity
   8
LEVEL002
 370
30
   6
CONTINUOUS
  62
7
 100
AcDbCircle
  10
 96.249999999900
  20
 452.50000000000
  30
0.0
  40
 0.30000000000000
 100
AcDbArc
  50
0.0
  51
 180.00000000000
   0
LINE
   5
223
 100
AcDbEntity
   8
LEVEL002
 370
30
 100
AcDbLine
   6
CONTINUOUS
  62
7
  10
 95.949999999900
  20
 452.50000000000
  30
0.0
  11
 92.999999999900
  21
 452.50000000000
  31
0.0
   0
ARC
   5
224
 100
AcDbEntity
   8
LEVEL002
 370
30
   6
CONTINUOUS
  62
7
 100
AcDbCircle
  10
 137.89342380711
  20
 449.40476190476
  30
0.0
  40
 45.000000000000
 100
AcDbArc
  50
 176.05590628716
  51
 189.36608885113
   0
ARC
   5
225
 100
AcDbEntity
   8
LEVEL002
 370
30
   6
CONTINUOUS
  62
7
 100
AcDbCircle
  10
 93.000000000173
  20
 441.99999999886
  30
0.0
  40
 0.50000000000000
 100
AcDbArc
  50
 193.47367778270
  51
 9.3660889850079
   0
ARC
   5
226
 100
AcDbEntity
   8
LEVEL002
 370
30
   6
CONTINUOUS
  62
7
 100
AcDbCircle
  10
 145.99999999990
  20
 454.69842509920
  30
0.0
  40
 55.000000000000
 100
AcDbArc
  50
 180.00000000000
  51
 193.47367791692
   0
LINE
   5
227
 100
AcDbEntity
   8
LEVEL002
 370
30
 100
AcDbLine
   6
CONTINUOUS
  62
7
  10
 90.999999999900
  20
 454.69842509920
  30
0.0
  11
 90.999999999900
  21
 458.00000000000
  31
0.0
   0
ARC
   5
228
 100
AcDbEntity
   8
LEVEL002
 370
30
   6
CONTINUOUS
  62
7
 100
AcDbCircle
  10
 92.499999999930
  20
 458.00000000000
  30
0.0
  40
 1.5000000000000
 100
AcDbArc
  50
 90.000000001146
  51
 180.00000000000
   0
LINE
   5
229
 100
AcDbEntity
   8
LEVEL002
 370
30
 100
AcDbLine
   6
CONTINUOUS
  62
7
  10
 105.74999999990
  20
 454.00000000000
  30
0.0
  11
 105.74999999990
  21
 453.50000000000
  31
0.0
   0
LINE
   5
22A
 100
AcDbEntity
   8
LEVEL002
 370
30
 100
AcDbLine
   6
CONTINUOUS
  62
7
  10
 105.74999999990
  20
 453.50000000000
  30
0.0
  11
 110.74999999990
  21
 453.50000000000
  31
0.0
   0
LINE
   5
22B
 100
AcDbEntity
   8
LEVEL002
 370
30
 100
AcDbLine
   6
CONTINUOUS
  62
7
  10
 110.74999999990
  20
 453.50000000000
  30
0.0
  11
 110.74999999990
  21
 454.00000000000
  31
0.0
   0
LINE
   5
22C
 100
AcDbEntity
   8
LEVEL002
 370
30
 100
AcDbLine
   6
CONTINUOUS
  62
7
  10
 90.999999999900
  20
 543.50000000000
  30
0.0
  11
 90.999999999900
  21
 498.50000000000
  31
0.0
   0
LINE
   5
22D
 100
AcDbEntity
   8
LEVEL002
 370
30
 100
AcDbLine
   6
CONTINUOUS
  62
7
  10
 90.999999999900
  20
 498.50000000000
  30
0.0
  11
 125.99999999990
  21
 498.50000000000
  31
0.0
   0
LINE
   5
22E
 100
AcDbEntity
   8
LEVEL002
 370
30
 100
AcDbLine
   6
CONTINUOUS
  62
7
  10
 125.99999999990
  20
 498.50000000000
  30
0.0
  11
 125.99999999990
  21
 543.50000000000
  31
0.0
   0
LINE
   5
22F
 100
AcDbEntity
   8
LEVEL002
 370
25
 100
AcDbLine
   6
CONTINUOUS
  62
1
  10
 94.499999999900
  20
 543.50000000000
  30
0.0
  11
 94.499999999900
  21
 498.50000000000
  31
0.0
   0
LINE
   5
230
 100
AcDbEntity
   8
LEVEL002
 370
25
 100
AcDbLine
   6
CONTINUOUS
  62
1
  10
 95.649999999866
  20
 543.50000000000
  30
0.0
  11
 95.649999999866
  21
 498.50000000000
  31
0.0
   0
LINE
   5
231
 100
AcDbEntity
   8
LEVEL002
 370
25
 100
AcDbLine
   6
CONTINUOUS
  62
1
  10
 97.049999999876
  20
 543.50000000000
  30
0.0
  11
 97.049999999876
  21
 498.50000000000
  31
0.0
   0
LINE
   5
232
 100
AcDbEntity
   8
LEVEL002
 370
25
 100
AcDbLine
   6
CONTINUOUS
  62
1
  10
 98.449999999899
  20
 543.50000000000
  30
0.0
  11
 98.449999999899
  21
 498.50000000000
  31
0.0
   0
LINE
   5
233
 100
AcDbEntity
   8
LEVEL002
 370
25
 100
AcDbLine
   6
CONTINUOUS
  62
1
  10
 99.849999999922
  20
 543.50000000000
  30
0.0
  11
 99.849999999922
  21
 498.50000000000
  31
0.0
   0
LINE
   5
234
 100
AcDbEntity
   8
LEVEL002
 370
25
 100
AcDbLine
   6
CONTINUOUS
  62
1
  10
 101.24999999986
  20
 543.50000000000
  30
0.0
  11
 101.24999999986
  21
 498.50000000000
  31
0.0
   0
LINE
   5
235
 100
AcDbEntity
   8
LEVEL002
 370
25
 100
AcDbLine
   6
CONTINUOUS
  62
1
  10
 102.64999999988
  20
 543.50000000000
  30
0.0
  11
 102.64999999988
  21
 498.50000000000
  31
0.0
   0
LINE
   5
236
 100
AcDbEntity
   8
LEVEL002
 370
25
 100
AcDbLine
   6
CONTINUOUS
  62
1
  10
 104.04999999981
  20
 543.50000000000
  30
0.0
  11
 104.04999999981
  21
 498.50000000000
  31
0.0
   0
LINE
   5
237
 100
AcDbEntity
   8
LEVEL002
 370
25
 100
AcDbLine
   6
CONTINUOUS
  62
1
  10
 105.44999999984
  20
 543.50000000000
  30
0.0
  11
 105.44999999984
  21
 498.50000000000
  31
0.0
   0
LINE
   5
238
 100
AcDbEntity
   8
LEVEL002
 370
25
 100
AcDbLine
   6
CONTINUOUS
  62
1
  10
 106.84999999977
  20
 543.50000000000
  30
0.0
  11
 106.84999999977
  21
 498.50000000000
  31
0.0
   0
LINE
   5
239
 100
AcDbEntity
   8
LEVEL002
 370
25
 100
AcDbLine
   6
CONTINUOUS
  62
1
  10
 108.24999999980
  20
 543.50000000000
  30
0.0
  11
 108.24999999980
  21
 498.50000000000
  31
0.0
   0
LINE
   5
23A
 100
AcDbEntity
   8
LEVEL002
 370
25
 100
AcDbLine
   6
CONTINUOUS
  62
1
  10
 109.64999999973
  20
 543.50000000000
  30
0.0
  11
 109.64999999973
  21
 498.50000000000
  31
0.0
   0
LINE
   5
23B
 100
AcDbEntity
   8
LEVEL002
 370
25
 100
AcDbLine
   6
CONTINUOUS
  62
1
  10
 111.04999999975
  20
 543.50000000000
  30
0.0
  11
 111.04999999975
  21
 498.50000000000
  31
0.0
   0
LINE
   5
23C
 100
AcDbEntity
   8
LEVEL002
 370
25
 100
AcDbLine
   6
CONTINUOUS
  62
1
  10
 112.44999999969
  20
 543.50000000000
  30
0.0
  11
 112.44999999969
  21
 498.50000000000
  31
0.0
   0
LINE
   5
23D
 100
AcDbEntity
   8
LEVEL002
 370
25
 100
AcDbLine
   6
CONTINUOUS
  62
1
  10
 113.84999999971
  20
 543.50000000000
  30
0.0
  11
 113.84999999971
  21
 498.50000000000
  31
0.0
   0
LINE
   5
23E
 100
AcDbEntity
   8
LEVEL002
 370
25
 100
AcDbLine
   6
CONTINUOUS
  62
1
  10
 115.24999999964
  20
 543.50000000000
  30
0.0
  11
 115.24999999964
  21
 498.50000000000
  31
0.0
   0
LINE
   5
23F
 100
AcDbEntity
   8
LEVEL002
 370
25
 100
AcDbLine
   6
CONTINUOUS
  62
1
  10
 116.64999999967
  20
 543.50000000000
  30
0.0
  11
 116.64999999967
  21
 498.50000000000
  31
0.0
   0
LINE
   5
240
 100
AcDbEntity
   8
LEVEL002
 370
25
 100
AcDbLine
   6
CONTINUOUS
  62
1
  10
 118.04999999960
  20
 543.50000000000
  30
0.0
  11
 118.04999999960
  21
 498.50000000000
  31
0.0
   0
LINE
   5
241
 100
AcDbEntity
   8
LEVEL002
 370
25
 100
AcDbLine
   6
CONTINUOUS
  62
1
  10
 119.44999999963
  20
 543.50000000000
  30
0.0
  11
 119.44999999963
  21
 498.50000000000
  31
0.0
   0
LINE
   5
242
 100
AcDbEntity
   8
LEVEL002
 370
25
 100
AcDbLine
   6
CONTINUOUS
  62
1
  10
 120.84999999976
  20
 543.50000000000
  30
0.0
  11
 120.84999999976
  21
 498.50000000000
  31
0.0
   0
LINE
   5
243
 100
AcDbEntity
   8
LEVEL002
 370
25
 100
AcDbLine
   6
CONTINUOUS
  62
1
  10
 121.99999999990
  20
 543.50000000000
  30
0.0
  11
 121.99999999990
  21
 498.50000000000
  31
0.0
   0
LINE
   5
244
 100
AcDbEntity
   8
LEVEL002
 370
25
 100
AcDbLine
   6
CONTINUOUS
  62
1
  10
 94.499999999900
  20
 459.50000000000
  30
0.0
  11
 95.186856694087
  21
 461.18840986779
  31
0.0
   0
ARC
   5
245
 100
AcDbEntity
   8
LEVEL002
 370
25
   6
CONTINUOUS
  62
1
 100
AcDbCircle
  10
 95.649999999838
  20
 460.99999999993
  30
0.0
  40
 0.50000000000000
 100
AcDbArc
  50
 28.072486940013
  51
 157.86317164767
   0
LINE
   5
246
 100
AcDbEntity
   8
LEVEL002
 370
25
 100
AcDbLine
   6
CONTINUOUS
  62
1
  10
 96.091176470488
  20
 461.23529411765
  30
0.0
  11
 96.608823529311
  21
 460.26470588235
  31
0.0
   0
LINE
   5
247
 100
AcDbEntity
   8
LEVEL002
 370
25
 100
AcDbLine
   6
CONTINUOUS
  62
1
  10
 97.491176470488
  20
 460.26470588235
  30
0.0
  11
 98.008823529311
  21
 461.23529411765
  31
0.0
   0
ARC
   5
248
 100
AcDbEntity
   8
LEVEL002
 370
25
   6
CONTINUOUS
  62
1
 100
AcDbCircle
  10
 98.449999999871
  20
 460.99999999995
  30
0.0
  40
 0.50000000000000
 100
AcDbArc
  50
 28.072486939308
  51
 151.92751305759
   0
LINE
   5
249
 100
AcDbEntity
   8
LEVEL002
 370
25
 100
AcDbLine
   6
CONTINUOUS
  62
1
  10
 98.891176470488
  20
 461.23529411765
  30
0.0
  11
 99.408823529311
  21
 460.26470588235
  31
0.0
   0
LINE
   5
24A
 100
AcDbEntity
   8
LEVEL002
 370
25
 100
AcDbLine
   6
CONTINUOUS
  62
1
  10
 100.29117647049
  20
 460.26470588235
  30
0.0
  11
 100.80882352931
  21
 461.23529411765
  31
0.0
   0
ARC
   5
24B
 100
AcDbEntity
   8
LEVEL002
 370
25
   6
CONTINUOUS
  62
1
 100
AcDbCircle
  10
 101.24999999989
  20
 460.99999999983
  30
0.0
  40
 0.50000000000000
 100
AcDbArc
  50
 28.072486954933
  51
 151.92751304888
   0
LINE
   5
24C
 100
AcDbEntity
   8
LEVEL002
 370
25
 100
AcDbLine
   6
CONTINUOUS
  62
1
  10
 101.69117647045
  20
 461.23529411765
  30
0.0
  11
 102.20882352927
  21
 460.26470588235
  31
0.0
   0
LINE
   5
24D
 100
AcDbEntity
   8
LEVEL002
 370
25
 100
AcDbLine
   6
CONTINUOUS
  62
1
  10
 103.09117647045
  20
 460.26470588235
  30
0.0
  11
 103.60882352927
  21
 461.23529411765
  31
0.0
   0
ARC
   5
24E
 100
AcDbEntity
   8
LEVEL002
 370
25
   6
CONTINUOUS
  62
1
 100
AcDbCircle
  10
 104.04999999977
  20
 461.00000000001
  30
0.0
  40
 0.50000000000000
 100
AcDbArc
  50
 28.072486935292
  51
 151.92751305984
   0
LINE
   5
24F
 100
AcDbEntity
   8
LEVEL002
 370
25
 100
AcDbLine
   6
CONTINUOUS
  62
1
  10
 104.49117647040
  20
 461.23529411767
  30
0.0
  11
 105.00882352923
  21
 460.26470588238
  31
0.0
   0
LINE
   5
250
 100
AcDbEntity
   8
LEVEL002
 370
25
 100
AcDbLine
   6
CONTINUOUS
  62
1
  10
 105.89117647040
  20
 460.26470588238
  30
0.0
  11
 106.40882352923
  21
 461.23529411767
  31
0.0
   0
ARC
   5
251
 100
AcDbEntity
   8
LEVEL002
 370
25
   6
CONTINUOUS
  62
1
 100
AcDbCircle
  10
 106.84999999973
  20
 461.00000000001
  30
0.0
  40
 0.50000000000000
 100
AcDbArc
  50
 28.072486934966
  51
 151.92751306001
   0
LINE
   5
252
 100
AcDbEntity
   8
LEVEL002
 370
25
 100
AcDbLine
   6
CONTINUOUS
  62
1
  10
 107.29117647036
  20
 461.23529411767
  30
0.0
  11
 107.80882352918
  21
 460.26470588238
  31
0.0
   0
LINE
   5
253
 100
AcDbEntity
   8
LEVEL002
 370
25
 100
AcDbLine
   6
CONTINUOUS
  62
1
  10
 108.69117647036
  20
 460.26470588238
  30
0.0
  11
 109.20882352918
  21
 461.23529411767
  31
0.0
   0
ARC
   5
254
 100
AcDbEntity
   8
LEVEL002
 370
25
   6
CONTINUOUS
  62
1
 100
AcDbCircle
  10
 109.64999999973
  20
 460.99999999994
  30
0.0
  40
 0.50000000000000
 100
AcDbArc
  50
 28.072486947345
  51
 151.92751305310
   0
LINE
   5
255
 100
AcDbEntity
   8
LEVEL002
 370
25
 100
AcDbLine
   6
CONTINUOUS
  62
1
  10
 110.09117647032
  20
 461.23529411769
  30
0.0
  11
 110.60882352914
  21
 460.26470588240
  31
0.0
   0
LINE
   5
256
 100
AcDbEntity
   8
LEVEL002
 370
25
 100
AcDbLine
   6
CONTINUOUS
  62
1
  10
 111.49117647032
  20
 460.26470588240
  30
0.0
  11
 112.00882352914
  21
 461.23529411769
  31
0.0
   0
ARC
   5
257
 100
AcDbEntity
   8
LEVEL002
 370
25
   6
CONTINUOUS
  62
1
 100
AcDbCircle
  10
 112.44999999969
  20
 460.99999999994
  30
0.0
  40
 0.50000000000000
 100
AcDbArc
  50
 28.072486947100
  51
 151.92751305325
   0
LINE
   5
258
 100
AcDbEntity
   8
LEVEL002
 370
25
 100
AcDbLine
   6
CONTINUOUS
  62
1
  10
 112.89117647028
  20
 461.23529411769
  30
0.0
  11
 113.40882352910
  21
 460.26470588240
  31
0.0
   0
LINE
   5
259
 100
AcDbEntity
   8
LEVEL002
 370
25
 100
AcDbLine
   6
CONTINUOUS
  62
1
  10
 114.29117647028
  20
 460.26470588240
  30
0.0
  11
 114.80882352910
  21
 461.23529411769
  31
0.0
   0
ARC
   5
25A
 100
AcDbEntity
   8
LEVEL002
 370
25
   6
CONTINUOUS
  62
1
 100
AcDbCircle
  10
 115.24999999964
  20
 460.99999999998
  30
0.0
  40
 0.50000000000000
 100
AcDbArc
  50
 28.072486944215
  51
 151.92751305484
   0
LINE
   5
25B
 100
AcDbEntity
   8
LEVEL002
 370
25
 100
AcDbLine
   6
CONTINUOUS
  62
1
  10
 115.69117647023
  20
 461.23529411772
  30
0.0
  11
 116.20882352906
  21
 460.26470588242
  31
0.0
   0
LINE
   5
25C
 100
AcDbEntity
   8
LEVEL002
 370
25
 100
AcDbLine
   6
CONTINUOUS
  62
1
  10
 117.09117647023
  20
 460.26470588242
  30
0.0
  11
 117.60882352906
  21
 461.23529411772
  31
0.0
   0
ARC
   5
25D
 100
AcDbEntity
   8
LEVEL002
 370
25
   6
CONTINUOUS
  62
1
 100
AcDbCircle
  10
 118.04999999959
  20
 460.99999999998
  30
0.0
  40
 0.50000000000000
 100
AcDbArc
  50
 28.072486944034
  51
 151.92751305493
   0
LINE
   5
25E
 100
AcDbEntity
   8
LEVEL002
 370
25
 100
AcDbLine
   6
CONTINUOUS
  62
1
  10
 118.49117647019
  20
 461.23529411772
  30
0.0
  11
 119.00882352901
  21
 460.26470588242
  31
0.0
   0
LINE
   5
25F
 100
AcDbEntity
   8
LEVEL002
 370
25
 100
AcDbLine
   6
CONTINUOUS
  62
1
  10
 119.89117647019
  20
 460.26470588242
  30
0.0
  11
 120.40882352901
  21
 461.23529411772
  31
0.0
   0
ARC
   5
260
 100
AcDbEntity
   8
LEVEL002
 370
25
   6
CONTINUOUS
  62
1
 100
AcDbCircle
  10
 120.84999999977
  20
 461.00000000022
  30
0.0
  40
 0.50000000000000
 100
AcDbArc
  50
 22.136828312561
  51
 151.92751307950
   0
LINE
   5
261
 100
AcDbEntity
   8
LEVEL002
 370
25
 100
AcDbLine
   6
CONTINUOUS
  62
1
  10
 121.31314330571
  20
 461.18840986779
  30
0.0
  11
 121.99999999990
  21
 459.50000000000
  31
0.0
   0
ARC
   5
262
 100
AcDbEntity
   8
LEVEL002
 370
25
   6
CONTINUOUS
  62
1
 100
AcDbCircle
  10
 119.44999999959
  20
 460.49999999985
  30
0.0
  40
 0.50000000000000
 100
AcDbArc
  50
 208.07248691444
  51
 331.92751308729
   0
LINE
   5
263
 100
AcDbEntity
   8
LEVEL002
 370
25
 100
AcDbLine
   6
CONTINUOUS
  62
1
  10
 103.99999999990
  20
 455.90000000000
  30
0.0
  11
 112.49999999990
  21
 455.90000000000
  31
0.0
   0
LINE
   5
264
 100
AcDbEntity
   8
LEVEL002
 370
25
 100
AcDbLine
   6
CONTINUOUS
  62
1
  10
 112.49999999990
  20
 455.90000000000
  30
0.0
  11
 112.49999999990
  21
 458.20000000000
  31
0.0
   0
LINE
   5
265
 100
AcDbEntity
   8
LEVEL002
 370
25
 100
AcDbLine
   6
CONTINUOUS
  62
1
  10
 112.49999999990
  20
 458.20000000000
  30
0.0
  11
 103.99999999990
  21
 458.20000000000
  31
0.0
   0
LINE
   5
266
 100
AcDbEntity
   8
LEVEL002
 370
25
 100
AcDbLine
   6
CONTINUOUS
  62
1
  10
 103.99999999990
  20
 458.20000000000
  30
0.0
  11
 103.99999999990
  21
 455.90000000000
  31
0.0
   0
LINE
   5
267
 100
AcDbEntity
   8
LEVEL002
 370
25
 100
AcDbLine
   6
CONTINUOUS
  62
1
  10
 96.799999999900
  20
 455.90000000000
  30
0.0
  11
 100.79999999990
  21
 455.90000000000
  31
0.0
   0
LINE
   5
268
 100
AcDbEntity
   8
LEVEL002
 370
25
 100
AcDbLine
   6
CONTINUOUS
  62
1
  10
 100.79999999990
  20
 455.90000000000
  30
0.0
  11
 100.79999999990
  21
 458.20000000000
  31
0.0
   0
LINE
   5
269
 100
AcDbEntity
   8
LEVEL002
 370
25
 100
AcDbLine
   6
CONTINUOUS
  62
1
  10
 100.79999999990
  20
 458.20000000000
  30
0.0
  11
 96.799999999900
  21
 458.20000000000
  31
0.0
   0
LINE
   5
26A
 100
AcDbEntity
   8
LEVEL002
 370
25
 100
AcDbLine
   6
CONTINUOUS
  62
1
  10
 96.799999999900
  20
 458.20000000000
  30
0.0
  11
 96.799999999900
  21
 455.90000000000
  31
0.0
   0
LINE
   5
26B
 100
AcDbEntity
   8
LEVEL002
 370
25
 100
AcDbLine
   6
CONTINUOUS
  62
1
  10
 115.69999999990
  20
 455.90000000000
  30
0.0
  11
 119.69999999990
  21
 455.90000000000
  31
0.0
   0
LINE
   5
26C
 100
AcDbEntity
   8
LEVEL002
 370
25
 100
AcDbLine
   6
CONTINUOUS
  62
1
  10
 119.69999999990
  20
 455.90000000000
  30
0.0
  11
 119.69999999990
  21
 458.20000000000
  31
0.0
   0
LINE
   5
26D
 100
AcDbEntity
   8
LEVEL002
 370
25
 100
AcDbLine
   6
CONTINUOUS
  62
1
  10
 119.69999999990
  20
 458.20000000000
  30
0.0
  11
 115.69999999990
  21
 458.20000000000
  31
0.0
   0
LINE
   5
26E
 100
AcDbEntity
   8
LEVEL002
 370
25
 100
AcDbLine
   6
CONTINUOUS
  62
1
  10
 115.69999999990
  20
 458.20000000000
  30
0.0
  11
 115.69999999990
  21
 455.90000000000
  31
0.0
   0
ARC
   5
26F
 100
AcDbEntity
   8
LEVEL002
 370
25
   6
CONTINUOUS
  62
1
 100
AcDbCircle
  10
 97.049999999848
  20
 460.49999999980
  30
0.0
  40
 0.50000000000000
 100
AcDbArc
  50
 208.07248691843
  51
 331.92751308718
   0
ARC
   5
270
 100
AcDbEntity
   8
LEVEL002
 370
25
   6
CONTINUOUS
  62
1
 100
AcDbCircle
  10
 99.849999999928
  20
 460.49999999987
  30
0.0
  40
 0.50000000000000
 100
AcDbArc
  50
 208.07248692056
  51
 331.92751307637
   0
ARC
   5
271
 100
AcDbEntity
   8
LEVEL002
 370
25
   6
CONTINUOUS
  62
1
 100
AcDbCircle
  10
 102.64999999988
  20
 460.49999999985
  30
0.0
  40
 0.50000000000000
 100
AcDbArc
  50
 208.07248691970
  51
 331.92751307791
   0
ARC
   5
272
 100
AcDbEntity
   8
LEVEL002
 370
25
   6
CONTINUOUS
  62
1
 100
AcDbCircle
  10
 105.44999999983
  20
 460.49999999986
  30
0.0
  40
 0.50000000000000
 100
AcDbArc
  50
 208.07248691882
  51
 331.92751307947
   0
ARC
   5
273
 100
AcDbEntity
   8
LEVEL002
 370
25
   6
CONTINUOUS
  62
1
 100
AcDbCircle
  10
 108.24999999985
  20
 460.49999999998
  30
0.0
  40
 0.50000000000000
 100
AcDbArc
  50
 208.07248692688
  51
 331.92751306497
   0
ARC
   5
274
 100
AcDbEntity
   8
LEVEL002
 370
25
   6
CONTINUOUS
  62
1
 100
AcDbCircle
  10
 111.04999999980
  20
 460.49999999999
  30
0.0
  40
 0.50000000000000
 100
AcDbArc
  50
 208.07248692602
  51
 331.92751306651
   0
ARC
   5
275
 100
AcDbEntity
   8
LEVEL002
 370
25
   6
CONTINUOUS
  62
1
 100
AcDbCircle
  10
 113.84999999975
  20
 460.49999999997
  30
0.0
  40
 0.50000000000000
 100
AcDbArc
  50
 208.07248692516
  51
 331.92751306810
   0
ARC
   5
276
 100
AcDbEntity
   8
LEVEL002
 370
25
   6
CONTINUOUS
  62
1
 100
AcDbCircle
  10
 116.64999999963
  20
 460.49999999986
  30
0.0
  40
 0.50000000000000
 100
AcDbArc
  50
 208.07248691534
  51
 331.92751308570
   0
DIMENSION
   5
277
 100
AcDbEntity
   8
LEVEL001
 370
15
   6
CONTINUOUS
  62
8
 100
AcDbDimension
   2
*D1
  10
 80.999999999900
  20
 459.50000000000
  30
0.0
  11
 80.999999999900
  21
 450.50257167964
  31
0.0
  70
0
   1
\A1;18
   3
GMM001
 100
AcDbAlignedDimension
  13
 90.999999999900
  23
 441.50514335927
  33
0.0
  14
 90.999999999900
  24
 459.50000000000
  34
0.0
  50
 90.000000000000
 100
AcDbRotatedDimension
   0
DIMENSION
   5
278
 100
AcDbEntity
   8
LEVEL001
 370
15
   6
CONTINUOUS
  62
8
 100
AcDbDimension
   2
*D2
  10
 125.99999999990
  20
 469.50000000000
  30
0.0
  11
 108.49999999990
  21
 469.50000000000
  31
0.0
  70
0
   3
GMM001
 100
AcDbAlignedDimension
  13
 90.999999999900
  23
 459.50000000000
  33
0.0
  14
 125.99999999990
  24
 459.50000000000
  34
0.0
 100
AcDbRotatedDimension
   0
DIMENSION
   5
279
 100
AcDbEntity
   8
LEVEL001
 370
15
   6
CONTINUOUS
  62
8
 100
AcDbDimension
   2
*D3
  10
 137.99999999990
  20
 459.50000000000
  30
0.0
  11
 137.99999999990
  21
 456.00000000000
  31
0.0
  70
0
   3
GMM001
 100
AcDbAlignedDimension
  13
 125.99999999990
  23
 452.50000000000
  33
0.0
  14
 125.99999999990
  24
 459.50000000000
  34
0.0
  50
 90.000000000000
 100
AcDbRotatedDimension
   0
LEADER
   5
27A
 100
AcDbEntity
   8
LEVEL001
 370
15
   6
CONTINUOUS
  62
8
 100
AcDbLeader
   3
GMM002
  73
0
  74
0
  75
0
  40
 6.0000000000000
  41
 26.000000000000
  76
2
  10
 118.28586892526
  20
 459.96860657060
  30
0.0
  10
 129.52911216850
  20
 479.38001798201
  30
0.0
  77
8
 340
27B
 213
0.0
 223
-2.0000000000000
 233
0.0
   0
MTEXT
   5
27B
 102
{ACAD_REACTORS
 330
27A
 102
}
 100
AcDbEntity
   8
LEVEL001
 370
15
  62
8
 100
AcDbMText
  10
 129.52911216850
  20
 481.38001798201
  30
0.0
  40
 6.0000000000000
  41
0.0
  71
7
  72
1
   1
\A1;インサート
   7
GMM002
   0
LEADER
   5
27C
 100
AcDbEntity
   8
LEVEL001
 370
15
   6
CONTINUOUS
  62
8
 100
AcDbLeader
   3
GMM002
  73
0
  74
1
  75
0
  40
 6.0000000000000
  41
 11.000000000000
  76
2
  10
 92.854774768548
  20
 458.70511368630
  30
0.0
  10
 85.087917168531
  20
 470.51624625229
  30
0.0
  77
8
 340
27D
 213
0.0
 223
-2.0000000000000
 233
0.0
   0
MTEXT
   5
27D
 102
{ACAD_REACTORS
 330
27C
 102
}
 100
AcDbEntity
   8
LEVEL001
 370
15
  62
8
 100
AcDbMText
  10
 74.087917168531
  20
 478.51624625229
  30
0.0
  40
 6.0000000000000
  41
0.0
  71
7
  72
1
   1
\A1;金台
   7
GMM002
  44
 0.79999984000003
   0
LINE
   5
27E
 100
AcDbEntity
   8
LEVEL002
 370
30
 100
AcDbLine
   6
CONTINUOUS
  62
7
  10
 267.47247448704
  20
 460.76742346144
  30
0.0
  11
 268.12752551276
  21
 459.73257653860
  31
0.0
   0
LINE
   5
27F
 100
AcDbEntity
   8
LEVEL002
 370
30
 100
AcDbLine
   6
CONTINUOUS
  62
7
  10
 252.67499999990
  20
 453.50000000002
  30
0.0
  11
 252.67499999990
  21
 453.00000000002
  31
0.0
   0
LINE
   5
280
 100
AcDbEntity
   8
LEVEL002
 370
30
 100
AcDbLine
   6
CONTINUOUS
  62
7
  10
 252.67499999990
  20
 453.00000000002
  30
0.0
  11
 257.67499999990
  21
 453.00000000002
  31
0.0
   0
LINE
   5
281
 100
AcDbEntity
   8
LEVEL002
 370
30
 100
AcDbLine
   6
CONTINUOUS
  62
7
  10
 257.67499999990
  20
 453.00000000002
  30
0.0
  11
 257.67499999990
  21
 453.50000000002
  31
0.0
   0
ARC
   5
282
 100
AcDbEntity
   8
LEVEL002
 370
30
   6
CONTINUOUS
  62
7
 100
AcDbCircle
  10
 282.49999999990
  20
 446.83424086294
  30
0.0
  40
 45.000000000000
 100
AcDbArc
  50
 179.99999999999
  51
 188.49254476259
   0
ARC
   5
283
 100
AcDbEntity
   8
LEVEL002
 370
30
   6
CONTINUOUS
  62
7
 100
AcDbCircle
  10
 290.49999999990
  20
 451.92159041756
  30
0.0
  40
 55.000000000000
 100
AcDbArc
  50
 180.00000000000
  51
 192.55100591280
   0
LINE
   5
284
 100
AcDbEntity
   8
LEVEL002
 370
30
 100
AcDbLine
   6
CONTINUOUS
  62
7
  10
 235.49999999990
  20
 458.00000000002
  30
0.0
  11
 235.49999999990
  21
 451.92159041756
  31
0.0
   0
ARC
   5
285
 100
AcDbEntity
   8
LEVEL002
 370
30
   6
CONTINUOUS
  62
7
 100
AcDbCircle
  10
 236.99999999990
  20
 458.00000000001
  30
0.0
  40
 1.5000000000000
 100
AcDbArc
  50
 90.000000000000
  51
 179.99999999968
   0
LINE
   5
286
 100
AcDbEntity
   8
LEVEL002
 370
30
 100
AcDbLine
   6
CONTINUOUS
  62
7
  10
 238.79999999990
  20
 459.50000000002
  30
0.0
  11
 236.99999999990
  21
 459.50000000002
  31
0.0
   0
ARC
   5
287
 100
AcDbEntity
   8
LEVEL002
 370
30
   6
CONTINUOUS
  62
7
 100
AcDbCircle
  10
 238.79999999985
  20
 459.00000000002
  30
0.0
  40
 0.50000000000000
 100
AcDbArc
  50
 304.84990458380
  51
 89.999999994216
   0
ARC
   5
288
 100
AcDbEntity
   8
LEVEL002
 370
30
   6
CONTINUOUS
  62
7
 100
AcDbCircle
  10
 271.54999999977
  20
 459.00000000011
  30
0.0
  40
 0.50000000000000
 100
AcDbArc
  50
 89.999999985644
  51
 235.15009543845
   0
ARC
   5
289
 100
AcDbEntity
   8
LEVEL002
 370
30
   6
CONTINUOUS
  62
7
 100
AcDbCircle
  10
 269.54999999990
  20
 456.12771867675
  30
0.0
  40
 3.0000000000000
 100
AcDbArc
  50
 298.84759078073
  51
 55.150095420915
   0
LINE
   5
28A
 100
AcDbEntity
   8
LEVEL002
 370
30
 100
AcDbLine
   6
CONTINUOUS
  62
7
  10
 270.99744414596
  20
 453.50000000002
  30
0.0
  11
 239.35255585384
  21
 453.50000000002
  31
0.0
   0
ARC
   5
28B
 100
AcDbEntity
   8
LEVEL002
 370
30
   6
CONTINUOUS
  62
7
 100
AcDbCircle
  10
 240.79999999989
  20
 456.12771867675
  30
0.0
  40
 3.0000000000000
 100
AcDbArc
  50
 124.84990457890
  51
 241.15240921942
   0
LINE
   5
28C
 100
AcDbEntity
   8
LEVEL002
 370
30
 100
AcDbLine
   6
CONTINUOUS
  62
7
  10
 237.49999999990
  20
 446.83424086295
  30
0.0
  11
 237.49999999990
  21
 452.00000000002
  31
0.0
   0
ARC
   5
28D
 100
AcDbEntity
   8
LEVEL002
 370
30
   6
CONTINUOUS
  62
7
 100
AcDbCircle
  10
 259.17499999990
  20
 452.00000000002
  30
0.0
  40
 0.30000000000000
 100
AcDbArc
  50
0.0
  51
 180.00000000000
   0
ARC
   5
28E
 100
AcDbEntity
   8
LEVEL002
 370
30
   6
CONTINUOUS
  62
7
 100
AcDbCircle
  10
 262.17499999990
  20
 452.00000000002
  30
0.0
  40
 0.30000000000000
 100
AcDbArc
  50
0.0
  51
 180.00000000000
   0
LINE
   5
28F
 100
AcDbEntity
   8
LEVEL002
 370
30
 100
AcDbLine
   6
CONTINUOUS
  62
7
  10
 259.47499999990
  20
 452.00000000002
  30
0.0
  11
 261.87499999990
  21
 452.00000000002
  31
0.0
   0
ARC
   5
290
 100
AcDbEntity
   8
LEVEL002
 370
30
   6
CONTINUOUS
  62
7
 100
AcDbCircle
  10
 265.17499999990
  20
 452.00000000002
  30
0.0
  40
 0.30000000000000
 100
AcDbArc
  50
0.0
  51
 180.00000000000
   0
LINE
   5
291
 100
AcDbEntity
   8
LEVEL002
 370
30
 100
AcDbLine
   6
CONTINUOUS
  62
7
  10
 262.47499999990
  20
 452.00000000002
  30
0.0
  11
 264.87499999990
  21
 452.00000000002
  31
0.0
   0
ARC
   5
292
 100
AcDbEntity
   8
LEVEL002
 370
30
   6
CONTINUOUS
  62
7
 100
AcDbCircle
  10
 268.17499999990
  20
 452.00000000002
  30
0.0
  40
 0.30000000000000
 100
AcDbArc
  50
0.0
  51
 180.00000000000
   0
LINE
   5
293
 100
AcDbEntity
   8
LEVEL002
 370
30
 100
AcDbLine
   6
CONTINUOUS
  62
7
  10
 265.47499999990
  20
 452.00000000002
  30
0.0
  11
 267.87499999990
  21
 452.00000000002
  31
0.0
   0
ARC
   5
294
 100
AcDbEntity
   8
LEVEL002
 370
30
   6
CONTINUOUS
  62
7
 100
AcDbCircle
  10
 271.17499999990
  20
 452.00000000002
  30
0.0
  40
 0.30000000000000
 100
AcDbArc
  50
0.0
  51
 180.00000000000
   0
LINE
   5
295
 100
AcDbEntity
   8
LEVEL002
 370
30
 100
AcDbLine
   6
CONTINUOUS
  62
7
  10
 268.47499999990
  20
 452.00000000002
  30
0.0
  11
 270.87499999990
  21
 452.00000000002
  31
0.0
   0
LINE
   5
296
 100
AcDbEntity
   8
LEVEL002
 370
30
 100
AcDbLine
   6
CONTINUOUS
  62
7
  10
 271.47499999990
  20
 452.00000000002
  30
0.0
  11
 274.99999999990
  21
 452.00000000002
  31
0.0
   0
LINE
   5
297
 100
AcDbEntity
   8
LEVEL002
 370
30
 100
AcDbLine
   6
CONTINUOUS
  62
7
  10
 274.99999999990
  20
 452.00000000002
  30
0.0
  11
 275.23333333323
  21
 455.50000000002
  31
0.0
   0
LINE
   5
298
 100
AcDbEntity
   8
LEVEL002
 370
30
 100
AcDbLine
   6
CONTINUOUS
  62
7
  10
 275.23333333323
  20
 455.50000000002
  30
0.0
  11
 273.99999999990
  21
 455.50000000002
  31
0.0
   0
LINE
   5
299
 100
AcDbEntity
   8
LEVEL002
 370
30
 100
AcDbLine
   6
CONTINUOUS
  62
7
  10
 273.99999999990
  20
 455.50000000002
  30
0.0
  11
 273.99999999990
  21
 457.50000000002
  31
0.0
   0
LINE
   5
29A
 100
AcDbEntity
   8
LEVEL002
 370
30
 100
AcDbLine
   6
CONTINUOUS
  62
7
  10
 273.99999999990
  20
 457.50000000002
  30
0.0
  11
 275.36666666657
  21
 457.50000000002
  31
0.0
   0
LINE
   5
29B
 100
AcDbEntity
   8
LEVEL002
 370
30
 100
AcDbLine
   6
CONTINUOUS
  62
7
  10
 275.36666666657
  20
 457.50000000002
  30
0.0
  11
 275.49999999990
  21
 459.50000000002
  31
0.0
   0
LINE
   5
29C
 100
AcDbEntity
   8
LEVEL002
 370
30
 100
AcDbLine
   6
CONTINUOUS
  62
7
  10
 275.49999999990
  20
 459.50000000002
  30
0.0
  11
 271.54999999990
  21
 459.50000000002
  31
0.0
   0
ARC
   5
29D
 100
AcDbEntity
   8
LEVEL002
 370
30
   6
CONTINUOUS
  62
7
 100
AcDbCircle
  10
 251.17499999990
  20
 452.00000000002
  30
0.0
  40
 0.30000000000000
 100
AcDbArc
  50
0.0
  51
 180.00000000000
   0
ARC
   5
29E
 100
AcDbEntity
   8
LEVEL002
 370
30
   6
CONTINUOUS
  62
7
 100
AcDbCircle
  10
 248.17499999990
  20
 452.00000000002
  30
0.0
  40
 0.30000000000000
 100
AcDbArc
  50
0.0
  51
 180.00000000000
   0
LINE
   5
29F
 100
AcDbEntity
   8
LEVEL002
 370
30
 100
AcDbLine
   6
CONTINUOUS
  62
7
  10
 250.87499999990
  20
 452.00000000002
  30
0.0
  11
 248.47499999990
  21
 452.00000000002
  31
0.0
   0
ARC
   5
2A0
 100
AcDbEntity
   8
LEVEL002
 370
30
   6
CONTINUOUS
  62
7
 100
AcDbCircle
  10
 245.17499999990
  20
 452.00000000002
  30
0.0
  40
 0.30000000000000
 100
AcDbArc
  50
0.0
  51
 180.00000000000
   0
LINE
   5
2A1
 100
AcDbEntity
   8
LEVEL002
 370
30
 100
AcDbLine
   6
CONTINUOUS
  62
7
  10
 247.87499999990
  20
 452.00000000002
  30
0.0
  11
 245.47499999990
  21
 452.00000000002
  31
0.0
   0
ARC
   5
2A2
 100
AcDbEntity
   8
LEVEL002
 370
30
   6
CONTINUOUS
  62
7
 100
AcDbCircle
  10
 242.17499999990
  20
 452.00000000002
  30
0.0
  40
 0.30000000000000
 100
AcDbArc
  50
0.0
  51
 180.00000000000
   0
LINE
   5
2A3
 100
AcDbEntity
   8
LEVEL002
 370
30
 100
AcDbLine
   6
CONTINUOUS
  62
7
  10
 244.87499999990
  20
 452.00000000002
  30
0.0
  11
 242.47499999990
  21
 452.00000000002
  31
0.0
   0
ARC
   5
2A4
 100
AcDbEntity
   8
LEVEL002
 370
30
   6
CONTINUOUS
  62
7
 100
AcDbCircle
  10
 239.17499999990
  20
 452.00000000002
  30
0.0
  40
 0.30000000000000
 100
AcDbArc
  50
0.0
  51
 180.00000000000
   0
LINE
   5
2A5
 100
AcDbEntity
   8
LEVEL002
 370
30
 100
AcDbLine
   6
CONTINUOUS
  62
7
  10
 241.87499999990
  20
 452.00000000002
  30
0.0
  11
 239.47499999990
  21
 452.00000000002
  31
0.0
   0
LINE
   5
2A6
 100
AcDbEntity
   8
LEVEL002
 370
30
 100
AcDbLine
   6
CONTINUOUS
  62
7
  10
 238.87499999990
  20
 452.00000000002
  30
0.0
  11
 237.49999999990
  21
 452.00000000002
  31
0.0
   0
LINE
   5
2A7
 100
AcDbEntity
   8
LEVEL002
 370
30
 100
AcDbLine
   6
CONTINUOUS
  62
7
  10
 251.47499999990
  20
 452.00000000001
  30
0.0
  11
 258.87499999990
  21
 452.00000000002
  31
0.0
   0
ARC
   5
2A8
 100
AcDbEntity
   8
LEVEL002
 370
30
   6
CONTINUOUS
  62
7
 100
AcDbCircle
  10
 237.39999999981
  20
 440.10000000065
  30
0.0
  40
 0.60000000000000
 100
AcDbArc
  50
 192.55100597381
  51
 8.4925447014629
   0
LINE
   5
2A9
 100
AcDbEntity
   8
LEVEL002
 370
30
 100
AcDbLine
   6
CONTINUOUS
  62
7
  10
 235.49999999990
  20
 543.50000000000
  30
0.0
  11
 235.49999999990
  21
 498.50000000002
  31
0.0
   0
LINE
   5
2AA
 100
AcDbEntity
   8
LEVEL002
 370
30
 100
AcDbLine
   6
CONTINUOUS
  62
7
  10
 235.49999999990
  20
 498.50000000002
  30
0.0
  11
 275.49999999990
  21
 498.50000000002
  31
0.0
   0
LINE
   5
2AB
 100
AcDbEntity
   8
LEVEL002
 370
30
 100
AcDbLine
   6
CONTINUOUS
  62
7
  10
 275.49999999990
  20
 498.50000000002
  30
0.0
  11
 275.49999999990
  21
 543.50000000000
  31
0.0
   0
LINE
   5
2AC
 100
AcDbEntity
   8
LEVEL002
 370
25
 100
AcDbLine
   6
CONTINUOUS
  62
1
  10
 238.79999999990
  20
 543.50000000000
  30
0.0
  11
 238.79999999990
  21
 498.50000000002
  31
0.0
   0
LINE
   5
2AD
 100
AcDbEntity
   8
LEVEL002
 370
25
 100
AcDbLine
   6
CONTINUOUS
  62
1
  10
 240.04999999990
  20
 543.50000000000
  30
0.0
  11
 240.04999999990
  21
 498.50000000002
  31
0.0
   0
LINE
   5
2AE
 100
AcDbEntity
   8
LEVEL002
 370
25
 100
AcDbLine
   6
CONTINUOUS
  62
1
  10
 241.54999999990
  20
 543.50000000000
  30
0.0
  11
 241.54999999990
  21
 498.50000000002
  31
0.0
   0
LINE
   5
2AF
 100
AcDbEntity
   8
LEVEL002
 370
25
 100
AcDbLine
   6
CONTINUOUS
  62
1
  10
 243.04999999990
  20
 543.50000000000
  30
0.0
  11
 243.04999999990
  21
 498.50000000002
  31
0.0
   0
LINE
   5
2B0
 100
AcDbEntity
   8
LEVEL002
 370
25
 100
AcDbLine
   6
CONTINUOUS
  62
1
  10
 244.54999999990
  20
 543.50000000000
  30
0.0
  11
 244.54999999990
  21
 498.50000000002
  31
0.0
   0
LINE
   5
2B1
 100
AcDbEntity
   8
LEVEL002
 370
25
 100
AcDbLine
   6
CONTINUOUS
  62
1
  10
 246.04999999990
  20
 543.50000000000
  30
0.0
  11
 246.04999999990
  21
 498.50000000002
  31
0.0
   0
LINE
   5
2B2
 100
AcDbEntity
   8
LEVEL002
 370
25
 100
AcDbLine
   6
CONTINUOUS
  62
1
  10
 247.54999999990
  20
 543.50000000000
  30
0.0
  11
 247.54999999990
  21
 498.50000000002
  31
0.0
   0
LINE
   5
2B3
 100
AcDbEntity
   8
LEVEL002
 370
25
 100
AcDbLine
   6
CONTINUOUS
  62
1
  10
 249.04999999990
  20
 543.50000000000
  30
0.0
  11
 249.04999999990
  21
 498.50000000002
  31
0.0
   0
LINE
   5
2B4
 100
AcDbEntity
   8
LEVEL002
 370
25
 100
AcDbLine
   6
CONTINUOUS
  62
1
  10
 250.54999999990
  20
 543.50000000000
  30
0.0
  11
 250.54999999990
  21
 498.50000000002
  31
0.0
   0
LINE
   5
2B5
 100
AcDbEntity
   8
LEVEL002
 370
25
 100
AcDbLine
   6
CONTINUOUS
  62
1
  10
 252.04999999990
  20
 543.50000000000
  30
0.0
  11
 252.04999999990
  21
 498.50000000002
  31
0.0
   0
LINE
   5
2B6
 100
AcDbEntity
   8
LEVEL002
 370
25
 100
AcDbLine
   6
CONTINUOUS
  62
1
  10
 253.54999999990
  20
 543.50000000000
  30
0.0
  11
 253.54999999990
  21
 498.50000000002
  31
0.0
   0
LINE
   5
2B7
 100
AcDbEntity
   8
LEVEL002
 370
25
 100
AcDbLine
   6
CONTINUOUS
  62
1
  10
 255.04999999990
  20
 543.50000000000
  30
0.0
  11
 255.04999999990
  21
 498.50000000002
  31
0.0
   0
LINE
   5
2B8
 100
AcDbEntity
   8
LEVEL002
 370
25
 100
AcDbLine
   6
CONTINUOUS
  62
1
  10
 256.54999999990
  20
 543.50000000000
  30
0.0
  11
 256.54999999990
  21
 498.50000000002
  31
0.0
   0
LINE
   5
2B9
 100
AcDbEntity
   8
LEVEL002
 370
25
 100
AcDbLine
   6
CONTINUOUS
  62
1
  10
 258.04999999990
  20
 543.50000000000
  30
0.0
  11
 258.04999999990
  21
 498.50000000002
  31
0.0
   0
LINE
   5
2BA
 100
AcDbEntity
   8
LEVEL002
 370
25
 100
AcDbLine
   6
CONTINUOUS
  62
1
  10
 259.54999999990
  20
 543.50000000000
  30
0.0
  11
 259.54999999990
  21
 498.50000000002
  31
0.0
   0
LINE
   5
2BB
 100
AcDbEntity
   8
LEVEL002
 370
25
 100
AcDbLine
   6
CONTINUOUS
  62
1
  10
 261.04999999990
  20
 543.50000000000
  30
0.0
  11
 261.04999999990
  21
 498.50000000002
  31
0.0
   0
LINE
   5
2BC
 100
AcDbEntity
   8
LEVEL002
 370
25
 100
AcDbLine
   6
CONTINUOUS
  62
1
  10
 262.54999999990
  20
 543.50000000000
  30
0.0
  11
 262.54999999990
  21
 498.50000000002
  31
0.0
   0
LINE
   5
2BD
 100
AcDbEntity
   8
LEVEL002
 370
25
 100
AcDbLine
   6
CONTINUOUS
  62
1
  10
 264.04999999990
  20
 543.50000000000
  30
0.0
  11
 264.04999999990
  21
 498.50000000002
  31
0.0
   0
LINE
   5
2BE
 100
AcDbEntity
   8
LEVEL002
 370
25
 100
AcDbLine
   6
CONTINUOUS
  62
1
  10
 265.54999999990
  20
 543.50000000000
  30
0.0
  11
 265.54999999990
  21
 498.50000000002
  31
0.0
   0
LINE
   5
2BF
 100
AcDbEntity
   8
LEVEL002
 370
25
 100
AcDbLine
   6
CONTINUOUS
  62
1
  10
 267.04999999990
  20
 543.50000000000
  30
0.0
  11
 267.04999999990
  21
 498.50000000002
  31
0.0
   0
LINE
   5
2C0
 100
AcDbEntity
   8
LEVEL002
 370
25
 100
AcDbLine
   6
CONTINUOUS
  62
1
  10
 268.54999999990
  20
 543.50000000000
  30
0.0
  11
 268.54999999990
  21
 498.50000000002
  31
0.0
   0
LINE
   5
2C1
 100
AcDbEntity
   8
LEVEL002
 370
25
 100
AcDbLine
   6
CONTINUOUS
  62
1
  10
 270.04999999990
  20
 543.50000000000
  30
0.0
  11
 270.04999999990
  21
 498.50000000002
  31
0.0
   0
LINE
   5
2C2
 100
AcDbEntity
   8
LEVEL002
 370
25
 100
AcDbLine
   6
CONTINUOUS
  62
1
  10
 271.29999999990
  20
 543.50000000000
  30
0.0
  11
 271.29999999990
  21
 498.50000000002
  31
0.0
   0
LINE
   5
2C3
 100
AcDbEntity
   8
LEVEL002
 370
25
 100
AcDbLine
   6
CONTINUOUS
  62
1
  10
 238.79999999990
  20
 459.50000000002
  30
0.0
  11
 239.63132865696
  21
 460.77333917870
  31
0.0
   0
ARC
   5
2C4
 100
AcDbEntity
   8
LEVEL002
 370
25
   6
CONTINUOUS
  62
1
 100
AcDbCircle
  10
 240.04999999986
  20
 460.50000000008
  30
0.0
  40
 0.50000000000000
 100
AcDbArc
  50
 32.333530685999
  51
 146.86056852171
   0
LINE
   5
2C5
 100
AcDbEntity
   8
LEVEL002
 370
25
 100
AcDbLine
   6
CONTINUOUS
  62
1
  10
 240.47247448704
  20
 460.76742346144
  30
0.0
  11
 241.12752551276
  21
 459.73257653860
  31
0.0
   0
ARC
   5
2C6
 100
AcDbEntity
   8
LEVEL002
 370
25
   6
CONTINUOUS
  62
1
 100
AcDbCircle
  10
 241.54999999985
  20
 459.99999999995
  30
0.0
  40
 0.50000000000000
 100
AcDbArc
  50
 212.33353068919
  51
 327.66646931642
   0
LINE
   5
2C7
 100
AcDbEntity
   8
LEVEL002
 370
25
 100
AcDbLine
   6
CONTINUOUS
  62
1
  10
 241.97247448704
  20
 459.73257653860
  30
0.0
  11
 242.62752551276
  21
 460.76742346144
  31
0.0
   0
ARC
   5
2C8
 100
AcDbEntity
   8
LEVEL002
 370
25
   6
CONTINUOUS
  62
1
 100
AcDbCircle
  10
 243.04999999996
  20
 460.49999999993
  30
0.0
  40
 0.50000000000000
 100
AcDbArc
  50
 32.333530705992
  51
 147.66646930116
   0
LINE
   5
2C9
 100
AcDbEntity
   8
LEVEL002
 370
25
 100
AcDbLine
   6
CONTINUOUS
  62
1
  10
 243.47247448704
  20
 460.76742346144
  30
0.0
  11
 244.12752551276
  21
 459.73257653860
  31
0.0
   0
ARC
   5
2CA
 100
AcDbEntity
   8
LEVEL002
 370
25
   6
CONTINUOUS
  62
1
 100
AcDbCircle
  10
 244.54999999987
  20
 459.99999999997
  30
0.0
  40
 0.50000000000000
 100
AcDbArc
  50
 212.33353069045
  51
 327.66646931350
   0
LINE
   5
2CB
 100
AcDbEntity
   8
LEVEL002
 370
25
 100
AcDbLine
   6
CONTINUOUS
  62
1
  10
 244.97247448704
  20
 459.73257653860
  30
0.0
  11
 245.62752551276
  21
 460.76742346144
  31
0.0
   0
ARC
   5
2CC
 100
AcDbEntity
   8
LEVEL002
 370
25
   6
CONTINUOUS
  62
1
 100
AcDbCircle
  10
 246.04999999997
  20
 460.49999999991
  30
0.0
  40
 0.50000000000000
 100
AcDbArc
  50
 32.333530709014
  51
 147.66646929988
   0
LINE
   5
2CD
 100
AcDbEntity
   8
LEVEL002
 370
25
 100
AcDbLine
   6
CONTINUOUS
  62
1
  10
 246.47247448704
  20
 460.76742346144
  30
0.0
  11
 247.12752551276
  21
 459.73257653860
  31
0.0
   0
ARC
   5
2CE
 100
AcDbEntity
   8
LEVEL002
 370
25
   6
CONTINUOUS
  62
1
 100
AcDbCircle
  10
 247.54999999988
  20
 459.99999999999
  30
0.0
  40
 0.50000000000000
 100
AcDbArc
  50
 212.33353069174
  51
 327.66646931057
   0
LINE
   5
2CF
 100
AcDbEntity
   8
LEVEL002
 370
25
 100
AcDbLine
   6
CONTINUOUS
  62
1
  10
 247.97247448704
  20
 459.73257653860
  30
0.0
  11
 248.62752551276
  21
 460.76742346144
  31
0.0
   0
ARC
   5
2D0
 100
AcDbEntity
   8
LEVEL002
 370
25
   6
CONTINUOUS
  62
1
 100
AcDbCircle
  10
 249.04999999999
  20
 460.49999999988
  30
0.0
  40
 0.50000000000000
 100
AcDbArc
  50
 32.333530711999
  51
 147.66646929860
   0
LINE
   5
2D1
 100
AcDbEntity
   8
LEVEL002
 370
25
 100
AcDbLine
   6
CONTINUOUS
  62
1
  10
 249.47247448704
  20
 460.76742346144
  30
0.0
  11
 250.12752551276
  21
 459.73257653860
  31
0.0
   0
ARC
   5
2D2
 100
AcDbEntity
   8
LEVEL002
 370
25
   6
CONTINUOUS
  62
1
 100
AcDbCircle
  10
 250.54999999989
  20
 460.00000000001
  30
0.0
  40
 0.50000000000000
 100
AcDbArc
  50
 212.33353069295
  51
 327.66646930766
   0
LINE
   5
2D3
 100
AcDbEntity
   8
LEVEL002
 370
25
 100
AcDbLine
   6
CONTINUOUS
  62
1
  10
 250.97247448704
  20
 459.73257653860
  30
0.0
  11
 251.62752551276
  21
 460.76742346144
  31
0.0
   0
ARC
   5
2D4
 100
AcDbEntity
   8
LEVEL002
 370
25
   6
CONTINUOUS
  62
1
 100
AcDbCircle
  10
 252.04999999993
  20
 460.49999999997
  30
0.0
  40
 0.50000000000000
 100
AcDbArc
  50
 32.333530700253
  51
 147.66646930364
   0
LINE
   5
2D5
 100
AcDbEntity
   8
LEVEL002
 370
25
 100
AcDbLine
   6
CONTINUOUS
  62
1
  10
 252.47247448704
  20
 460.76742346144
  30
0.0
  11
 253.12752551276
  21
 459.73257653860
  31
0.0
   0
ARC
   5
2D6
 100
AcDbEntity
   8
LEVEL002
 370
25
   6
CONTINUOUS
  62
1
 100
AcDbCircle
  10
 253.54999999991
  20
 460.00000000003
  30
0.0
  40
 0.50000000000000
 100
AcDbArc
  50
 212.33353069421
  51
 327.66646930477
   0
LINE
   5
2D7
 100
AcDbEntity
   8
LEVEL002
 370
25
 100
AcDbLine
   6
CONTINUOUS
  62
1
  10
 253.97247448704
  20
 459.73257653860
  30
0.0
  11
 254.62752551276
  21
 460.76742346144
  31
0.0
   0
ARC
   5
2D8
 100
AcDbEntity
   8
LEVEL002
 370
25
   6
CONTINUOUS
  62
1
 100
AcDbCircle
  10
 255.04999999994
  20
 460.49999999995
  30
0.0
  40
 0.50000000000000
 100
AcDbArc
  50
 32.333530703217
  51
 147.66646930233
   0
LINE
   5
2D9
 100
AcDbEntity
   8
LEVEL002
 370
25
 100
AcDbLine
   6
CONTINUOUS
  62
1
  10
 255.47247448704
  20
 460.76742346144
  30
0.0
  11
 256.12752551276
  21
 459.73257653860
  31
0.0
   0
ARC
   5
2DA
 100
AcDbEntity
   8
LEVEL002
 370
25
   6
CONTINUOUS
  62
1
 100
AcDbCircle
  10
 256.54999999992
  20
 460.00000000006
  30
0.0
  40
 0.50000000000000
 100
AcDbArc
  50
 212.33353069545
  51
 327.66646930184
   0
LINE
   5
2DB
 100
AcDbEntity
   8
LEVEL002
 370
25
 100
AcDbLine
   6
CONTINUOUS
  62
1
  10
 256.97247448704
  20
 459.73257653860
  30
0.0
  11
 257.62752551276
  21
 460.76742346144
  31
0.0
   0
ARC
   5
2DC
 100
AcDbEntity
   8
LEVEL002
 370
25
   6
CONTINUOUS
  62
1
 100
AcDbCircle
  10
 258.04999999996
  20
 460.49999999993
  30
0.0
  40
 0.50000000000000
 100
AcDbArc
  50
 32.333530706216
  51
 147.66646930111
   0
LINE
   5
2DD
 100
AcDbEntity
   8
LEVEL002
 370
25
 100
AcDbLine
   6
CONTINUOUS
  62
1
  10
 258.47247448704
  20
 460.76742346144
  30
0.0
  11
 259.12752551276
  21
 459.73257653860
  31
0.0
   0
ARC
   5
2DE
 100
AcDbEntity
   8
LEVEL002
 370
25
   6
CONTINUOUS
  62
1
 100
AcDbCircle
  10
 259.54999999987
  20
 459.99999999997
  30
0.0
  40
 0.50000000000000
 100
AcDbArc
  50
 212.33353069038
  51
 327.66646931368
   0
LINE
   5
2DF
 100
AcDbEntity
   8
LEVEL002
 370
25
 100
AcDbLine
   6
CONTINUOUS
  62
1
  10
 259.97247448704
  20
 459.73257653860
  30
0.0
  11
 260.62752551276
  21
 460.76742346144
  31
0.0
   0
ARC
   5
2E0
 100
AcDbEntity
   8
LEVEL002
 370
25
   6
CONTINUOUS
  62
1
 100
AcDbCircle
  10
 261.04999999997
  20
 460.49999999991
  30
0.0
  40
 0.50000000000000
 100
AcDbArc
  50
 32.333530709202
  51
 147.66646929980
   0
LINE
   5
2E1
 100
AcDbEntity
   8
LEVEL002
 370
25
 100
AcDbLine
   6
CONTINUOUS
  62
1
  10
 261.47247448704
  20
 460.76742346144
  30
0.0
  11
 262.12752551276
  21
 459.73257653860
  31
0.0
   0
ARC
   5
2E2
 100
AcDbEntity
   8
LEVEL002
 370
25
   6
CONTINUOUS
  62
1
 100
AcDbCircle
  10
 262.54999999988
  20
 459.99999999999
  30
0.0
  40
 0.50000000000000
 100
AcDbArc
  50
 212.33353069162
  51
 327.66646931078
   0
LINE
   5
2E3
 100
AcDbEntity
   8
LEVEL002
 370
25
 100
AcDbLine
   6
CONTINUOUS
  62
1
  10
 262.97247448704
  20
 459.73257653860
  30
0.0
  11
 263.62752551276
  21
 460.76742346144
  31
0.0
   0
ARC
   5
2E4
 100
AcDbEntity
   8
LEVEL002
 370
25
   6
CONTINUOUS
  62
1
 100
AcDbCircle
  10
 264.04999999999
  20
 460.49999999988
  30
0.0
  40
 0.50000000000000
 100
AcDbArc
  50
 32.333530712245
  51
 147.66646929848
   0
LINE
   5
2E5
 100
AcDbEntity
   8
LEVEL002
 370
25
 100
AcDbLine
   6
CONTINUOUS
  62
1
  10
 264.47247448704
  20
 460.76742346144
  30
0.0
  11
 265.12752551276
  21
 459.73257653860
  31
0.0
   0
ARC
   5
2E6
 100
AcDbEntity
   8
LEVEL002
 370
25
   6
CONTINUOUS
  62
1
 100
AcDbCircle
  10
 265.54999999989
  20
 460.00000000001
  30
0.0
  40
 0.50000000000000
 100
AcDbArc
  50
 212.33353069285
  51
 327.66646930789
   0
LINE
   5
2E7
 100
AcDbEntity
   8
LEVEL002
 370
25
 100
AcDbLine
   6
CONTINUOUS
  62
1
  10
 241.54999999990
  20
 455.50000000002
  30
0.0
  11
 248.04999999990
  21
 455.50000000002
  31
0.0
   0
LINE
   5
2E8
 100
AcDbEntity
   8
LEVEL002
 370
25
 100
AcDbLine
   6
CONTINUOUS
  62
1
  10
 248.04999999990
  20
 455.50000000002
  30
0.0
  11
 248.04999999990
  21
 457.50000000002
  31
0.0
   0
LINE
   5
2E9
 100
AcDbEntity
   8
LEVEL002
 370
25
 100
AcDbLine
   6
CONTINUOUS
  62
1
  10
 248.04999999990
  20
 457.50000000002
  30
0.0
  11
 241.54999999990
  21
 457.50000000002
  31
0.0
   0
LINE
   5
2EA
 100
AcDbEntity
   8
LEVEL002
 370
25
 100
AcDbLine
   6
CONTINUOUS
  62
1
  10
 241.54999999990
  20
 457.50000000002
  30
0.0
  11
 241.54999999990
  21
 455.50000000002
  31
0.0
   0
LINE
   5
2EB
 100
AcDbEntity
   8
LEVEL002
 370
25
 100
AcDbLine
   6
CONTINUOUS
  62
1
  10
 251.04999999990
  20
 455.50000000002
  30
0.0
  11
 259.04999999990
  21
 455.50000000002
  31
0.0
   0
LINE
   5
2EC
 100
AcDbEntity
   8
LEVEL002
 370
25
 100
AcDbLine
   6
CONTINUOUS
  62
1
  10
 259.04999999990
  20
 455.50000000002
  30
0.0
  11
 259.04999999990
  21
 457.50000000002
  31
0.0
   0
LINE
   5
2ED
 100
AcDbEntity
   8
LEVEL002
 370
25
 100
AcDbLine
   6
CONTINUOUS
  62
1
  10
 259.04999999990
  20
 457.50000000002
  30
0.0
  11
 251.04999999990
  21
 457.50000000002
  31
0.0
   0
LINE
   5
2EE
 100
AcDbEntity
   8
LEVEL002
 370
25
 100
AcDbLine
   6
CONTINUOUS
  62
1
  10
 251.04999999990
  20
 457.50000000002
  30
0.0
  11
 251.04999999990
  21
 455.50000000002
  31
0.0
   0
LINE
   5
2EF
 100
AcDbEntity
   8
LEVEL002
 370
25
 100
AcDbLine
   6
CONTINUOUS
  62
1
  10
 262.04999999990
  20
 455.50000000002
  30
0.0
  11
 268.54999999990
  21
 455.50000000002
  31
0.0
   0
LINE
   5
2F0
 100
AcDbEntity
   8
LEVEL002
 370
25
 100
AcDbLine
   6
CONTINUOUS
  62
1
  10
 268.54999999990
  20
 455.50000000002
  30
0.0
  11
 268.54999999990
  21
 457.50000000002
  31
0.0
   0
LINE
   5
2F1
 100
AcDbEntity
   8
LEVEL002
 370
25
 100
AcDbLine
   6
CONTINUOUS
  62
1
  10
 268.54999999990
  20
 457.50000000002
  30
0.0
  11
 262.04999999990
  21
 457.50000000002
  31
0.0
   0
LINE
   5
2F2
 100
AcDbEntity
   8
LEVEL002
 370
25
 100
AcDbLine
   6
CONTINUOUS
  62
1
  10
 262.04999999990
  20
 457.50000000002
  30
0.0
  11
 262.04999999990
  21
 455.50000000002
  31
0.0
   0
LINE
   5
2F3
 100
AcDbEntity
   8
LEVEL002
 370
25
 100
AcDbLine
   6
CONTINUOUS
  62
1
  10
 265.97247448704
  20
 459.73257653860
  30
0.0
  11
 266.62752551276
  21
 460.76742346144
  31
0.0
   0
ARC
   5
2F4
 100
AcDbEntity
   8
LEVEL002
 370
25
   6
CONTINUOUS
  62
1
 100
AcDbCircle
  10
 267.04999999993
  20
 460.49999999997
  30
0.0
  40
 0.50000000000000
 100
AcDbArc
  50
 32.333530700477
  51
 147.66646930354
   0
ARC
   5
2F5
 100
AcDbEntity
   8
LEVEL002
 370
25
   6
CONTINUOUS
  62
1
 100
AcDbCircle
  10
 268.54999999991
  20
 460.00000000003
  30
0.0
  40
 0.50000000000000
 100
AcDbArc
  50
 212.33353069409
  51
 327.66646930496
   0
LINE
   5
2F6
 100
AcDbEntity
   8
LEVEL002
 370
25
 100
AcDbLine
   6
CONTINUOUS
  62
1
  10
 268.97247448704
  20
 459.73257653860
  30
0.0
  11
 269.62752551276
  21
 460.76742346144
  31
0.0
   0
ARC
   5
2F7
 100
AcDbEntity
   8
LEVEL002
 370
25
   6
CONTINUOUS
  62
1
 100
AcDbCircle
  10
 270.04999999997
  20
 460.49999999991
  30
0.0
  40
 0.50000000000000
 100
AcDbArc
  50
 33.139431496990
  51
 147.66646930003
   0
LINE
   5
2F8
 100
AcDbEntity
   8
LEVEL002
 370
25
 100
AcDbLine
   6
CONTINUOUS
  62
1
  10
 270.46867134284
  20
 460.77333917870
  30
0.0
  11
 271.29999999990
  21
 459.50000000002
  31
0.0
   0
DIMENSION
   5
2F9
 100
AcDbEntity
   8
LEVEL001
 370
15
   6
CONTINUOUS
  62
8
 100
AcDbDimension
   2
*D6
  10
 225.49999999990
  20
 459.50000000002
  30
0.0
  11
 225.49999999990
  21
 449.50131931581
  31
0.0
  70
0
   1
\A1;20
   3
GMM001
 100
AcDbAlignedDimension
  13
 235.49999999990
  23
 439.50263863159
  33
0.0
  14
 235.49999999990
  24
 459.50000000002
  34
0.0
  50
 90.000000000000
 100
AcDbRotatedDimension
   0
DIMENSION
   5
2FA
 100
AcDbEntity
   8
LEVEL001
 370
15
   6
CONTINUOUS
  62
8
 100
AcDbDimension
   2
*D7
  10
 275.49999999990
  20
 469.50000000002
  30
0.0
  11
 255.49999999990
  21
 469.50000000002
  31
0.0
  70
0
   3
GMM001
 100
AcDbAlignedDimension
  13
 235.49999999990
  23
 459.50000000002
  33
0.0
  14
 275.49999999990
  24
 459.50000000002
  34
0.0
 100
AcDbRotatedDimension
   0
DIMENSION
   5
2FB
 100
AcDbEntity
   8
LEVEL001
 370
15
   6
CONTINUOUS
  62
8
 100
AcDbDimension
   2
*D8
  10
 287.49999999990
  20
 459.50000000002
  30
0.0
  11
 287.49999999990
  21
 460.52576995887
  31
0.0
  70
128
   3
GMM003
 100
AcDbAlignedDimension
  13
 275.49999999990
  23
 452.00000000002
  33
0.0
  14
 275.49999999990
  24
 459.50000000002
  34
0.0
  50
 90.000000000000
 100
AcDbRotatedDimension
   0
LEADER
   5
2FC
 100
AcDbEntity
   8
LEVEL001
 370
15
   6
CONTINUOUS
  62
8
 100
AcDbLeader
   3
GMM002
  73
0
  74
0
  75
0
  40
 6.0000000000000
  41
 26.000000000000
  76
2
  10
 267.09657843001
  20
 459.96860657060
  30
0.0
  10
 278.33982167326
  20
 479.38001798201
  30
0.0
  77
8
 340
2FD
 213
0.0
 223
-2.0000000000000
 233
0.0
   0
MTEXT
   5
2FD
 102
{ACAD_REACTORS
 330
2FC
 102
}
 100
AcDbEntity
   8
LEVEL001
 370
15
  62
8
 100
AcDbMText
  10
 278.33982167326
  20
 481.38001798201
  30
0.0
  40
 6.0000000000000
  41
0.0
  71
7
  72
1
   1
\A1;インサート
   7
GMM002
   0
LEADER
   5
2FE
 100
AcDbEntity
   8
LEVEL001
 370
15
   6
CONTINUOUS
  62
8
 100
AcDbLeader
   3
GMM002
  73
0
  74
1
  75
0
  40
 6.0000000000000
  41
 11.000000000000
  76
2
  10
 237.61300770035
  20
 459.12921007184
  30
0.0
  10
 229.84615010033
  20
 470.94034263784
  30
0.0
  77
8
 340
2FF
 213
0.0
 223
-2.0000000000000
 233
0.0
   0
MTEXT
   5
2FF
 102
{ACAD_REACTORS
 330
2FE
 102
}
 100
AcDbEntity
   8
LEVEL001
 370
15
  62
8
 100
AcDbMText
  10
 218.84615010033
  20
 472.94034263784
  30
0.0
  40
 6.0000000000000
  41
0.0
  71
7
  72
1
   1
\A1;金台
   7
GMM002
   0
MTEXT
   5
301
 100
AcDbEntity
   8
LEVEL002
 370
15
  62
8
 100
AcDbMText
  10
 103.24999999990
  20
 287.00000000000
  30
0.0
  40
 6.0000000000000
  41
0.0
  71
5
  72
1
   1
\T1.000000;ＰＡ４０１３
   7
GMM002
  44
 0.79999984000003
   0
MTEXT
   5
303
 100
AcDbEntity
   8
LEVEL002
 370
15
  62
8
 100
AcDbMText
  10
 247.74999999990
  20
 287.00000000000
  30
0.0
  40
 6.0000000000000
  41
0.0
  71
5
  72
1
   1
\T1.000000;ＰＦＡ４０１３
   7
GMM002
  44
 0.79999984000003
   0
LINE
   5
304
 100
AcDbEntity
   8
LEVEL002
 370
30
 100
AcDbLine
   6
CONTINUOUS
  62
7
  10
 524.49999999989
  20
 186.50000000000
  30
0.0
  11
 524.99999999989
  21
 183.50000000000
  31
0.0
   0
LINE
   5
305
 100
AcDbEntity
   8
LEVEL002
 370
30
 100
AcDbLine
   6
CONTINUOUS
  62
7
  10
 524.99999999989
  20
 183.50000000000
  30
0.0
  11
 563.99999999989
  21
 183.50000000000
  31
0.0
   0
LINE
   5
306
 100
AcDbEntity
   8
LEVEL002
 370
30
 100
AcDbLine
   6
CONTINUOUS
  62
7
  10
 563.99999999989
  20
 183.50000000000
  30
0.0
  11
 564.49999999989
  21
 186.50000000000
  31
0.0
   0
LINE
   5
307
 100
AcDbEntity
   8
LEVEL002
 370
30
 100
AcDbLine
   6
CONTINUOUS
  62
7
  10
 564.49999999989
  20
 186.50000000000
  30
0.0
  11
 561.99999999989
  21
 186.50000000000
  31
0.0
   0
LINE
   5
308
 100
AcDbEntity
   8
LEVEL002
 370
30
 100
AcDbLine
   6
CONTINUOUS
  62
7
  10
 561.99999999989
  20
 186.50000000000
  30
0.0
  11
 562.49999999989
  21
 184.70000000000
  31
0.0
   0
LINE
   5
309
 100
AcDbEntity
   8
LEVEL002
 370
30
 100
AcDbLine
   6
CONTINUOUS
  62
7
  10
 562.49999999989
  20
 184.70000000000
  30
0.0
  11
 526.49999999989
  21
 184.70000000000
  31
0.0
   0
LINE
   5
30A
 100
AcDbEntity
   8
LEVEL002
 370
30
 100
AcDbLine
   6
CONTINUOUS
  62
7
  10
 526.49999999989
  20
 184.70000000000
  30
0.0
  11
 526.99999999989
  21
 186.50000000000
  31
0.0
   0
LINE
   5
30B
 100
AcDbEntity
   8
LEVEL002
 370
30
 100
AcDbLine
   6
CONTINUOUS
  62
7
  10
 526.99999999989
  20
 186.50000000000
  30
0.0
  11
 524.49999999989
  21
 186.50000000000
  31
0.0
   0
LINE
   5
30C
 100
AcDbEntity
   8
LEVEL002
 370
30
 100
AcDbLine
   6
CONTINUOUS
  62
7
  10
 524.49999999989
  20
 240.50000000000
  30
0.0
  11
 524.49999999989
  21
 215.50000000000
  31
0.0
   0
LINE
   5
30D
 100
AcDbEntity
   8
LEVEL002
 370
30
 100
AcDbLine
   6
CONTINUOUS
  62
7
  10
 524.49999999989
  20
 215.50000000000
  30
0.0
  11
 564.49999999989
  21
 215.50000000000
  31
0.0
   0
LINE
   5
30E
 100
AcDbEntity
   8
LEVEL002
 370
30
 100
AcDbLine
   6
CONTINUOUS
  62
7
  10
 564.49999999989
  20
 215.50000000000
  30
0.0
  11
 564.49999999989
  21
 240.50000000000
  31
0.0
   0
LINE
   5
30F
 100
AcDbEntity
   8
LEVEL002
 370
30
 100
AcDbLine
   6
CONTINUOUS
  62
7
  10
 524.49999999989
  20
 270.50000000000
  30
0.0
  11
 524.49999999989
  21
 245.50000000000
  31
0.0
   0
LINE
   5
310
 100
AcDbEntity
   8
LEVEL002
 370
30
 100
AcDbLine
   6
CONTINUOUS
  62
7
  10
 524.49999999989
  20
 245.50000000000
  30
0.0
  11
 564.49999999989
  21
 245.50000000000
  31
0.0
   0
LINE
   5
311
 100
AcDbEntity
   8
LEVEL002
 370
30
 100
AcDbLine
   6
CONTINUOUS
  62
7
  10
 564.49999999989
  20
 245.50000000000
  30
0.0
  11
 564.49999999989
  21
 270.50000000000
  31
0.0
   0
LINE
   5
312
 100
AcDbEntity
   8
LEVEL002
 370
25
 100
AcDbLine
   6
CONTINUOUS
  62
1
  10
 527.49999999989
  20
 270.50000000000
  30
0.0
  11
 527.49999999989
  21
 245.50000000000
  31
0.0
   0
LINE
   5
313
 100
AcDbEntity
   8
LEVEL002
 370
25
 100
AcDbLine
   6
CONTINUOUS
  62
1
  10
 562.49999999989
  20
 270.50000000000
  30
0.0
  11
 562.49999999989
  21
 245.50000000000
  31
0.0
   0
LINE
   5
314
 100
AcDbEntity
   8
LEVEL002
 370
25
 100
AcDbLine
   6
CONTINUOUS
  62
1
  10
 529.54173436179
  20
 252.60000000000
  30
0.0
  11
 529.54173436179
  21
 248.00000000000
  31
0.0
   0
LINE
   5
315
 100
AcDbEntity
   8
LEVEL002
 370
25
 100
AcDbLine
   6
CONTINUOUS
  62
1
  10
 529.54173436179
  20
 248.00000000000
  30
0.0
  11
 534.14173436179
  21
 248.00000000000
  31
0.0
   0
LINE
   5
316
 100
AcDbEntity
   8
LEVEL002
 370
25
 100
AcDbLine
   6
CONTINUOUS
  62
1
  10
 534.14173436179
  20
 248.00000000000
  30
0.0
  11
 534.14173436179
  21
 252.60000000000
  31
0.0
   0
LINE
   5
317
 100
AcDbEntity
   8
LEVEL002
 370
25
 100
AcDbLine
   6
CONTINUOUS
  62
1
  10
 534.14173436179
  20
 252.60000000000
  30
0.0
  11
 529.54173436179
  21
 252.60000000000
  31
0.0
   0
LINE
   5
318
 100
AcDbEntity
   8
LEVEL002
 370
25
 100
AcDbLine
   6
CONTINUOUS
  62
1
  10
 536.14173436179
  20
 252.60000000000
  30
0.0
  11
 536.14173436179
  21
 248.00000000000
  31
0.0
   0
LINE
   5
319
 100
AcDbEntity
   8
LEVEL002
 370
25
 100
AcDbLine
   6
CONTINUOUS
  62
1
  10
 536.14173436179
  20
 248.00000000000
  30
0.0
  11
 540.74173436179
  21
 248.00000000000
  31
0.0
   0
LINE
   5
31A
 100
AcDbEntity
   8
LEVEL002
 370
25
 100
AcDbLine
   6
CONTINUOUS
  62
1
  10
 540.74173436179
  20
 248.00000000000
  30
0.0
  11
 540.74173436179
  21
 252.60000000000
  31
0.0
   0
LINE
   5
31B
 100
AcDbEntity
   8
LEVEL002
 370
25
 100
AcDbLine
   6
CONTINUOUS
  62
1
  10
 540.74173436179
  20
 252.60000000000
  30
0.0
  11
 536.14173436179
  21
 252.60000000000
  31
0.0
   0
LINE
   5
31C
 100
AcDbEntity
   8
LEVEL002
 370
25
 100
AcDbLine
   6
CONTINUOUS
  62
1
  10
 542.74173436179
  20
 252.60000000000
  30
0.0
  11
 542.74173436179
  21
 248.00000000000
  31
0.0
   0
LINE
   5
31D
 100
AcDbEntity
   8
LEVEL002
 370
25
 100
AcDbLine
   6
CONTINUOUS
  62
1
  10
 542.74173436179
  20
 248.00000000000
  30
0.0
  11
 547.34173436179
  21
 248.00000000000
  31
0.0
   0
LINE
   5
31E
 100
AcDbEntity
   8
LEVEL002
 370
25
 100
AcDbLine
   6
CONTINUOUS
  62
1
  10
 547.34173436179
  20
 248.00000000000
  30
0.0
  11
 547.34173436179
  21
 252.60000000000
  31
0.0
   0
LINE
   5
31F
 100
AcDbEntity
   8
LEVEL002
 370
25
 100
AcDbLine
   6
CONTINUOUS
  62
1
  10
 547.34173436179
  20
 252.60000000000
  30
0.0
  11
 542.74173436179
  21
 252.60000000000
  31
0.0
   0
LINE
   5
320
 100
AcDbEntity
   8
LEVEL002
 370
25
 100
AcDbLine
   6
CONTINUOUS
  62
1
  10
 549.34173436179
  20
 252.60000000000
  30
0.0
  11
 549.34173436179
  21
 248.00000000000
  31
0.0
   0
LINE
   5
321
 100
AcDbEntity
   8
LEVEL002
 370
25
 100
AcDbLine
   6
CONTINUOUS
  62
1
  10
 549.34173436179
  20
 248.00000000000
  30
0.0
  11
 553.94173436179
  21
 248.00000000000
  31
0.0
   0
LINE
   5
322
 100
AcDbEntity
   8
LEVEL002
 370
25
 100
AcDbLine
   6
CONTINUOUS
  62
1
  10
 553.94173436179
  20
 248.00000000000
  30
0.0
  11
 553.94173436179
  21
 252.60000000000
  31
0.0
   0
LINE
   5
323
 100
AcDbEntity
   8
LEVEL002
 370
25
 100
AcDbLine
   6
CONTINUOUS
  62
1
  10
 553.94173436179
  20
 252.60000000000
  30
0.0
  11
 549.34173436179
  21
 252.60000000000
  31
0.0
   0
LINE
   5
324
 100
AcDbEntity
   8
LEVEL002
 370
25
 100
AcDbLine
   6
CONTINUOUS
  62
1
  10
 555.94173436179
  20
 252.60000000000
  30
0.0
  11
 555.94173436179
  21
 248.00000000000
  31
0.0
   0
LINE
   5
325
 100
AcDbEntity
   8
LEVEL002
 370
25
 100
AcDbLine
   6
CONTINUOUS
  62
1
  10
 555.94173436179
  20
 248.00000000000
  30
0.0
  11
 560.54173436179
  21
 248.00000000000
  31
0.0
   0
LINE
   5
326
 100
AcDbEntity
   8
LEVEL002
 370
25
 100
AcDbLine
   6
CONTINUOUS
  62
1
  10
 560.54173436179
  20
 248.00000000000
  30
0.0
  11
 560.54173436179
  21
 252.60000000000
  31
0.0
   0
LINE
   5
327
 100
AcDbEntity
   8
LEVEL002
 370
25
 100
AcDbLine
   6
CONTINUOUS
  62
1
  10
 560.54173436179
  20
 252.60000000000
  30
0.0
  11
 555.94173436179
  21
 252.60000000000
  31
0.0
   0
LINE
   5
328
 100
AcDbEntity
   8
LEVEL002
 370
25
 100
AcDbLine
   6
CONTINUOUS
  62
1
  10
 529.54173436179
  20
 259.70000000000
  30
0.0
  11
 529.54173436179
  21
 255.10000000000
  31
0.0
   0
LINE
   5
329
 100
AcDbEntity
   8
LEVEL002
 370
25
 100
AcDbLine
   6
CONTINUOUS
  62
1
  10
 529.54173436179
  20
 255.10000000000
  30
0.0
  11
 534.14173436179
  21
 255.10000000000
  31
0.0
   0
LINE
   5
32A
 100
AcDbEntity
   8
LEVEL002
 370
25
 100
AcDbLine
   6
CONTINUOUS
  62
1
  10
 534.14173436179
  20
 255.10000000000
  30
0.0
  11
 534.14173436179
  21
 259.70000000000
  31
0.0
   0
LINE
   5
32B
 100
AcDbEntity
   8
LEVEL002
 370
25
 100
AcDbLine
   6
CONTINUOUS
  62
1
  10
 534.14173436179
  20
 259.70000000000
  30
0.0
  11
 529.54173436179
  21
 259.70000000000
  31
0.0
   0
LINE
   5
32C
 100
AcDbEntity
   8
LEVEL002
 370
25
 100
AcDbLine
   6
CONTINUOUS
  62
1
  10
 536.14173436179
  20
 259.70000000000
  30
0.0
  11
 536.14173436179
  21
 255.10000000000
  31
0.0
   0
LINE
   5
32D
 100
AcDbEntity
   8
LEVEL002
 370
25
 100
AcDbLine
   6
CONTINUOUS
  62
1
  10
 536.14173436179
  20
 255.10000000000
  30
0.0
  11
 540.74173436179
  21
 255.10000000000
  31
0.0
   0
LINE
   5
32E
 100
AcDbEntity
   8
LEVEL002
 370
25
 100
AcDbLine
   6
CONTINUOUS
  62
1
  10
 540.74173436179
  20
 255.10000000000
  30
0.0
  11
 540.74173436179
  21
 259.70000000000
  31
0.0
   0
LINE
   5
32F
 100
AcDbEntity
   8
LEVEL002
 370
25
 100
AcDbLine
   6
CONTINUOUS
  62
1
  10
 540.74173436179
  20
 259.70000000000
  30
0.0
  11
 536.14173436179
  21
 259.70000000000
  31
0.0
   0
LINE
   5
330
 100
AcDbEntity
   8
LEVEL002
 370
25
 100
AcDbLine
   6
CONTINUOUS
  62
1
  10
 542.74173436179
  20
 259.70000000000
  30
0.0
  11
 542.74173436179
  21
 255.10000000000
  31
0.0
   0
LINE
   5
331
 100
AcDbEntity
   8
LEVEL002
 370
25
 100
AcDbLine
   6
CONTINUOUS
  62
1
  10
 542.74173436179
  20
 255.10000000000
  30
0.0
  11
 547.34173436179
  21
 255.10000000000
  31
0.0
   0
LINE
   5
332
 100
AcDbEntity
   8
LEVEL002
 370
25
 100
AcDbLine
   6
CONTINUOUS
  62
1
  10
 547.34173436179
  20
 255.10000000000
  30
0.0
  11
 547.34173436179
  21
 259.70000000000
  31
0.0
   0
LINE
   5
333
 100
AcDbEntity
   8
LEVEL002
 370
25
 100
AcDbLine
   6
CONTINUOUS
  62
1
  10
 547.34173436179
  20
 259.70000000000
  30
0.0
  11
 542.74173436179
  21
 259.70000000000
  31
0.0
   0
LINE
   5
334
 100
AcDbEntity
   8
LEVEL002
 370
25
 100
AcDbLine
   6
CONTINUOUS
  62
1
  10
 549.34173436179
  20
 259.70000000000
  30
0.0
  11
 549.34173436179
  21
 255.10000000000
  31
0.0
   0
LINE
   5
335
 100
AcDbEntity
   8
LEVEL002
 370
25
 100
AcDbLine
   6
CONTINUOUS
  62
1
  10
 549.34173436179
  20
 255.10000000000
  30
0.0
  11
 553.94173436179
  21
 255.10000000000
  31
0.0
   0
LINE
   5
336
 100
AcDbEntity
   8
LEVEL002
 370
25
 100
AcDbLine
   6
CONTINUOUS
  62
1
  10
 553.94173436179
  20
 255.10000000000
  30
0.0
  11
 553.94173436179
  21
 259.70000000000
  31
0.0
   0
LINE
   5
337
 100
AcDbEntity
   8
LEVEL002
 370
25
 100
AcDbLine
   6
CONTINUOUS
  62
1
  10
 553.94173436179
  20
 259.70000000000
  30
0.0
  11
 549.34173436179
  21
 259.70000000000
  31
0.0
   0
LINE
   5
338
 100
AcDbEntity
   8
LEVEL002
 370
25
 100
AcDbLine
   6
CONTINUOUS
  62
1
  10
 555.94173436179
  20
 259.70000000000
  30
0.0
  11
 555.94173436179
  21
 255.10000000000
  31
0.0
   0
LINE
   5
339
 100
AcDbEntity
   8
LEVEL002
 370
25
 100
AcDbLine
   6
CONTINUOUS
  62
1
  10
 555.94173436179
  20
 255.10000000000
  30
0.0
  11
 560.54173436179
  21
 255.10000000000
  31
0.0
   0
LINE
   5
33A
 100
AcDbEntity
   8
LEVEL002
 370
25
 100
AcDbLine
   6
CONTINUOUS
  62
1
  10
 560.54173436179
  20
 255.10000000000
  30
0.0
  11
 560.54173436179
  21
 259.70000000000
  31
0.0
   0
LINE
   5
33B
 100
AcDbEntity
   8
LEVEL002
 370
25
 100
AcDbLine
   6
CONTINUOUS
  62
1
  10
 560.54173436179
  20
 259.70000000000
  30
0.0
  11
 555.94173436179
  21
 259.70000000000
  31
0.0
   0
LINE
   5
33C
 100
AcDbEntity
   8
LEVEL002
 370
25
 100
AcDbLine
   6
CONTINUOUS
  62
1
  10
 529.54173436179
  20
 266.80000000000
  30
0.0
  11
 529.54173436179
  21
 262.20000000000
  31
0.0
   0
LINE
   5
33D
 100
AcDbEntity
   8
LEVEL002
 370
25
 100
AcDbLine
   6
CONTINUOUS
  62
1
  10
 529.54173436179
  20
 262.20000000000
  30
0.0
  11
 534.14173436179
  21
 262.20000000000
  31
0.0
   0
LINE
   5
33E
 100
AcDbEntity
   8
LEVEL002
 370
25
 100
AcDbLine
   6
CONTINUOUS
  62
1
  10
 534.14173436179
  20
 262.20000000000
  30
0.0
  11
 534.14173436179
  21
 266.80000000000
  31
0.0
   0
LINE
   5
33F
 100
AcDbEntity
   8
LEVEL002
 370
25
 100
AcDbLine
   6
CONTINUOUS
  62
1
  10
 534.14173436179
  20
 266.80000000000
  30
0.0
  11
 529.54173436179
  21
 266.80000000000
  31
0.0
   0
LINE
   5
340
 100
AcDbEntity
   8
LEVEL002
 370
25
 100
AcDbLine
   6
CONTINUOUS
  62
1
  10
 536.14173436179
  20
 266.80000000000
  30
0.0
  11
 536.14173436179
  21
 262.20000000000
  31
0.0
   0
LINE
   5
341
 100
AcDbEntity
   8
LEVEL002
 370
25
 100
AcDbLine
   6
CONTINUOUS
  62
1
  10
 536.14173436179
  20
 262.20000000000
  30
0.0
  11
 540.74173436179
  21
 262.20000000000
  31
0.0
   0
LINE
   5
342
 100
AcDbEntity
   8
LEVEL002
 370
25
 100
AcDbLine
   6
CONTINUOUS
  62
1
  10
 540.74173436179
  20
 262.20000000000
  30
0.0
  11
 540.74173436179
  21
 266.80000000000
  31
0.0
   0
LINE
   5
343
 100
AcDbEntity
   8
LEVEL002
 370
25
 100
AcDbLine
   6
CONTINUOUS
  62
1
  10
 540.74173436179
  20
 266.80000000000
  30
0.0
  11
 536.14173436179
  21
 266.80000000000
  31
0.0
   0
LINE
   5
344
 100
AcDbEntity
   8
LEVEL002
 370
25
 100
AcDbLine
   6
CONTINUOUS
  62
1
  10
 542.74173436179
  20
 266.80000000000
  30
0.0
  11
 542.74173436179
  21
 262.20000000000
  31
0.0
   0
LINE
   5
345
 100
AcDbEntity
   8
LEVEL002
 370
25
 100
AcDbLine
   6
CONTINUOUS
  62
1
  10
 542.74173436179
  20
 262.20000000000
  30
0.0
  11
 547.34173436179
  21
 262.20000000000
  31
0.0
   0
LINE
   5
346
 100
AcDbEntity
   8
LEVEL002
 370
25
 100
AcDbLine
   6
CONTINUOUS
  62
1
  10
 547.34173436179
  20
 262.20000000000
  30
0.0
  11
 547.34173436179
  21
 266.80000000000
  31
0.0
   0
LINE
   5
347
 100
AcDbEntity
   8
LEVEL002
 370
25
 100
AcDbLine
   6
CONTINUOUS
  62
1
  10
 547.34173436179
  20
 266.80000000000
  30
0.0
  11
 542.74173436179
  21
 266.80000000000
  31
0.0
   0
LINE
   5
348
 100
AcDbEntity
   8
LEVEL002
 370
25
 100
AcDbLine
   6
CONTINUOUS
  62
1
  10
 549.34173436179
  20
 266.80000000000
  30
0.0
  11
 549.34173436179
  21
 262.20000000000
  31
0.0
   0
LINE
   5
349
 100
AcDbEntity
   8
LEVEL002
 370
25
 100
AcDbLine
   6
CONTINUOUS
  62
1
  10
 549.34173436179
  20
 262.20000000000
  30
0.0
  11
 553.94173436179
  21
 262.20000000000
  31
0.0
   0
LINE
   5
34A
 100
AcDbEntity
   8
LEVEL002
 370
25
 100
AcDbLine
   6
CONTINUOUS
  62
1
  10
 553.94173436179
  20
 262.20000000000
  30
0.0
  11
 553.94173436179
  21
 266.80000000000
  31
0.0
   0
LINE
   5
34B
 100
AcDbEntity
   8
LEVEL002
 370
25
 100
AcDbLine
   6
CONTINUOUS
  62
1
  10
 553.94173436179
  20
 266.80000000000
  30
0.0
  11
 549.34173436179
  21
 266.80000000000
  31
0.0
   0
LINE
   5
34C
 100
AcDbEntity
   8
LEVEL002
 370
25
 100
AcDbLine
   6
CONTINUOUS
  62
1
  10
 555.94173436179
  20
 266.80000000000
  30
0.0
  11
 555.94173436179
  21
 262.20000000000
  31
0.0
   0
LINE
   5
34D
 100
AcDbEntity
   8
LEVEL002
 370
25
 100
AcDbLine
   6
CONTINUOUS
  62
1
  10
 555.94173436179
  20
 262.20000000000
  30
0.0
  11
 560.54173436179
  21
 262.20000000000
  31
0.0
   0
LINE
   5
34E
 100
AcDbEntity
   8
LEVEL002
 370
25
 100
AcDbLine
   6
CONTINUOUS
  62
1
  10
 560.54173436179
  20
 262.20000000000
  30
0.0
  11
 560.54173436179
  21
 266.80000000000
  31
0.0
   0
LINE
   5
34F
 100
AcDbEntity
   8
LEVEL002
 370
25
 100
AcDbLine
   6
CONTINUOUS
  62
1
  10
 560.54173436179
  20
 266.80000000000
  30
0.0
  11
 555.94173436179
  21
 266.80000000000
  31
0.0
   0
LINE
   5
350
 100
AcDbEntity
   8
LEVEL002
 370
25
 100
AcDbLine
   6
CONTINUOUS
  62
1
  10
 527.49999999989
  20
 240.50000000000
  30
0.0
  11
 527.49999999989
  21
 215.50000000000
  31
0.0
   0
LINE
   5
351
 100
AcDbEntity
   8
LEVEL002
 370
25
 100
AcDbLine
   6
CONTINUOUS
  62
1
  10
 562.49999999989
  20
 240.50000000000
  30
0.0
  11
 562.49999999989
  21
 215.50000000000
  31
0.0
   0
CIRCLE
   5
352
 100
AcDbEntity
   8
LEVEL002
 370
25
 100
AcDbCircle
   6
CONTINUOUS
  62
1
  10
 558.43481231749
  20
 220.30000000000
  30
0.0
  40
 2.3000000000000
   0
CIRCLE
   5
353
 100
AcDbEntity
   8
LEVEL002
 370
25
 100
AcDbCircle
   6
CONTINUOUS
  62
1
  10
 551.83481231749
  20
 220.30000000000
  30
0.0
  40
 2.3000000000000
   0
CIRCLE
   5
354
 100
AcDbEntity
   8
LEVEL002
 370
25
 100
AcDbCircle
   6
CONTINUOUS
  62
1
  10
 545.23481231749
  20
 220.30000000000
  30
0.0
  40
 2.3000000000000
   0
CIRCLE
   5
355
 100
AcDbEntity
   8
LEVEL002
 370
25
 100
AcDbCircle
   6
CONTINUOUS
  62
1
  10
 538.63481231749
  20
 220.30000000000
  30
0.0
  40
 2.3000000000000
   0
CIRCLE
   5
356
 100
AcDbEntity
   8
LEVEL002
 370
25
 100
AcDbCircle
   6
CONTINUOUS
  62
1
  10
 532.03481231749
  20
 220.30000000000
  30
0.0
  40
 2.3000000000000
   0
CIRCLE
   5
357
 100
AcDbEntity
   8
LEVEL002
 370
25
 100
AcDbCircle
   6
CONTINUOUS
  62
1
  10
 558.43481231749
  20
 227.40000000000
  30
0.0
  40
 2.3000000000000
   0
CIRCLE
   5
358
 100
AcDbEntity
   8
LEVEL002
 370
25
 100
AcDbCircle
   6
CONTINUOUS
  62
1
  10
 551.83481231749
  20
 227.40000000000
  30
0.0
  40
 2.3000000000000
   0
CIRCLE
   5
359
 100
AcDbEntity
   8
LEVEL002
 370
25
 100
AcDbCircle
   6
CONTINUOUS
  62
1
  10
 545.23481231749
  20
 227.40000000000
  30
0.0
  40
 2.3000000000000
   0
CIRCLE
   5
35A
 100
AcDbEntity
   8
LEVEL002
 370
25
 100
AcDbCircle
   6
CONTINUOUS
  62
1
  10
 538.63481231749
  20
 227.40000000000
  30
0.0
  40
 2.3000000000000
   0
CIRCLE
   5
35B
 100
AcDbEntity
   8
LEVEL002
 370
25
 100
AcDbCircle
   6
CONTINUOUS
  62
1
  10
 532.03481231749
  20
 227.40000000000
  30
0.0
  40
 2.3000000000000
   0
CIRCLE
   5
35C
 100
AcDbEntity
   8
LEVEL002
 370
25
 100
AcDbCircle
   6
CONTINUOUS
  62
1
  10
 558.43481231749
  20
 234.50000000000
  30
0.0
  40
 2.3000000000000
   0
CIRCLE
   5
35D
 100
AcDbEntity
   8
LEVEL002
 370
25
 100
AcDbCircle
   6
CONTINUOUS
  62
1
  10
 551.83481231749
  20
 234.50000000000
  30
0.0
  40
 2.3000000000000
   0
CIRCLE
   5
35E
 100
AcDbEntity
   8
LEVEL002
 370
25
 100
AcDbCircle
   6
CONTINUOUS
  62
1
  10
 545.23481231749
  20
 234.50000000000
  30
0.0
  40
 2.3000000000000
   0
CIRCLE
   5
35F
 100
AcDbEntity
   8
LEVEL002
 370
25
 100
AcDbCircle
   6
CONTINUOUS
  62
1
  10
 538.63481231749
  20
 234.50000000000
  30
0.0
  40
 2.3000000000000
   0
CIRCLE
   5
360
 100
AcDbEntity
   8
LEVEL002
 370
25
 100
AcDbCircle
   6
CONTINUOUS
  62
1
  10
 532.03481231749
  20
 234.50000000000
  30
0.0
  40
 2.3000000000000
   0
LINE
   5
361
 100
AcDbEntity
   8
LEVEL002
 370
25
 100
AcDbLine
   6
CONTINUOUS
  62
1
  10
 526.99999999989
  20
 186.50000000000
  30
0.0
  11
 526.99999999989
  21
 187.20000000000
  31
0.0
   0
LINE
   5
362
 100
AcDbEntity
   8
LEVEL002
 370
25
 100
AcDbLine
   6
CONTINUOUS
  62
1
  10
 526.99999999989
  20
 187.20000000000
  30
0.0
  11
 561.99999999989
  21
 187.20000000000
  31
0.0
   0
LINE
   5
363
 100
AcDbEntity
   8
LEVEL002
 370
25
 100
AcDbLine
   6
CONTINUOUS
  62
1
  10
 529.04173436179
  20
 187.20000000000
  30
0.0
  11
 529.28288863489
  21
 188.10000000000
  31
0.0
   0
LINE
   5
364
 100
AcDbEntity
   8
LEVEL002
 370
25
 100
AcDbLine
   6
CONTINUOUS
  62
1
  10
 529.28288863489
  20
 188.10000000000
  30
0.0
  11
 533.40058008869
  21
 188.10000000000
  31
0.0
   0
LINE
   5
365
 100
AcDbEntity
   8
LEVEL002
 370
25
 100
AcDbLine
   6
CONTINUOUS
  62
1
  10
 533.40058008869
  20
 188.10000000000
  30
0.0
  11
 533.64173436179
  21
 187.20000000000
  31
0.0
   0
LINE
   5
366
 100
AcDbEntity
   8
LEVEL002
 370
25
 100
AcDbLine
   6
CONTINUOUS
  62
1
  10
 535.64173436179
  20
 187.20000000000
  30
0.0
  11
 535.88288863489
  21
 188.10000000000
  31
0.0
   0
LINE
   5
367
 100
AcDbEntity
   8
LEVEL002
 370
25
 100
AcDbLine
   6
CONTINUOUS
  62
1
  10
 535.88288863489
  20
 188.10000000000
  30
0.0
  11
 540.00058008869
  21
 188.10000000000
  31
0.0
   0
LINE
   5
368
 100
AcDbEntity
   8
LEVEL002
 370
25
 100
AcDbLine
   6
CONTINUOUS
  62
1
  10
 540.00058008869
  20
 188.10000000000
  30
0.0
  11
 540.24173436179
  21
 187.20000000000
  31
0.0
   0
LINE
   5
369
 100
AcDbEntity
   8
LEVEL002
 370
25
 100
AcDbLine
   6
CONTINUOUS
  62
1
  10
 542.24173436179
  20
 187.20000000000
  30
0.0
  11
 542.48288863489
  21
 188.10000000000
  31
0.0
   0
LINE
   5
36A
 100
AcDbEntity
   8
LEVEL002
 370
25
 100
AcDbLine
   6
CONTINUOUS
  62
1
  10
 542.48288863489
  20
 188.10000000000
  30
0.0
  11
 546.60058008869
  21
 188.10000000000
  31
0.0
   0
LINE
   5
36B
 100
AcDbEntity
   8
LEVEL002
 370
25
 100
AcDbLine
   6
CONTINUOUS
  62
1
  10
 546.60058008869
  20
 188.10000000000
  30
0.0
  11
 546.84173436179
  21
 187.20000000000
  31
0.0
   0
LINE
   5
36C
 100
AcDbEntity
   8
LEVEL002
 370
25
 100
AcDbLine
   6
CONTINUOUS
  62
1
  10
 548.84173436179
  20
 187.20000000000
  30
0.0
  11
 549.08288863489
  21
 188.10000000000
  31
0.0
   0
LINE
   5
36D
 100
AcDbEntity
   8
LEVEL002
 370
25
 100
AcDbLine
   6
CONTINUOUS
  62
1
  10
 549.08288863489
  20
 188.10000000000
  30
0.0
  11
 553.20058008869
  21
 188.10000000000
  31
0.0
   0
LINE
   5
36E
 100
AcDbEntity
   8
LEVEL002
 370
25
 100
AcDbLine
   6
CONTINUOUS
  62
1
  10
 553.20058008869
  20
 188.10000000000
  30
0.0
  11
 553.44173436179
  21
 187.20000000000
  31
0.0
   0
LINE
   5
36F
 100
AcDbEntity
   8
LEVEL002
 370
25
 100
AcDbLine
   6
CONTINUOUS
  62
1
  10
 561.99999999989
  20
 187.20000000000
  30
0.0
  11
 561.99999999989
  21
 186.50000000000
  31
0.0
   0
LINE
   5
370
 100
AcDbEntity
   8
LEVEL002
 370
25
 100
AcDbLine
   6
CONTINUOUS
  62
1
  10
 555.44173436179
  20
 187.20000000000
  30
0.0
  11
 555.68288863489
  21
 188.10000000000
  31
0.0
   0
LINE
   5
371
 100
AcDbEntity
   8
LEVEL002
 370
25
 100
AcDbLine
   6
CONTINUOUS
  62
1
  10
 555.68288863489
  20
 188.10000000000
  30
0.0
  11
 559.80058008869
  21
 188.10000000000
  31
0.0
   0
LINE
   5
372
 100
AcDbEntity
   8
LEVEL002
 370
25
 100
AcDbLine
   6
CONTINUOUS
  62
1
  10
 559.80058008869
  20
 188.10000000000
  30
0.0
  11
 560.04173436179
  21
 187.20000000000
  31
0.0
   0
DIMENSION
   5
373
 100
AcDbEntity
   8
LEVEL001
 370
15
   6
CONTINUOUS
  62
8
 100
AcDbDimension
   2
*D11
  10
 564.49999999989
  20
 196.50000000000
  30
0.0
  11
 544.49999999989
  21
 196.50000000000
  31
0.0
  70
0
   3
GMM001
 100
AcDbAlignedDimension
  13
 524.49999999989
  23
 188.10000000000
  33
0.0
  14
 564.49999999989
  24
 188.10000000000
  34
0.0
 100
AcDbRotatedDimension
   0
DIMENSION
   5
374
 100
AcDbEntity
   8
LEVEL001
 370
15
   6
CONTINUOUS
  62
8
 100
AcDbDimension
   2
*D12
  10
 576.49999999989
  20
 186.50000000000
  30
0.0
  11
 576.49999999989
  21
 188.08311043176
  31
0.0
  70
128
   3
GMM004
 100
AcDbAlignedDimension
  13
 564.49999999989
  23
 183.50000000000
  33
0.0
  14
 564.49999999989
  24
 186.50000000000
  34
0.0
  50
 90.000000000000
 100
AcDbRotatedDimension
   0
LEADER
   5
375
 100
AcDbEntity
   8
LEVEL001
 370
15
   6
CONTINUOUS
  62
8
 100
AcDbLeader
   3
GMM002
  73
0
  74
0
  75
0
  40
 6.0000000000000
  41
 26.000000000000
  76
2
  10
 551.98593766890
  20
 185.40657465903
  30
0.0
  10
 565.74550928872
  20
 206.28154119184
  30
0.0
  77
8
 340
376
 213
0.0
 223
-2.0000000000000
 233
0.0
   0
MTEXT
   5
376
 102
{ACAD_REACTORS
 330
375
 102
}
 100
AcDbEntity
   8
LEVEL001
 370
15
  62
8
 100
AcDbMText
  10
 565.74550928872
  20
 208.28154119184
  30
0.0
  40
 6.0000000000000
  41
0.0
  71
7
  72
1
   1
\A1;インサート
   7
GMM002
   0
LEADER
   5
377
 100
AcDbEntity
   8
LEVEL001
 370
15
   6
CONTINUOUS
  62
8
 100
AcDbLeader
   3
GMM002
  73
0
  74
1
  75
0
  40
 6.0000000000000
  41
 11.000000000000
  76
2
  10
 525.92330133261
  20
 185.97436269112
  30
0.0
  10
 515.83304522337
  20
 199.97952736769
  30
0.0
  77
8
 340
378
 213
0.0
 223
-2.0000000000000
 233
0.0
   0
MTEXT
   5
378
 102
{ACAD_REACTORS
 330
377
 102
}
 100
AcDbEntity
   8
LEVEL001
 370
15
  62
8
 100
AcDbMText
  10
 504.83304522337
  20
 201.97952736769
  30
0.0
  40
 6.0000000000000
  41
0.0
  71
7
  72
1
   1
\A1;金台
   7
GMM002
   0
LINE
   5
379
 100
AcDbEntity
   8
LEVEL002
 370
30
 100
AcDbLine
   6
CONTINUOUS
  62
7
  10
 382.46372915306
  20
 184.70000000000
  30
0.0
  11
 382.96372915306
  21
 186.50000000000
  31
0.0
   0
LINE
   5
37A
 100
AcDbEntity
   8
LEVEL002
 370
30
 100
AcDbLine
   6
CONTINUOUS
  62
7
  10
 382.96372915306
  20
 186.50000000000
  30
0.0
  11
 382.46372915307
  21
 186.50000000000
  31
0.0
   0
ARC
   5
37B
 100
AcDbEntity
   8
LEVEL002
 370
30
   6
CONTINUOUS
  62
7
 100
AcDbCircle
  10
 382.46372915306
  20
 184.00000000000
  30
0.0
  40
 2.5000000000000
 100
AcDbArc
  50
 89.999999999964
  51
 182.39743154861
   0
ARC
   5
37C
 100
AcDbEntity
   8
LEVEL002
 370
30
   6
CONTINUOUS
  62
7
 100
AcDbCircle
  10
 444.90902329644
  20
 186.61442906726
  30
0.0
  40
 65.000000000000
 100
AcDbArc
  50
 182.39743154865
  51
 197.70400643295
   0
ARC
   5
37D
 100
AcDbEntity
   8
LEVEL002
 370
30
   6
CONTINUOUS
  62
7
 100
AcDbCircle
  10
 383.46372915367
  20
 166.99999999788
  30
0.0
  40
 0.50000000000000
 100
AcDbArc
  50
 197.70400618017
  51
 15.881009448272
   0
ARC
   5
37E
 100
AcDbEntity
   8
LEVEL002
 370
30
   6
CONTINUOUS
  62
7
 100
AcDbCircle
  10
 446.46372915306
  20
 184.92344832894
  30
0.0
  40
 65.000000000000
 100
AcDbArc
  50
 184.09129726141
  51
 195.88100919534
   0
ARC
   5
37F
 100
AcDbEntity
   8
LEVEL002
 370
30
   6
CONTINUOUS
  62
7
 100
AcDbCircle
  10
 384.62172801403
  20
 180.50000000000
  30
0.0
  40
 3.0000000000000
 100
AcDbArc
  50
 90.000000000182
  51
 184.09129726140
   0
LINE
   5
380
 100
AcDbEntity
   8
LEVEL002
 370
30
 100
AcDbLine
   6
CONTINUOUS
  62
7
  10
 384.62172801402
  20
 183.50000000000
  30
0.0
  11
 419.46372915306
  21
 183.50000000000
  31
0.0
   0
LINE
   5
381
 100
AcDbEntity
   8
LEVEL002
 370
30
 100
AcDbLine
   6
CONTINUOUS
  62
7
  10
 419.46372915306
  20
 183.50000000000
  30
0.0
  11
 419.96372915306
  21
 186.50000000000
  31
0.0
   0
LINE
   5
382
 100
AcDbEntity
   8
LEVEL002
 370
30
 100
AcDbLine
   6
CONTINUOUS
  62
7
  10
 419.96372915306
  20
 186.50000000000
  30
0.0
  11
 417.96372915306
  21
 186.50000000000
  31
0.0
   0
LINE
   5
383
 100
AcDbEntity
   8
LEVEL002
 370
30
 100
AcDbLine
   6
CONTINUOUS
  62
7
  10
 417.96372915306
  20
 186.50000000000
  30
0.0
  11
 418.46372915306
  21
 184.70000000000
  31
0.0
   0
LINE
   5
384
 100
AcDbEntity
   8
LEVEL002
 370
30
 100
AcDbLine
   6
CONTINUOUS
  62
7
  10
 418.46372915306
  20
 184.70000000000
  30
0.0
  11
 382.46372915306
  21
 184.70000000000
  31
0.0
   0
LINE
   5
385
 100
AcDbEntity
   8
LEVEL002
 370
30
 100
AcDbLine
   6
CONTINUOUS
  62
7
  10
 379.99999999990
  20
 240.50000000000
  30
0.0
  11
 379.99999999990
  21
 215.50000000000
  31
0.0
   0
LINE
   5
386
 100
AcDbEntity
   8
LEVEL002
 370
30
 100
AcDbLine
   6
CONTINUOUS
  62
7
  10
 379.99999999990
  20
 215.50000000000
  30
0.0
  11
 419.99999999990
  21
 215.50000000000
  31
0.0
   0
LINE
   5
387
 100
AcDbEntity
   8
LEVEL002
 370
30
 100
AcDbLine
   6
CONTINUOUS
  62
7
  10
 419.99999999990
  20
 215.50000000000
  30
0.0
  11
 419.99999999990
  21
 240.50000000000
  31
0.0
   0
LINE
   5
388
 100
AcDbEntity
   8
LEVEL002
 370
30
 100
AcDbLine
   6
CONTINUOUS
  62
7
  10
 379.99999999990
  20
 270.50000000000
  30
0.0
  11
 379.99999999990
  21
 245.50000000000
  31
0.0
   0
LINE
   5
389
 100
AcDbEntity
   8
LEVEL002
 370
30
 100
AcDbLine
   6
CONTINUOUS
  62
7
  10
 379.99999999990
  20
 245.50000000000
  30
0.0
  11
 419.99999999990
  21
 245.50000000000
  31
0.0
   0
LINE
   5
38A
 100
AcDbEntity
   8
LEVEL002
 370
30
 100
AcDbLine
   6
CONTINUOUS
  62
7
  10
 419.99999999990
  20
 245.50000000000
  30
0.0
  11
 419.99999999990
  21
 270.50000000000
  31
0.0
   0
LINE
   5
38B
 100
AcDbEntity
   8
LEVEL002
 370
25
 100
AcDbLine
   6
CONTINUOUS
  62
1
  10
 382.96372915314
  20
 186.50000000000
  30
0.0
  11
 417.96372915306
  21
 186.50000000000
  31
0.0
   0
LINE
   5
38C
 100
AcDbEntity
   8
LEVEL002
 370
25
 100
AcDbLine
   6
CONTINUOUS
  62
1
  10
 384.50546351492
  20
 186.50000000000
  30
0.0
  11
 384.74661778802
  21
 187.40000000000
  31
0.0
   0
LINE
   5
38D
 100
AcDbEntity
   8
LEVEL002
 370
25
 100
AcDbLine
   6
CONTINUOUS
  62
1
  10
 384.74661778802
  20
 187.40000000000
  30
0.0
  11
 388.86430924181
  21
 187.40000000000
  31
0.0
   0
LINE
   5
38E
 100
AcDbEntity
   8
LEVEL002
 370
25
 100
AcDbLine
   6
CONTINUOUS
  62
1
  10
 388.86430924181
  20
 187.40000000000
  30
0.0
  11
 389.10546351492
  21
 186.50000000000
  31
0.0
   0
LINE
   5
38F
 100
AcDbEntity
   8
LEVEL002
 370
25
 100
AcDbLine
   6
CONTINUOUS
  62
1
  10
 391.10546351492
  20
 186.50000000000
  30
0.0
  11
 391.34661778802
  21
 187.40000000000
  31
0.0
   0
LINE
   5
390
 100
AcDbEntity
   8
LEVEL002
 370
25
 100
AcDbLine
   6
CONTINUOUS
  62
1
  10
 391.34661778802
  20
 187.40000000000
  30
0.0
  11
 395.46430924181
  21
 187.40000000000
  31
0.0
   0
LINE
   5
391
 100
AcDbEntity
   8
LEVEL002
 370
25
 100
AcDbLine
   6
CONTINUOUS
  62
1
  10
 395.46430924181
  20
 187.40000000000
  30
0.0
  11
 395.70546351492
  21
 186.50000000000
  31
0.0
   0
LINE
   5
392
 100
AcDbEntity
   8
LEVEL002
 370
25
 100
AcDbLine
   6
CONTINUOUS
  62
1
  10
 397.70546351492
  20
 186.50000000000
  30
0.0
  11
 397.94661778802
  21
 187.40000000000
  31
0.0
   0
LINE
   5
393
 100
AcDbEntity
   8
LEVEL002
 370
25
 100
AcDbLine
   6
CONTINUOUS
  62
1
  10
 397.94661778802
  20
 187.40000000000
  30
0.0
  11
 402.06430924181
  21
 187.40000000000
  31
0.0
   0
LINE
   5
394
 100
AcDbEntity
   8
LEVEL002
 370
25
 100
AcDbLine
   6
CONTINUOUS
  62
1
  10
 411.14661778802
  20
 187.40000000000
  30
0.0
  11
 415.26430924181
  21
 187.40000000000
  31
0.0
   0
LINE
   5
395
 100
AcDbEntity
   8
LEVEL002
 370
25
 100
AcDbLine
   6
CONTINUOUS
  62
1
  10
 402.06430924181
  20
 187.40000000000
  30
0.0
  11
 402.30546351492
  21
 186.50000000000
  31
0.0
   0
LINE
   5
396
 100
AcDbEntity
   8
LEVEL002
 370
25
 100
AcDbLine
   6
CONTINUOUS
  62
1
  10
 404.30546351492
  20
 186.50000000000
  30
0.0
  11
 404.54661778802
  21
 187.40000000000
  31
0.0
   0
LINE
   5
397
 100
AcDbEntity
   8
LEVEL002
 370
25
 100
AcDbLine
   6
CONTINUOUS
  62
1
  10
 404.54661778802
  20
 187.40000000000
  30
0.0
  11
 408.66430924181
  21
 187.40000000000
  31
0.0
   0
LINE
   5
398
 100
AcDbEntity
   8
LEVEL002
 370
25
 100
AcDbLine
   6
CONTINUOUS
  62
1
  10
 408.66430924181
  20
 187.40000000000
  30
0.0
  11
 408.90546351492
  21
 186.50000000000
  31
0.0
   0
LINE
   5
399
 100
AcDbEntity
   8
LEVEL002
 370
25
 100
AcDbLine
   6
CONTINUOUS
  62
1
  10
 410.90546351492
  20
 186.50000000000
  30
0.0
  11
 411.14661778802
  21
 187.40000000000
  31
0.0
   0
LINE
   5
39A
 100
AcDbEntity
   8
LEVEL002
 370
25
 100
AcDbLine
   6
CONTINUOUS
  62
1
  10
 415.26430924181
  20
 187.40000000000
  30
0.0
  11
 415.50546351492
  21
 186.50000000000
  31
0.0
   0
LINE
   5
39B
 100
AcDbEntity
   8
LEVEL002
 370
25
 100
AcDbLine
   6
CONTINUOUS
  62
1
  10
 382.99999999990
  20
 240.50000000000
  30
0.0
  11
 382.99999999990
  21
 215.50000000000
  31
0.0
   0
LINE
   5
39C
 100
AcDbEntity
   8
LEVEL002
 370
25
 100
AcDbLine
   6
CONTINUOUS
  62
1
  10
 417.99999999990
  20
 240.50000000000
  30
0.0
  11
 417.99999999990
  21
 215.50000000000
  31
0.0
   0
CIRCLE
   5
39D
 100
AcDbEntity
   8
LEVEL002
 370
25
 100
AcDbCircle
   6
CONTINUOUS
  62
1
  10
 413.93481231750
  20
 220.30000000000
  30
0.0
  40
 2.3000000000000
   0
CIRCLE
   5
39E
 100
AcDbEntity
   8
LEVEL002
 370
25
 100
AcDbCircle
   6
CONTINUOUS
  62
1
  10
 407.33481231750
  20
 220.30000000000
  30
0.0
  40
 2.3000000000000
   0
CIRCLE
   5
39F
 100
AcDbEntity
   8
LEVEL002
 370
25
 100
AcDbCircle
   6
CONTINUOUS
  62
1
  10
 400.73481231750
  20
 220.30000000000
  30
0.0
  40
 2.3000000000000
   0
CIRCLE
   5
3A0
 100
AcDbEntity
   8
LEVEL002
 370
25
 100
AcDbCircle
   6
CONTINUOUS
  62
1
  10
 394.13481231750
  20
 220.30000000000
  30
0.0
  40
 2.3000000000000
   0
CIRCLE
   5
3A1
 100
AcDbEntity
   8
LEVEL002
 370
25
 100
AcDbCircle
   6
CONTINUOUS
  62
1
  10
 387.53481231750
  20
 220.30000000000
  30
0.0
  40
 2.3000000000000
   0
CIRCLE
   5
3A2
 100
AcDbEntity
   8
LEVEL002
 370
25
 100
AcDbCircle
   6
CONTINUOUS
  62
1
  10
 413.93481231750
  20
 227.40000000000
  30
0.0
  40
 2.3000000000000
   0
CIRCLE
   5
3A3
 100
AcDbEntity
   8
LEVEL002
 370
25
 100
AcDbCircle
   6
CONTINUOUS
  62
1
  10
 407.33481231750
  20
 227.40000000000
  30
0.0
  40
 2.3000000000000
   0
CIRCLE
   5
3A4
 100
AcDbEntity
   8
LEVEL002
 370
25
 100
AcDbCircle
   6
CONTINUOUS
  62
1
  10
 400.73481231750
  20
 227.40000000000
  30
0.0
  40
 2.3000000000000
   0
CIRCLE
   5
3A5
 100
AcDbEntity
   8
LEVEL002
 370
25
 100
AcDbCircle
   6
CONTINUOUS
  62
1
  10
 394.13481231750
  20
 227.40000000000
  30
0.0
  40
 2.3000000000000
   0
CIRCLE
   5
3A6
 100
AcDbEntity
   8
LEVEL002
 370
25
 100
AcDbCircle
   6
CONTINUOUS
  62
1
  10
 387.53481231750
  20
 227.40000000000
  30
0.0
  40
 2.3000000000000
   0
CIRCLE
   5
3A7
 100
AcDbEntity
   8
LEVEL002
 370
25
 100
AcDbCircle
   6
CONTINUOUS
  62
1
  10
 413.93481231750
  20
 234.50000000000
  30
0.0
  40
 2.3000000000000
   0
CIRCLE
   5
3A8
 100
AcDbEntity
   8
LEVEL002
 370
25
 100
AcDbCircle
   6
CONTINUOUS
  62
1
  10
 407.33481231750
  20
 234.50000000000
  30
0.0
  40
 2.3000000000000
   0
CIRCLE
   5
3A9
 100
AcDbEntity
   8
LEVEL002
 370
25
 100
AcDbCircle
   6
CONTINUOUS
  62
1
  10
 400.73481231750
  20
 234.50000000000
  30
0.0
  40
 2.3000000000000
   0
CIRCLE
   5
3AA
 100
AcDbEntity
   8
LEVEL002
 370
25
 100
AcDbCircle
   6
CONTINUOUS
  62
1
  10
 394.13481231750
  20
 234.50000000000
  30
0.0
  40
 2.3000000000000
   0
CIRCLE
   5
3AB
 100
AcDbEntity
   8
LEVEL002
 370
25
 100
AcDbCircle
   6
CONTINUOUS
  62
1
  10
 387.53481231750
  20
 234.50000000000
  30
0.0
  40
 2.3000000000000
   0
LINE
   5
3AC
 100
AcDbEntity
   8
LEVEL002
 370
25
 100
AcDbLine
   6
CONTINUOUS
  62
1
  10
 382.99999999990
  20
 270.50000000000
  30
0.0
  11
 382.99999999990
  21
 245.50000000000
  31
0.0
   0
LINE
   5
3AD
 100
AcDbEntity
   8
LEVEL002
 370
25
 100
AcDbLine
   6
CONTINUOUS
  62
1
  10
 417.99999999990
  20
 270.50000000000
  30
0.0
  11
 417.99999999990
  21
 245.50000000000
  31
0.0
   0
LINE
   5
3AE
 100
AcDbEntity
   8
LEVEL002
 370
25
 100
AcDbLine
   6
CONTINUOUS
  62
1
  10
 385.04173436175
  20
 252.60000000000
  30
0.0
  11
 385.04173436175
  21
 248.00000000000
  31
0.0
   0
LINE
   5
3AF
 100
AcDbEntity
   8
LEVEL002
 370
25
 100
AcDbLine
   6
CONTINUOUS
  62
1
  10
 385.04173436175
  20
 248.00000000000
  30
0.0
  11
 389.64173436175
  21
 248.00000000000
  31
0.0
   0
LINE
   5
3B0
 100
AcDbEntity
   8
LEVEL002
 370
25
 100
AcDbLine
   6
CONTINUOUS
  62
1
  10
 389.64173436175
  20
 248.00000000000
  30
0.0
  11
 389.64173436175
  21
 252.60000000000
  31
0.0
   0
LINE
   5
3B1
 100
AcDbEntity
   8
LEVEL002
 370
25
 100
AcDbLine
   6
CONTINUOUS
  62
1
  10
 389.64173436175
  20
 252.60000000000
  30
0.0
  11
 385.04173436175
  21
 252.60000000000
  31
0.0
   0
LINE
   5
3B2
 100
AcDbEntity
   8
LEVEL002
 370
25
 100
AcDbLine
   6
CONTINUOUS
  62
1
  10
 391.64173436175
  20
 252.60000000000
  30
0.0
  11
 391.64173436175
  21
 248.00000000000
  31
0.0
   0
LINE
   5
3B3
 100
AcDbEntity
   8
LEVEL002
 370
25
 100
AcDbLine
   6
CONTINUOUS
  62
1
  10
 391.64173436175
  20
 248.00000000000
  30
0.0
  11
 396.24173436175
  21
 248.00000000000
  31
0.0
   0
LINE
   5
3B4
 100
AcDbEntity
   8
LEVEL002
 370
25
 100
AcDbLine
   6
CONTINUOUS
  62
1
  10
 396.24173436175
  20
 248.00000000000
  30
0.0
  11
 396.24173436175
  21
 252.60000000000
  31
0.0
   0
LINE
   5
3B5
 100
AcDbEntity
   8
LEVEL002
 370
25
 100
AcDbLine
   6
CONTINUOUS
  62
1
  10
 396.24173436175
  20
 252.60000000000
  30
0.0
  11
 391.64173436175
  21
 252.60000000000
  31
0.0
   0
LINE
   5
3B6
 100
AcDbEntity
   8
LEVEL002
 370
25
 100
AcDbLine
   6
CONTINUOUS
  62
1
  10
 398.24173436175
  20
 252.60000000000
  30
0.0
  11
 398.24173436175
  21
 248.00000000000
  31
0.0
   0
LINE
   5
3B7
 100
AcDbEntity
   8
LEVEL002
 370
25
 100
AcDbLine
   6
CONTINUOUS
  62
1
  10
 398.24173436175
  20
 248.00000000000
  30
0.0
  11
 402.84173436175
  21
 248.00000000000
  31
0.0
   0
LINE
   5
3B8
 100
AcDbEntity
   8
LEVEL002
 370
25
 100
AcDbLine
   6
CONTINUOUS
  62
1
  10
 402.84173436175
  20
 248.00000000000
  30
0.0
  11
 402.84173436175
  21
 252.60000000000
  31
0.0
   0
LINE
   5
3B9
 100
AcDbEntity
   8
LEVEL002
 370
25
 100
AcDbLine
   6
CONTINUOUS
  62
1
  10
 402.84173436175
  20
 252.60000000000
  30
0.0
  11
 398.24173436175
  21
 252.60000000000
  31
0.0
   0
LINE
   5
3BA
 100
AcDbEntity
   8
LEVEL002
 370
25
 100
AcDbLine
   6
CONTINUOUS
  62
1
  10
 404.84173436175
  20
 252.60000000000
  30
0.0
  11
 404.84173436175
  21
 248.00000000000
  31
0.0
   0
LINE
   5
3BB
 100
AcDbEntity
   8
LEVEL002
 370
25
 100
AcDbLine
   6
CONTINUOUS
  62
1
  10
 404.84173436175
  20
 248.00000000000
  30
0.0
  11
 409.44173436175
  21
 248.00000000000
  31
0.0
   0
LINE
   5
3BC
 100
AcDbEntity
   8
LEVEL002
 370
25
 100
AcDbLine
   6
CONTINUOUS
  62
1
  10
 409.44173436175
  20
 248.00000000000
  30
0.0
  11
 409.44173436175
  21
 252.60000000000
  31
0.0
   0
LINE
   5
3BD
 100
AcDbEntity
   8
LEVEL002
 370
25
 100
AcDbLine
   6
CONTINUOUS
  62
1
  10
 409.44173436175
  20
 252.60000000000
  30
0.0
  11
 404.84173436175
  21
 252.60000000000
  31
0.0
   0
LINE
   5
3BE
 100
AcDbEntity
   8
LEVEL002
 370
25
 100
AcDbLine
   6
CONTINUOUS
  62
1
  10
 411.44173436175
  20
 252.60000000000
  30
0.0
  11
 411.44173436175
  21
 248.00000000000
  31
0.0
   0
LINE
   5
3BF
 100
AcDbEntity
   8
LEVEL002
 370
25
 100
AcDbLine
   6
CONTINUOUS
  62
1
  10
 411.44173436175
  20
 248.00000000000
  30
0.0
  11
 416.04173436175
  21
 248.00000000000
  31
0.0
   0
LINE
   5
3C0
 100
AcDbEntity
   8
LEVEL002
 370
25
 100
AcDbLine
   6
CONTINUOUS
  62
1
  10
 416.04173436175
  20
 248.00000000000
  30
0.0
  11
 416.04173436175
  21
 252.60000000000
  31
0.0
   0
LINE
   5
3C1
 100
AcDbEntity
   8
LEVEL002
 370
25
 100
AcDbLine
   6
CONTINUOUS
  62
1
  10
 416.04173436175
  20
 252.60000000000
  30
0.0
  11
 411.44173436175
  21
 252.60000000000
  31
0.0
   0
LINE
   5
3C2
 100
AcDbEntity
   8
LEVEL002
 370
25
 100
AcDbLine
   6
CONTINUOUS
  62
1
  10
 385.04173436175
  20
 259.70000000000
  30
0.0
  11
 385.04173436175
  21
 255.10000000000
  31
0.0
   0
LINE
   5
3C3
 100
AcDbEntity
   8
LEVEL002
 370
25
 100
AcDbLine
   6
CONTINUOUS
  62
1
  10
 385.04173436175
  20
 255.10000000000
  30
0.0
  11
 389.64173436175
  21
 255.10000000000
  31
0.0
   0
LINE
   5
3C4
 100
AcDbEntity
   8
LEVEL002
 370
25
 100
AcDbLine
   6
CONTINUOUS
  62
1
  10
 389.64173436175
  20
 255.10000000000
  30
0.0
  11
 389.64173436175
  21
 259.70000000000
  31
0.0
   0
LINE
   5
3C5
 100
AcDbEntity
   8
LEVEL002
 370
25
 100
AcDbLine
   6
CONTINUOUS
  62
1
  10
 389.64173436175
  20
 259.70000000000
  30
0.0
  11
 385.04173436175
  21
 259.70000000000
  31
0.0
   0
LINE
   5
3C6
 100
AcDbEntity
   8
LEVEL002
 370
25
 100
AcDbLine
   6
CONTINUOUS
  62
1
  10
 391.64173436175
  20
 259.70000000000
  30
0.0
  11
 391.64173436175
  21
 255.10000000000
  31
0.0
   0
LINE
   5
3C7
 100
AcDbEntity
   8
LEVEL002
 370
25
 100
AcDbLine
   6
CONTINUOUS
  62
1
  10
 391.64173436175
  20
 255.10000000000
  30
0.0
  11
 396.24173436175
  21
 255.10000000000
  31
0.0
   0
LINE
   5
3C8
 100
AcDbEntity
   8
LEVEL002
 370
25
 100
AcDbLine
   6
CONTINUOUS
  62
1
  10
 396.24173436175
  20
 255.10000000000
  30
0.0
  11
 396.24173436175
  21
 259.70000000000
  31
0.0
   0
LINE
   5
3C9
 100
AcDbEntity
   8
LEVEL002
 370
25
 100
AcDbLine
   6
CONTINUOUS
  62
1
  10
 396.24173436175
  20
 259.70000000000
  30
0.0
  11
 391.64173436175
  21
 259.70000000000
  31
0.0
   0
LINE
   5
3CA
 100
AcDbEntity
   8
LEVEL002
 370
25
 100
AcDbLine
   6
CONTINUOUS
  62
1
  10
 398.24173436175
  20
 259.70000000000
  30
0.0
  11
 398.24173436175
  21
 255.10000000000
  31
0.0
   0
LINE
   5
3CB
 100
AcDbEntity
   8
LEVEL002
 370
25
 100
AcDbLine
   6
CONTINUOUS
  62
1
  10
 398.24173436175
  20
 255.10000000000
  30
0.0
  11
 402.84173436175
  21
 255.10000000000
  31
0.0
   0
LINE
   5
3CC
 100
AcDbEntity
   8
LEVEL002
 370
25
 100
AcDbLine
   6
CONTINUOUS
  62
1
  10
 402.84173436175
  20
 255.10000000000
  30
0.0
  11
 402.84173436175
  21
 259.70000000000
  31
0.0
   0
LINE
   5
3CD
 100
AcDbEntity
   8
LEVEL002
 370
25
 100
AcDbLine
   6
CONTINUOUS
  62
1
  10
 402.84173436175
  20
 259.70000000000
  30
0.0
  11
 398.24173436175
  21
 259.70000000000
  31
0.0
   0
LINE
   5
3CE
 100
AcDbEntity
   8
LEVEL002
 370
25
 100
AcDbLine
   6
CONTINUOUS
  62
1
  10
 404.84173436175
  20
 259.70000000000
  30
0.0
  11
 404.84173436175
  21
 255.10000000000
  31
0.0
   0
LINE
   5
3CF
 100
AcDbEntity
   8
LEVEL002
 370
25
 100
AcDbLine
   6
CONTINUOUS
  62
1
  10
 404.84173436175
  20
 255.10000000000
  30
0.0
  11
 409.44173436175
  21
 255.10000000000
  31
0.0
   0
LINE
   5
3D0
 100
AcDbEntity
   8
LEVEL002
 370
25
 100
AcDbLine
   6
CONTINUOUS
  62
1
  10
 409.44173436175
  20
 255.10000000000
  30
0.0
  11
 409.44173436175
  21
 259.70000000000
  31
0.0
   0
LINE
   5
3D1
 100
AcDbEntity
   8
LEVEL002
 370
25
 100
AcDbLine
   6
CONTINUOUS
  62
1
  10
 409.44173436175
  20
 259.70000000000
  30
0.0
  11
 404.84173436175
  21
 259.70000000000
  31
0.0
   0
LINE
   5
3D2
 100
AcDbEntity
   8
LEVEL002
 370
25
 100
AcDbLine
   6
CONTINUOUS
  62
1
  10
 411.44173436175
  20
 259.70000000000
  30
0.0
  11
 411.44173436175
  21
 255.10000000000
  31
0.0
   0
LINE
   5
3D3
 100
AcDbEntity
   8
LEVEL002
 370
25
 100
AcDbLine
   6
CONTINUOUS
  62
1
  10
 411.44173436175
  20
 255.10000000000
  30
0.0
  11
 416.04173436175
  21
 255.10000000000
  31
0.0
   0
LINE
   5
3D4
 100
AcDbEntity
   8
LEVEL002
 370
25
 100
AcDbLine
   6
CONTINUOUS
  62
1
  10
 416.04173436175
  20
 255.10000000000
  30
0.0
  11
 416.04173436175
  21
 259.70000000000
  31
0.0
   0
LINE
   5
3D5
 100
AcDbEntity
   8
LEVEL002
 370
25
 100
AcDbLine
   6
CONTINUOUS
  62
1
  10
 416.04173436175
  20
 259.70000000000
  30
0.0
  11
 411.44173436175
  21
 259.70000000000
  31
0.0
   0
LINE
   5
3D6
 100
AcDbEntity
   8
LEVEL002
 370
25
 100
AcDbLine
   6
CONTINUOUS
  62
1
  10
 385.04173436175
  20
 266.80000000000
  30
0.0
  11
 385.04173436175
  21
 262.20000000000
  31
0.0
   0
LINE
   5
3D7
 100
AcDbEntity
   8
LEVEL002
 370
25
 100
AcDbLine
   6
CONTINUOUS
  62
1
  10
 385.04173436175
  20
 262.20000000000
  30
0.0
  11
 389.64173436175
  21
 262.20000000000
  31
0.0
   0
LINE
   5
3D8
 100
AcDbEntity
   8
LEVEL002
 370
25
 100
AcDbLine
   6
CONTINUOUS
  62
1
  10
 389.64173436175
  20
 262.20000000000
  30
0.0
  11
 389.64173436175
  21
 266.80000000000
  31
0.0
   0
LINE
   5
3D9
 100
AcDbEntity
   8
LEVEL002
 370
25
 100
AcDbLine
   6
CONTINUOUS
  62
1
  10
 389.64173436175
  20
 266.80000000000
  30
0.0
  11
 385.04173436175
  21
 266.80000000000
  31
0.0
   0
LINE
   5
3DA
 100
AcDbEntity
   8
LEVEL002
 370
25
 100
AcDbLine
   6
CONTINUOUS
  62
1
  10
 391.64173436175
  20
 266.80000000000
  30
0.0
  11
 391.64173436175
  21
 262.20000000000
  31
0.0
   0
LINE
   5
3DB
 100
AcDbEntity
   8
LEVEL002
 370
25
 100
AcDbLine
   6
CONTINUOUS
  62
1
  10
 391.64173436175
  20
 262.20000000000
  30
0.0
  11
 396.24173436175
  21
 262.20000000000
  31
0.0
   0
LINE
   5
3DC
 100
AcDbEntity
   8
LEVEL002
 370
25
 100
AcDbLine
   6
CONTINUOUS
  62
1
  10
 396.24173436175
  20
 262.20000000000
  30
0.0
  11
 396.24173436175
  21
 266.80000000000
  31
0.0
   0
LINE
   5
3DD
 100
AcDbEntity
   8
LEVEL002
 370
25
 100
AcDbLine
   6
CONTINUOUS
  62
1
  10
 396.24173436175
  20
 266.80000000000
  30
0.0
  11
 391.64173436175
  21
 266.80000000000
  31
0.0
   0
LINE
   5
3DE
 100
AcDbEntity
   8
LEVEL002
 370
25
 100
AcDbLine
   6
CONTINUOUS
  62
1
  10
 398.24173436175
  20
 266.80000000000
  30
0.0
  11
 398.24173436175
  21
 262.20000000000
  31
0.0
   0
LINE
   5
3DF
 100
AcDbEntity
   8
LEVEL002
 370
25
 100
AcDbLine
   6
CONTINUOUS
  62
1
  10
 398.24173436175
  20
 262.20000000000
  30
0.0
  11
 402.84173436175
  21
 262.20000000000
  31
0.0
   0
LINE
   5
3E0
 100
AcDbEntity
   8
LEVEL002
 370
25
 100
AcDbLine
   6
CONTINUOUS
  62
1
  10
 402.84173436175
  20
 262.20000000000
  30
0.0
  11
 402.84173436175
  21
 266.80000000000
  31
0.0
   0
LINE
   5
3E1
 100
AcDbEntity
   8
LEVEL002
 370
25
 100
AcDbLine
   6
CONTINUOUS
  62
1
  10
 402.84173436175
  20
 266.80000000000
  30
0.0
  11
 398.24173436175
  21
 266.80000000000
  31
0.0
   0
LINE
   5
3E2
 100
AcDbEntity
   8
LEVEL002
 370
25
 100
AcDbLine
   6
CONTINUOUS
  62
1
  10
 404.84173436175
  20
 266.80000000000
  30
0.0
  11
 404.84173436175
  21
 262.20000000000
  31
0.0
   0
LINE
   5
3E3
 100
AcDbEntity
   8
LEVEL002
 370
25
 100
AcDbLine
   6
CONTINUOUS
  62
1
  10
 404.84173436175
  20
 262.20000000000
  30
0.0
  11
 409.44173436175
  21
 262.20000000000
  31
0.0
   0
LINE
   5
3E4
 100
AcDbEntity
   8
LEVEL002
 370
25
 100
AcDbLine
   6
CONTINUOUS
  62
1
  10
 409.44173436175
  20
 262.20000000000
  30
0.0
  11
 409.44173436175
  21
 266.80000000000
  31
0.0
   0
LINE
   5
3E5
 100
AcDbEntity
   8
LEVEL002
 370
25
 100
AcDbLine
   6
CONTINUOUS
  62
1
  10
 409.44173436175
  20
 266.80000000000
  30
0.0
  11
 404.84173436175
  21
 266.80000000000
  31
0.0
   0
LINE
   5
3E6
 100
AcDbEntity
   8
LEVEL002
 370
25
 100
AcDbLine
   6
CONTINUOUS
  62
1
  10
 411.44173436175
  20
 266.80000000000
  30
0.0
  11
 411.44173436175
  21
 262.20000000000
  31
0.0
   0
LINE
   5
3E7
 100
AcDbEntity
   8
LEVEL002
 370
25
 100
AcDbLine
   6
CONTINUOUS
  62
1
  10
 411.44173436175
  20
 262.20000000000
  30
0.0
  11
 416.04173436175
  21
 262.20000000000
  31
0.0
   0
LINE
   5
3E8
 100
AcDbEntity
   8
LEVEL002
 370
25
 100
AcDbLine
   6
CONTINUOUS
  62
1
  10
 416.04173436175
  20
 262.20000000000
  30
0.0
  11
 416.04173436175
  21
 266.80000000000
  31
0.0
   0
LINE
   5
3E9
 100
AcDbEntity
   8
LEVEL002
 370
25
 100
AcDbLine
   6
CONTINUOUS
  62
1
  10
 416.04173436175
  20
 266.80000000000
  30
0.0
  11
 411.44173436175
  21
 266.80000000000
  31
0.0
   0
DIMENSION
   5
3EA
 100
AcDbEntity
   8
LEVEL001
 370
15
   6
CONTINUOUS
  62
8
 100
AcDbDimension
   2
*D15
  10
 369.99999999990
  20
 186.50000000000
  30
0.0
  11
 369.99999999990
  21
 176.50000000000
  31
0.0
  70
0
   3
GMM001
 100
AcDbAlignedDimension
  13
 379.99999999990
  23
 166.50000000000
  33
0.0
  14
 379.99999999990
  24
 186.50000000000
  34
0.0
  50
 90.000000000000
 100
AcDbRotatedDimension
   0
DIMENSION
   5
3EB
 100
AcDbEntity
   8
LEVEL001
 370
15
   6
CONTINUOUS
  62
8
 100
AcDbDimension
   2
*D16
  10
 431.99999999990
  20
 186.50000000000
  30
0.0
  11
 431.99999999990
  21
 188.22447589361
  31
0.0
  70
128
   3
GMM005
 100
AcDbAlignedDimension
  13
 419.96372915306
  23
 183.50000000000
  33
0.0
  14
 419.96372915306
  24
 186.50000000000
  34
0.0
  50
 90.000000000000
 100
AcDbRotatedDimension
   0
DIMENSION
   5
3EC
 100
AcDbEntity
   8
LEVEL001
 370
15
   6
CONTINUOUS
  62
8
 100
AcDbDimension
   2
*D17
  10
 419.99999999990
  20
 196.50000000000
  30
0.0
  11
 399.99999999990
  21
 196.50000000000
  31
0.0
  70
0
   3
GMM001
 100
AcDbAlignedDimension
  13
 379.99999999990
  23
 187.40000000000
  33
0.0
  14
 419.99999999990
  24
 187.40000000000
  34
0.0
 100
AcDbRotatedDimension
   0
LEADER
   5
3ED
 100
AcDbEntity
   8
LEVEL001
 370
15
   6
CONTINUOUS
  62
8
 100
AcDbLeader
   3
GMM002
  73
0
  74
0
  75
0
  40
 6.0000000000000
  41
 26.000000000000
  76
2
  10
 408.85340754835
  20
 185.40657465903
  30
0.0
  10
 422.61297916817
  20
 206.28154119184
  30
0.0
  77
8
 340
3EE
 213
0.0
 223
-2.0000000000000
 233
0.0
   0
MTEXT
   5
3EE
 102
{ACAD_REACTORS
 330
3ED
 102
}
 100
AcDbEntity
   8
LEVEL001
 370
15
  62
8
 100
AcDbMText
  10
 422.61297916817
  20
 208.28154119184
  30
0.0
  40
 6.0000000000000
  41
0.0
  71
7
  72
1
   1
\A1;インサート
   7
GMM002
   0
LEADER
   5
3EF
 100
AcDbEntity
   8
LEVEL001
 370
15
   6
CONTINUOUS
  62
8
 100
AcDbLeader
   3
GMM002
  73
0
  74
1
  75
0
  40
 6.0000000000000
  41
 11.000000000000
  76
2
  10
 381.49492114513
  20
 185.26753538188
  30
0.0
  10
 371.40466503588
  20
 199.27270005845
  30
0.0
  77
8
 340
3F0
 213
0.0
 223
-2.0000000000000
 233
0.0
   0
MTEXT
   5
3F0
 102
{ACAD_REACTORS
 330
3EF
 102
}
 100
AcDbEntity
   8
LEVEL001
 370
15
  62
8
 100
AcDbMText
  10
 360.40466503588
  20
 201.27270005845
  30
0.0
  40
 6.0000000000000
  41
0.0
  71
7
  72
1
   1
\A1;金台
   7
GMM002
   0
LINE
   5
3F1
 100
AcDbEntity
   8
LEVEL002
 370
30
 100
AcDbLine
   6
CONTINUOUS
  62
7
  10
 235.49999999990
  20
 186.50000000000
  30
0.0
  11
 235.99999999990
  21
 183.50000000000
  31
0.0
   0
LINE
   5
3F2
 100
AcDbEntity
   8
LEVEL002
 370
30
 100
AcDbLine
   6
CONTINUOUS
  62
7
  10
 235.99999999990
  20
 183.50000000000
  30
0.0
  11
 274.99999999990
  21
 183.50000000000
  31
0.0
   0
LINE
   5
3F3
 100
AcDbEntity
   8
LEVEL002
 370
30
 100
AcDbLine
   6
CONTINUOUS
  62
7
  10
 274.99999999990
  20
 183.50000000000
  30
0.0
  11
 275.49999999990
  21
 186.50000000000
  31
0.0
   0
LINE
   5
3F4
 100
AcDbEntity
   8
LEVEL002
 370
30
 100
AcDbLine
   6
CONTINUOUS
  62
7
  10
 275.49999999990
  20
 186.50000000000
  30
0.0
  11
 272.99999999990
  21
 186.50000000000
  31
0.0
   0
LINE
   5
3F5
 100
AcDbEntity
   8
LEVEL002
 370
30
 100
AcDbLine
   6
CONTINUOUS
  62
7
  10
 272.99999999990
  20
 186.50000000000
  30
0.0
  11
 273.49999999990
  21
 184.70000000000
  31
0.0
   0
LINE
   5
3F6
 100
AcDbEntity
   8
LEVEL002
 370
30
 100
AcDbLine
   6
CONTINUOUS
  62
7
  10
 273.49999999990
  20
 184.70000000000
  30
0.0
  11
 237.49999999990
  21
 184.70000000000
  31
0.0
   0
LINE
   5
3F7
 100
AcDbEntity
   8
LEVEL002
 370
30
 100
AcDbLine
   6
CONTINUOUS
  62
7
  10
 237.49999999990
  20
 184.70000000000
  30
0.0
  11
 237.99999999990
  21
 186.50000000000
  31
0.0
   0
LINE
   5
3F8
 100
AcDbEntity
   8
LEVEL002
 370
30
 100
AcDbLine
   6
CONTINUOUS
  62
7
  10
 237.99999999990
  20
 186.50000000000
  30
0.0
  11
 235.49999999990
  21
 186.50000000000
  31
0.0
   0
LINE
   5
3F9
 100
AcDbEntity
   8
LEVEL002
 370
30
 100
AcDbLine
   6
CONTINUOUS
  62
7
  10
 235.49999999990
  20
 270.50000000000
  30
0.0
  11
 235.49999999990
  21
 225.50000000000
  31
0.0
   0
LINE
   5
3FA
 100
AcDbEntity
   8
LEVEL002
 370
30
 100
AcDbLine
   6
CONTINUOUS
  62
7
  10
 235.49999999990
  20
 225.50000000000
  30
0.0
  11
 275.49999999990
  21
 225.50000000000
  31
0.0
   0
LINE
   5
3FB
 100
AcDbEntity
   8
LEVEL002
 370
30
 100
AcDbLine
   6
CONTINUOUS
  62
7
  10
 275.49999999990
  20
 225.50000000000
  30
0.0
  11
 275.49999999990
  21
 270.50000000000
  31
0.0
   0
LINE
   5
3FC
 100
AcDbEntity
   8
LEVEL002
 370
25
 100
AcDbLine
   6
CONTINUOUS
  62
1
  10
 237.99999999990
  20
 186.50000000000
  30
0.0
  11
 237.99999999990
  21
 187.20000000000
  31
0.0
   0
LINE
   5
3FD
 100
AcDbEntity
   8
LEVEL002
 370
25
 100
AcDbLine
   6
CONTINUOUS
  62
1
  10
 272.99999999990
  20
 187.20000000000
  30
0.0
  11
 272.99999999990
  21
 186.50000000000
  31
0.0
   0
LINE
   5
3FE
 100
AcDbEntity
   8
LEVEL002
 370
25
 100
AcDbLine
   6
CONTINUOUS
  62
1
  10
 237.99999999990
  20
 187.20000000000
  30
0.0
  11
 272.99999999990
  21
 187.20000000000
  31
0.0
   0
LINE
   5
3FF
 100
AcDbEntity
   8
LEVEL002
 370
25
 100
AcDbLine
   6
CONTINUOUS
  62
1
  10
 273.49999999990
  20
 270.50000000000
  30
0.0
  11
 273.49999999990
  21
 225.50000000000
  31
0.0
   0
LINE
   5
400
 100
AcDbEntity
   8
LEVEL002
 370
25
 100
AcDbLine
   6
CONTINUOUS
  62
1
  10
 238.49999999990
  20
 270.50000000000
  30
0.0
  11
 238.49999999990
  21
 225.50000000000
  31
0.0
   0
DIMENSION
   5
401
 100
AcDbEntity
   8
LEVEL001
 370
15
   6
CONTINUOUS
  62
8
 100
AcDbDimension
   2
*D20
  10
 275.49999999990
  20
 196.50000000000
  30
0.0
  11
 255.49999999990
  21
 196.50000000000
  31
0.0
  70
0
   3
GMM001
 100
AcDbAlignedDimension
  13
 235.49999999990
  23
 187.20000000000
  33
0.0
  14
 275.49999999990
  24
 187.20000000000
  34
0.0
 100
AcDbRotatedDimension
   0
DIMENSION
   5
402
 100
AcDbEntity
   8
LEVEL001
 370
15
   6
CONTINUOUS
  62
8
 100
AcDbDimension
   2
*D21
  10
 287.49999999990
  20
 186.50000000000
  30
0.0
  11
 287.49999999990
  21
 187.37628312253
  31
0.0
  70
128
   3
GMM006
 100
AcDbAlignedDimension
  13
 275.49999999990
  23
 183.50000000000
  33
0.0
  14
 275.49999999990
  24
 186.50000000000
  34
0.0
  50
 90.000000000000
 100
AcDbRotatedDimension
   0
LEADER
   5
403
 100
AcDbEntity
   8
LEVEL001
 370
15
   6
CONTINUOUS
  62
8
 100
AcDbLeader
   3
GMM002
  73
0
  74
0
  75
0
  40
 6.0000000000000
  41
 26.000000000000
  76
2
  10
 263.76532187224
  20
 185.40657465903
  30
0.0
  10
 276.60220453805
  20
 213.73075426033
  30
0.0
  77
8
 340
404
 213
0.0
 223
-2.0000000000000
 233
0.0
   0
MTEXT
   5
404
 102
{ACAD_REACTORS
 330
403
 102
}
 100
AcDbEntity
   8
LEVEL001
 370
15
  62
8
 100
AcDbMText
  10
 276.60220453805
  20
 215.73075426033
  30
0.0
  40
 6.0000000000000
  41
0.0
  71
7
  72
1
   1
\A1;インサート
   7
GMM002
   0
LEADER
   5
405
 100
AcDbEntity
   8
LEVEL001
 370
15
   6
CONTINUOUS
  62
8
 100
AcDbLeader
   3
GMM002
  73
0
  74
1
  75
0
  40
 6.0000000000000
  41
 11.000000000000
  76
2
  10
 236.92517549579
  20
 185.97436269112
  30
0.0
  10
 226.83491938654
  20
 199.97952736769
  30
0.0
  77
8
 340
406
 213
0.0
 223
-2.0000000000000
 233
0.0
   0
MTEXT
   5
406
 102
{ACAD_REACTORS
 330
405
 102
}
 100
AcDbEntity
   8
LEVEL001
 370
15
  62
8
 100
AcDbMText
  10
 215.83491938654
  20
 201.97952736769
  30
0.0
  40
 6.0000000000000
  41
0.0
  71
7
  72
1
   1
\A1;金台
   7
GMM002
   0
LINE
   5
407
 100
AcDbEntity
   8
LEVEL002
 370
30
 100
AcDbLine
   6
CONTINUOUS
  62
7
  10
 93.499999999900
  20
 184.70000000000
  30
0.0
  11
 93.999999999900
  21
 186.50000000000
  31
0.0
   0
LINE
   5
408
 100
AcDbEntity
   8
LEVEL002
 370
30
 100
AcDbLine
   6
CONTINUOUS
  62
7
  10
 93.999999999900
  20
 186.50000000000
  30
0.0
  11
 93.499999999902
  21
 186.50000000000
  31
0.0
   0
ARC
   5
409
 100
AcDbEntity
   8
LEVEL002
 370
30
   6
CONTINUOUS
  62
7
 100
AcDbCircle
  10
 93.499999999900
  20
 184.00000000000
  30
0.0
  40
 2.5000000000000
 100
AcDbArc
  50
 89.999999999953
  51
 182.39743154866
   0
ARC
   5
40A
 100
AcDbEntity
   8
LEVEL002
 370
30
   6
CONTINUOUS
  62
7
 100
AcDbCircle
  10
 155.94529414327
  20
 186.61442906726
  30
0.0
  40
 65.000000000000
 100
AcDbArc
  50
 182.39743154865
  51
 197.70400643295
   0
ARC
   5
40B
 100
AcDbEntity
   8
LEVEL002
 370
30
   6
CONTINUOUS
  62
7
 100
AcDbCircle
  10
 94.499999999923
  20
 166.99999999992
  30
0.0
  40
 0.50000000000000
 100
AcDbArc
  50
 197.70400642296
  51
 15.881009205308
   0
ARC
   5
40C
 100
AcDbEntity
   8
LEVEL002
 370
30
   6
CONTINUOUS
  62
7
 100
AcDbCircle
  10
 157.49999999990
  20
 184.92344832894
  30
0.0
  40
 65.000000000000
 100
AcDbArc
  50
 184.09129726141
  51
 195.88100919534
   0
ARC
   5
40D
 100
AcDbEntity
   8
LEVEL002
 370
30
   6
CONTINUOUS
  62
7
 100
AcDbCircle
  10
 95.657998860856
  20
 180.50000000000
  30
0.0
  40
 3.0000000000000
 100
AcDbArc
  50
 89.999999999967
  51
 184.09129726140
   0
LINE
   5
40E
 100
AcDbEntity
   8
LEVEL002
 370
30
 100
AcDbLine
   6
CONTINUOUS
  62
7
  10
 95.657998860858
  20
 183.50000000000
  30
0.0
  11
 130.49999999990
  21
 183.50000000000
  31
0.0
   0
LINE
   5
40F
 100
AcDbEntity
   8
LEVEL002
 370
30
 100
AcDbLine
   6
CONTINUOUS
  62
7
  10
 130.49999999990
  20
 183.50000000000
  30
0.0
  11
 130.99999999990
  21
 186.50000000000
  31
0.0
   0
LINE
   5
410
 100
AcDbEntity
   8
LEVEL002
 370
30
 100
AcDbLine
   6
CONTINUOUS
  62
7
  10
 130.99999999990
  20
 186.50000000000
  30
0.0
  11
 128.99999999990
  21
 186.50000000000
  31
0.0
   0
LINE
   5
411
 100
AcDbEntity
   8
LEVEL002
 370
30
 100
AcDbLine
   6
CONTINUOUS
  62
7
  10
 128.99999999990
  20
 186.50000000000
  30
0.0
  11
 129.49999999990
  21
 184.70000000000
  31
0.0
   0
LINE
   5
412
 100
AcDbEntity
   8
LEVEL002
 370
30
 100
AcDbLine
   6
CONTINUOUS
  62
7
  10
 129.49999999990
  20
 184.70000000000
  30
0.0
  11
 93.499999999900
  21
 184.70000000000
  31
0.0
   0
LINE
   5
413
 100
AcDbEntity
   8
LEVEL002
 370
30
 100
AcDbLine
   6
CONTINUOUS
  62
7
  10
 90.999999999900
  20
 270.50000000000
  30
0.0
  11
 90.999999999900
  21
 225.50000000000
  31
0.0
   0
LINE
   5
414
 100
AcDbEntity
   8
LEVEL002
 370
30
 100
AcDbLine
   6
CONTINUOUS
  62
7
  10
 90.999999999900
  20
 225.50000000000
  30
0.0
  11
 130.99999999990
  21
 225.50000000000
  31
0.0
   0
LINE
   5
415
 100
AcDbEntity
   8
LEVEL002
 370
30
 100
AcDbLine
   6
CONTINUOUS
  62
7
  10
 130.99999999990
  20
 225.50000000000
  30
0.0
  11
 130.99999999990
  21
 270.50000000000
  31
0.0
   0
LINE
   5
416
 100
AcDbEntity
   8
LEVEL002
 370
25
 100
AcDbLine
   6
CONTINUOUS
  62
1
  10
 93.999999999900
  20
 186.50000000000
  30
0.0
  11
 93.999999999900
  21
 187.20000000000
  31
0.0
   0
LINE
   5
417
 100
AcDbEntity
   8
LEVEL002
 370
25
 100
AcDbLine
   6
CONTINUOUS
  62
1
  10
 93.999999999900
  20
 187.20000000000
  30
0.0
  11
 128.99999999990
  21
 187.20000000000
  31
0.0
   0
LINE
   5
418
 100
AcDbEntity
   8
LEVEL002
 370
25
 100
AcDbLine
   6
CONTINUOUS
  62
1
  10
 128.99999999990
  20
 187.20000000000
  30
0.0
  11
 128.99999999990
  21
 186.50000000000
  31
0.0
   0
LINE
   5
419
 100
AcDbEntity
   8
LEVEL002
 370
25
 100
AcDbLine
   6
CONTINUOUS
  62
1
  10
 93.999999999900
  20
 270.50000000000
  30
0.0
  11
 93.999999999900
  21
 225.50000000000
  31
0.0
   0
LINE
   5
41A
 100
AcDbEntity
   8
LEVEL002
 370
25
 100
AcDbLine
   6
CONTINUOUS
  62
1
  10
 128.99999999990
  20
 270.50000000000
  30
0.0
  11
 128.99999999990
  21
 225.50000000000
  31
0.0
   0
DIMENSION
   5
41B
 100
AcDbEntity
   8
LEVEL001
 370
15
   6
CONTINUOUS
  62
8
 100
AcDbDimension
   2
*D24
  10
 130.99999999990
  20
 196.50000000000
  30
0.0
  11
 110.99999999990
  21
 196.50000000000
  31
0.0
  70
0
   3
GMM001
 100
AcDbAlignedDimension
  13
 90.999999999900
  23
 187.20000000000
  33
0.0
  14
 130.99999999990
  24
 187.20000000000
  34
0.0
 100
AcDbRotatedDimension
   0
DIMENSION
   5
41C
 100
AcDbEntity
   8
LEVEL001
 370
15
   6
CONTINUOUS
  62
8
 100
AcDbDimension
   2
*D25
  10
 142.99999999990
  20
 186.50000000000
  30
0.0
  11
 142.99999999990
  21
 186.95218673698
  31
0.0
  70
128
   3
GMM007
 100
AcDbAlignedDimension
  13
 130.99999999990
  23
 183.50000000000
  33
0.0
  14
 130.99999999990
  24
 186.50000000000
  34
0.0
  50
 90.000000000000
 100
AcDbRotatedDimension
   0
DIMENSION
   5
41D
 100
AcDbEntity
   8
LEVEL001
 370
15
   6
CONTINUOUS
  62
8
 100
AcDbDimension
   2
*D26
  10
 80.999999999900
  20
 186.50000000000
  30
0.0
  11
 80.999999999900
  21
 176.50000000000
  31
0.0
  70
0
   3
GMM001
 100
AcDbAlignedDimension
  13
 90.999999999900
  23
 166.50000000000
  33
0.0
  14
 90.999999999900
  24
 186.50000000000
  34
0.0
  50
 90.000000000000
 100
AcDbRotatedDimension
   0
LEADER
   5
41E
 100
AcDbEntity
   8
LEVEL001
 370
15
   6
CONTINUOUS
  62
8
 100
AcDbLeader
   3
GMM002
  73
0
  74
0
  75
0
  40
 6.0000000000000
  41
 26.000000000000
  76
2
  10
 119.33694168476
  20
 185.40657465903
  30
0.0
  10
 132.17382435056
  20
 213.73075426033
  30
0.0
  77
8
 340
41F
 213
0.0
 223
-2.0000000000000
 233
0.0
   0
MTEXT
   5
41F
 102
{ACAD_REACTORS
 330
41E
 102
}
 100
AcDbEntity
   8
LEVEL001
 370
15
  62
8
 100
AcDbMText
  10
 132.17382435056
  20
 215.73075426033
  30
0.0
  40
 6.0000000000000
  41
0.0
  71
7
  72
1
   1
\A1;インサート
   7
GMM002
   0
LEADER
   5
420
 100
AcDbEntity
   8
LEVEL001
 370
15
   6
CONTINUOUS
  62
8
 100
AcDbLeader
   3
GMM002
  73
0
  74
1
  75
0
  40
 6.0000000000000
  41
 11.000000000000
  76
2
  10
 92.685282590765
  20
 185.69163176742
  30
0.0
  10
 82.595026481519
  20
 199.69679644399
  30
0.0
  77
8
 340
421
 213
0.0
 223
-2.0000000000000
 233
0.0
   0
MTEXT
   5
421
 102
{ACAD_REACTORS
 330
420
 102
}
 100
AcDbEntity
   8
LEVEL001
 370
15
  62
8
 100
AcDbMText
  10
 71.595026481519
  20
 207.69679644399
  30
0.0
  40
 6.0000000000000
  41
0.0
  71
7
  72
1
   1
\A1;金台
   7
GMM002
  44
 0.79999984000003
   0
MTEXT
   5
423
 100
AcDbEntity
   8
LEVEL002
 370
15
  62
8
 100
AcDbMText
  10
 35.999999999900
  20
 546.33333333333
  30
0.0
  40
 4.0000000000000
  41
0.0
  71
1
  72
1
   3
{\W0.500000;\T1.000000;･\W1.000000;\T1.000000;長尺シート／コンクリート}\P{\W0.500000;\T1.000000; \W1.000000;\T1.000000;石／木製用}\P{\W0.500000;\T1.000000;･\W1.000000;\T1.000000;インサート}\P{\W1.000000;\T1.000000;　　波型中空}\P\P{\W0.500000;\T1.000
   1
000;･\W1.000000;\T1.000000;フラットエンド－無}\P\P{\W0.500000;\T1.000000;･\W1.000000;\T1.000000;定尺}\P{\W1.000000;\T1.000000;　　４０００\W0.500000;\T1.000000;m/m}
   7
GMM002
  44
 0.79999984000003
   0
MTEXT
   5
425
 100
AcDbEntity
   8
LEVEL002
 370
15
  62
8
 100
AcDbMText
  10
 180.49999999990
  20
 546.33333333335
  30
0.0
  40
 4.0000000000000
  41
0.0
  71
1
  72
1
   3
{\W0.500000;\T1.000000;･\W1.000000;\T1.000000;長尺シート／コンクリート}\P{\W0.500000;\T1.000000; \W1.000000;\T1.000000;石／木製用}\P{\W0.500000;\T1.000000;･\W1.000000;\T1.000000;インサート}\P{\W1.000000;\T1.000000;　　波型中空}\P\P{\W0.500000;\T1.000
   1
000;･\W1.000000;\T1.000000;フラットエンド－無}\P\P{\W0.500000;\T1.000000;･\W1.000000;\T1.000000;定尺}\P{\W1.000000;\T1.000000;　　４０００\W0.500000;\T1.000000;m/m}
   7
GMM002
  44
 0.79999984000003
   0
MTEXT
   5
427
 100
AcDbEntity
   8
LEVEL002
 370
15
  62
8
 100
AcDbMText
  10
 35.999999999900
  20
 273.33333333334
  30
0.0
  40
 4.0000000000000
  41
0.0
  71
1
  72
1
   3
{\W0.500000;\T1.000000;･\W1.000000;\T1.000000;長尺シート用}\P{\W0.500000;\T1.000000;･\W1.000000;\T1.000000;インサート}\P{\W1.000000;\T1.000000;　　フルフラット}\P\P{\W0.500000;\T1.000000;･\W1.000000;\T1.000000;フラットエンド－無}\P\P{\W0.500000;\T1.0
   1
00000;･\W1.000000;\T1.000000;定尺}\P{\W1.000000;\T1.000000;　　４０００\W0.500000;\T1.000000;m/m}\P{\W1.000000;\T1.000000;　　}
   7
GMM002
  44
 0.79999984000003
   0
MTEXT
   5
429
 100
AcDbEntity
   8
LEVEL002
 370
15
  62
8
 100
AcDbMText
  10
 180.49999999990
  20
 273.33333333334
  30
0.0
  40
 4.0000000000000
  41
0.0
  71
1
  72
1
   3
{\W0.500000;\T1.000000;･\W1.000000;\T1.000000;木製用}\P{\W0.500000;\T1.000000;･\W1.000000;\T1.000000;インサート}\P{\W1.000000;\T1.000000;　　フルフラット}\P\P{\W0.500000;\T1.000000;･\W1.000000;\T1.000000;フラットエンド－無}\P\P{\W0.500000;\T1.000000;
   1
･\W1.000000;\T1.000000;定尺}\P{\W1.000000;\T1.000000;　　４０００\W0.500000;\T1.000000;m/m}
   7
GMM002
  44
 0.79999984000003
   0
MTEXT
   5
42B
 100
AcDbEntity
   8
LEVEL002
 370
15
  62
8
 100
AcDbMText
  10
 324.99999999990
  20
 273.33333333334
  30
0.0
  40
 4.0000000000000
  41
0.0
  71
1
  72
1
   3
{\W0.500000;\T1.000000;･\W1.000000;\T1.000000;長尺シート用}\P{\W0.500000;\T1.000000;･\W1.000000;\T1.000000;インサート}\P{\W1.000000;\T1.000000;　　丸ドット・角ドット}\P\P{\W0.500000;\T1.000000;･\W1.000000;\T1.000000;フラットエンド有}\P\P{\W0.500000;\
   1
T1.000000;･\W1.000000;\T1.000000;定尺}\P{\W1.000000;\T1.000000;　　４０００\W0.500000;\T1.000000;m/m}
   7
GMM002
  44
 0.79999984000003
   0
MTEXT
   5
42D
 100
AcDbEntity
   8
LEVEL002
 370
15
  62
8
 100
AcDbMText
  10
 469.49999999989
  20
 273.33333333334
  30
0.0
  40
 4.0000000000000
  41
0.0
  71
1
  72
1
   3
{\W0.500000;\T1.000000;･\W1.000000;\T1.000000;木製用}\P{\W0.500000;\T1.000000;･\W1.000000;\T1.000000;インサート}\P{\W1.000000;\T1.000000;　　丸ドット・角ドット}\P\P{\W0.500000;\T1.000000;･\W1.000000;\T1.000000;フラットエンド有}\P\P{\W0.500000;\T1.000
   1
000;･\W1.000000;\T1.000000;定尺}\P{\W1.000000;\T1.000000;　　４０００\W0.500000;\T1.000000;m/m}
   7
GMM002
  44
 0.79999984000003
   0
MTEXT
   5
42F
 100
AcDbEntity
   8
LEVEL002
 370
15
  62
8
 100
AcDbMText
  10
 774.43016912150
  20
 84.000000000020
  30
0.0
  40
 6.0000000000000
  41
0.0
  71
5
  72
1
   1
\T1.000000;令和０５年０６月１９日
   7
GMM002
  44
 0.79999984000003
   0
MTEXT
   5
431
 100
AcDbEntity
   8
LEVEL002
 370
15
  62
8
 100
AcDbMText
  10
 774.43016912150
  20
 70.666666666690
  30
0.0
  40
 6.0000000000000
  41
0.0
  71
5
  72
1
   1
\T1.000000;令和　　年　　月　　日
   7
GMM002
  44
 0.79999984000003
   0
MTEXT
   5
433
 100
AcDbEntity
   8
LEVEL002
 370
15
  62
8
 100
AcDbMText
  10
 247.74999999990
  20
 560.00000000000
  30
0.0
  40
 6.0000000000000
  41
0.0
  71
5
  72
1
   1
\T1.000000;Ａ４０１０ＬＨ
   7
GMM002
  44
 0.79999984000003
   0
MTEXT
   5
435
 100
AcDbEntity
   8
LEVEL002
 370
15
  62
8
 100
AcDbMText
  10
 103.24999999990
  20
 560.00000000000
  30
0.0
  40
 6.0000000000000
  41
0.0
  71
5
  72
1
   1
\T1.000000;Ａ３５１０ＬＨ
   7
GMM002
  44
 0.79999984000003
   0
MTEXT
   5
437
 100
AcDbEntity
   8
LEVEL002
 370
15
  62
8
 100
AcDbMText
  10
 475.24999999990
  20
 284.00000000000
  30
0.0
  40
 6.0000000000000
  41
0.0
  71
7
  72
1
   1
\W1.000000;\T1.000000;ＳＣＦＡ４０１３Ｒ\W0.500000;\T1.000000;/\W1.000000;\T1.000000;ＳＣＦＡ４０１３Ｋ
   7
GMM002
  44
 0.79999984000003
   0
MTEXT
   5
439
 100
AcDbEntity
   8
LEVEL002
 370
15
  62
8
 100
AcDbMText
  10
 336.74999999990
  20
 284.00000000000
  30
0.0
  40
 6.0000000000000
  41
0.0
  71
7
  72
1
   1
\W1.000000;\T1.000000;ＳＣＡ４０１３Ｒ\W0.500000;\T1.000000;/\W1.000000;\T1.000000;ＳＣＡ４０１３Ｋ
   7
GMM002
  44
 0.79999984000003
   0
ENDSEC
  0
SECTION
  2
OBJECTS
  0
DICTIONARY
  5
C
100
AcDbDictionary
  3
ACAD_GROUP
350
D
  3
ACAD_MLINESTYLE
350
1B
  3
DWGPROPS
350
1C
  0
DICTIONARY
  5
D
102
{ACAD_REACTORS
330
C
102
}
100
AcDbDictionary
  0
DICTIONARY
  5
1B
102
{ACAD_REACTORS
330
C
102
}
100
AcDbDictionary
  3
STANDARD
350
1D
  0
MLINESTYLE
  5
1D
102
{ACAD_REACTORS
330
1B
102
}
100
AcDbMlineStyle
  2
STANDARD
 70
     0
  3

 62
   256
 51
90.0
 52
90.0
 71
     2
 49
0.5
 62
   256
  6
BYLAYER
 49
-0.5
 62
   256
  6
BYLAYER
   0
XRECORD
   5
1C
 102
{ACAD_REACTORS
 330
C
 102
}
 330
C
 100
AcDbXrecord
 280
1
   1
DWGPROPS COOKIE
   2
 
   3
 
   4
 
   6
 
   7
00000000.DRW
   8
 
   9

 300
 = 
 301
 = 
 302
 = 
 303
 = 
 304
 = 
 305
 = 
 306
 = 
 307
 = 
 308
 = 
 309
 = 
  40
0.0
  41
 2460114.5000000
  42
 2460114.5000000
   1

  90
10
   0
ENDSEC
   0
EOF
