   0
SECTION
   2
HEADER
   9
$ACADVER
   1
AC1015
   9
$DWGCODEPAGE
   3
ANSI_932
   9
$LIMMIN
  10
0.0
  20
0.0
   9
$LIMMAX
  10
 420.00000000000
  20
 297.00000000000
   9
$EXTMIN
  10
0.0
  20
0.0
  30
0.0
   9
$EXTMAX
  10
 420.00000000000
  20
 297.00000000000
  30
0.0
   9
$LTSCALE
  40
 8.4000000000000
   9
$HANDSEED
   5
27C
   0
ENDSEC
   0
SECTION
   2
TABLES
  0
TABLE
  2
VPORT
  5
8
100
AcDbSymbolTable
 70
     1
  0
VPORT
  5
27B
100
AcDbSymbolTableRecord
100
AcDbViewportTableRecord
  2
*ACTIVE
 70
     0
 10
0.0
 20
0.0
 11
1.0
 21
1.0
  12
 210.00000000000
  22
 148.50000000000
 13
0.0
 23
0.0
 14
1.0
 24
1.0
 15
0.0
 25
0.0
 16
0.0
 26
0.0
 36
1.0
 17
0.0
 27
0.0
 37
0.0
  40
 420.00000000000
  41
 1.4787878787879
 42
50.0
 43
0.0
 44
0.0
 50
0.0
 51
0.0
 71
     0
 72
   100
 73
     1
 74
     1
 75
     0
 76
     0
 77
     0
 78
     0
  0
ENDTAB
  0
TABLE
  2
LTYPE
  5
5
100
AcDbSymbolTable
 70
    25
  0
LTYPE
  5
12
100
AcDbSymbolTableRecord
100
AcDbLinetypeTableRecord
  2
BYBLOCK
 70
     0
  3

 72
    65
 73
     0
 40
0.0
  0
LTYPE
  5
13
100
AcDbSymbolTableRecord
100
AcDbLinetypeTableRecord
  2
BYLAYER
 70
     0
  3

 72
    65
 73
     0
 40
0.0
  0
LTYPE
  5
14
100
AcDbSymbolTableRecord
100
AcDbLinetypeTableRecord
  2
CONTINUOUS
 70
     0
  3
Solid line
 72
    65
 73
     0
 40
0.0
  0
LTYPE
  5
20
100
AcDbSymbolTableRecord
100
AcDbLinetypeTableRecord
  2
BORDER
 70
     0
  3
__ __ . __ __ . __ __ . __ __ . __ __ . __ __ .
 72
    65
 73
     6
 40
1.75
 49
0.5
 74
     0
 49
-0.25
 74
     0
 49
0.5
 74
     0
 49
-0.25
 74
     0
 49
0.0
 74
     0
 49
-0.25
 74
     0
  0
LTYPE
  5
21
100
AcDbSymbolTableRecord
100
AcDbLinetypeTableRecord
  2
BORDER2
 70
     0
  3
__.__.__.__.__.__.__.__.__.__.__.__.__.__.__.__
 72
    65
 73
     6
 40
0.875
 49
0.25
 74
     0
 49
-0.125
 74
     0
 49
0.25
 74
     0
 49
-0.125
 74
     0
 49
0.0
 74
     0
 49
-0.125
 74
     0
  0
LTYPE
  5
22
100
AcDbSymbolTableRecord
100
AcDbLinetypeTableRecord
  2
BORDERX2
 70
     0
  3
____  ____  .  ____  ____  .  ____  ____  .  __
 72
    65
 73
     6
 40
3.5
 49
1.0
 74
     0
 49
-0.5
 74
     0
 49
1.0
 74
     0
 49
-0.5
 74
     0
 49
0.0
 74
     0
 49
-0.5
 74
     0
  0
LTYPE
  5
23
100
AcDbSymbolTableRecord
100
AcDbLinetypeTableRecord
  2
CENTER
 70
     0
  3
____ _ ____ _ ____ _ ____ _ ____ _ ____ _ ____ 
 72
    65
 73
     4
 40
2.0
 49
1.25
 74
     0
 49
-0.25
 74
     0
 49
0.25
 74
     0
 49
-0.25
 74
     0
  0
LTYPE
  5
24
100
AcDbSymbolTableRecord
100
AcDbLinetypeTableRecord
  2
CENTER2
 70
     0
  3
___ _ ___ _ ___ _ ___ _ ___ _ ___ _ ___ _ ___ _
 72
    65
 73
     4
 40
1.125
 49
0.75
 74
     0
 49
-0.125
 74
     0
 49
0.125
 74
     0
 49
-0.125
 74
     0
  0
LTYPE
  5
25
100
AcDbSymbolTableRecord
100
AcDbLinetypeTableRecord
  2
CENTERX2
 70
     0
  3
________  __  ________  __  ________  __  _____
 72
    65
 73
     4
 40
4.0
 49
2.5
 74
     0
 49
-0.5
 74
     0
 49
0.5
 74
     0
 49
-0.5
 74
     0
  0
LTYPE
  5
26
100
AcDbSymbolTableRecord
100
AcDbLinetypeTableRecord
  2
DASHDOT
 70
     0
  3
__ . __ . __ . __ . __ . __ . __ . __ . __ . __
 72
    65
 73
     4
 40
1.0
 49
0.5
 74
     0
 49
-0.25
 74
     0
 49
0.0
 74
     0
 49
-0.25
 74
     0
  0
LTYPE
  5
27
100
AcDbSymbolTableRecord
100
AcDbLinetypeTableRecord
  2
DASHDOT2
 70
     0
  3
_._._._._._._._._._._._._._._._._._._._._._._._
 72
    65
 73
     4
 40
0.5
 49
0.25
 74
     0
 49
-0.125
 74
     0
 49
0.0
 74
     0
 49
-0.125
 74
     0
  0
LTYPE
  5
28
100
AcDbSymbolTableRecord
100
AcDbLinetypeTableRecord
  2
DASHDOTX2
 70
     0
  3
____  .  ____  .  ____  .  ____  .  ____  .  __
 72
    65
 73
     4
 40
2.0
 49
1.0
 74
     0
 49
-0.5
 74
     0
 49
0.0
 74
     0
 49
-0.5
 74
     0
  0
LTYPE
  5
29
100
AcDbSymbolTableRecord
100
AcDbLinetypeTableRecord
  2
DASHED
 70
     0
  3
__ __ __ __ __ __ __ __ __ __ __ __ __ __ __ __
 72
    65
 73
     2
 40
0.75
 49
0.5
 74
     0
 49
-0.25
 74
     0
  0
LTYPE
  5
2A
100
AcDbSymbolTableRecord
100
AcDbLinetypeTableRecord
  2
DASHED2
 70
     0
  3
_ _ _ _ _ _ _ _ _ _ _ _ _ _ _ _ _ _ _ _ _ _ _ _
 72
    65
 73
     2
 40
0.375
 49
0.25
 74
     0
 49
-0.125
 74
     0
  0
LTYPE
  5
2B
100
AcDbSymbolTableRecord
100
AcDbLinetypeTableRecord
  2
DASHEDX2
 70
     0
  3
____  ____  ____  ____  ____  ____  ____  ____ 
 72
    65
 73
     2
 40
1.5
 49
1.0
 74
     0
 49
-0.5
 74
     0
  0
LTYPE
  5
2C
100
AcDbSymbolTableRecord
100
AcDbLinetypeTableRecord
  2
DIVIDE
 70
     0
  3
____ . . ____ . . ____ . . ____ . . ____ . . __
 72
    65
 73
     6
 40
1.25
 49
0.5
 74
     0
 49
-0.25
 74
     0
 49
0.0
 74
     0
 49
-0.25
 74
     0
 49
0.0
 74
     0
 49
-0.25
 74
     0
  0
LTYPE
  5
2D
100
AcDbSymbolTableRecord
100
AcDbLinetypeTableRecord
  2
DIVIDE2
 70
     0
  3
__..__..__..__..__..__..__..__..__..__..__..__.
 72
    65
 73
     6
 40
0.625
 49
0.25
 74
     0
 49
-0.125
 74
     0
 49
0.0
 74
     0
 49
-0.125
 74
     0
 49
0.0
 74
     0
 49
-0.125
 74
     0
  0
LTYPE
  5
2E
100
AcDbSymbolTableRecord
100
AcDbLinetypeTableRecord
  2
DIVIDEX2
 70
     0
  3
________  .  .  ________  .  .  ________  .  . 
 72
    65
 73
     6
 40
2.5
 49
1.0
 74
     0
 49
-0.5
 74
     0
 49
0.0
 74
     0
 49
-0.5
 74
     0
 49
0.0
 74
     0
 49
-0.5
 74
     0
  0
LTYPE
  5
2F
100
AcDbSymbolTableRecord
100
AcDbLinetypeTableRecord
  2
DOT
 70
     0
  3
. . . . . . . . . . . . . . . . . . . . . . . .
 72
    65
 73
     2
 40
0.25
 49
0.0
 74
     0
 49
-0.25
 74
     0
  0
LTYPE
  5
30
100
AcDbSymbolTableRecord
100
AcDbLinetypeTableRecord
  2
DOT2
 70
     0
  3
...............................................
 72
    65
 73
     2
 40
0.125
 49
0.0
 74
     0
 49
-0.125
 74
     0
  0
LTYPE
  5
31
100
AcDbSymbolTableRecord
100
AcDbLinetypeTableRecord
  2
DOTX2
 70
     0
  3
.  .  .  .  .  .  .  .  .  .  .  .  .  .  .  . 
 72
    65
 73
     2
 40
0.5
 49
0.0
 74
     0
 49
-0.5
 74
     0
  0
LTYPE
  5
32
100
AcDbSymbolTableRecord
100
AcDbLinetypeTableRecord
  2
HIDDEN
 70
     0
  3
__ __ __ __ __ __ __ __ __ __ __ __ __ __ __ __
 72
    65
 73
     2
 40
0.375
 49
0.25
 74
     0
 49
-0.125
 74
     0
  0
LTYPE
  5
33
100
AcDbSymbolTableRecord
100
AcDbLinetypeTableRecord
  2
HIDDEN2
 70
     0
  3
_ _ _ _ _ _ _ _ _ _ _ _ _ _ _ _ _ _ _ _ _ _ _ _
 72
    65
 73
     2
 40
0.1875
 49
0.125
 74
     0
 49
-0.0625
 74
     0
  0
LTYPE
  5
34
100
AcDbSymbolTableRecord
100
AcDbLinetypeTableRecord
  2
HIDDENX2
 70
     0
  3
____ ____ ____ ____ ____ ____ ____ ____ ____ __
 72
    65
 73
     2
 40
0.75
 49
0.5
 74
     0
 49
-0.25
 74
     0
  0
LTYPE
  5
35
100
AcDbSymbolTableRecord
100
AcDbLinetypeTableRecord
  2
PHANTOM
 70
     0
  3
______  __  __  ______  __  __  ______  __  __ 
 72
    65
 73
     6
 40
2.5
 49
1.25
 74
     0
 49
-0.25
 74
     0
 49
0.25
 74
     0
 49
-0.25
 74
     0
 49
0.25
 74
     0
 49
-0.25
 74
     0
  0
LTYPE
  5
36
100
AcDbSymbolTableRecord
100
AcDbLinetypeTableRecord
  2
PHANTOM2
 70
     0
  3
___ _ _ ___ _ _ ___ _ _ ___ _ _ ___ _ _ ___ _ _
 72
    65
 73
     6
 40
1.25
 49
0.625
 74
     0
 49
-0.125
 74
     0
 49
0.125
 74
     0
 49
-0.125
 74
     0
 49
0.125
 74
     0
 49
-0.125
 74
     0
  0
LTYPE
  5
37
100
AcDbSymbolTableRecord
100
AcDbLinetypeTableRecord
  2
PHANTOMX2
 70
     0
  3
____________    ____    ____    ____________   
 72
    65
 73
     6
 40
5.0
 49
2.5
 74
     0
 49
-0.5
 74
     0
 49
0.5
 74
     0
 49
-0.5
 74
     0
 49
0.5
 74
     0
 49
-0.5
 74
     0
  0
ENDTAB
   0
TABLE
   2
LAYER
   5
2
 100
AcDbSymbolTable
  70
3
   0
LAYER
   5
E
 100
AcDbSymbolTableRecord
 100
AcDbLayerTableRecord
   2
0
  70
0
  62
7
   6
CONTINUOUS
 390
30
   0
LAYER
   5
39
 100
AcDbSymbolTableRecord
 100
AcDbLayerTableRecord
   2
LEVEL001
  70
0
  62
7
   6
CONTINUOUS
 390
30
   0
LAYER
   5
3A
 100
AcDbSymbolTableRecord
 100
AcDbLayerTableRecord
   2
LEVEL002
  70
0
  62
7
   6
CONTINUOUS
 390
30
   0
ENDTAB
  0
TABLE
  2
STYLE
  5
3
100
AcDbSymbolTable
  70
6
  0
STYLE
  5
F
100
AcDbSymbolTableRecord
100
AcDbTextStyleTableRecord
  2
STANDARD
 70
     0
 40
0.0
 41
1.0
 50
0.0
 71
     0
 42
0.2
  3
TXT
  4
BIGFONT
  0
STYLE
  5
38
100
AcDbSymbolTableRecord
100
AcDbTextStyleTableRecord
  2
STANDARD1
 70
     4
 40
0.0
 41
1.0
 50
0.0
 71
     0
 42
0.2
  3
TXT
  4
BIGFONT
   0
STYLE
   5
3B
 100
AcDbSymbolTableRecord
 100
AcDbTextStyleTableRecord
   2
GMM001
  70
0
  40
0.0
  41
 0.80000000000000
  50
0.0
  71
     0
  42
1.0
   3
txt.shx
   4
bigfont.shx
   0
STYLE
   5
3C
 100
AcDbSymbolTableRecord
 100
AcDbTextStyleTableRecord
   2
GMM002
  70
0
  40
0.0
  41
 1.0000000000000
  50
0.0
  71
     0
  42
1.0
   3
txt.shx
   4
bigfont.shx
   0
STYLE
   5
3D
 100
AcDbSymbolTableRecord
 100
AcDbTextStyleTableRecord
   2
GMM003
  70
0
  40
0.0
  41
 1.0714285714286
  50
0.0
  71
     0
  42
1.0
   3
txt.shx
   4
bigfont.shx
   0
STYLE
   5
3E
 100
AcDbSymbolTableRecord
 100
AcDbTextStyleTableRecord
   2
GMM004
  70
0
  40
0.0
  41
 0.88888888888889
  50
0.0
  71
     0
  42
1.0
   3
txt.shx
   4
bigfont.shx
   0
ENDTAB
  0
TABLE
  2
VIEW
  5
6
100
AcDbSymbolTable
 70
     0
  0
ENDTAB
  0
TABLE
  2
UCS
  5
7
100
AcDbSymbolTable
 70
     0
  0
ENDTAB
  0
TABLE
  2
APPID
  5
9
100
AcDbSymbolTable
 70
     1
  0
APPID
  5
10
100
AcDbSymbolTableRecord
100
AcDbRegAppTableRecord
  2
ACAD
 70
     0
  0
ENDTAB
   0
TABLE
   2
DIMSTYLE
   5
A
 100
AcDbSymbolTable
  70
4
 100
AcDbDimStyleTable
  0
DIMSTYLE
105
1D
100
AcDbSymbolTableRecord
100
AcDbDimStyleTableRecord
  2
STANDARD
 70
     0
  3

  4

  5

  6

  7

 40
1.0
 41
0.18
 42
0.0625
 43
0.38
 44
0.18
 45
0.0
 46
0.0
 47
0.0
 48
0.0
140
0.18
141
0.09
142
0.0
143
25.4
144
1.0
145
0.0
146
1.0
147
0.09
 71
     0
 72
     0
 73
     1
 74
     1
 75
     0
 76
     0
 77
     0
 78
     0
170
     0
171
     2
172
     0
173
     0
174
     0
175
     0
176
     0
177
     0
178
     0
270
     2
271
     4
272
     4
273
     2
274
     2
340
F
275
     0
280
     0
281
     0
282
     0
283
     1
284
     0
285
     0
286
     0
287
     3
288
     0
   0
DIMSTYLE
 105
3F
 100
AcDbSymbolTableRecord
 100
AcDbDimStyleTableRecord
   2
GMM001
  70
0
   3

   4

   5

   6

   7

  40
 1.0000000000000
  41
 2.0000000000000
  42
 1.0000000000000
  43
 8.0000000000000
  44
 1.0000000000000
  45
0.0
  46
0.0
  47
0.0
  48
0.0
 140
 2.5000000000000
 141
 1.0000000000000
 142
0.0
 143
 0.39400000000000E-1
 144
 1.0000000000000
 145
0.0
 146
 1.0000000000000
 147
 1.0000000000000
  71
0
  72
0
  73
0
  74
0
  75
0
  76
0
  77
3
  78
8
 170
0
 171
2
 172
1
 173
1
 174
0
 175
0
 176
8
 177
8
 178
8
 270
2
 271
6
 272
0
 273
2
 274
2
 340
3C
 275
0
 280
0
 281
0
 282
0
 283
1
 284
0
 285
0
 286
0
 287
3
 288
0
   0
DIMSTYLE
 105
40
 100
AcDbSymbolTableRecord
 100
AcDbDimStyleTableRecord
   2
GMM002
  70
0
   3

   4

   5

   6

   7

  40
 1.0000000000000
  41
 2.0000000000000
  42
 1.0000000000000
  43
 8.0000000000000
  44
 1.0000000000000
  45
0.0
  46
0.0
  47
0.0
  48
0.0
 140
 2.5000000000000
 141
 1.0000000000000
 142
0.0
 143
 0.39400000000000E-1
 144
 1.0000000000000
 145
0.0
 146
 1.0000000000000
 147
 1.0000000000000
  71
0
  72
0
  73
0
  74
0
  75
0
  76
0
  77
3
  78
8
 170
0
 171
2
 172
1
 173
1
 174
0
 175
0
 176
8
 177
8
 178
8
 270
2
 271
6
 272
0
 273
2
 274
2
 340
3C
 275
0
 280
0
 281
0
 282
0
 283
1
 284
0
 285
0
 286
0
 287
3
 288
1
   0
ENDTAB
  0
TABLE
  2
BLOCK_RECORD
  5
1
100
AcDbSymbolTable
 70
     0
  0
BLOCK_RECORD
  5
18
100
AcDbSymbolTableRecord
100
AcDbBlockTableRecord
  2
*MODEL_SPACE
  0
BLOCK_RECORD
  5
15
100
AcDbSymbolTableRecord
100
AcDbBlockTableRecord
  2
*PAPER_SPACE
   0
BLOCK_RECORD
   5
41
 100
AcDbSymbolTableRecord
 100
AcDbBlockTableRecord
   2
*D1
   0
BLOCK_RECORD
   5
42
 100
AcDbSymbolTableRecord
 100
AcDbBlockTableRecord
   2
*D2
   0
BLOCK_RECORD
   5
43
 100
AcDbSymbolTableRecord
 100
AcDbBlockTableRecord
   2
*D3
   0
BLOCK_RECORD
   5
44
 100
AcDbSymbolTableRecord
 100
AcDbBlockTableRecord
   2
*D4
   0
BLOCK_RECORD
   5
45
 100
AcDbSymbolTableRecord
 100
AcDbBlockTableRecord
   2
*D5
   0
BLOCK_RECORD
   5
46
 100
AcDbSymbolTableRecord
 100
AcDbBlockTableRecord
   2
*D6
   0
BLOCK_RECORD
   5
47
 100
AcDbSymbolTableRecord
 100
AcDbBlockTableRecord
   2
*D7
   0
BLOCK_RECORD
   5
48
 100
AcDbSymbolTableRecord
 100
AcDbBlockTableRecord
   2
*D8
   0
BLOCK_RECORD
   5
49
 100
AcDbSymbolTableRecord
 100
AcDbBlockTableRecord
   2
*D9
   0
BLOCK_RECORD
   5
4A
 100
AcDbSymbolTableRecord
 100
AcDbBlockTableRecord
   2
*D10
   0
BLOCK_RECORD
   5
4B
 100
AcDbSymbolTableRecord
 100
AcDbBlockTableRecord
   2
*D11
   0
BLOCK_RECORD
   5
4C
 100
AcDbSymbolTableRecord
 100
AcDbBlockTableRecord
   2
*D12
   0
BLOCK_RECORD
   5
4D
 100
AcDbSymbolTableRecord
 100
AcDbBlockTableRecord
   2
*D13
   0
BLOCK_RECORD
   5
4E
 100
AcDbSymbolTableRecord
 100
AcDbBlockTableRecord
   2
*D14
   0
BLOCK_RECORD
   5
4F
 100
AcDbSymbolTableRecord
 100
AcDbBlockTableRecord
   2
*D15
   0
BLOCK_RECORD
   5
50
 100
AcDbSymbolTableRecord
 100
AcDbBlockTableRecord
   2
*D16
   0
BLOCK_RECORD
   5
51
 100
AcDbSymbolTableRecord
 100
AcDbBlockTableRecord
   2
*D17
   0
BLOCK_RECORD
   5
52
 100
AcDbSymbolTableRecord
 100
AcDbBlockTableRecord
   2
*D18
   0
BLOCK_RECORD
   5
53
 100
AcDbSymbolTableRecord
 100
AcDbBlockTableRecord
   2
*D19
   0
BLOCK_RECORD
   5
54
 100
AcDbSymbolTableRecord
 100
AcDbBlockTableRecord
   2
_ARCHTICK
   0
BLOCK_RECORD
   5
55
 100
AcDbSymbolTableRecord
 100
AcDbBlockTableRecord
   2
_BOXBLANK
   0
BLOCK_RECORD
   5
56
 100
AcDbSymbolTableRecord
 100
AcDbBlockTableRecord
   2
_BOXFILLED
   0
BLOCK_RECORD
   5
57
 100
AcDbSymbolTableRecord
 100
AcDbBlockTableRecord
   2
_CLOSED
   0
BLOCK_RECORD
   5
58
 100
AcDbSymbolTableRecord
 100
AcDbBlockTableRecord
   2
_CLOSEDBLANK
   0
BLOCK_RECORD
   5
59
 100
AcDbSymbolTableRecord
 100
AcDbBlockTableRecord
   2
_DATUMBLANK
   0
BLOCK_RECORD
   5
5A
 100
AcDbSymbolTableRecord
 100
AcDbBlockTableRecord
   2
_DATUMFILLED
   0
BLOCK_RECORD
   5
5B
 100
AcDbSymbolTableRecord
 100
AcDbBlockTableRecord
   2
_DOT
   0
BLOCK_RECORD
   5
5C
 100
AcDbSymbolTableRecord
 100
AcDbBlockTableRecord
   2
_DOTBLANK
   0
BLOCK_RECORD
   5
5D
 100
AcDbSymbolTableRecord
 100
AcDbBlockTableRecord
   2
_DOTSMALL
   0
BLOCK_RECORD
   5
5E
 100
AcDbSymbolTableRecord
 100
AcDbBlockTableRecord
   2
_INTEGRAL
   0
BLOCK_RECORD
   5
5F
 100
AcDbSymbolTableRecord
 100
AcDbBlockTableRecord
   2
_NONE
   0
BLOCK_RECORD
   5
60
 100
AcDbSymbolTableRecord
 100
AcDbBlockTableRecord
   2
_OBLIQUE
   0
BLOCK_RECORD
   5
61
 100
AcDbSymbolTableRecord
 100
AcDbBlockTableRecord
   2
_OPEN
   0
BLOCK_RECORD
   5
62
 100
AcDbSymbolTableRecord
 100
AcDbBlockTableRecord
   2
_OPEN30
   0
BLOCK_RECORD
   5
63
 100
AcDbSymbolTableRecord
 100
AcDbBlockTableRecord
   2
_OPEN90
   0
BLOCK_RECORD
   5
64
 100
AcDbSymbolTableRecord
 100
AcDbBlockTableRecord
   2
_ORIGIN
   0
ENDTAB
   0
ENDSEC
  0
SECTION
  2
BLOCKS
  0
BLOCK
  5
19
100
AcDbEntity
  8
0
100
AcDbBlockBegin
  2
*MODEL_SPACE
 70
     0
 10
0.0
 20
0.0
 30
0.0
  3
*MODEL_SPACE
  1

  0
ENDBLK
  5
1A
100
AcDbEntity
  8
0
100
AcDbBlockEnd
  0
BLOCK
  5
16
100
AcDbEntity
 67
     1
  8
0
100
AcDbBlockBegin
  2
*PAPER_SPACE
 70
     0
 10
0.0
 20
0.0
 30
0.0
  3
*PAPER_SPACE
  1

  0
ENDBLK
  5
17
100
AcDbEntity
 67
     1
  8
0
100
AcDbBlockEnd
   0
BLOCK
   5
65
 100
AcDbEntity
   8
0
 100
AcDbBlockBegin
   2
_ARCHTICK
  70
0
  10
0.0
  20
0.0
  30
0.0
   3
_ARCHTICK
   0
POLYLINE
   5
66
 100
AcDbEntity
   8
0
 370
-2
   6
BYBLOCK
  62
0
 100
AcDb2dPolyline
  66
1
  10
0.0
  20
0.0
  30
0.0
  70
1
  40
 0.15000000000000
  41
 0.15000000000000
   0
VERTEX
   5
67
 100
AcDbEntity
   8
0
   6
BYBLOCK
  62
0
 100
AcDbVertex
 100
AcDb2dVertex
  10
-0.50000000000000
  20
-0.50000000000000
  30
0.0
  40
 0.15000000000000
  41
 0.15000000000000
   0
VERTEX
   5
68
 100
AcDbEntity
   8
0
   6
BYBLOCK
  62
0
 100
AcDbVertex
 100
AcDb2dVertex
  10
 0.50000000000000
  20
 0.50000000000000
  30
0.0
  40
 0.15000000000000
  41
 0.15000000000000
   0
SEQEND
   5
69
 100
AcDbEntity
   8
0
   6
BYBLOCK
  62
0
   0
ENDBLK
   5
6A
 100
AcDbEntity
   8
0
 100
AcDbBlockEnd
   0
BLOCK
   5
6B
 100
AcDbEntity
   8
0
 100
AcDbBlockBegin
   2
_OBLIQUE
  70
0
  10
0.0
  20
0.0
  30
0.0
   3
_OBLIQUE
   0
LINE
   5
6C
 100
AcDbEntity
   8
0
 370
-2
 100
AcDbLine
   6
BYBLOCK
  62
0
  10
-0.50000000000000
  20
-0.50000000000000
  30
0.0
  11
 0.50000000000000
  21
 0.50000000000000
  31
0.0
   0
ENDBLK
   5
6D
 100
AcDbEntity
   8
0
 100
AcDbBlockEnd
   0
BLOCK
   5
6E
 100
AcDbEntity
   8
0
 100
AcDbBlockBegin
   2
_BOXBLANK
  70
0
  10
0.0
  20
0.0
  30
0.0
   3
_BOXBLANK
   0
LINE
   5
6F
 100
AcDbEntity
   8
0
 370
-2
 100
AcDbLine
   6
BYBLOCK
  62
0
  10
-0.50000000000000
  20
-0.50000000000000
  30
0.0
  11
 0.50000000000000
  21
-0.50000000000000
  31
0.0
   0
LINE
   5
70
 100
AcDbEntity
   8
0
 370
-2
 100
AcDbLine
   6
BYBLOCK
  62
0
  10
 0.50000000000000
  20
-0.50000000000000
  30
0.0
  11
 0.50000000000000
  21
 0.50000000000000
  31
0.0
   0
LINE
   5
71
 100
AcDbEntity
   8
0
 370
-2
 100
AcDbLine
   6
BYBLOCK
  62
0
  10
 0.50000000000000
  20
 0.50000000000000
  30
0.0
  11
-0.50000000000000
  21
 0.50000000000000
  31
0.0
   0
LINE
   5
72
 100
AcDbEntity
   8
0
 370
-2
 100
AcDbLine
   6
BYBLOCK
  62
0
  10
-0.50000000000000
  20
 0.50000000000000
  30
0.0
  11
-0.50000000000000
  21
-0.50000000000000
  31
0.0
   0
LINE
   5
73
 100
AcDbEntity
   8
0
 370
-2
 100
AcDbLine
   6
BYBLOCK
  62
0
  10
-0.50000000000000
  20
0.0
  30
0.0
  11
-1.0000000000000
  21
0.0
  31
0.0
   0
ENDBLK
   5
74
 100
AcDbEntity
   8
0
 100
AcDbBlockEnd
   0
BLOCK
   5
75
 100
AcDbEntity
   8
0
 100
AcDbBlockBegin
   2
_BOXFILLED
  70
0
  10
0.0
  20
0.0
  30
0.0
   3
_BOXFILLED
   0
SOLID
   5
76
 100
AcDbEntity
   8
0
 100
AcDbTrace
   6
BYBLOCK
  62
0
  10
-0.50000000000000
  20
 0.50000000000000
  30
0.0
  11
 0.50000000000000
  21
 0.50000000000000
  31
0.0
  12
-0.50000000000000
  22
-0.50000000000000
  32
0.0
  13
 0.50000000000000
  23
-0.50000000000000
  33
0.0
   0
LINE
   5
77
 100
AcDbEntity
   8
0
 370
-2
 100
AcDbLine
   6
BYBLOCK
  62
0
  10
-0.50000000000000
  20
0.0
  30
0.0
  11
-1.0000000000000
  21
0.0
  31
0.0
   0
ENDBLK
   5
78
 100
AcDbEntity
   8
0
 100
AcDbBlockEnd
   0
BLOCK
   5
79
 100
AcDbEntity
   8
0
 100
AcDbBlockBegin
   2
_CLOSED
  70
0
  10
0.0
  20
0.0
  30
0.0
   3
_CLOSED
   0
LINE
   5
7A
 100
AcDbEntity
   8
0
 370
-2
 100
AcDbLine
   6
BYBLOCK
  62
0
  10
-1.0000000000000
  20
 0.16666666666667
  30
0.0
  11
0.0
  21
0.0
  31
0.0
   0
LINE
   5
7B
 100
AcDbEntity
   8
0
 370
-2
 100
AcDbLine
   6
BYBLOCK
  62
0
  10
0.0
  20
0.0
  30
0.0
  11
-1.0000000000000
  21
-0.16666666666667
  31
0.0
   0
LINE
   5
7C
 100
AcDbEntity
   8
0
 370
-2
 100
AcDbLine
   6
BYBLOCK
  62
0
  10
-1.0000000000000
  20
 0.16666666666667
  30
0.0
  11
-1.0000000000000
  21
-0.16666666666667
  31
0.0
   0
LINE
   5
7D
 100
AcDbEntity
   8
0
 370
-2
 100
AcDbLine
   6
BYBLOCK
  62
0
  10
0.0
  20
0.0
  30
0.0
  11
-1.0000000000000
  21
0.0
  31
0.0
   0
ENDBLK
   5
7E
 100
AcDbEntity
   8
0
 100
AcDbBlockEnd
   0
BLOCK
   5
7F
 100
AcDbEntity
   8
0
 100
AcDbBlockBegin
   2
_OPEN
  70
0
  10
0.0
  20
0.0
  30
0.0
   3
_OPEN
   0
LINE
   5
80
 100
AcDbEntity
   8
0
 370
-2
 100
AcDbLine
   6
BYBLOCK
  62
0
  10
-1.0000000000000
  20
 0.16666666666667
  30
0.0
  11
0.0
  21
0.0
  31
0.0
   0
LINE
   5
81
 100
AcDbEntity
   8
0
 370
-2
 100
AcDbLine
   6
BYBLOCK
  62
0
  10
0.0
  20
0.0
  30
0.0
  11
-1.0000000000000
  21
-0.16666666666667
  31
0.0
   0
LINE
   5
82
 100
AcDbEntity
   8
0
 370
-2
 100
AcDbLine
   6
BYBLOCK
  62
0
  10
0.0
  20
0.0
  30
0.0
  11
-1.0000000000000
  21
0.0
  31
0.0
   0
ENDBLK
   5
83
 100
AcDbEntity
   8
0
 100
AcDbBlockEnd
   0
BLOCK
   5
84
 100
AcDbEntity
   8
0
 100
AcDbBlockBegin
   2
_OPEN30
  70
0
  10
0.0
  20
0.0
  30
0.0
   3
_OPEN30
   0
LINE
   5
85
 100
AcDbEntity
   8
0
 370
-2
 100
AcDbLine
   6
BYBLOCK
  62
0
  10
-1.0000000000000
  20
 0.26794919243110
  30
0.0
  11
0.0
  21
0.0
  31
0.0
   0
LINE
   5
86
 100
AcDbEntity
   8
0
 370
-2
 100
AcDbLine
   6
BYBLOCK
  62
0
  10
0.0
  20
0.0
  30
0.0
  11
-1.0000000000000
  21
-0.26794919243110
  31
0.0
   0
LINE
   5
87
 100
AcDbEntity
   8
0
 370
-2
 100
AcDbLine
   6
BYBLOCK
  62
0
  10
0.0
  20
0.0
  30
0.0
  11
-1.0000000000000
  21
0.0
  31
0.0
   0
ENDBLK
   5
88
 100
AcDbEntity
   8
0
 100
AcDbBlockEnd
   0
BLOCK
   5
89
 100
AcDbEntity
   8
0
 100
AcDbBlockBegin
   2
_OPEN90
  70
0
  10
0.0
  20
0.0
  30
0.0
   3
_OPEN90
   0
LINE
   5
8A
 100
AcDbEntity
   8
0
 370
-2
 100
AcDbLine
   6
BYBLOCK
  62
0
  10
-0.50000000000000
  20
 0.50000000000000
  30
0.0
  11
0.0
  21
0.0
  31
0.0
   0
LINE
   5
8B
 100
AcDbEntity
   8
0
 370
-2
 100
AcDbLine
   6
BYBLOCK
  62
0
  10
0.0
  20
0.0
  30
0.0
  11
-0.50000000000000
  21
-0.50000000000000
  31
0.0
   0
LINE
   5
8C
 100
AcDbEntity
   8
0
 370
-2
 100
AcDbLine
   6
BYBLOCK
  62
0
  10
0.0
  20
0.0
  30
0.0
  11
-1.0000000000000
  21
0.0
  31
0.0
   0
ENDBLK
   5
8D
 100
AcDbEntity
   8
0
 100
AcDbBlockEnd
   0
BLOCK
   5
8E
 100
AcDbEntity
   8
0
 100
AcDbBlockBegin
   2
_CLOSEDBLANK
  70
0
  10
0.0
  20
0.0
  30
0.0
   3
_CLOSEDBLANK
   0
LINE
   5
8F
 100
AcDbEntity
   8
0
 370
-2
 100
AcDbLine
   6
BYBLOCK
  62
0
  10
-1.0000000000000
  20
 0.16666666666667
  30
0.0
  11
0.0
  21
0.0
  31
0.0
   0
LINE
   5
90
 100
AcDbEntity
   8
0
 370
-2
 100
AcDbLine
   6
BYBLOCK
  62
0
  10
0.0
  20
0.0
  30
0.0
  11
-1.0000000000000
  21
-0.16666666666667
  31
0.0
   0
LINE
   5
91
 100
AcDbEntity
   8
0
 370
-2
 100
AcDbLine
   6
BYBLOCK
  62
0
  10
-1.0000000000000
  20
 0.16666666666667
  30
0.0
  11
-1.0000000000000
  21
-0.16666666666667
  31
0.0
   0
ENDBLK
   5
92
 100
AcDbEntity
   8
0
 100
AcDbBlockEnd
   0
BLOCK
   5
93
 100
AcDbEntity
   8
0
 100
AcDbBlockBegin
   2
_DOT
  70
0
  10
0.0
  20
0.0
  30
0.0
   3
_DOT
   0
POLYLINE
   5
94
 100
AcDbEntity
   8
0
 370
-2
   6
BYBLOCK
  62
0
 100
AcDb2dPolyline
  66
1
  10
0.0
  20
0.0
  30
0.0
  70
1
  40
 0.50000000000000
  41
 0.50000000000000
   0
VERTEX
   5
95
 100
AcDbEntity
   8
0
   6
BYBLOCK
  62
0
 100
AcDbVertex
 100
AcDb2dVertex
  10
-0.25000000000000
  20
0.0
  30
0.0
  42
 1.0000000000000
  40
 0.50000000000000
  41
 0.50000000000000
   0
VERTEX
   5
96
 100
AcDbEntity
   8
0
   6
BYBLOCK
  62
0
 100
AcDbVertex
 100
AcDb2dVertex
  10
 0.25000000000000
  20
0.0
  30
0.0
  42
 1.0000000000000
  40
 0.50000000000000
  41
 0.50000000000000
   0
SEQEND
   5
97
 100
AcDbEntity
   8
0
   6
BYBLOCK
  62
0
   0
LINE
   5
98
 100
AcDbEntity
   8
0
 370
-2
 100
AcDbLine
   6
BYBLOCK
  62
0
  10
-0.50000000000000
  20
0.0
  30
0.0
  11
-1.0000000000000
  21
0.0
  31
0.0
   0
ENDBLK
   5
99
 100
AcDbEntity
   8
0
 100
AcDbBlockEnd
   0
BLOCK
   5
9A
 100
AcDbEntity
   8
0
 100
AcDbBlockBegin
   2
_DOTSMALL
  70
0
  10
0.0
  20
0.0
  30
0.0
   3
_DOTSMALL
   0
POLYLINE
   5
9B
 100
AcDbEntity
   8
0
 370
-2
   6
BYBLOCK
  62
0
 100
AcDb2dPolyline
  66
1
  10
0.0
  20
0.0
  30
0.0
  70
1
  40
 0.50000000000000
  41
 0.50000000000000
   0
VERTEX
   5
9C
 100
AcDbEntity
   8
0
   6
BYBLOCK
  62
0
 100
AcDbVertex
 100
AcDb2dVertex
  10
-0.62500000000000E-1
  20
0.0
  30
0.0
  42
 1.0000000000000
  40
 0.50000000000000
  41
 0.50000000000000
   0
VERTEX
   5
9D
 100
AcDbEntity
   8
0
   6
BYBLOCK
  62
0
 100
AcDbVertex
 100
AcDb2dVertex
  10
 0.62500000000000E-1
  20
0.0
  30
0.0
  42
 1.0000000000000
  40
 0.50000000000000
  41
 0.50000000000000
   0
SEQEND
   5
9E
 100
AcDbEntity
   8
0
   6
BYBLOCK
  62
0
   0
ENDBLK
   5
9F
 100
AcDbEntity
   8
0
 100
AcDbBlockEnd
   0
BLOCK
   5
A0
 100
AcDbEntity
   8
0
 100
AcDbBlockBegin
   2
_DATUMBLANK
  70
0
  10
0.0
  20
0.0
  30
0.0
   3
_DATUMBLANK
   0
LINE
   5
A1
 100
AcDbEntity
   8
0
 370
-2
 100
AcDbLine
   6
BYBLOCK
  62
0
  10
0.0
  20
 0.57735027000000
  30
0.0
  11
-1.0000000000000
  21
0.0
  31
0.0
   0
LINE
   5
A2
 100
AcDbEntity
   8
0
 370
-2
 100
AcDbLine
   6
BYBLOCK
  62
0
  10
-1.0000000000000
  20
0.0
  30
0.0
  11
0.0
  21
-0.57735027000000
  31
0.0
   0
LINE
   5
A3
 100
AcDbEntity
   8
0
 370
-2
 100
AcDbLine
   6
BYBLOCK
  62
0
  10
0.0
  20
-0.57735027000000
  30
0.0
  11
0.0
  21
 0.57735027000000
  31
0.0
   0
ENDBLK
   5
A4
 100
AcDbEntity
   8
0
 100
AcDbBlockEnd
   0
BLOCK
   5
A5
 100
AcDbEntity
   8
0
 100
AcDbBlockBegin
   2
_DATUMFILLED
  70
0
  10
0.0
  20
0.0
  30
0.0
   3
_DATUMFILLED
   0
SOLID
   5
A6
 100
AcDbEntity
   8
0
 100
AcDbTrace
   6
BYBLOCK
  62
0
  10
0.0
  20
 0.57735027000000
  30
0.0
  11
-1.0000000000000
  21
0.0
  31
0.0
  12
0.0
  22
-0.57735027000000
  32
0.0
  13
0.0
  23
-0.57735027000000
  33
0.0
   0
ENDBLK
   5
A7
 100
AcDbEntity
   8
0
 100
AcDbBlockEnd
   0
BLOCK
   5
A8
 100
AcDbEntity
   8
0
 100
AcDbBlockBegin
   2
_ORIGIN
  70
0
  10
0.0
  20
0.0
  30
0.0
   3
_ORIGIN
   0
CIRCLE
   5
A9
 100
AcDbEntity
   8
0
 370
-2
 100
AcDbCircle
   6
BYBLOCK
  62
0
  10
0.0
  20
0.0
  30
0.0
  40
 0.50000000000000
   0
LINE
   5
AA
 100
AcDbEntity
   8
0
 370
-2
 100
AcDbLine
   6
BYBLOCK
  62
0
  10
0.0
  20
0.0
  30
0.0
  11
-1.0000000000000
  21
0.0
  31
0.0
   0
ENDBLK
   5
AB
 100
AcDbEntity
   8
0
 100
AcDbBlockEnd
   0
BLOCK
   5
AC
 100
AcDbEntity
   8
0
 100
AcDbBlockBegin
   2
_NONE
  70
0
  10
0.0
  20
0.0
  30
0.0
   3
_NONE
   0
CIRCLE
   5
AD
 100
AcDbEntity
   8
0
 370
-2
 100
AcDbCircle
   6
BYBLOCK
  62
0
  10
0.0
  20
0.0
  30
0.0
  40
 0.25000000000000
   0
ENDBLK
   5
AE
 100
AcDbEntity
   8
0
 100
AcDbBlockEnd
   0
BLOCK
   5
AF
 100
AcDbEntity
   8
0
 100
AcDbBlockBegin
   2
_DOTBLANK
  70
0
  10
0.0
  20
0.0
  30
0.0
   3
_DOTBLANK
   0
CIRCLE
   5
B0
 100
AcDbEntity
   8
0
 370
-2
 100
AcDbCircle
   6
BYBLOCK
  62
0
  10
0.0
  20
0.0
  30
0.0
  40
 0.50000000000000
   0
LINE
   5
B1
 100
AcDbEntity
   8
0
 370
-2
 100
AcDbLine
   6
BYBLOCK
  62
0
  10
-0.50000000000000
  20
0.0
  30
0.0
  11
-1.0000000000000
  21
0.0
  31
0.0
   0
ENDBLK
   5
B2
 100
AcDbEntity
   8
0
 100
AcDbBlockEnd
   0
BLOCK
   5
B3
 100
AcDbEntity
   8
0
 100
AcDbBlockBegin
   2
_INTEGRAL
  70
0
  10
0.0
  20
0.0
  30
0.0
   3
_INTEGRAL
   0
ARC
   5
B4
 100
AcDbEntity
   8
0
 370
-2
   6
BYBLOCK
  62
0
 100
AcDbCircle
  10
 0.44488800000000
  20
-0.91335000000000E-1
  30
0.0
  40
 0.45416700000000
 100
AcDbArc
  50
 102.00000000000
  51
 168.00000000000
   0
ARC
   5
B5
 100
AcDbEntity
   8
0
 370
-2
   6
BYBLOCK
  62
0
 100
AcDbCircle
  10
-0.44488800000000
  20
 0.91335000000000E-1
  30
0.0
  40
 0.45416700000000
 100
AcDbArc
  50
 282.00000000000
  51
 348.00000000000
   0
ENDBLK
   5
B6
 100
AcDbEntity
   8
0
 100
AcDbBlockEnd
   0
BLOCK
   5
B7
 100
AcDbEntity
   8
0
 100
AcDbBlockBegin
   2
*D1
  70
65
  10
0.0
  20
0.0
  30
0.0
   3
*D1
   0
LINE
   5
B8
 100
AcDbEntity
   8
LEVEL001
 370
15
 100
AcDbLine
   6
CONTINUOUS
  62
8
  10
 133.87499999995
  20
 232.93304945453
  30
0.0
  11
 140.21711992188
  21
 232.93304945453
  31
0.0
   0
LINE
   5
B9
 100
AcDbEntity
   8
LEVEL001
 370
15
 100
AcDbLine
   6
CONTINUOUS
  62
8
  10
 133.57294321501
  20
 238.93304945453
  30
0.0
  11
 140.21711992188
  21
 238.93304945453
  31
0.0
   0
LINE
   5
BA
 100
AcDbEntity
   8
LEVEL001
 370
15
 100
AcDbLine
   6
CONTINUOUS
  62
8
  10
 139.21711992188
  20
 232.93304945453
  30
0.0
  11
 139.21711992188
  21
 235.93304945453
  31
0.0
   0
LINE
   5
BB
 100
AcDbEntity
   8
LEVEL001
 370
15
 100
AcDbLine
   6
CONTINUOUS
  62
8
  10
 139.21711992188
  20
 238.93304945453
  30
0.0
  11
 139.21711992188
  21
 235.93304945453
  31
0.0
   0
SOLID
   5
BC
 100
AcDbEntity
   8
LEVEL001
 100
AcDbTrace
   6
CONTINUOUS
  62
8
  10
 139.21711992188
  20
 232.93304945453
  30
0.0
  11
 139.56977388330
  21
 234.93304945453
  31
0.0
  12
 138.86446596046
  22
 234.93304945453
  32
0.0
  13
 138.86446596046
  23
 234.93304945453
  33
0.0
   0
SOLID
   5
BD
 100
AcDbEntity
   8
LEVEL001
 100
AcDbTrace
   6
CONTINUOUS
  62
8
  10
 139.21711992188
  20
 238.93304945453
  30
0.0
  11
 138.86446596046
  21
 236.93304945453
  31
0.0
  12
 139.56977388330
  22
 236.93304945453
  32
0.0
  13
 139.56977388330
  23
 236.93304945453
  33
0.0
   0
MTEXT
   5
BE
 100
AcDbEntity
   8
LEVEL001
 370
15
  62
8
 100
AcDbMText
  10
 138.21711992188
  20
 235.93304945453
  30
0.0
  40
 2.5000000000000
  41
0.0
  71
8
  72
1
   1
\A1;6
   7
GMM002
  11
0.0
  21
 1.0000000000000
  31
0.0
   0
ENDBLK
   5
BF
 100
AcDbEntity
   8
0
 100
AcDbBlockEnd
   0
BLOCK
   5
C0
 100
AcDbEntity
   8
0
 100
AcDbBlockBegin
   2
*D2
  70
65
  10
0.0
  20
0.0
  30
0.0
   3
*D2
   0
LINE
   5
C1
 100
AcDbEntity
   8
LEVEL001
 370
15
 100
AcDbLine
   6
CONTINUOUS
  62
8
  10
 113.88339999995
  20
 232.93304945453
  30
0.0
  11
 110.26689928607
  21
 232.93304945453
  31
0.0
   0
LINE
   5
C2
 100
AcDbEntity
   8
LEVEL001
 370
15
 100
AcDbLine
   6
CONTINUOUS
  62
8
  10
 113.89099999995
  20
 235.27702826065
  30
0.0
  11
 110.26689928607
  21
 235.27702826065
  31
0.0
   0
LINE
   5
C3
 100
AcDbEntity
   8
LEVEL001
 370
15
 100
AcDbLine
   6
CONTINUOUS
  62
8
  10
 111.26689928607
  20
 230.43304945453
  30
0.0
  11
 111.26689928607
  21
 234.10503885759
  31
0.0
   0
LINE
   5
C4
 100
AcDbEntity
   8
LEVEL001
 370
15
 100
AcDbLine
   6
CONTINUOUS
  62
8
  10
 111.26689928607
  20
 237.77702826065
  30
0.0
  11
 111.26689928607
  21
 234.10503885759
  31
0.0
   0
SOLID
   5
C5
 100
AcDbEntity
   8
LEVEL001
 100
AcDbTrace
   6
CONTINUOUS
  62
8
  10
 111.26689928607
  20
 232.93304945453
  30
0.0
  11
 110.91424532465
  21
 230.93304945453
  31
0.0
  12
 111.61955324749
  22
 230.93304945453
  32
0.0
  13
 111.61955324749
  23
 230.93304945453
  33
0.0
   0
SOLID
   5
C6
 100
AcDbEntity
   8
LEVEL001
 100
AcDbTrace
   6
CONTINUOUS
  62
8
  10
 111.26689928607
  20
 235.27702826065
  30
0.0
  11
 111.61955324749
  21
 237.27702826065
  31
0.0
  12
 110.91424532465
  22
 237.27702826065
  32
0.0
  13
 110.91424532465
  23
 237.27702826065
  33
0.0
   0
MTEXT
   5
C7
 100
AcDbEntity
   8
LEVEL001
 370
15
  62
8
 100
AcDbMText
  10
 110.26689928607
  20
 234.10503885759
  30
0.0
  40
 2.5000000000000
  41
0.0
  71
8
  72
1
   1
\A1;2.5
   7
GMM002
  11
0.0
  21
 1.0000000000000
  31
0.0
   0
ENDBLK
   5
C8
 100
AcDbEntity
   8
0
 100
AcDbBlockEnd
   0
BLOCK
   5
C9
 100
AcDbEntity
   8
0
 100
AcDbBlockBegin
   2
*D3
  70
65
  10
0.0
  20
0.0
  30
0.0
   3
*D3
   0
LINE
   5
CA
 100
AcDbEntity
   8
LEVEL001
 370
15
 100
AcDbLine
   6
CONTINUOUS
  62
8
  10
 122.86499999995
  20
 239.93304945453
  30
0.0
  11
 122.86499999995
  21
 245.97154945453
  31
0.0
   0
LINE
   5
CB
 100
AcDbEntity
   8
LEVEL001
 370
15
 100
AcDbLine
   6
CONTINUOUS
  62
8
  10
 132.87499999995
  20
 239.93304945453
  30
0.0
  11
 132.87499999995
  21
 245.97154945453
  31
0.0
   0
LINE
   5
CC
 100
AcDbEntity
   8
LEVEL001
 370
15
 100
AcDbLine
   6
CONTINUOUS
  62
8
  10
 122.86499999995
  20
 244.97154945453
  30
0.0
  11
 127.86999999995
  21
 244.97154945453
  31
0.0
   0
LINE
   5
CD
 100
AcDbEntity
   8
LEVEL001
 370
15
 100
AcDbLine
   6
CONTINUOUS
  62
8
  10
 132.87499999995
  20
 244.97154945453
  30
0.0
  11
 127.86999999995
  21
 244.97154945453
  31
0.0
   0
SOLID
   5
CE
 100
AcDbEntity
   8
LEVEL001
 100
AcDbTrace
   6
CONTINUOUS
  62
8
  10
 122.86499999995
  20
 244.97154945453
  30
0.0
  11
 124.86499999995
  21
 244.61889549311
  31
0.0
  12
 124.86499999995
  22
 245.32420341595
  32
0.0
  13
 124.86499999995
  23
 245.32420341595
  33
0.0
   0
SOLID
   5
CF
 100
AcDbEntity
   8
LEVEL001
 100
AcDbTrace
   6
CONTINUOUS
  62
8
  10
 132.87499999995
  20
 244.97154945453
  30
0.0
  11
 130.87499999995
  21
 245.32420341595
  31
0.0
  12
 130.87499999995
  22
 244.61889549311
  32
0.0
  13
 130.87499999995
  23
 244.61889549311
  33
0.0
   0
MTEXT
   5
D0
 100
AcDbEntity
   8
LEVEL001
 370
15
  62
8
 100
AcDbMText
  10
 127.86999999995
  20
 245.97154945453
  30
0.0
  40
 2.5000000000000
  41
0.0
  71
8
  72
1
   1
\A1;10
   7
GMM002
   0
ENDBLK
   5
D1
 100
AcDbEntity
   8
0
 100
AcDbBlockEnd
   0
BLOCK
   5
D2
 100
AcDbEntity
   8
0
 100
AcDbBlockBegin
   2
*D4
  70
65
  10
0.0
  20
0.0
  30
0.0
   3
*D4
   0
LINE
   5
D3
 100
AcDbEntity
   8
LEVEL001
 370
15
 100
AcDbLine
   6
CONTINUOUS
  62
8
  10
 114.87499999995
  20
 231.93304945453
  30
0.0
  11
 114.87499999995
  21
 225.74011447109
  31
0.0
   0
LINE
   5
D4
 100
AcDbEntity
   8
LEVEL001
 370
15
 100
AcDbLine
   6
CONTINUOUS
  62
8
  10
 132.87499999995
  20
 231.93304945453
  30
0.0
  11
 132.87499999995
  21
 225.74011447109
  31
0.0
   0
LINE
   5
D5
 100
AcDbEntity
   8
LEVEL001
 370
15
 100
AcDbLine
   6
CONTINUOUS
  62
8
  10
 114.87499999995
  20
 226.74011447109
  30
0.0
  11
 123.87499999995
  21
 226.74011447109
  31
0.0
   0
LINE
   5
D6
 100
AcDbEntity
   8
LEVEL001
 370
15
 100
AcDbLine
   6
CONTINUOUS
  62
8
  10
 132.87499999995
  20
 226.74011447109
  30
0.0
  11
 123.87499999995
  21
 226.74011447109
  31
0.0
   0
SOLID
   5
D7
 100
AcDbEntity
   8
LEVEL001
 100
AcDbTrace
   6
CONTINUOUS
  62
8
  10
 114.87499999995
  20
 226.74011447109
  30
0.0
  11
 116.87499999995
  21
 226.38746050967
  31
0.0
  12
 116.87499999995
  22
 227.09276843251
  32
0.0
  13
 116.87499999995
  23
 227.09276843251
  33
0.0
   0
SOLID
   5
D8
 100
AcDbEntity
   8
LEVEL001
 100
AcDbTrace
   6
CONTINUOUS
  62
8
  10
 132.87499999995
  20
 226.74011447109
  30
0.0
  11
 130.87499999995
  21
 227.09276843251
  31
0.0
  12
 130.87499999995
  22
 226.38746050967
  32
0.0
  13
 130.87499999995
  23
 226.38746050967
  33
0.0
   0
MTEXT
   5
D9
 100
AcDbEntity
   8
LEVEL001
 370
15
  62
8
 100
AcDbMText
  10
 123.87499999995
  20
 227.74011447109
  30
0.0
  40
 2.5000000000000
  41
0.0
  71
8
  72
1
   1
\A1;18
   7
GMM002
   0
ENDBLK
   5
DA
 100
AcDbEntity
   8
0
 100
AcDbBlockEnd
   0
BLOCK
   5
DB
 100
AcDbEntity
   8
0
 100
AcDbBlockBegin
   2
*D5
  70
65
  10
0.0
  20
0.0
  30
0.0
   3
*D5
   0
LINE
   5
DC
 100
AcDbEntity
   8
LEVEL001
 370
15
 100
AcDbLine
   6
CONTINUOUS
  62
8
  10
 44.894819143444
  20
 231.93304945453
  30
0.0
  11
 44.894819143444
  21
 225.74011447109
  31
0.0
   0
LINE
   5
DD
 100
AcDbEntity
   8
LEVEL001
 370
15
 100
AcDbLine
   6
CONTINUOUS
  62
8
  10
 58.894819143444
  20
 231.70006128885
  30
0.0
  11
 58.894819143444
  21
 225.74011447109
  31
0.0
   0
LINE
   5
DE
 100
AcDbEntity
   8
LEVEL001
 370
15
 100
AcDbLine
   6
CONTINUOUS
  62
8
  10
 44.894819143444
  20
 226.74011447109
  30
0.0
  11
 51.894819143444
  21
 226.74011447109
  31
0.0
   0
LINE
   5
DF
 100
AcDbEntity
   8
LEVEL001
 370
15
 100
AcDbLine
   6
CONTINUOUS
  62
8
  10
 58.894819143444
  20
 226.74011447109
  30
0.0
  11
 51.894819143444
  21
 226.74011447109
  31
0.0
   0
SOLID
   5
E0
 100
AcDbEntity
   8
LEVEL001
 100
AcDbTrace
   6
CONTINUOUS
  62
8
  10
 44.894819143444
  20
 226.74011447109
  30
0.0
  11
 46.894819143444
  21
 226.38746050967
  31
0.0
  12
 46.894819143444
  22
 227.09276843251
  32
0.0
  13
 46.894819143444
  23
 227.09276843251
  33
0.0
   0
SOLID
   5
E1
 100
AcDbEntity
   8
LEVEL001
 100
AcDbTrace
   6
CONTINUOUS
  62
8
  10
 58.894819143444
  20
 226.74011447109
  30
0.0
  11
 56.894819143444
  21
 227.09276843251
  31
0.0
  12
 56.894819143444
  22
 226.38746050967
  32
0.0
  13
 56.894819143444
  23
 226.38746050967
  33
0.0
   0
MTEXT
   5
E2
 100
AcDbEntity
   8
LEVEL001
 370
15
  62
8
 100
AcDbMText
  10
 51.894819143444
  20
 227.74011447109
  30
0.0
  40
 2.5000000000000
  41
0.0
  71
8
  72
1
   1
\A1;14
   7
GMM002
   0
ENDBLK
   5
E3
 100
AcDbEntity
   8
0
 100
AcDbBlockEnd
   0
BLOCK
   5
E4
 100
AcDbEntity
   8
0
 100
AcDbBlockBegin
   2
*D6
  70
65
  10
0.0
  20
0.0
  30
0.0
   3
*D6
   0
LINE
   5
E5
 100
AcDbEntity
   8
LEVEL001
 370
15
 100
AcDbLine
   6
CONTINUOUS
  62
8
  10
 48.894819143444
  20
 236.93304945453
  30
0.0
  11
 48.894819143444
  21
 241.15019925476
  31
0.0
   0
LINE
   5
E6
 100
AcDbEntity
   8
LEVEL001
 370
15
 100
AcDbLine
   6
CONTINUOUS
  62
8
  10
 58.894819143444
  20
 236.93304945453
  30
0.0
  11
 58.894819143444
  21
 241.15019925476
  31
0.0
   0
LINE
   5
E7
 100
AcDbEntity
   8
LEVEL001
 370
15
 100
AcDbLine
   6
CONTINUOUS
  62
8
  10
 48.894819143444
  20
 240.15019925476
  30
0.0
  11
 53.894819143444
  21
 240.15019925476
  31
0.0
   0
LINE
   5
E8
 100
AcDbEntity
   8
LEVEL001
 370
15
 100
AcDbLine
   6
CONTINUOUS
  62
8
  10
 58.894819143444
  20
 240.15019925476
  30
0.0
  11
 53.894819143444
  21
 240.15019925476
  31
0.0
   0
SOLID
   5
E9
 100
AcDbEntity
   8
LEVEL001
 100
AcDbTrace
   6
CONTINUOUS
  62
8
  10
 48.894819143444
  20
 240.15019925476
  30
0.0
  11
 50.894819143444
  21
 239.79754529334
  31
0.0
  12
 50.894819143444
  22
 240.50285321617
  32
0.0
  13
 50.894819143444
  23
 240.50285321617
  33
0.0
   0
SOLID
   5
EA
 100
AcDbEntity
   8
LEVEL001
 100
AcDbTrace
   6
CONTINUOUS
  62
8
  10
 58.894819143444
  20
 240.15019925476
  30
0.0
  11
 56.894819143444
  21
 240.50285321617
  31
0.0
  12
 56.894819143444
  22
 239.79754529334
  32
0.0
  13
 56.894819143444
  23
 239.79754529334
  33
0.0
   0
MTEXT
   5
EB
 100
AcDbEntity
   8
LEVEL001
 370
15
  62
8
 100
AcDbMText
  10
 53.894819143444
  20
 241.15019925476
  30
0.0
  40
 2.5000000000000
  41
0.0
  71
8
  72
1
   1
\A1;10
   7
GMM002
   0
ENDBLK
   5
EC
 100
AcDbEntity
   8
0
 100
AcDbBlockEnd
   0
BLOCK
   5
ED
 100
AcDbEntity
   8
0
 100
AcDbBlockBegin
   2
*D7
  70
65
  10
0.0
  20
0.0
  30
0.0
   3
*D7
   0
LINE
   5
EE
 100
AcDbEntity
   8
LEVEL001
 370
15
 100
AcDbLine
   6
CONTINUOUS
  62
8
  10
 59.894819143444
  20
 235.93304945453
  30
0.0
  11
 65.601271992779
  21
 235.93304945453
  31
0.0
   0
LINE
   5
EF
 100
AcDbEntity
   8
LEVEL001
 370
15
 100
AcDbLine
   6
CONTINUOUS
  62
8
  10
 59.894819143444
  20
 232.93304945453
  30
0.0
  11
 65.601271992779
  21
 232.93304945453
  31
0.0
   0
LINE
   5
F0
 100
AcDbEntity
   8
LEVEL001
 370
15
 100
AcDbLine
   6
CONTINUOUS
  62
8
  10
 64.601271992779
  20
 238.43304945453
  30
0.0
  11
 64.601271992779
  21
 234.43304945453
  31
0.0
   0
LINE
   5
F1
 100
AcDbEntity
   8
LEVEL001
 370
15
 100
AcDbLine
   6
CONTINUOUS
  62
8
  10
 64.601271992779
  20
 230.43304945453
  30
0.0
  11
 64.601271992779
  21
 234.43304945453
  31
0.0
   0
SOLID
   5
F2
 100
AcDbEntity
   8
LEVEL001
 100
AcDbTrace
   6
CONTINUOUS
  62
8
  10
 64.601271992779
  20
 235.93304945453
  30
0.0
  11
 64.953925954196
  21
 237.93304945453
  31
0.0
  12
 64.248618031362
  22
 237.93304945453
  32
0.0
  13
 64.248618031362
  23
 237.93304945453
  33
0.0
   0
SOLID
   5
F3
 100
AcDbEntity
   8
LEVEL001
 100
AcDbTrace
   6
CONTINUOUS
  62
8
  10
 64.601271992779
  20
 232.93304945453
  30
0.0
  11
 64.248618031362
  21
 230.93304945453
  31
0.0
  12
 64.953925954196
  22
 230.93304945453
  32
0.0
  13
 64.953925954196
  23
 230.93304945453
  33
0.0
   0
MTEXT
   5
F4
 100
AcDbEntity
   8
LEVEL001
 370
15
  62
8
 100
AcDbMText
  10
 63.601271992779
  20
 234.43304945453
  30
0.0
  40
 2.5000000000000
  41
0.0
  71
8
  72
1
   1
\A1;3
   7
GMM002
  11
0.0
  21
 1.0000000000000
  31
0.0
   0
ENDBLK
   5
F5
 100
AcDbEntity
   8
0
 100
AcDbBlockEnd
   0
BLOCK
   5
F6
 100
AcDbEntity
   8
0
 100
AcDbBlockBegin
   2
*D8
  70
65
  10
0.0
  20
0.0
  30
0.0
   3
*D8
   0
LINE
   5
F7
 100
AcDbEntity
   8
LEVEL001
 370
15
 100
AcDbLine
   6
CONTINUOUS
  62
8
  10
 196.12724999995
  20
 243.43604945453
  30
0.0
  11
 196.12724999995
  21
 248.97634829541
  31
0.0
   0
LINE
   5
F8
 100
AcDbEntity
   8
LEVEL001
 370
15
 100
AcDbLine
   6
CONTINUOUS
  62
8
  10
 207.12724999995
  20
 243.43604945453
  30
0.0
  11
 207.12724999995
  21
 248.97634829541
  31
0.0
   0
LINE
   5
F9
 100
AcDbEntity
   8
LEVEL001
 370
15
 100
AcDbLine
   6
CONTINUOUS
  62
8
  10
 196.12724999995
  20
 247.97634829541
  30
0.0
  11
 201.62724999995
  21
 247.97634829541
  31
0.0
   0
LINE
   5
FA
 100
AcDbEntity
   8
LEVEL001
 370
15
 100
AcDbLine
   6
CONTINUOUS
  62
8
  10
 207.12724999995
  20
 247.97634829541
  30
0.0
  11
 201.62724999995
  21
 247.97634829541
  31
0.0
   0
SOLID
   5
FB
 100
AcDbEntity
   8
LEVEL001
 100
AcDbTrace
   6
CONTINUOUS
  62
8
  10
 196.12724999995
  20
 247.97634829541
  30
0.0
  11
 198.12724999995
  21
 247.62369433400
  31
0.0
  12
 198.12724999995
  22
 248.32900225683
  32
0.0
  13
 198.12724999995
  23
 248.32900225683
  33
0.0
   0
SOLID
   5
FC
 100
AcDbEntity
   8
LEVEL001
 100
AcDbTrace
   6
CONTINUOUS
  62
8
  10
 207.12724999995
  20
 247.97634829541
  30
0.0
  11
 205.12724999995
  21
 248.32900225683
  31
0.0
  12
 205.12724999995
  22
 247.62369433400
  32
0.0
  13
 205.12724999995
  23
 247.62369433400
  33
0.0
   0
MTEXT
   5
FD
 100
AcDbEntity
   8
LEVEL001
 370
15
  62
8
 100
AcDbMText
  10
 201.62724999995
  20
 248.97634829541
  30
0.0
  40
 2.5000000000000
  41
0.0
  71
8
  72
1
   1
\A1;11
   7
GMM002
   0
ENDBLK
   5
FE
 100
AcDbEntity
   8
0
 100
AcDbBlockEnd
   0
BLOCK
   5
FF
 100
AcDbEntity
   8
0
 100
AcDbBlockBegin
   2
*D9
  70
65
  10
0.0
  20
0.0
  30
0.0
   3
*D9
   0
LINE
   5
100
 100
AcDbEntity
   8
LEVEL001
 370
15
 100
AcDbLine
   6
CONTINUOUS
  62
8
  10
 184.12274999995
  20
 232.93304945453
  30
0.0
  11
 180.72120475949
  21
 232.93304945453
  31
0.0
   0
LINE
   5
101
 100
AcDbEntity
   8
LEVEL001
 370
15
 100
AcDbLine
   6
CONTINUOUS
  62
8
  10
 184.12274999995
  20
 235.73324945453
  30
0.0
  11
 180.72120475949
  21
 235.73324945453
  31
0.0
   0
LINE
   5
102
 100
AcDbEntity
   8
LEVEL001
 370
15
 100
AcDbLine
   6
CONTINUOUS
  62
8
  10
 181.72120475949
  20
 230.43304945453
  30
0.0
  11
 181.72120475949
  21
 234.33314945453
  31
0.0
   0
LINE
   5
103
 100
AcDbEntity
   8
LEVEL001
 370
15
 100
AcDbLine
   6
CONTINUOUS
  62
8
  10
 181.72120475949
  20
 238.23324945453
  30
0.0
  11
 181.72120475949
  21
 234.33314945453
  31
0.0
   0
SOLID
   5
104
 100
AcDbEntity
   8
LEVEL001
 100
AcDbTrace
   6
CONTINUOUS
  62
8
  10
 181.72120475949
  20
 232.93304945453
  30
0.0
  11
 181.36855079808
  21
 230.93304945453
  31
0.0
  12
 182.07385872091
  22
 230.93304945453
  32
0.0
  13
 182.07385872091
  23
 230.93304945453
  33
0.0
   0
SOLID
   5
105
 100
AcDbEntity
   8
LEVEL001
 100
AcDbTrace
   6
CONTINUOUS
  62
8
  10
 181.72120475949
  20
 235.73324945453
  30
0.0
  11
 182.07385872091
  21
 237.73324945453
  31
0.0
  12
 181.36855079808
  22
 237.73324945453
  32
0.0
  13
 181.36855079808
  23
 237.73324945453
  33
0.0
   0
MTEXT
   5
106
 100
AcDbEntity
   8
LEVEL001
 370
15
  62
8
 100
AcDbMText
  10
 180.72120475949
  20
 234.33314945453
  30
0.0
  40
 2.5000000000000
  41
0.0
  71
8
  72
1
   1
\A1;2.8
   7
GMM002
  11
0.0
  21
 1.0000000000000
  31
0.0
   0
ENDBLK
   5
107
 100
AcDbEntity
   8
0
 100
AcDbBlockEnd
   0
BLOCK
   5
108
 100
AcDbEntity
   8
0
 100
AcDbBlockBegin
   2
*D10
  70
65
  10
0.0
  20
0.0
  30
0.0
   3
*D10
   0
LINE
   5
109
 100
AcDbEntity
   8
LEVEL001
 370
15
 100
AcDbLine
   6
CONTINUOUS
  62
8
  10
 208.12724999995
  20
 242.43604945453
  30
0.0
  11
 214.27973517766
  21
 242.43604945453
  31
0.0
   0
LINE
   5
10A
 100
AcDbEntity
   8
LEVEL001
 370
15
 100
AcDbLine
   6
CONTINUOUS
  62
8
  10
 208.12724999995
  20
 232.93304945453
  30
0.0
  11
 214.27973517766
  21
 232.93304945453
  31
0.0
   0
LINE
   5
10B
 100
AcDbEntity
   8
LEVEL001
 370
15
 100
AcDbLine
   6
CONTINUOUS
  62
8
  10
 213.27973517766
  20
 242.43604945453
  30
0.0
  11
 213.27973517766
  21
 237.68454945453
  31
0.0
   0
LINE
   5
10C
 100
AcDbEntity
   8
LEVEL001
 370
15
 100
AcDbLine
   6
CONTINUOUS
  62
8
  10
 213.27973517766
  20
 232.93304945453
  30
0.0
  11
 213.27973517766
  21
 237.68454945453
  31
0.0
   0
SOLID
   5
10D
 100
AcDbEntity
   8
LEVEL001
 100
AcDbTrace
   6
CONTINUOUS
  62
8
  10
 213.27973517766
  20
 242.43604945453
  30
0.0
  11
 212.92708121625
  21
 240.43604945453
  31
0.0
  12
 213.63238913908
  22
 240.43604945453
  32
0.0
  13
 213.63238913908
  23
 240.43604945453
  33
0.0
   0
SOLID
   5
10E
 100
AcDbEntity
   8
LEVEL001
 100
AcDbTrace
   6
CONTINUOUS
  62
8
  10
 213.27973517766
  20
 232.93304945453
  30
0.0
  11
 213.63238913908
  21
 234.93304945453
  31
0.0
  12
 212.92708121625
  22
 234.93304945453
  32
0.0
  13
 212.92708121625
  23
 234.93304945453
  33
0.0
   0
MTEXT
   5
10F
 100
AcDbEntity
   8
LEVEL001
 370
15
  62
8
 100
AcDbMText
  10
 212.27973517766
  20
 237.68454945453
  30
0.0
  40
 2.5000000000000
  41
0.0
  71
8
  72
1
   1
\A1;9.5
   7
GMM002
  11
0.0
  21
 1.0000000000000
  31
0.0
   0
ENDBLK
   5
110
 100
AcDbEntity
   8
0
 100
AcDbBlockEnd
   0
BLOCK
   5
111
 100
AcDbEntity
   8
0
 100
AcDbBlockBegin
   2
*D11
  70
65
  10
0.0
  20
0.0
  30
0.0
   3
*D11
   0
LINE
   5
112
 100
AcDbEntity
   8
LEVEL001
 370
15
 100
AcDbLine
   6
CONTINUOUS
  62
8
  10
 185.12274999995
  20
 231.93304945453
  30
0.0
  11
 185.12274999995
  21
 225.74011447109
  31
0.0
   0
LINE
   5
113
 100
AcDbEntity
   8
LEVEL001
 370
15
 100
AcDbLine
   6
CONTINUOUS
  62
8
  10
 207.12724999995
  20
 231.93304945453
  30
0.0
  11
 207.12724999995
  21
 225.74011447109
  31
0.0
   0
LINE
   5
114
 100
AcDbEntity
   8
LEVEL001
 370
15
 100
AcDbLine
   6
CONTINUOUS
  62
8
  10
 185.12274999995
  20
 226.74011447109
  30
0.0
  11
 196.12499999995
  21
 226.74011447109
  31
0.0
   0
LINE
   5
115
 100
AcDbEntity
   8
LEVEL001
 370
15
 100
AcDbLine
   6
CONTINUOUS
  62
8
  10
 207.12724999995
  20
 226.74011447109
  30
0.0
  11
 196.12499999995
  21
 226.74011447109
  31
0.0
   0
SOLID
   5
116
 100
AcDbEntity
   8
LEVEL001
 100
AcDbTrace
   6
CONTINUOUS
  62
8
  10
 185.12274999995
  20
 226.74011447109
  30
0.0
  11
 187.12274999995
  21
 226.38746050967
  31
0.0
  12
 187.12274999995
  22
 227.09276843251
  32
0.0
  13
 187.12274999995
  23
 227.09276843251
  33
0.0
   0
SOLID
   5
117
 100
AcDbEntity
   8
LEVEL001
 100
AcDbTrace
   6
CONTINUOUS
  62
8
  10
 207.12724999995
  20
 226.74011447109
  30
0.0
  11
 205.12724999995
  21
 227.09276843251
  31
0.0
  12
 205.12724999995
  22
 226.38746050967
  32
0.0
  13
 205.12724999995
  23
 226.38746050967
  33
0.0
   0
MTEXT
   5
118
 100
AcDbEntity
   8
LEVEL001
 370
15
  62
8
 100
AcDbMText
  10
 196.12499999995
  20
 227.74011447109
  30
0.0
  40
 2.5000000000000
  41
0.0
  71
8
  72
1
   1
\A1;22
   7
GMM002
   0
ENDBLK
   5
119
 100
AcDbEntity
   8
0
 100
AcDbBlockEnd
   0
BLOCK
   5
11A
 100
AcDbEntity
   8
0
 100
AcDbBlockBegin
   2
*D12
  70
65
  10
0.0
  20
0.0
  30
0.0
   3
*D12
   0
LINE
   5
11B
 100
AcDbEntity
   8
LEVEL001
 370
15
 100
AcDbLine
   6
CONTINUOUS
  62
8
  10
 60.124999999828
  20
 176.12500000005
  30
0.0
  11
 66.774117067367
  21
 176.12500000005
  31
0.0
   0
LINE
   5
11C
 100
AcDbEntity
   8
LEVEL001
 370
15
 100
AcDbLine
   6
CONTINUOUS
  62
8
  10
 60.124999999828
  20
 179.12500000005
  30
0.0
  11
 66.774117067367
  21
 179.12500000005
  31
0.0
   0
LINE
   5
11D
 100
AcDbEntity
   8
LEVEL001
 370
15
 100
AcDbLine
   6
CONTINUOUS
  62
8
  10
 65.774117067367
  20
 173.16290710648
  30
0.0
  11
 65.774117067367
  21
 177.62500000005
  31
0.0
   0
LINE
   5
11E
 100
AcDbEntity
   8
LEVEL001
 370
15
 100
AcDbLine
   6
CONTINUOUS
  62
8
  10
 65.774117067367
  20
 181.62500000005
  30
0.0
  11
 65.774117067367
  21
 177.62500000005
  31
0.0
   0
SOLID
   5
11F
 100
AcDbEntity
   8
LEVEL001
 100
AcDbTrace
   6
CONTINUOUS
  62
8
  10
 65.774117067367
  20
 176.12500000005
  30
0.0
  11
 65.421463105950
  21
 174.12500000005
  31
0.0
  12
 66.126771028784
  22
 174.12500000005
  32
0.0
  13
 66.126771028784
  23
 174.12500000005
  33
0.0
   0
SOLID
   5
120
 100
AcDbEntity
   8
LEVEL001
 100
AcDbTrace
   6
CONTINUOUS
  62
8
  10
 65.774117067367
  20
 179.12500000005
  30
0.0
  11
 66.126771028784
  21
 181.12500000005
  31
0.0
  12
 65.421463105950
  22
 181.12500000005
  32
0.0
  13
 65.421463105950
  23
 181.12500000005
  33
0.0
   0
MTEXT
   5
121
 100
AcDbEntity
   8
LEVEL001
 370
15
  62
8
 100
AcDbMText
  10
 64.774117067367
  20
 175.66290710648
  30
0.0
  40
 2.5000000000000
  41
0.0
  71
9
  72
1
   1
\A1;3
   7
GMM002
  11
0.0
  21
 1.0000000000000
  31
0.0
   0
ENDBLK
   5
122
 100
AcDbEntity
   8
0
 100
AcDbBlockEnd
   0
BLOCK
   5
123
 100
AcDbEntity
   8
0
 100
AcDbBlockBegin
   2
*D13
  70
65
  10
0.0
  20
0.0
  30
0.0
   3
*D13
   0
LINE
   5
124
 100
AcDbEntity
   8
LEVEL001
 370
15
 100
AcDbLine
   6
CONTINUOUS
  62
8
  10
 44.124999999828
  20
 175.12500000005
  30
0.0
  11
 44.124999999828
  21
 165.05483310702
  31
0.0
   0
LINE
   5
125
 100
AcDbEntity
   8
LEVEL001
 370
15
 100
AcDbLine
   6
CONTINUOUS
  62
8
  10
 59.124999999828
  20
 175.12500000005
  30
0.0
  11
 59.124999999828
  21
 165.05483310702
  31
0.0
   0
LINE
   5
126
 100
AcDbEntity
   8
LEVEL001
 370
15
 100
AcDbLine
   6
CONTINUOUS
  62
8
  10
 44.124999999828
  20
 166.05483310702
  30
0.0
  11
 51.624999999828
  21
 166.05483310702
  31
0.0
   0
LINE
   5
127
 100
AcDbEntity
   8
LEVEL001
 370
15
 100
AcDbLine
   6
CONTINUOUS
  62
8
  10
 59.124999999828
  20
 166.05483310702
  30
0.0
  11
 51.624999999828
  21
 166.05483310702
  31
0.0
   0
SOLID
   5
128
 100
AcDbEntity
   8
LEVEL001
 100
AcDbTrace
   6
CONTINUOUS
  62
8
  10
 44.124999999828
  20
 166.05483310702
  30
0.0
  11
 46.124999999828
  21
 165.70217914560
  31
0.0
  12
 46.124999999828
  22
 166.40748706844
  32
0.0
  13
 46.124999999828
  23
 166.40748706844
  33
0.0
   0
SOLID
   5
129
 100
AcDbEntity
   8
LEVEL001
 100
AcDbTrace
   6
CONTINUOUS
  62
8
  10
 59.124999999828
  20
 166.05483310702
  30
0.0
  11
 57.124999999828
  21
 166.40748706844
  31
0.0
  12
 57.124999999828
  22
 165.70217914560
  32
0.0
  13
 57.124999999828
  23
 165.70217914560
  33
0.0
   0
MTEXT
   5
12A
 100
AcDbEntity
   8
LEVEL001
 370
15
  62
8
 100
AcDbMText
  10
 51.624999999828
  20
 167.05483310702
  30
0.0
  40
 2.5000000000000
  41
0.0
  71
8
  72
1
   1
\A1;15
   7
GMM002
   0
ENDBLK
   5
12B
 100
AcDbEntity
   8
0
 100
AcDbBlockEnd
   0
BLOCK
   5
12C
 100
AcDbEntity
   8
0
 100
AcDbBlockBegin
   2
*D14
  70
65
  10
0.0
  20
0.0
  30
0.0
   3
*D14
   0
LINE
   5
12D
 100
AcDbEntity
   8
LEVEL001
 370
15
 100
AcDbLine
   6
CONTINUOUS
  62
8
  10
 134.87499999988
  20
 176.12500000005
  30
0.0
  11
 141.52411706742
  21
 176.12500000005
  31
0.0
   0
LINE
   5
12E
 100
AcDbEntity
   8
LEVEL001
 370
15
 100
AcDbLine
   6
CONTINUOUS
  62
8
  10
 134.87499999988
  20
 179.12500000005
  30
0.0
  11
 141.52411706742
  21
 179.12500000005
  31
0.0
   0
LINE
   5
12F
 100
AcDbEntity
   8
LEVEL001
 370
15
 100
AcDbLine
   6
CONTINUOUS
  62
8
  10
 140.52411706742
  20
 173.16290710648
  30
0.0
  11
 140.52411706742
  21
 177.62500000005
  31
0.0
   0
LINE
   5
130
 100
AcDbEntity
   8
LEVEL001
 370
15
 100
AcDbLine
   6
CONTINUOUS
  62
8
  10
 140.52411706742
  20
 181.62500000005
  30
0.0
  11
 140.52411706742
  21
 177.62500000005
  31
0.0
   0
SOLID
   5
131
 100
AcDbEntity
   8
LEVEL001
 100
AcDbTrace
   6
CONTINUOUS
  62
8
  10
 140.52411706742
  20
 176.12500000005
  30
0.0
  11
 140.17146310601
  21
 174.12500000005
  31
0.0
  12
 140.87677102884
  22
 174.12500000005
  32
0.0
  13
 140.87677102884
  23
 174.12500000005
  33
0.0
   0
SOLID
   5
132
 100
AcDbEntity
   8
LEVEL001
 100
AcDbTrace
   6
CONTINUOUS
  62
8
  10
 140.52411706742
  20
 179.12500000005
  30
0.0
  11
 140.87677102884
  21
 181.12500000005
  31
0.0
  12
 140.17146310601
  22
 181.12500000005
  32
0.0
  13
 140.17146310601
  23
 181.12500000005
  33
0.0
   0
MTEXT
   5
133
 100
AcDbEntity
   8
LEVEL001
 370
15
  62
8
 100
AcDbMText
  10
 139.52411706742
  20
 175.66290710648
  30
0.0
  40
 2.5000000000000
  41
0.0
  71
9
  72
1
   1
\A1;3
   7
GMM002
  11
0.0
  21
 1.0000000000000
  31
0.0
   0
ENDBLK
   5
134
 100
AcDbEntity
   8
0
 100
AcDbBlockEnd
   0
BLOCK
   5
135
 100
AcDbEntity
   8
0
 100
AcDbBlockBegin
   2
*D15
  70
65
  10
0.0
  20
0.0
  30
0.0
   3
*D15
   0
LINE
   5
136
 100
AcDbEntity
   8
LEVEL001
 370
15
 100
AcDbLine
   6
CONTINUOUS
  62
8
  10
 113.87499999988
  20
 175.12500000005
  30
0.0
  11
 113.87499999988
  21
 165.05483310702
  31
0.0
   0
LINE
   5
137
 100
AcDbEntity
   8
LEVEL001
 370
15
 100
AcDbLine
   6
CONTINUOUS
  62
8
  10
 133.87499999988
  20
 175.12500000005
  30
0.0
  11
 133.87499999988
  21
 165.05483310702
  31
0.0
   0
LINE
   5
138
 100
AcDbEntity
   8
LEVEL001
 370
15
 100
AcDbLine
   6
CONTINUOUS
  62
8
  10
 113.87499999988
  20
 166.05483310702
  30
0.0
  11
 123.87499999988
  21
 166.05483310702
  31
0.0
   0
LINE
   5
139
 100
AcDbEntity
   8
LEVEL001
 370
15
 100
AcDbLine
   6
CONTINUOUS
  62
8
  10
 133.87499999988
  20
 166.05483310702
  30
0.0
  11
 123.87499999988
  21
 166.05483310702
  31
0.0
   0
SOLID
   5
13A
 100
AcDbEntity
   8
LEVEL001
 100
AcDbTrace
   6
CONTINUOUS
  62
8
  10
 113.87499999988
  20
 166.05483310702
  30
0.0
  11
 115.87499999988
  21
 165.70217914560
  31
0.0
  12
 115.87499999988
  22
 166.40748706844
  32
0.0
  13
 115.87499999988
  23
 166.40748706844
  33
0.0
   0
SOLID
   5
13B
 100
AcDbEntity
   8
LEVEL001
 100
AcDbTrace
   6
CONTINUOUS
  62
8
  10
 133.87499999988
  20
 166.05483310702
  30
0.0
  11
 131.87499999988
  21
 166.40748706844
  31
0.0
  12
 131.87499999988
  22
 165.70217914560
  32
0.0
  13
 131.87499999988
  23
 165.70217914560
  33
0.0
   0
MTEXT
   5
13C
 100
AcDbEntity
   8
LEVEL001
 370
15
  62
8
 100
AcDbMText
  10
 123.87499999988
  20
 167.05483310702
  30
0.0
  40
 2.5000000000000
  41
0.0
  71
8
  72
1
   1
\A1;20
   7
GMM002
   0
ENDBLK
   5
13D
 100
AcDbEntity
   8
0
 100
AcDbBlockEnd
   0
BLOCK
   5
13E
 100
AcDbEntity
   8
0
 100
AcDbBlockBegin
   2
*D16
  70
65
  10
0.0
  20
0.0
  30
0.0
   3
*D16
   0
LINE
   5
13F
 100
AcDbEntity
   8
LEVEL001
 370
15
 100
AcDbLine
   6
CONTINUOUS
  62
8
  10
 183.62499999988
  20
 175.12500000005
  30
0.0
  11
 183.62499999988
  21
 165.05483310702
  31
0.0
   0
LINE
   5
140
 100
AcDbEntity
   8
LEVEL001
 370
15
 100
AcDbLine
   6
CONTINUOUS
  62
8
  10
 208.62499999988
  20
 175.12500000005
  30
0.0
  11
 208.62499999988
  21
 165.05483310702
  31
0.0
   0
LINE
   5
141
 100
AcDbEntity
   8
LEVEL001
 370
15
 100
AcDbLine
   6
CONTINUOUS
  62
8
  10
 183.62499999988
  20
 166.05483310702
  30
0.0
  11
 196.12499999988
  21
 166.05483310702
  31
0.0
   0
LINE
   5
142
 100
AcDbEntity
   8
LEVEL001
 370
15
 100
AcDbLine
   6
CONTINUOUS
  62
8
  10
 208.62499999988
  20
 166.05483310702
  30
0.0
  11
 196.12499999988
  21
 166.05483310702
  31
0.0
   0
SOLID
   5
143
 100
AcDbEntity
   8
LEVEL001
 100
AcDbTrace
   6
CONTINUOUS
  62
8
  10
 183.62499999988
  20
 166.05483310702
  30
0.0
  11
 185.62499999988
  21
 165.70217914560
  31
0.0
  12
 185.62499999988
  22
 166.40748706844
  32
0.0
  13
 185.62499999988
  23
 166.40748706844
  33
0.0
   0
SOLID
   5
144
 100
AcDbEntity
   8
LEVEL001
 100
AcDbTrace
   6
CONTINUOUS
  62
8
  10
 208.62499999988
  20
 166.05483310702
  30
0.0
  11
 206.62499999988
  21
 166.40748706844
  31
0.0
  12
 206.62499999988
  22
 165.70217914560
  32
0.0
  13
 206.62499999988
  23
 165.70217914560
  33
0.0
   0
MTEXT
   5
145
 100
AcDbEntity
   8
LEVEL001
 370
15
  62
8
 100
AcDbMText
  10
 196.12499999988
  20
 167.05483310702
  30
0.0
  40
 2.5000000000000
  41
0.0
  71
8
  72
1
   1
\A1;25
   7
GMM002
   0
ENDBLK
   5
146
 100
AcDbEntity
   8
0
 100
AcDbBlockEnd
   0
BLOCK
   5
147
 100
AcDbEntity
   8
0
 100
AcDbBlockBegin
   2
*D17
  70
65
  10
0.0
  20
0.0
  30
0.0
   3
*D17
   0
LINE
   5
148
 100
AcDbEntity
   8
LEVEL001
 370
15
 100
AcDbLine
   6
CONTINUOUS
  62
8
  10
 209.62499999988
  20
 176.12500000005
  30
0.0
  11
 216.27411706742
  21
 176.12500000005
  31
0.0
   0
LINE
   5
149
 100
AcDbEntity
   8
LEVEL001
 370
15
 100
AcDbLine
   6
CONTINUOUS
  62
8
  10
 209.62499999988
  20
 179.12500000005
  30
0.0
  11
 216.27411706742
  21
 179.12500000005
  31
0.0
   0
LINE
   5
14A
 100
AcDbEntity
   8
LEVEL001
 370
15
 100
AcDbLine
   6
CONTINUOUS
  62
8
  10
 215.27411706742
  20
 173.16290710648
  30
0.0
  11
 215.27411706742
  21
 177.62500000005
  31
0.0
   0
LINE
   5
14B
 100
AcDbEntity
   8
LEVEL001
 370
15
 100
AcDbLine
   6
CONTINUOUS
  62
8
  10
 215.27411706742
  20
 181.62500000005
  30
0.0
  11
 215.27411706742
  21
 177.62500000005
  31
0.0
   0
SOLID
   5
14C
 100
AcDbEntity
   8
LEVEL001
 100
AcDbTrace
   6
CONTINUOUS
  62
8
  10
 215.27411706742
  20
 176.12500000005
  30
0.0
  11
 214.92146310601
  21
 174.12500000005
  31
0.0
  12
 215.62677102884
  22
 174.12500000005
  32
0.0
  13
 215.62677102884
  23
 174.12500000005
  33
0.0
   0
SOLID
   5
14D
 100
AcDbEntity
   8
LEVEL001
 100
AcDbTrace
   6
CONTINUOUS
  62
8
  10
 215.27411706742
  20
 179.12500000005
  30
0.0
  11
 215.62677102884
  21
 181.12500000005
  31
0.0
  12
 214.92146310601
  22
 181.12500000005
  32
0.0
  13
 214.92146310601
  23
 181.12500000005
  33
0.0
   0
MTEXT
   5
14E
 100
AcDbEntity
   8
LEVEL001
 370
15
  62
8
 100
AcDbMText
  10
 214.27411706742
  20
 175.66290710648
  30
0.0
  40
 2.5000000000000
  41
0.0
  71
9
  72
1
   1
\A1;3
   7
GMM002
  11
0.0
  21
 1.0000000000000
  31
0.0
   0
ENDBLK
   5
14F
 100
AcDbEntity
   8
0
 100
AcDbBlockEnd
   0
BLOCK
   5
150
 100
AcDbEntity
   8
0
 100
AcDbBlockBegin
   2
*D18
  70
65
  10
0.0
  20
0.0
  30
0.0
   3
*D18
   0
LINE
   5
151
 100
AcDbEntity
   8
LEVEL001
 370
15
 100
AcDbLine
   6
CONTINUOUS
  62
8
  10
 253.37499999988
  20
 175.12500000005
  30
0.0
  11
 253.37499999988
  21
 165.05483310702
  31
0.0
   0
LINE
   5
152
 100
AcDbEntity
   8
LEVEL001
 370
15
 100
AcDbLine
   6
CONTINUOUS
  62
8
  10
 283.37499999988
  20
 175.12500000005
  30
0.0
  11
 283.37499999988
  21
 165.05483310702
  31
0.0
   0
LINE
   5
153
 100
AcDbEntity
   8
LEVEL001
 370
15
 100
AcDbLine
   6
CONTINUOUS
  62
8
  10
 253.37499999988
  20
 166.05483310702
  30
0.0
  11
 268.37499999988
  21
 166.05483310702
  31
0.0
   0
LINE
   5
154
 100
AcDbEntity
   8
LEVEL001
 370
15
 100
AcDbLine
   6
CONTINUOUS
  62
8
  10
 283.37499999988
  20
 166.05483310702
  30
0.0
  11
 268.37499999988
  21
 166.05483310702
  31
0.0
   0
SOLID
   5
155
 100
AcDbEntity
   8
LEVEL001
 100
AcDbTrace
   6
CONTINUOUS
  62
8
  10
 253.37499999988
  20
 166.05483310702
  30
0.0
  11
 255.37499999988
  21
 165.70217914560
  31
0.0
  12
 255.37499999988
  22
 166.40748706844
  32
0.0
  13
 255.37499999988
  23
 166.40748706844
  33
0.0
   0
SOLID
   5
156
 100
AcDbEntity
   8
LEVEL001
 100
AcDbTrace
   6
CONTINUOUS
  62
8
  10
 283.37499999988
  20
 166.05483310702
  30
0.0
  11
 281.37499999988
  21
 166.40748706844
  31
0.0
  12
 281.37499999988
  22
 165.70217914560
  32
0.0
  13
 281.37499999988
  23
 165.70217914560
  33
0.0
   0
MTEXT
   5
157
 100
AcDbEntity
   8
LEVEL001
 370
15
  62
8
 100
AcDbMText
  10
 268.37499999988
  20
 167.05483310702
  30
0.0
  40
 2.5000000000000
  41
0.0
  71
8
  72
1
   1
\A1;30
   7
GMM002
   0
ENDBLK
   5
158
 100
AcDbEntity
   8
0
 100
AcDbBlockEnd
   0
BLOCK
   5
159
 100
AcDbEntity
   8
0
 100
AcDbBlockBegin
   2
*D19
  70
65
  10
0.0
  20
0.0
  30
0.0
   3
*D19
   0
LINE
   5
15A
 100
AcDbEntity
   8
LEVEL001
 370
15
 100
AcDbLine
   6
CONTINUOUS
  62
8
  10
 284.37499999988
  20
 176.12500000005
  30
0.0
  11
 291.02411706742
  21
 176.12500000005
  31
0.0
   0
LINE
   5
15B
 100
AcDbEntity
   8
LEVEL001
 370
15
 100
AcDbLine
   6
CONTINUOUS
  62
8
  10
 284.37499999988
  20
 179.12500000005
  30
0.0
  11
 291.02411706742
  21
 179.12500000005
  31
0.0
   0
LINE
   5
15C
 100
AcDbEntity
   8
LEVEL001
 370
15
 100
AcDbLine
   6
CONTINUOUS
  62
8
  10
 290.02411706742
  20
 173.16290710648
  30
0.0
  11
 290.02411706742
  21
 177.62500000005
  31
0.0
   0
LINE
   5
15D
 100
AcDbEntity
   8
LEVEL001
 370
15
 100
AcDbLine
   6
CONTINUOUS
  62
8
  10
 290.02411706742
  20
 181.62500000005
  30
0.0
  11
 290.02411706742
  21
 177.62500000005
  31
0.0
   0
SOLID
   5
15E
 100
AcDbEntity
   8
LEVEL001
 100
AcDbTrace
   6
CONTINUOUS
  62
8
  10
 290.02411706742
  20
 176.12500000005
  30
0.0
  11
 289.67146310601
  21
 174.12500000005
  31
0.0
  12
 290.37677102884
  22
 174.12500000005
  32
0.0
  13
 290.37677102884
  23
 174.12500000005
  33
0.0
   0
SOLID
   5
15F
 100
AcDbEntity
   8
LEVEL001
 100
AcDbTrace
   6
CONTINUOUS
  62
8
  10
 290.02411706742
  20
 179.12500000005
  30
0.0
  11
 290.37677102884
  21
 181.12500000005
  31
0.0
  12
 289.67146310601
  22
 181.12500000005
  32
0.0
  13
 289.67146310601
  23
 181.12500000005
  33
0.0
   0
MTEXT
   5
160
 100
AcDbEntity
   8
LEVEL001
 370
15
  62
8
 100
AcDbMText
  10
 289.02411706742
  20
 175.66290710648
  30
0.0
  40
 2.5000000000000
  41
0.0
  71
9
  72
1
   1
\A1;3
   7
GMM002
  11
0.0
  21
 1.0000000000000
  31
0.0
   0
ENDBLK
   5
161
 100
AcDbEntity
   8
0
 100
AcDbBlockEnd
   0
ENDSEC
   0
SECTION
   2
ENTITIES
   0
LINE
   5
162
 100
AcDbEntity
   8
LEVEL002
 370
30
 100
AcDbLine
   6
CONTINUOUS
  62
7
  10
 344.15000000000
  20
 272.07500000000
  30
0.0
  11
 336.95000000000
  21
 272.07500000000
  31
0.0
   0
LINE
   5
163
 100
AcDbEntity
   8
LEVEL002
 370
30
 100
AcDbLine
   6
CONTINUOUS
  62
7
  10
 336.95000000000
  20
 272.07500000000
  30
0.0
  11
 336.95000000000
  21
 261.27500000000
  31
0.0
   0
LINE
   5
164
 100
AcDbEntity
   8
LEVEL002
 370
30
 100
AcDbLine
   6
CONTINUOUS
  62
7
  10
 336.95000000000
  20
 261.27500000000
  30
0.0
  11
 340.55000000000
  21
 261.27500000000
  31
0.0
   0
LINE
   5
165
 100
AcDbEntity
   8
LEVEL002
 370
30
 100
AcDbLine
   6
CONTINUOUS
  62
7
  10
 340.55000000000
  20
 261.27500000000
  30
0.0
  11
 340.55000000000
  21
 263.07500000000
  31
0.0
   0
LINE
   5
166
 100
AcDbEntity
   8
LEVEL002
 370
30
 100
AcDbLine
   6
CONTINUOUS
  62
7
  10
 340.55000000000
  20
 263.07500000000
  30
0.0
  11
 344.15000000000
  21
 263.07500000000
  31
0.0
   0
ARC
   5
167
 100
AcDbEntity
   8
LEVEL002
 370
30
   6
CONTINUOUS
  62
7
 100
AcDbCircle
  10
 344.15000000000
  20
 267.57500000000
  30
0.0
  40
 4.5000000000000
 100
AcDbArc
  50
 270.00000000000
  51
 90.000000000000
   0
LINE
   5
168
 100
AcDbEntity
   8
LEVEL002
 370
30
 100
AcDbLine
   6
CONTINUOUS
  62
7
  10
 340.55000000000
  20
 266.67500000000
  30
0.0
  11
 344.15000000000
  21
 266.67500000000
  31
0.0
   0
ARC
   5
169
 100
AcDbEntity
   8
LEVEL002
 370
30
   6
CONTINUOUS
  62
7
 100
AcDbCircle
  10
 344.15000000000
  20
 267.57500000000
  30
0.0
  40
 0.90000000000000
 100
AcDbArc
  50
 270.00000000000
  51
 90.000000000000
   0
LINE
   5
16A
 100
AcDbEntity
   8
LEVEL002
 370
30
 100
AcDbLine
   6
CONTINUOUS
  62
7
  10
 344.15000000000
  20
 268.47500000000
  30
0.0
  11
 340.55000000000
  21
 268.47500000000
  31
0.0
   0
LINE
   5
16B
 100
AcDbEntity
   8
LEVEL002
 370
30
 100
AcDbLine
   6
CONTINUOUS
  62
7
  10
 340.55000000000
  20
 268.47500000000
  30
0.0
  11
 340.55000000000
  21
 266.67500000000
  31
0.0
   0
LINE
   5
16C
 100
AcDbEntity
   8
LEVEL002
 370
30
 100
AcDbLine
   6
CONTINUOUS
  62
7
  10
 345.95000000000
  20
 261.27500000000
  30
0.0
  11
 353.15000000000
  21
 272.07500000000
  31
0.0
   0
LINE
   5
16D
 100
AcDbEntity
   8
LEVEL002
 370
30
 100
AcDbLine
   6
CONTINUOUS
  62
7
  10
 353.15000000000
  20
 272.07500000000
  30
0.0
  11
 362.15000000000
  21
 272.07500000000
  31
0.0
   0
LINE
   5
16E
 100
AcDbEntity
   8
LEVEL002
 370
30
 100
AcDbLine
   6
CONTINUOUS
  62
7
  10
 362.15000000000
  20
 272.07500000000
  30
0.0
  11
 362.15000000000
  21
 264.87500000000
  31
0.0
   0
LINE
   5
16F
 100
AcDbEntity
   8
LEVEL002
 370
30
 100
AcDbLine
   6
CONTINUOUS
  62
7
  10
 362.15000000000
  20
 264.87500000000
  30
0.0
  11
 367.55000000000
  21
 264.87500000000
  31
0.0
   0
LINE
   5
170
 100
AcDbEntity
   8
LEVEL002
 370
30
 100
AcDbLine
   6
CONTINUOUS
  62
7
  10
 367.55000000000
  20
 264.87500000000
  30
0.0
  11
 367.55000000000
  21
 268.47500000000
  31
0.0
   0
LINE
   5
171
 100
AcDbEntity
   8
LEVEL002
 370
30
 100
AcDbLine
   6
CONTINUOUS
  62
7
  10
 367.55000000000
  20
 268.47500000000
  30
0.0
  11
 363.95000000000
  21
 268.47500000000
  31
0.0
   0
LINE
   5
172
 100
AcDbEntity
   8
LEVEL002
 370
30
 100
AcDbLine
   6
CONTINUOUS
  62
7
  10
 363.95000000000
  20
 268.47500000000
  30
0.0
  11
 363.95000000000
  21
 272.07500000000
  31
0.0
   0
LINE
   5
173
 100
AcDbEntity
   8
LEVEL002
 370
30
 100
AcDbLine
   6
CONTINUOUS
  62
7
  10
 363.95000000000
  20
 272.07500000000
  30
0.0
  11
 385.55000000000
  21
 272.07500000000
  31
0.0
   0
LINE
   5
174
 100
AcDbEntity
   8
LEVEL002
 370
30
 100
AcDbLine
   6
CONTINUOUS
  62
7
  10
 385.55000000000
  20
 272.07500000000
  30
0.0
  11
 385.55000000000
  21
 268.47500000000
  31
0.0
   0
LINE
   5
175
 100
AcDbEntity
   8
LEVEL002
 370
30
 100
AcDbLine
   6
CONTINUOUS
  62
7
  10
 385.55000000000
  20
 268.47500000000
  30
0.0
  11
 378.35000000000
  21
 268.47500000000
  31
0.0
   0
LINE
   5
176
 100
AcDbEntity
   8
LEVEL002
 370
30
 100
AcDbLine
   6
CONTINUOUS
  62
7
  10
 378.35000000000
  20
 268.47500000000
  30
0.0
  11
 378.35000000000
  21
 267.57500000000
  31
0.0
   0
LINE
   5
177
 100
AcDbEntity
   8
LEVEL002
 370
30
 100
AcDbLine
   6
CONTINUOUS
  62
7
  10
 378.35000000000
  20
 267.57500000000
  30
0.0
  11
 384.65000000000
  21
 267.57500000000
  31
0.0
   0
LINE
   5
178
 100
AcDbEntity
   8
LEVEL002
 370
30
 100
AcDbLine
   6
CONTINUOUS
  62
7
  10
 384.65000000000
  20
 267.57500000000
  30
0.0
  11
 384.65000000000
  21
 265.77500000000
  31
0.0
   0
LINE
   5
179
 100
AcDbEntity
   8
LEVEL002
 370
30
 100
AcDbLine
   6
CONTINUOUS
  62
7
  10
 384.65000000000
  20
 265.77500000000
  30
0.0
  11
 378.35000000000
  21
 265.77500000000
  31
0.0
   0
LINE
   5
17A
 100
AcDbEntity
   8
LEVEL002
 370
30
 100
AcDbLine
   6
CONTINUOUS
  62
7
  10
 378.35000000000
  20
 265.77500000000
  30
0.0
  11
 378.35000000000
  21
 264.87500000000
  31
0.0
   0
LINE
   5
17B
 100
AcDbEntity
   8
LEVEL002
 370
30
 100
AcDbLine
   6
CONTINUOUS
  62
7
  10
 378.35000000000
  20
 264.87500000000
  30
0.0
  11
 385.55000000000
  21
 264.87500000000
  31
0.0
   0
LINE
   5
17C
 100
AcDbEntity
   8
LEVEL002
 370
30
 100
AcDbLine
   6
CONTINUOUS
  62
7
  10
 385.55000000000
  20
 264.87500000000
  30
0.0
  11
 385.55000000000
  21
 261.27500000000
  31
0.0
   0
LINE
   5
17D
 100
AcDbEntity
   8
LEVEL002
 370
30
 100
AcDbLine
   6
CONTINUOUS
  62
7
  10
 385.55000000000
  20
 261.27500000000
  30
0.0
  11
 374.75000000000
  21
 261.27500000000
  31
0.0
   0
LINE
   5
17E
 100
AcDbEntity
   8
LEVEL002
 370
30
 100
AcDbLine
   6
CONTINUOUS
  62
7
  10
 374.75000000000
  20
 261.27500000000
  30
0.0
  11
 374.75000000000
  21
 268.47500000000
  31
0.0
   0
LINE
   5
17F
 100
AcDbEntity
   8
LEVEL002
 370
30
 100
AcDbLine
   6
CONTINUOUS
  62
7
  10
 374.75000000000
  20
 268.47500000000
  30
0.0
  11
 371.15000000000
  21
 268.47500000000
  31
0.0
   0
LINE
   5
180
 100
AcDbEntity
   8
LEVEL002
 370
30
 100
AcDbLine
   6
CONTINUOUS
  62
7
  10
 371.15000000000
  20
 268.47500000000
  30
0.0
  11
 371.15000000000
  21
 261.27500000000
  31
0.0
   0
LINE
   5
181
 100
AcDbEntity
   8
LEVEL002
 370
30
 100
AcDbLine
   6
CONTINUOUS
  62
7
  10
 371.15000000000
  20
 261.27500000000
  30
0.0
  11
 358.55000000000
  21
 261.27500000000
  31
0.0
   0
LINE
   5
182
 100
AcDbEntity
   8
LEVEL002
 370
30
 100
AcDbLine
   6
CONTINUOUS
  62
7
  10
 358.55000000000
  20
 261.27500000000
  30
0.0
  11
 358.55000000000
  21
 272.07500000000
  31
0.0
   0
LINE
   5
183
 100
AcDbEntity
   8
LEVEL002
 370
30
 100
AcDbLine
   6
CONTINUOUS
  62
7
  10
 358.55000000000
  20
 272.07500000000
  30
0.0
  11
 351.35000000000
  21
 261.27500000000
  31
0.0
   0
LINE
   5
184
 100
AcDbEntity
   8
LEVEL002
 370
30
 100
AcDbLine
   6
CONTINUOUS
  62
7
  10
 351.35000000000
  20
 261.27500000000
  30
0.0
  11
 345.95000000000
  21
 261.27500000000
  31
0.0
   0
LINE
   5
185
 100
AcDbEntity
   8
LEVEL002
 370
30
 100
AcDbLine
   6
CONTINUOUS
  62
7
  10
 357.35000000000
  20
 268.11166923470
  30
0.0
  11
 352.79222051020
  21
 261.27500000000
  31
0.0
   0
LINE
   5
186
 100
AcDbEntity
   8
LEVEL002
 370
30
 100
AcDbLine
   6
CONTINUOUS
  62
7
  10
 352.79222051020
  20
 261.27500000000
  30
0.0
  11
 357.35000000000
  21
 261.27500000000
  31
0.0
   0
LINE
   5
187
 100
AcDbEntity
   8
LEVEL002
 370
30
 100
AcDbLine
   6
CONTINUOUS
  62
7
  10
 357.35000000000
  20
 261.27500000000
  30
0.0
  11
 357.35000000000
  21
 268.11166923470
  31
0.0
   0
ARC
   5
188
 100
AcDbEntity
   8
LEVEL002
 370
30
   6
CONTINUOUS
  62
7
 100
AcDbCircle
  10
 390.95000000000
  20
 266.67500000000
  30
0.0
  40
 5.4000000000000
 100
AcDbArc
  50
 90.000000000000
  51
 270.00000000000
   0
ARC
   5
189
 100
AcDbEntity
   8
LEVEL002
 370
30
   6
CONTINUOUS
  62
7
 100
AcDbCircle
  10
 390.95000000000
  20
 266.67500000000
  30
0.0
  40
 1.8000000000000
 100
AcDbArc
  50
 90.000000000000
  51
 270.00000000000
   0
LINE
   5
18A
 100
AcDbEntity
   8
LEVEL002
 370
30
 100
AcDbLine
   6
CONTINUOUS
  62
7
  10
 390.95000000000
  20
 272.07500000000
  30
0.0
  11
 396.35000000000
  21
 272.07500000000
  31
0.0
   0
LINE
   5
18B
 100
AcDbEntity
   8
LEVEL002
 370
30
 100
AcDbLine
   6
CONTINUOUS
  62
7
  10
 396.35000000000
  20
 272.07500000000
  30
0.0
  11
 396.35000000000
  21
 268.47500000000
  31
0.0
   0
LINE
   5
18C
 100
AcDbEntity
   8
LEVEL002
 370
30
 100
AcDbLine
   6
CONTINUOUS
  62
7
  10
 396.35000000000
  20
 268.47500000000
  30
0.0
  11
 390.95000000000
  21
 268.47500000000
  31
0.0
   0
LINE
   5
18D
 100
AcDbEntity
   8
LEVEL002
 370
30
 100
AcDbLine
   6
CONTINUOUS
  62
7
  10
 336.95000000000
  20
 272.07500000000
  30
0.0
  11
 336.95000000000
  21
 261.27500000000
  31
0.0
   0
LINE
   5
18E
 100
AcDbEntity
   8
LEVEL002
 370
30
 100
AcDbLine
   6
CONTINUOUS
  62
7
  10
 336.95000000000
  20
 261.27500000000
  30
0.0
  11
 340.55000000000
  21
 261.27500000000
  31
0.0
   0
LINE
   5
18F
 100
AcDbEntity
   8
LEVEL002
 370
30
 100
AcDbLine
   6
CONTINUOUS
  62
7
  10
 340.55000000000
  20
 261.27500000000
  30
0.0
  11
 340.55000000000
  21
 263.07500000000
  31
0.0
   0
LINE
   5
190
 100
AcDbEntity
   8
LEVEL002
 370
30
 100
AcDbLine
   6
CONTINUOUS
  62
7
  10
 340.55000000000
  20
 263.07500000000
  30
0.0
  11
 344.15000000000
  21
 263.07500000000
  31
0.0
   0
ARC
   5
191
 100
AcDbEntity
   8
LEVEL002
 370
30
   6
CONTINUOUS
  62
7
 100
AcDbCircle
  10
 344.15000000000
  20
 267.57500000000
  30
0.0
  40
 4.5000000000000
 100
AcDbArc
  50
 270.00000000000
  51
 90.000000000000
   0
LINE
   5
192
 100
AcDbEntity
   8
LEVEL002
 370
30
 100
AcDbLine
   6
CONTINUOUS
  62
7
  10
 344.15000000000
  20
 272.07500000000
  30
0.0
  11
 336.95000000000
  21
 272.07500000000
  31
0.0
   0
LINE
   5
193
 100
AcDbEntity
   8
LEVEL002
 370
30
 100
AcDbLine
   6
CONTINUOUS
  62
7
  10
 340.55000000000
  20
 268.47500000000
  30
0.0
  11
 340.55000000000
  21
 266.67500000000
  31
0.0
   0
LINE
   5
194
 100
AcDbEntity
   8
LEVEL002
 370
30
 100
AcDbLine
   6
CONTINUOUS
  62
7
  10
 340.55000000000
  20
 266.67500000000
  30
0.0
  11
 344.15000000000
  21
 266.67500000000
  31
0.0
   0
ARC
   5
195
 100
AcDbEntity
   8
LEVEL002
 370
30
   6
CONTINUOUS
  62
7
 100
AcDbCircle
  10
 344.15000000000
  20
 267.57500000000
  30
0.0
  40
 0.90000000000000
 100
AcDbArc
  50
 270.00000000000
  51
 90.000000000000
   0
LINE
   5
196
 100
AcDbEntity
   8
LEVEL002
 370
30
 100
AcDbLine
   6
CONTINUOUS
  62
7
  10
 344.15000000000
  20
 268.47500000000
  30
0.0
  11
 340.55000000000
  21
 268.47500000000
  31
0.0
   0
LINE
   5
197
 100
AcDbEntity
   8
LEVEL002
 370
30
 100
AcDbLine
   6
CONTINUOUS
  62
7
  10
 353.15000000000
  20
 272.07500000000
  30
0.0
  11
 345.95000000000
  21
 261.27500000000
  31
0.0
   0
LINE
   5
198
 100
AcDbEntity
   8
LEVEL002
 370
30
 100
AcDbLine
   6
CONTINUOUS
  62
7
  10
 345.95000000000
  20
 261.27500000000
  30
0.0
  11
 351.35000000000
  21
 261.27500000000
  31
0.0
   0
LINE
   5
199
 100
AcDbEntity
   8
LEVEL002
 370
30
 100
AcDbLine
   6
CONTINUOUS
  62
7
  10
 351.35000000000
  20
 261.27500000000
  30
0.0
  11
 358.55000000000
  21
 272.07500000000
  31
0.0
   0
LINE
   5
19A
 100
AcDbEntity
   8
LEVEL002
 370
30
 100
AcDbLine
   6
CONTINUOUS
  62
7
  10
 358.55000000000
  20
 272.07500000000
  30
0.0
  11
 353.15000000000
  21
 272.07500000000
  31
0.0
   0
LINE
   5
19B
 100
AcDbEntity
   8
LEVEL002
 370
30
 100
AcDbLine
   6
CONTINUOUS
  62
7
  10
 357.35000000000
  20
 261.27500000000
  30
0.0
  11
 357.35000000000
  21
 268.11166923470
  31
0.0
   0
LINE
   5
19C
 100
AcDbEntity
   8
LEVEL002
 370
30
 100
AcDbLine
   6
CONTINUOUS
  62
7
  10
 357.35000000000
  20
 268.11166923470
  30
0.0
  11
 352.79222051020
  21
 261.27500000000
  31
0.0
   0
LINE
   5
19D
 100
AcDbEntity
   8
LEVEL002
 370
30
 100
AcDbLine
   6
CONTINUOUS
  62
7
  10
 352.79222051020
  20
 261.27500000000
  30
0.0
  11
 357.35000000000
  21
 261.27500000000
  31
0.0
   0
LINE
   5
19E
 100
AcDbEntity
   8
LEVEL002
 370
30
 100
AcDbLine
   6
CONTINUOUS
  62
7
  10
 358.55000000000
  20
 261.27500000000
  30
0.0
  11
 371.15000000000
  21
 261.27500000000
  31
0.0
   0
LINE
   5
19F
 100
AcDbEntity
   8
LEVEL002
 370
30
 100
AcDbLine
   6
CONTINUOUS
  62
7
  10
 371.15000000000
  20
 261.27500000000
  30
0.0
  11
 371.15000000000
  21
 268.47500000000
  31
0.0
   0
LINE
   5
1A0
 100
AcDbEntity
   8
LEVEL002
 370
30
 100
AcDbLine
   6
CONTINUOUS
  62
7
  10
 371.15000000000
  20
 268.47500000000
  30
0.0
  11
 374.75000000000
  21
 268.47500000000
  31
0.0
   0
LINE
   5
1A1
 100
AcDbEntity
   8
LEVEL002
 370
30
 100
AcDbLine
   6
CONTINUOUS
  62
7
  10
 374.75000000000
  20
 268.47500000000
  30
0.0
  11
 374.75000000000
  21
 261.27500000000
  31
0.0
   0
LINE
   5
1A2
 100
AcDbEntity
   8
LEVEL002
 370
30
 100
AcDbLine
   6
CONTINUOUS
  62
7
  10
 374.75000000000
  20
 261.27500000000
  30
0.0
  11
 385.55000000000
  21
 261.27500000000
  31
0.0
   0
LINE
   5
1A3
 100
AcDbEntity
   8
LEVEL002
 370
30
 100
AcDbLine
   6
CONTINUOUS
  62
7
  10
 385.55000000000
  20
 261.27500000000
  30
0.0
  11
 385.55000000000
  21
 264.87500000000
  31
0.0
   0
LINE
   5
1A4
 100
AcDbEntity
   8
LEVEL002
 370
30
 100
AcDbLine
   6
CONTINUOUS
  62
7
  10
 385.55000000000
  20
 264.87500000000
  30
0.0
  11
 378.35000000000
  21
 264.87500000000
  31
0.0
   0
LINE
   5
1A5
 100
AcDbEntity
   8
LEVEL002
 370
30
 100
AcDbLine
   6
CONTINUOUS
  62
7
  10
 378.35000000000
  20
 264.87500000000
  30
0.0
  11
 378.35000000000
  21
 265.77500000000
  31
0.0
   0
LINE
   5
1A6
 100
AcDbEntity
   8
LEVEL002
 370
30
 100
AcDbLine
   6
CONTINUOUS
  62
7
  10
 378.35000000000
  20
 265.77500000000
  30
0.0
  11
 384.65000000000
  21
 265.77500000000
  31
0.0
   0
LINE
   5
1A7
 100
AcDbEntity
   8
LEVEL002
 370
30
 100
AcDbLine
   6
CONTINUOUS
  62
7
  10
 384.65000000000
  20
 265.77500000000
  30
0.0
  11
 384.65000000000
  21
 267.57500000000
  31
0.0
   0
LINE
   5
1A8
 100
AcDbEntity
   8
LEVEL002
 370
30
 100
AcDbLine
   6
CONTINUOUS
  62
7
  10
 384.65000000000
  20
 267.57500000000
  30
0.0
  11
 378.35000000000
  21
 267.57500000000
  31
0.0
   0
LINE
   5
1A9
 100
AcDbEntity
   8
LEVEL002
 370
30
 100
AcDbLine
   6
CONTINUOUS
  62
7
  10
 378.35000000000
  20
 267.57500000000
  30
0.0
  11
 378.35000000000
  21
 268.47500000000
  31
0.0
   0
LINE
   5
1AA
 100
AcDbEntity
   8
LEVEL002
 370
30
 100
AcDbLine
   6
CONTINUOUS
  62
7
  10
 378.35000000000
  20
 268.47500000000
  30
0.0
  11
 385.55000000000
  21
 268.47500000000
  31
0.0
   0
LINE
   5
1AB
 100
AcDbEntity
   8
LEVEL002
 370
30
 100
AcDbLine
   6
CONTINUOUS
  62
7
  10
 385.55000000000
  20
 268.47500000000
  30
0.0
  11
 385.55000000000
  21
 272.07500000000
  31
0.0
   0
LINE
   5
1AC
 100
AcDbEntity
   8
LEVEL002
 370
30
 100
AcDbLine
   6
CONTINUOUS
  62
7
  10
 385.55000000000
  20
 272.07500000000
  30
0.0
  11
 363.95000000000
  21
 272.07500000000
  31
0.0
   0
LINE
   5
1AD
 100
AcDbEntity
   8
LEVEL002
 370
30
 100
AcDbLine
   6
CONTINUOUS
  62
7
  10
 363.95000000000
  20
 272.07500000000
  30
0.0
  11
 363.95000000000
  21
 268.47500000000
  31
0.0
   0
LINE
   5
1AE
 100
AcDbEntity
   8
LEVEL002
 370
30
 100
AcDbLine
   6
CONTINUOUS
  62
7
  10
 363.95000000000
  20
 268.47500000000
  30
0.0
  11
 367.55000000000
  21
 268.47500000000
  31
0.0
   0
LINE
   5
1AF
 100
AcDbEntity
   8
LEVEL002
 370
30
 100
AcDbLine
   6
CONTINUOUS
  62
7
  10
 367.55000000000
  20
 268.47500000000
  30
0.0
  11
 367.55000000000
  21
 264.87500000000
  31
0.0
   0
LINE
   5
1B0
 100
AcDbEntity
   8
LEVEL002
 370
30
 100
AcDbLine
   6
CONTINUOUS
  62
7
  10
 367.55000000000
  20
 264.87500000000
  30
0.0
  11
 362.15000000000
  21
 264.87500000000
  31
0.0
   0
LINE
   5
1B1
 100
AcDbEntity
   8
LEVEL002
 370
30
 100
AcDbLine
   6
CONTINUOUS
  62
7
  10
 362.15000000000
  20
 264.87500000000
  30
0.0
  11
 362.15000000000
  21
 272.07500000000
  31
0.0
   0
LINE
   5
1B2
 100
AcDbEntity
   8
LEVEL002
 370
30
 100
AcDbLine
   6
CONTINUOUS
  62
7
  10
 362.15000000000
  20
 272.07500000000
  30
0.0
  11
 358.55000000000
  21
 272.07500000000
  31
0.0
   0
LINE
   5
1B3
 100
AcDbEntity
   8
LEVEL002
 370
30
 100
AcDbLine
   6
CONTINUOUS
  62
7
  10
 358.55000000000
  20
 272.07500000000
  30
0.0
  11
 358.55000000000
  21
 261.27500000000
  31
0.0
   0
LINE
   5
1B4
 100
AcDbEntity
   8
LEVEL002
 370
30
 100
AcDbLine
   6
CONTINUOUS
  62
7
  10
 390.95000000000
  20
 261.27500000000
  30
0.0
  11
 396.35000000000
  21
 261.27500000000
  31
0.0
   0
LINE
   5
1B5
 100
AcDbEntity
   8
LEVEL002
 370
30
 100
AcDbLine
   6
CONTINUOUS
  62
7
  10
 396.35000000000
  20
 261.27500000000
  30
0.0
  11
 396.35000000000
  21
 264.87500000000
  31
0.0
   0
LINE
   5
1B6
 100
AcDbEntity
   8
LEVEL002
 370
30
 100
AcDbLine
   6
CONTINUOUS
  62
7
  10
 396.35000000000
  20
 264.87500000000
  30
0.0
  11
 390.95000000000
  21
 264.87500000000
  31
0.0
   0
ARC
   5
1B7
 100
AcDbEntity
   8
LEVEL002
 370
30
   6
CONTINUOUS
  62
7
 100
AcDbCircle
  10
 390.95000000000
  20
 266.67500000000
  30
0.0
  40
 1.8000000000000
 100
AcDbArc
  50
 90.000000000000
  51
 270.00000000000
   0
LINE
   5
1B8
 100
AcDbEntity
   8
LEVEL002
 370
30
 100
AcDbLine
   6
CONTINUOUS
  62
7
  10
 390.95000000000
  20
 268.47500000000
  30
0.0
  11
 396.35000000000
  21
 268.47500000000
  31
0.0
   0
LINE
   5
1B9
 100
AcDbEntity
   8
LEVEL002
 370
30
 100
AcDbLine
   6
CONTINUOUS
  62
7
  10
 396.35000000000
  20
 268.47500000000
  30
0.0
  11
 396.35000000000
  21
 272.07500000000
  31
0.0
   0
LINE
   5
1BA
 100
AcDbEntity
   8
LEVEL002
 370
30
 100
AcDbLine
   6
CONTINUOUS
  62
7
  10
 396.35000000000
  20
 272.07500000000
  30
0.0
  11
 390.95000000000
  21
 272.07500000000
  31
0.0
   0
ARC
   5
1BB
 100
AcDbEntity
   8
LEVEL002
 370
30
   6
CONTINUOUS
  62
7
 100
AcDbCircle
  10
 390.95000000000
  20
 266.67500000000
  30
0.0
  40
 5.4000000000000
 100
AcDbArc
  50
 90.000000000000
  51
 270.00000000000
   0
MTEXT
   5
1BD
 100
AcDbEntity
   8
LEVEL002
 370
30
  62
7
 100
AcDbMText
  10
 336.95000000000
  20
 273.87500000000
  30
0.0
  40
 3.7500000000000
  41
0.0
  71
7
  72
1
   1
\T1.000000;ケージーパルテック株式会社
   7
GMM001
  44
 0.79999984000003
   0
LINE
   5
1BE
 100
AcDbEntity
   8
LEVEL002
 370
30
 100
AcDbLine
   6
CONTINUOUS
  62
7
  10
 333.35000000000
  20
 263.67500000000
  30
0.0
  11
 328.85000000000
  21
 270.87500000000
  31
0.0
   0
LINE
   5
1BF
 100
AcDbEntity
   8
LEVEL002
 370
30
 100
AcDbLine
   6
CONTINUOUS
  62
7
  10
 328.85000000000
  20
 270.87500000000
  30
0.0
  11
 333.35000000000
  21
 270.87500000000
  31
0.0
   0
LINE
   5
1C0
 100
AcDbEntity
   8
LEVEL002
 370
30
 100
AcDbLine
   6
CONTINUOUS
  62
7
  10
 333.35000000000
  20
 270.87500000000
  30
0.0
  11
 333.35000000000
  21
 263.67500000000
  31
0.0
   0
LINE
   5
1C1
 100
AcDbEntity
   8
LEVEL002
 370
30
 100
AcDbLine
   6
CONTINUOUS
  62
7
  10
 328.85000000000
  20
 270.87500000000
  30
0.0
  11
 333.35000000000
  21
 263.67500000000
  31
0.0
   0
LINE
   5
1C2
 100
AcDbEntity
   8
LEVEL002
 370
30
 100
AcDbLine
   6
CONTINUOUS
  62
7
  10
 333.35000000000
  20
 263.67500000000
  30
0.0
  11
 333.35000000000
  21
 270.87500000000
  31
0.0
   0
LINE
   5
1C3
 100
AcDbEntity
   8
LEVEL002
 370
30
 100
AcDbLine
   6
CONTINUOUS
  62
7
  10
 333.35000000000
  20
 270.87500000000
  30
0.0
  11
 328.85000000000
  21
 270.87500000000
  31
0.0
   0
LINE
   5
1C4
 100
AcDbEntity
   8
LEVEL002
 370
30
 100
AcDbLine
   6
CONTINUOUS
  62
7
  10
 319.05000000000
  20
 280.47500000000
  30
0.0
  11
 312.65000000000
  21
 270.87500000000
  31
0.0
   0
LINE
   5
1C5
 100
AcDbEntity
   8
LEVEL002
 370
30
 100
AcDbLine
   6
CONTINUOUS
  62
7
  10
 312.65000000000
  20
 270.87500000000
  30
0.0
  11
 319.05000000000
  21
 261.27500000000
  31
0.0
   0
LINE
   5
1C6
 100
AcDbEntity
   8
LEVEL002
 370
30
 100
AcDbLine
   6
CONTINUOUS
  62
7
  10
 324.45000000000
  20
 261.27500000000
  30
0.0
  11
 318.05000000000
  21
 270.87500000000
  31
0.0
   0
LINE
   5
1C7
 100
AcDbEntity
   8
LEVEL002
 370
30
 100
AcDbLine
   6
CONTINUOUS
  62
7
  10
 318.05000000000
  20
 270.87500000000
  30
0.0
  11
 324.45000000000
  21
 280.47500000000
  31
0.0
   0
LINE
   5
1C8
 100
AcDbEntity
   8
LEVEL002
 370
30
 100
AcDbLine
   6
CONTINUOUS
  62
7
  10
 327.15000000000
  20
 280.47500000000
  30
0.0
  11
 320.75000000000
  21
 270.87500000000
  31
0.0
   0
LINE
   5
1C9
 100
AcDbEntity
   8
LEVEL002
 370
30
 100
AcDbLine
   6
CONTINUOUS
  62
7
  10
 320.75000000000
  20
 270.87500000000
  30
0.0
  11
 327.15000000000
  21
 261.27500000000
  31
0.0
   0
LINE
   5
1CA
 100
AcDbEntity
   8
LEVEL002
 370
30
 100
AcDbLine
   6
CONTINUOUS
  62
7
  10
 332.55000000000
  20
 261.27500000000
  30
0.0
  11
 326.15000000000
  21
 270.87500000000
  31
0.0
   0
LINE
   5
1CB
 100
AcDbEntity
   8
LEVEL002
 370
30
 100
AcDbLine
   6
CONTINUOUS
  62
7
  10
 326.15000000000
  20
 270.87500000000
  30
0.0
  11
 332.55000000000
  21
 280.47500000000
  31
0.0
   0
LINE
   5
1CC
 100
AcDbEntity
   8
LEVEL002
 370
30
 100
AcDbLine
   6
CONTINUOUS
  62
7
  10
 319.05000000000
  20
 261.27500000000
  30
0.0
  11
 312.65000000000
  21
 270.87500000000
  31
0.0
   0
LINE
   5
1CD
 100
AcDbEntity
   8
LEVEL002
 370
30
 100
AcDbLine
   6
CONTINUOUS
  62
7
  10
 312.65000000000
  20
 270.87500000000
  30
0.0
  11
 319.05000000000
  21
 280.47500000000
  31
0.0
   0
LINE
   5
1CE
 100
AcDbEntity
   8
LEVEL002
 370
30
 100
AcDbLine
   6
CONTINUOUS
  62
7
  10
 319.05000000000
  20
 280.47500000000
  30
0.0
  11
 324.45000000000
  21
 280.47500000000
  31
0.0
   0
LINE
   5
1CF
 100
AcDbEntity
   8
LEVEL002
 370
30
 100
AcDbLine
   6
CONTINUOUS
  62
7
  10
 324.45000000000
  20
 280.47500000000
  30
0.0
  11
 318.05000000000
  21
 270.87500000000
  31
0.0
   0
LINE
   5
1D0
 100
AcDbEntity
   8
LEVEL002
 370
30
 100
AcDbLine
   6
CONTINUOUS
  62
7
  10
 318.05000000000
  20
 270.87500000000
  30
0.0
  11
 324.45000000000
  21
 261.27500000000
  31
0.0
   0
LINE
   5
1D1
 100
AcDbEntity
   8
LEVEL002
 370
30
 100
AcDbLine
   6
CONTINUOUS
  62
7
  10
 324.45000000000
  20
 261.27500000000
  30
0.0
  11
 319.05000000000
  21
 261.27500000000
  31
0.0
   0
LINE
   5
1D2
 100
AcDbEntity
   8
LEVEL002
 370
30
 100
AcDbLine
   6
CONTINUOUS
  62
7
  10
 327.15000000000
  20
 261.27500000000
  30
0.0
  11
 320.75000000000
  21
 270.87500000000
  31
0.0
   0
LINE
   5
1D3
 100
AcDbEntity
   8
LEVEL002
 370
30
 100
AcDbLine
   6
CONTINUOUS
  62
7
  10
 320.75000000000
  20
 270.87500000000
  30
0.0
  11
 327.15000000000
  21
 280.47500000000
  31
0.0
   0
LINE
   5
1D4
 100
AcDbEntity
   8
LEVEL002
 370
30
 100
AcDbLine
   6
CONTINUOUS
  62
7
  10
 327.15000000000
  20
 280.47500000000
  30
0.0
  11
 332.55000000000
  21
 280.47500000000
  31
0.0
   0
LINE
   5
1D5
 100
AcDbEntity
   8
LEVEL002
 370
30
 100
AcDbLine
   6
CONTINUOUS
  62
7
  10
 332.55000000000
  20
 280.47500000000
  30
0.0
  11
 326.15000000000
  21
 270.87500000000
  31
0.0
   0
LINE
   5
1D6
 100
AcDbEntity
   8
LEVEL002
 370
30
 100
AcDbLine
   6
CONTINUOUS
  62
7
  10
 326.15000000000
  20
 270.87500000000
  30
0.0
  11
 332.55000000000
  21
 261.27500000000
  31
0.0
   0
LINE
   5
1D7
 100
AcDbEntity
   8
LEVEL002
 370
30
 100
AcDbLine
   6
CONTINUOUS
  62
7
  10
 332.55000000000
  20
 261.27500000000
  30
0.0
  11
 327.15000000000
  21
 261.27500000000
  31
0.0
   0
LINE
   5
1D8
 100
AcDbEntity
   8
LEVEL001
 370
30
 100
AcDbLine
   6
DOT
  62
7
  10
0.0
  20
0.0
  30
0.0
  11
 420.00000000000
  21
0.0
  31
0.0
   0
LINE
   5
1D9
 100
AcDbEntity
   8
LEVEL001
 370
30
 100
AcDbLine
   6
DOT
  62
7
  10
 420.00000000000
  20
0.0
  30
0.0
  11
 420.00000000000
  21
 297.00000000000
  31
0.0
   0
LINE
   5
1DA
 100
AcDbEntity
   8
LEVEL001
 370
30
 100
AcDbLine
   6
DOT
  62
7
  10
 420.00000000000
  20
 297.00000000000
  30
0.0
  11
0.0
  21
 297.00000000000
  31
0.0
   0
LINE
   5
1DB
 100
AcDbEntity
   8
LEVEL001
 370
30
 100
AcDbLine
   6
DOT
  62
7
  10
0.0
  20
 297.00000000000
  30
0.0
  11
0.0
  21
0.0
  31
0.0
   0
LINE
   5
1DC
 100
AcDbEntity
   8
LEVEL002
 370
40
 100
AcDbLine
   6
CONTINUOUS
  62
3
  10
 15.499999999950
  20
 216.75000000000
  30
0.0
  11
 304.49999999995
  21
 216.75000000000
  31
0.0
   0
LINE
   5
1DD
 100
AcDbEntity
   8
LEVEL002
 370
40
 100
AcDbLine
   6
CONTINUOUS
  62
3
  10
 15.499999999950
  20
 275.00000000000
  30
0.0
  11
 304.49999999995
  21
 275.00000000000
  31
0.0
   0
LINE
   5
1DE
 100
AcDbEntity
   8
LEVEL002
 370
40
 100
AcDbLine
   6
CONTINUOUS
  62
3
  10
 15.499999999950
  20
 206.75000000000
  30
0.0
  11
 304.49999999995
  21
 206.75000000000
  31
0.0
   0
LINE
   5
1DF
 100
AcDbEntity
   8
LEVEL002
 370
40
 100
AcDbLine
   6
CONTINUOUS
  62
3
  10
 304.49999999995
  20
 256.75000000000
  30
0.0
  11
 404.49999999995
  21
 256.75000000000
  31
0.0
   0
LINE
   5
1E0
 100
AcDbEntity
   8
LEVEL002
 370
40
 100
AcDbLine
   6
CONTINUOUS
  62
3
  10
 304.49999999995
  20
 236.75000000000
  30
0.0
  11
 404.49999999995
  21
 236.75000000000
  31
0.0
   0
LINE
   5
1E1
 100
AcDbEntity
   8
LEVEL002
 370
40
 100
AcDbLine
   6
CONTINUOUS
  62
3
  10
 304.49999999995
  20
 216.75000000000
  30
0.0
  11
 404.49999999995
  21
 216.75000000000
  31
0.0
   0
LINE
   5
1E2
 100
AcDbEntity
   8
LEVEL002
 370
40
 100
AcDbLine
   6
CONTINUOUS
  62
3
  10
 232.24999999995
  20
 285.00000000000
  30
0.0
  11
 232.24999999995
  21
 12.000000000010
  31
0.0
   0
LINE
   5
1E3
 100
AcDbEntity
   8
LEVEL002
 370
40
 100
AcDbLine
   6
CONTINUOUS
  62
3
  10
 159.99999999995
  20
 285.00000000000
  30
0.0
  11
 159.99999999995
  21
 12.000000000010
  31
0.0
   0
LINE
   5
1E4
 100
AcDbEntity
   8
LEVEL002
 370
40
 100
AcDbLine
   6
CONTINUOUS
  62
3
  10
 87.749999999950
  20
 285.00000000000
  30
0.0
  11
 87.749999999950
  21
 12.000000000010
  31
0.0
   0
LINE
   5
1E5
 100
AcDbEntity
   8
LEVEL002
 370
40
 100
AcDbLine
   6
CONTINUOUS
  62
3
  10
 15.499999999950
  20
 148.50000000001
  30
0.0
  11
 304.49999999995
  21
 148.50000000001
  31
0.0
   0
LINE
   5
1E6
 100
AcDbEntity
   8
LEVEL002
 370
40
 100
AcDbLine
   6
CONTINUOUS
  62
3
  10
 15.499999999950
  20
 138.50000000001
  30
0.0
  11
 304.49999999995
  21
 138.50000000001
  31
0.0
   0
LINE
   5
1E7
 100
AcDbEntity
   8
LEVEL002
 370
40
 100
AcDbLine
   6
CONTINUOUS
  62
3
  10
 15.499999999950
  20
 80.250000000010
  30
0.0
  11
 304.49999999995
  21
 80.250000000010
  31
0.0
   0
LINE
   5
1E8
 100
AcDbEntity
   8
LEVEL002
 370
40
 100
AcDbLine
   6
CONTINUOUS
  62
3
  10
 15.499999999950
  20
 70.250000000010
  30
0.0
  11
 304.49999999995
  21
 70.250000000010
  31
0.0
   0
LINE
   5
1E9
 100
AcDbEntity
   8
LEVEL002
 370
40
 100
AcDbLine
   6
CONTINUOUS
  62
3
  10
 304.49999999995
  20
 72.000000000010
  30
0.0
  11
 404.49999999995
  21
 72.000000000010
  31
0.0
   0
LINE
   5
1EA
 100
AcDbEntity
   8
LEVEL002
 370
40
 100
AcDbLine
   6
CONTINUOUS
  62
3
  10
 304.49999999995
  20
 52.000000000010
  30
0.0
  11
 404.49999999995
  21
 52.000000000010
  31
0.0
   0
LINE
   5
1EB
 100
AcDbEntity
   8
LEVEL002
 370
40
 100
AcDbLine
   6
CONTINUOUS
  62
3
  10
 304.49999999995
  20
 32.000000000010
  30
0.0
  11
 404.49999999995
  21
 32.000000000010
  31
0.0
   0
LINE
   5
1EC
 100
AcDbEntity
   8
LEVEL002
 370
40
 100
AcDbLine
   6
CONTINUOUS
  62
3
  10
 354.49999999995
  20
 52.000000000010
  30
0.0
  11
 354.49999999995
  21
 12.000000000010
  31
0.0
   0
LINE
   5
1ED
 100
AcDbEntity
   8
LEVEL002
 370
40
 100
AcDbLine
   6
CONTINUOUS
  62
3
  10
 354.49999999995
  20
 38.666666666680
  30
0.0
  11
 404.49999999995
  21
 38.666666666680
  31
0.0
   0
LINE
   5
1EE
 100
AcDbEntity
   8
LEVEL002
 370
40
 100
AcDbLine
   6
CONTINUOUS
  62
3
  10
 354.49999999995
  20
 45.333333333345
  30
0.0
  11
 404.49999999995
  21
 45.333333333345
  31
0.0
   0
LINE
   5
1EF
 100
AcDbEntity
   8
LEVEL002
 370
50
 100
AcDbLine
   6
CONTINUOUS
  62
4
  10
 404.49999999995
  20
 285.00000000000
  30
0.0
  11
 15.499999999950
  21
 285.00000000000
  31
0.0
   0
LINE
   5
1F0
 100
AcDbEntity
   8
LEVEL002
 370
50
 100
AcDbLine
   6
CONTINUOUS
  62
4
  10
 304.49999999995
  20
 285.00000000000
  30
0.0
  11
 304.49999999995
  21
 12.000000000010
  31
0.0
   0
LINE
   5
1F1
 100
AcDbEntity
   8
LEVEL002
 370
50
 100
AcDbLine
   6
CONTINUOUS
  62
4
  10
 404.49999999995
  20
 12.000000000010
  30
0.0
  11
 404.49999999995
  21
 285.00000000000
  31
0.0
   0
LINE
   5
1F2
 100
AcDbEntity
   8
LEVEL002
 370
50
 100
AcDbLine
   6
CONTINUOUS
  62
4
  10
 15.499999999950
  20
 285.00000000000
  30
0.0
  11
 15.499999999950
  21
 12.000000000010
  31
0.0
   0
LINE
   5
1F3
 100
AcDbEntity
   8
LEVEL002
 370
50
 100
AcDbLine
   6
CONTINUOUS
  62
4
  10
 15.499999999950
  20
 12.000000000010
  30
0.0
  11
 404.49999999995
  21
 12.000000000010
  31
0.0
   0
HATCH
   5
1F4
 100
AcDbEntity
   8
LEVEL001
  62
1
 100
AcDbHatch
  10
0.0
  20
0.0
  30
0.0
 210
0.0
 220
0.0
 230
 1.0000000000000
   2
SOLID
  70
1
  71
1
  91
7
  92
1
  93
6
  72
1
  10
 324.45000000000
  20
 280.47500000000
  11
 318.05000000000
  21
 270.87500000000
  72
1
  10
 318.05000000000
  20
 270.87500000000
  11
 324.45000000000
  21
 261.27500000000
  72
1
  10
 324.45000000000
  20
 261.27500000000
  11
 319.05000000000
  21
 261.27500000000
  72
1
  10
 319.05000000000
  20
 261.27500000000
  11
 312.65000000000
  21
 270.87500000000
  72
1
  10
 312.65000000000
  20
 270.87500000000
  11
 319.05000000000
  21
 280.47500000000
  72
1
  10
 319.05000000000
  20
 280.47500000000
  11
 324.45000000000
  21
 280.47500000000
  97
1
 330

  92
16
  93
6
  72
1
  10
 327.15000000000
  20
 280.47500000000
  11
 332.55000000000
  21
 280.47500000000
  72
1
  10
 332.55000000000
  20
 280.47500000000
  11
 326.15000000000
  21
 270.87500000000
  72
1
  10
 326.15000000000
  20
 270.87500000000
  11
 332.55000000000
  21
 261.27500000000
  72
1
  10
 332.55000000000
  20
 261.27500000000
  11
 327.15000000000
  21
 261.27500000000
  72
1
  10
 327.15000000000
  20
 261.27500000000
  11
 320.75000000000
  21
 270.87500000000
  72
1
  10
 320.75000000000
  20
 270.87500000000
  11
 327.15000000000
  21
 280.47500000000
  97
1
 330

  92
16
  93
3
  72
1
  10
 333.35000000000
  20
 270.87500000000
  11
 328.85000000000
  21
 270.87500000000
  72
1
  10
 328.85000000000
  20
 270.87500000000
  11
 333.35000000000
  21
 263.67500000000
  72
1
  10
 333.35000000000
  20
 263.67500000000
  11
 333.35000000000
  21
 270.87500000000
  97
1
 330

  92
16
  93
6
  72
1
  10
 336.95000000000
  20
 272.07500000000
  11
 344.15000000000
  21
 272.07500000000
  72
2
  10
 344.15000000000
  20
 267.57500000000
  40
 4.5000000000000
  50
 270.00000000000
  51
 90.000000000000
  73
0
  72
1
  10
 344.15000000000
  20
 263.07500000000
  11
 340.55000000000
  21
 263.07500000000
  72
1
  10
 340.55000000000
  20
 263.07500000000
  11
 340.55000000000
  21
 261.27500000000
  72
1
  10
 340.55000000000
  20
 261.27500000000
  11
 336.95000000000
  21
 261.27500000000
  72
1
  10
 336.95000000000
  20
 261.27500000000
  11
 336.95000000000
  21
 272.07500000000
  97
1
 330

  92
16
  93
4
  72
1
  10
 344.15000000000
  20
 268.47500000000
  11
 340.55000000000
  21
 268.47500000000
  72
1
  10
 340.55000000000
  20
 268.47500000000
  11
 340.55000000000
  21
 266.67500000000
  72
1
  10
 340.55000000000
  20
 266.67500000000
  11
 344.15000000000
  21
 266.67500000000
  72
2
  10
 344.15000000000
  20
 267.57500000000
  40
 0.90000000000000
  50
 270.00000000000
  51
 90.000000000000
  73
1
  97
1
 330

  92
16
  93
4
  72
1
  10
 345.95000000000
  20
 261.27500000000
  11
 353.15000000000
  21
 272.07500000000
  72
1
  10
 353.15000000000
  20
 272.07500000000
  11
 358.55000000000
  21
 272.07500000000
  72
1
  10
 358.55000000000
  20
 272.07500000000
  11
 351.35000000000
  21
 261.27500000000
  72
1
  10
 351.35000000000
  20
 261.27500000000
  11
 345.95000000000
  21
 261.27500000000
  97
1
 330

  92
16
  93
3
  72
1
  10
 357.35000000000
  20
 268.11166923470
  11
 352.79222051020
  21
 261.27500000000
  72
1
  10
 352.79222051020
  20
 261.27500000000
  11
 357.35000000000
  21
 261.27500000000
  72
1
  10
 357.35000000000
  20
 261.27500000000
  11
 357.35000000000
  21
 268.11166923470
  97
1
 330

  75
0
  76
1
  98
1
  10
0.0
  20
0.0
   0
HATCH
   5
1F5
 100
AcDbEntity
   8
LEVEL001
  62
1
 100
AcDbHatch
  10
0.0
  20
0.0
  30
0.0
 210
0.0
 220
0.0
 230
 1.0000000000000
   2
SOLID
  70
1
  71
1
  91
1
  92
1
  93
22
  72
1
  10
 358.55000000000
  20
 272.07500000000
  11
 362.15000000000
  21
 272.07500000000
  72
1
  10
 362.15000000000
  20
 272.07500000000
  11
 362.15000000000
  21
 264.87500000000
  72
1
  10
 362.15000000000
  20
 264.87500000000
  11
 367.55000000000
  21
 264.87500000000
  72
1
  10
 367.55000000000
  20
 264.87500000000
  11
 367.55000000000
  21
 268.47500000000
  72
1
  10
 367.55000000000
  20
 268.47500000000
  11
 363.95000000000
  21
 268.47500000000
  72
1
  10
 363.95000000000
  20
 268.47500000000
  11
 363.95000000000
  21
 272.07500000000
  72
1
  10
 363.95000000000
  20
 272.07500000000
  11
 385.55000000000
  21
 272.07500000000
  72
1
  10
 385.55000000000
  20
 272.07500000000
  11
 385.55000000000
  21
 268.47500000000
  72
1
  10
 385.55000000000
  20
 268.47500000000
  11
 378.35000000000
  21
 268.47500000000
  72
1
  10
 378.35000000000
  20
 268.47500000000
  11
 378.35000000000
  21
 267.57500000000
  72
1
  10
 378.35000000000
  20
 267.57500000000
  11
 384.65000000000
  21
 267.57500000000
  72
1
  10
 384.65000000000
  20
 267.57500000000
  11
 384.65000000000
  21
 265.77500000000
  72
1
  10
 384.65000000000
  20
 265.77500000000
  11
 378.35000000000
  21
 265.77500000000
  72
1
  10
 378.35000000000
  20
 265.77500000000
  11
 378.35000000000
  21
 264.87500000000
  72
1
  10
 378.35000000000
  20
 264.87500000000
  11
 385.55000000000
  21
 264.87500000000
  72
1
  10
 385.55000000000
  20
 264.87500000000
  11
 385.55000000000
  21
 261.27500000000
  72
1
  10
 385.55000000000
  20
 261.27500000000
  11
 374.75000000000
  21
 261.27500000000
  72
1
  10
 374.75000000000
  20
 261.27500000000
  11
 374.75000000000
  21
 268.47500000000
  72
1
  10
 374.75000000000
  20
 268.47500000000
  11
 371.15000000000
  21
 268.47500000000
  72
1
  10
 371.15000000000
  20
 268.47500000000
  11
 371.15000000000
  21
 261.27500000000
  72
1
  10
 371.15000000000
  20
 261.27500000000
  11
 358.55000000000
  21
 261.27500000000
  72
1
  10
 358.55000000000
  20
 261.27500000000
  11
 358.55000000000
  21
 272.07500000000
  97
1
 330

  75
0
  76
1
  98
1
  10
0.0
  20
0.0
   0
HATCH
   5
1F6
 100
AcDbEntity
   8
LEVEL001
  62
1
 100
AcDbHatch
  10
0.0
  20
0.0
  30
0.0
 210
0.0
 220
0.0
 230
 1.0000000000000
   2
SOLID
  70
1
  71
1
  91
1
  92
1
  93
8
  72
1
  10
 396.35000000000
  20
 272.07500000000
  11
 390.95000000000
  21
 272.07500000000
  72
2
  10
 390.95000000000
  20
 266.67500000000
  40
 5.4000000000000
  50
 90.000000000000
  51
 270.00000000000
  73
1
  72
1
  10
 390.95000000000
  20
 261.27500000000
  11
 396.35000000000
  21
 261.27500000000
  72
1
  10
 396.35000000000
  20
 261.27500000000
  11
 396.35000000000
  21
 264.87500000000
  72
1
  10
 396.35000000000
  20
 264.87500000000
  11
 390.95000000000
  21
 264.87500000000
  72
2
  10
 390.95000000000
  20
 266.67500000000
  40
 1.8000000000000
  50
 90.000000000000
  51
 270.00000000000
  73
0
  72
1
  10
 390.95000000000
  20
 268.47500000000
  11
 396.35000000000
  21
 268.47500000000
  72
1
  10
 396.35000000000
  20
 268.47500000000
  11
 396.35000000000
  21
 272.07500000000
  97
1
 330

  75
0
  76
1
  98
1
  10
0.0
  20
0.0
   0
MTEXT
   5
1F8
 100
AcDbEntity
   8
LEVEL002
 370
15
  62
8
 100
AcDbMText
  10
 310.79999999995
  20
 28.250000000010
  30
0.0
  40
 3.0000000000000
  41
0.0
  71
5
  72
1
   1
\T1.000000;サイズ：
   7
GMM002
  44
 0.79999984000003
   0
MTEXT
   5
1FA
 100
AcDbEntity
   8
LEVEL002
 370
15
  62
8
 100
AcDbMText
  10
 309.29999999995
  20
 48.250000000010
  30
0.0
  40
 3.0000000000000
  41
0.0
  71
5
  72
1
   1
\T1.000000;縮尺：
   7
GMM002
  44
 0.79999984000003
   0
MTEXT
   5
1FC
 100
AcDbEntity
   8
LEVEL002
 370
15
  62
8
 100
AcDbMText
  10
 312.29999999995
  20
 68.250000000010
  30
0.0
  40
 3.0000000000000
  41
0.0
  71
5
  72
1
   1
\T1.000000;図面名称：
   7
GMM002
  44
 0.79999984000003
   0
MTEXT
   5
1FE
 100
AcDbEntity
   8
LEVEL002
 370
15
  62
8
 100
AcDbMText
  10
 363.79999999995
  20
 28.250000000010
  30
0.0
  40
 3.0000000000000
  41
0.0
  71
5
  72
1
   1
\T1.000000;ファイル名：
   7
GMM002
  44
 0.79999984000003
   0
MTEXT
   5
200
 100
AcDbEntity
   8
LEVEL002
 370
15
  62
8
 100
AcDbMText
  10
 362.29999999995
  20
 48.666666666680
  30
0.0
  40
 2.8000000000000
  41
0.0
  71
5
  72
1
   1
\T1.000000;作成日付：
   7
GMM003
  44
 0.79999984000003
   0
MTEXT
   5
202
 100
AcDbEntity
   8
LEVEL002
 370
15
  62
8
 100
AcDbMText
  10
 362.29999999995
  20
 42.000000000010
  30
0.0
  40
 2.8000000000000
  41
0.0
  71
5
  72
1
   1
\T1.000000;変更日付：
   7
GMM003
  44
 0.79999984000003
   0
MTEXT
   5
204
 100
AcDbEntity
   8
LEVEL002
 370
15
  62
8
 100
AcDbMText
  10
 329.49999999995
  20
 18.250000000010
  30
0.0
  40
 3.7500000000000
  41
0.0
  71
5
  72
1
   1
\T1.000000;Ａ３
   7
GMM002
  44
 0.79999984000003
   0
MTEXT
   5
206
 100
AcDbEntity
   8
LEVEL002
 370
15
  62
8
 100
AcDbMText
  10
 309.29999999995
  20
 213.00000000000
  30
0.0
  40
 3.0000000000000
  41
0.0
  71
5
  72
1
   1
\T1.000000;仕様：
   7
GMM002
  44
 0.79999984000003
   0
MTEXT
   5
208
 100
AcDbEntity
   8
LEVEL002
 370
15
  62
8
 100
AcDbMText
  10
 309.29999999995
  20
 233.00000000000
  30
0.0
  40
 3.0000000000000
  41
0.0
  71
5
  72
1
   1
\T1.000000;形式：
   7
GMM002
  44
 0.79999984000003
   0
MTEXT
   5
20A
 100
AcDbEntity
   8
LEVEL002
 370
15
  62
8
 100
AcDbMText
  10
 310.79999999995
  20
 253.00000000000
  30
0.0
  40
 3.0000000000000
  41
0.0
  71
5
  72
1
   1
\T1.000000;商品名：
   7
GMM002
  44
 0.79999984000003
   0
MTEXT
   5
20C
 100
AcDbEntity
   8
LEVEL002
 370
15
  62
8
 100
AcDbMText
  10
 346.89999999995
  20
 76.870803459012
  30
0.0
  40
 4.0000000000000
  41
0.0
  71
5
  72
1
   1
\T1.000000;　※本製品は予告無しに変更する事があります。
   7
GMM002
  44
 0.79999984000003
   0
MTEXT
   5
20E
 100
AcDbEntity
   8
LEVEL002
 370
15
  62
8
 100
AcDbMText
  10
 354.49999999995
  20
 58.250000000010
  30
0.0
  40
 3.7500000000000
  41
0.0
  71
5
  72
1
   1
\T1.000000;断面図
   7
GMM002
  44
 0.79999984000003
   0
MTEXT
   5
210
 100
AcDbEntity
   8
LEVEL002
 370
15
  62
8
 100
AcDbMText
  10
 329.49999999995
  20
 38.250000000010
  30
0.0
  40
 3.7500000000000
  41
0.0
  71
5
  72
1
   1
\T1.000000;Ｓ＝１：１
   7
GMM002
  44
 0.79999984000003
   0
MTEXT
   5
212
 100
AcDbEntity
   8
LEVEL002
 370
15
  62
8
 100
AcDbMText
  10
 322.49999999995
  20
 244.50000000000
  30
0.0
  40
 4.5000000000000
  41
0.0
  71
7
  72
1
   1
\W0.888889;\T1.000000;　フロアー金具\W0.444444;\T1.000000;(\W0.888889;\T1.000000;アルミタイプ\W0.444444;\T1.000000;)
   7
GMM004
  44
 0.79999984000003
   0
MTEXT
   5
214
 100
AcDbEntity
   8
LEVEL002
 370
15
  62
8
 100
AcDbMText
  10
 319.49999999995
  20
 207.91666666670
  30
0.0
  40
 3.5000000000000
  41
0.0
  71
1
  72
1
   1
{\W0.500000;\T1.000000;･\W1.000000;\T1.000000;材質：Ａ６０６３Ｓ－Ｔ５}\P\P{\W1.000000;\T1.000000;※仕上げ・定尺は各種参照}
   7
GMM002
  44
 0.79999984000003
   0
MTEXT
   5
216
 100
AcDbEntity
   8
LEVEL002
 370
15
  62
8
 100
AcDbMText
  10
 387.21508456075
  20
 42.000000000010
  30
0.0
  40
 3.0000000000000
  41
0.0
  71
5
  72
1
   1
\T1.000000;令和　　年　　月　　日
   7
GMM002
  44
 0.79999984000003
   0
MTEXT
   5
218
 100
AcDbEntity
   8
LEVEL002
 370
15
  62
8
 100
AcDbMText
  10
 387.21508456075
  20
 35.333333333345
  30
0.0
  40
 3.0000000000000
  41
0.0
  71
5
  72
1
   1
\T1.000000;令和　　年　　月　　日
   7
GMM002
  44
 0.79999984000003
   0
MTEXT
   5
21A
 100
AcDbEntity
   8
LEVEL002
 370
15
  62
8
 100
AcDbMText
  10
 387.21508456075
  20
 48.666666666680
  30
0.0
  40
 3.0000000000000
  41
0.0
  71
5
  72
1
   1
\T1.000000;令和０５年０３月３０日
   7
GMM002
  44
 0.79999984000003
   0
MTEXT
   5
21C
 100
AcDbEntity
   8
LEVEL002
 370
15
  62
8
 100
AcDbMText
  10
 51.624999999950
  20
 280.00000000000
  30
0.0
  40
 3.0000000000000
  41
0.0
  71
5
  72
1
   1
\T1.000000;ＡＭ３１０
   7
GMM002
  44
 0.79999984000003
   0
MTEXT
   5
21E
 100
AcDbEntity
   8
LEVEL002
 370
15
  62
8
 100
AcDbMText
  10
 123.87499999995
  20
 280.00000000000
  30
0.0
  40
 3.0000000000000
  41
0.0
  71
5
  72
1
   1
\T1.000000;ＡＭ６１０
   7
GMM002
  44
 0.79999984000003
   0
MTEXT
   5
220
 100
AcDbEntity
   8
LEVEL002
 370
15
  62
8
 100
AcDbMText
  10
 196.12499999995
  20
 280.00000000000
  30
0.0
  40
 3.0000000000000
  41
0.0
  71
5
  72
1
   1
\T1.000000;ＡＭ９１１
   7
GMM002
  44
 0.79999984000003
   0
MTEXT
   5
222
 100
AcDbEntity
   8
LEVEL001
 370
15
  62
8
 100
AcDbMText
  10
 15.799999999950
  20
 280.00000000000
  30
0.0
  40
 3.0000000000000
  41
0.0
  71
4
  72
1
   1
\W0.500000;\T1.000000; \W1.000000;\T1.000000;角切目地
   7
GMM002
  44
 0.79999984000003
   0
MTEXT
   5
224
 100
AcDbEntity
   8
LEVEL001
 370
15
  62
8
 100
AcDbMText
  10
 88.049999999950
  20
 280.00000000000
  30
0.0
  40
 3.0000000000000
  41
0.0
  71
4
  72
1
   1
\W0.500000;\T1.000000; \W1.000000;\T1.000000;角切目地
   7
GMM002
  44
 0.79999984000003
   0
MTEXT
   5
226
 100
AcDbEntity
   8
LEVEL001
 370
15
  62
8
 100
AcDbMText
  10
 160.29999999995
  20
 280.00000000000
  30
0.0
  40
 3.0000000000000
  41
0.0
  71
4
  72
1
   1
\W0.500000;\T1.000000; \W1.000000;\T1.000000;角切目地
   7
GMM002
  44
 0.79999984000003
   0
LINE
   5
227
 100
AcDbEntity
   8
LEVEL002
 370
30
 100
AcDbLine
   6
CONTINUOUS
  62
7
  10
 128.17699999995
  20
 232.93304945453
  30
0.0
  11
 127.87549999995
  21
 233.13354945453
  31
0.0
   0
LINE
   5
228
 100
AcDbEntity
   8
LEVEL002
 370
30
 100
AcDbLine
   6
CONTINUOUS
  62
7
  10
 127.87549999995
  20
 233.13354945453
  30
0.0
  11
 127.57889999995
  21
 232.93304945453
  31
0.0
   0
LINE
   5
229
 100
AcDbEntity
   8
LEVEL002
 370
30
 100
AcDbLine
   6
CONTINUOUS
  62
7
  10
 122.86499999995
  20
 238.93304945453
  30
0.0
  11
 132.87499999995
  21
 238.93304945453
  31
0.0
   0
LINE
   5
22A
 100
AcDbEntity
   8
LEVEL002
 370
30
 100
AcDbLine
   6
CONTINUOUS
  62
7
  10
 132.87499999995
  20
 238.93304945453
  30
0.0
  11
 132.87499999995
  21
 232.93304945453
  31
0.0
   0
LINE
   5
22B
 100
AcDbEntity
   8
LEVEL002
 370
30
 100
AcDbLine
   6
CONTINUOUS
  62
7
  10
 132.87499999995
  20
 232.93304945453
  30
0.0
  11
 128.17699999995
  21
 232.93304945453
  31
0.0
   0
LINE
   5
22C
 100
AcDbEntity
   8
LEVEL002
 370
30
 100
AcDbLine
   6
CONTINUOUS
  62
7
  10
 114.87499999995
  20
 235.27702826065
  30
0.0
  11
 122.86499999995
  21
 238.93304945453
  31
0.0
   0
LINE
   5
22D
 100
AcDbEntity
   8
LEVEL002
 370
30
 100
AcDbLine
   6
CONTINUOUS
  62
7
  10
 127.57889999995
  20
 232.93304945453
  30
0.0
  11
 114.87499999995
  21
 232.93304945453
  31
0.0
   0
LINE
   5
22E
 100
AcDbEntity
   8
LEVEL001
 370
30
 100
AcDbLine
   6
CONTINUOUS
  62
7
  10
 114.87499999995
  20
 235.27702826065
  30
0.0
  11
 114.87499999995
  21
 232.93304945453
  31
0.0
   0
LWPOLYLINE
   5
22F
 100
AcDbEntity
   8
LEVEL001
 370
30
   6
CONTINUOUS
  62
7
 100
AcDbPolyline
  90
4
  70
1
  10
 58.894819143444
  20
 232.93304945453
  10
 44.894819143444
  20
 232.93304945453
  10
 48.894819143444
  20
 235.93304945453
  10
 58.894819143444
  20
 235.93304945453
   0
LINE
   5
230
 100
AcDbEntity
   8
LEVEL002
 370
30
 100
AcDbLine
   6
CONTINUOUS
  62
7
  10
 185.12274999995
  20
 232.93304945453
  30
0.0
  11
 185.12274999995
  21
 235.73324945453
  31
0.0
   0
LINE
   5
231
 100
AcDbEntity
   8
LEVEL002
 370
30
 100
AcDbLine
   6
CONTINUOUS
  62
7
  10
 207.12724999995
  20
 242.43604945453
  30
0.0
  11
 207.12724999995
  21
 232.93304945453
  31
0.0
   0
LINE
   5
232
 100
AcDbEntity
   8
LEVEL002
 370
30
 100
AcDbLine
   6
CONTINUOUS
  62
7
  10
 207.12724999995
  20
 232.93304945453
  30
0.0
  11
 202.11994999995
  21
 232.93304945453
  31
0.0
   0
LINE
   5
233
 100
AcDbEntity
   8
LEVEL002
 370
30
 100
AcDbLine
   6
CONTINUOUS
  62
7
  10
 202.11994999995
  20
 232.93304945453
  30
0.0
  11
 201.81854999995
  21
 233.13354945453
  31
0.0
   0
LINE
   5
234
 100
AcDbEntity
   8
LEVEL002
 370
30
 100
AcDbLine
   6
CONTINUOUS
  62
7
  10
 201.81854999995
  20
 233.13354945453
  30
0.0
  11
 201.45284999995
  21
 232.93304945453
  31
0.0
   0
LINE
   5
235
 100
AcDbEntity
   8
LEVEL002
 370
30
 100
AcDbLine
   6
CONTINUOUS
  62
7
  10
 201.45284999995
  20
 232.93304945453
  30
0.0
  11
 185.12274999995
  21
 232.93304945453
  31
0.0
   0
LINE
   5
236
 100
AcDbEntity
   8
LEVEL002
 370
30
 100
AcDbLine
   6
CONTINUOUS
  62
7
  10
 196.12724999995
  20
 242.43604945453
  30
0.0
  11
 207.12724999995
  21
 242.43604945453
  31
0.0
   0
LINE
   5
237
 100
AcDbEntity
   8
LEVEL001
 370
30
 100
AcDbLine
   6
CONTINUOUS
  62
7
  10
 185.12274999995
  20
 235.73324945453
  30
0.0
  11
 196.12724999995
  21
 242.43604945453
  31
0.0
   0
DIMENSION
   5
238
 100
AcDbEntity
   8
LEVEL001
 370
15
   6
CONTINUOUS
  62
8
 100
AcDbDimension
   2
*D1
  10
 139.21711992188
  20
 238.93304945453
  30
0.0
  11
 139.21711992188
  21
 235.93304945453
  31
0.0
  70
0
   3
GMM001
 100
AcDbAlignedDimension
  13
 132.87499999995
  23
 232.93304945453
  33
0.0
  14
 132.57294321501
  24
 238.93304945453
  34
0.0
  50
 90.000000000000
 100
AcDbRotatedDimension
   0
DIMENSION
   5
239
 100
AcDbEntity
   8
LEVEL001
 370
15
   6
CONTINUOUS
  62
8
 100
AcDbDimension
   2
*D2
  10
 111.26689928607
  20
 235.27702826065
  30
0.0
  11
 111.26689928607
  21
 234.10503885759
  31
0.0
  70
0
   1
\A1;2.5
   3
GMM001
 100
AcDbAlignedDimension
  13
 114.88339999995
  23
 232.93304945453
  33
0.0
  14
 114.89099999995
  24
 235.27702826065
  34
0.0
  50
 90.000000000000
 100
AcDbRotatedDimension
   0
DIMENSION
   5
23A
 100
AcDbEntity
   8
LEVEL001
 370
15
   6
CONTINUOUS
  62
8
 100
AcDbDimension
   2
*D3
  10
 132.87499999995
  20
 244.97154945453
  30
0.0
  11
 127.86999999995
  21
 244.97154945453
  31
0.0
  70
0
   1
\A1;10
   3
GMM001
 100
AcDbAlignedDimension
  13
 122.86499999995
  23
 238.93304945453
  33
0.0
  14
 132.87499999995
  24
 238.93304945453
  34
0.0
 100
AcDbRotatedDimension
   0
DIMENSION
   5
23B
 100
AcDbEntity
   8
LEVEL001
 370
15
   6
CONTINUOUS
  62
8
 100
AcDbDimension
   2
*D4
  10
 132.87499999995
  20
 226.74011447109
  30
0.0
  11
 123.87499999995
  21
 226.74011447109
  31
0.0
  70
0
   3
GMM001
 100
AcDbAlignedDimension
  13
 114.87499999995
  23
 232.93304945453
  33
0.0
  14
 132.87499999995
  24
 232.93304945453
  34
0.0
 100
AcDbRotatedDimension
   0
DIMENSION
   5
23C
 100
AcDbEntity
   8
LEVEL001
 370
15
   6
CONTINUOUS
  62
8
 100
AcDbDimension
   2
*D5
  10
 58.894819143444
  20
 226.74011447109
  30
0.0
  11
 51.894819143444
  21
 226.74011447109
  31
0.0
  70
0
   3
GMM001
 100
AcDbAlignedDimension
  13
 44.894819143444
  23
 232.93304945453
  33
0.0
  14
 58.894819143444
  24
 232.70006128885
  34
0.0
 100
AcDbRotatedDimension
   0
DIMENSION
   5
23D
 100
AcDbEntity
   8
LEVEL001
 370
15
   6
CONTINUOUS
  62
8
 100
AcDbDimension
   2
*D6
  10
 58.894819143444
  20
 240.15019925476
  30
0.0
  11
 53.894819143444
  21
 240.15019925476
  31
0.0
  70
0
   3
GMM001
 100
AcDbAlignedDimension
  13
 48.894819143444
  23
 235.93304945453
  33
0.0
  14
 58.894819143444
  24
 235.93304945453
  34
0.0
 100
AcDbRotatedDimension
   0
DIMENSION
   5
23E
 100
AcDbEntity
   8
LEVEL001
 370
15
   6
CONTINUOUS
  62
8
 100
AcDbDimension
   2
*D7
  10
 64.601271992779
  20
 232.93304945453
  30
0.0
  11
 64.601271992779
  21
 234.43304945453
  31
0.0
  70
0
   3
GMM001
 100
AcDbAlignedDimension
  13
 58.894819143444
  23
 235.93304945453
  33
0.0
  14
 58.894819143444
  24
 232.93304945453
  34
0.0
  50
 270.00000000000
 100
AcDbRotatedDimension
   0
DIMENSION
   5
23F
 100
AcDbEntity
   8
LEVEL001
 370
15
   6
CONTINUOUS
  62
8
 100
AcDbDimension
   2
*D8
  10
 207.12724999995
  20
 247.97634829541
  30
0.0
  11
 201.62724999995
  21
 247.97634829541
  31
0.0
  70
0
   3
GMM001
 100
AcDbAlignedDimension
  13
 196.12724999995
  23
 242.43604945453
  33
0.0
  14
 207.12724999995
  24
 242.43604945453
  34
0.0
 100
AcDbRotatedDimension
   0
DIMENSION
   5
240
 100
AcDbEntity
   8
LEVEL001
 370
15
   6
CONTINUOUS
  62
8
 100
AcDbDimension
   2
*D9
  10
 181.72120475949
  20
 235.73324945453
  30
0.0
  11
 181.72120475949
  21
 234.33314945453
  31
0.0
  70
0
   1
\A1;2.8
   3
GMM001
 100
AcDbAlignedDimension
  13
 185.12274999995
  23
 232.93304945453
  33
0.0
  14
 185.12274999995
  24
 235.73324945453
  34
0.0
  50
 90.000000000000
 100
AcDbRotatedDimension
   0
DIMENSION
   5
241
 100
AcDbEntity
   8
LEVEL001
 370
15
   6
CONTINUOUS
  62
8
 100
AcDbDimension
   2
*D10
  10
 213.27973517766
  20
 232.93304945453
  30
0.0
  11
 213.27973517766
  21
 237.68454945453
  31
0.0
  70
0
   1
\A1;9.5
   3
GMM001
 100
AcDbAlignedDimension
  13
 207.12724999995
  23
 242.43604945453
  33
0.0
  14
 207.12724999995
  24
 232.93304945453
  34
0.0
  50
 270.00000000000
 100
AcDbRotatedDimension
   0
DIMENSION
   5
242
 100
AcDbEntity
   8
LEVEL001
 370
15
   6
CONTINUOUS
  62
8
 100
AcDbDimension
   2
*D11
  10
 207.12724999995
  20
 226.74011447109
  30
0.0
  11
 196.12499999995
  21
 226.74011447109
  31
0.0
  70
0
   1
\A1;22
   3
GMM001
 100
AcDbAlignedDimension
  13
 185.12274999995
  23
 232.93304945453
  33
0.0
  14
 207.12724999995
  24
 232.93304945453
  34
0.0
 100
AcDbRotatedDimension
   0
MTEXT
   5
244
 100
AcDbEntity
   8
LEVEL002
 370
15
  62
8
 100
AcDbMText
  10
 379.49999999995
  20
 20.083333333345
  30
0.0
  40
 2.5000000000000
  41
0.0
  71
5
  72
1
   1
\T1.000000;フロアー金具アルミ－３
   7
GMM002
  44
 0.79999984000003
   0
MTEXT
   5
246
 100
AcDbEntity
   8
LEVEL002
 370
15
  62
8
 100
AcDbMText
  10
 17.999999999950
  20
 273.16666666670
  30
0.0
  40
 2.0000000000000
  41
0.0
  71
1
  72
1
   3
{\W0.500000;\T1.000000;･\W1.000000;\T1.000000;定尺：４０００\W0.500000;\T1.000000;m/m}\P{\W0.500000;\T1.000000;･\W1.000000;\T1.000000;材質：Ａ６０６３Ｓ－Ｔ５}\P{\W0.500000;\T1.000000;･\W1.000000;\T1.000000;仕上：Ｂ２シルバー}\P{\W1.000000;\T1.000000
   1
;　　　（穴なし・穴付）\W0.500000;\T1.000000; \W1.000000;\T1.000000;穴サイズ：下穴%%c４／皿%%c８}\P\P{\W0.500000;\T1.000000;･\W1.000000;\T1.000000;長尺シート用}
   7
GMM002
  44
 0.79999984000003
   0
MTEXT
   5
248
 100
AcDbEntity
   8
LEVEL002
 370
15
  62
8
 100
AcDbMText
  10
 90.249999999950
  20
 273.16666666670
  30
0.0
  40
 2.0000000000000
  41
0.0
  71
1
  72
1
   3
{\W0.500000;\T1.000000;･\W1.000000;\T1.000000;定尺：４０００\W0.500000;\T1.000000;m/m}\P{\W0.500000;\T1.000000;･\W1.000000;\T1.000000;材質：Ａ６０６３Ｓ－Ｔ５}\P{\W0.500000;\T1.000000;･\W1.000000;\T1.000000;仕上：Ｂ２シルバー}\P{\W1.000000;\T1.000000
   1
;　　　（穴なし・穴付）\W0.500000;\T1.000000; \W1.000000;\T1.000000;穴サイズ：下穴%%c４／皿%%c８}\P\P{\W0.500000;\T1.000000;･\W1.000000;\T1.000000;パンチカーペット}\P{\W0.500000;\T1.000000; \W1.000000;\T1.000000;タイルカーペット用}
   7
GMM002
  44
 0.79999984000003
   0
MTEXT
   5
24A
 100
AcDbEntity
   8
LEVEL002
 370
15
  62
8
 100
AcDbMText
  10
 164.95832612368
  20
 273.16666666670
  30
0.0
  40
 2.0000000000000
  41
0.0
  71
1
  72
1
   3
{\W0.500000;\T1.000000;･\W1.000000;\T1.000000;定尺：４０００\W0.500000;\T1.000000;m/m}\P{\W0.500000;\T1.000000;･\W1.000000;\T1.000000;材質：Ａ６０６３Ｓ－Ｔ５}\P{\W0.500000;\T1.000000;･\W1.000000;\T1.000000;仕上：Ｂ２シルバー}\P{\W1.000000;\T1.000000
   3
;　　　（穴なし・穴付）\W0.500000;\T1.000000; \W1.000000;\T1.000000;穴サイズ：下穴%%c４／皿%%c８}\P\P{\W0.500000;\T1.000000;･\W1.000000;\T1.000000;パンチカーペット\W0.500000;\T1.000000;/\W1.000000;\T1.000000;タイルカーペット用}\P{\W0.500000;\T1.00000
   1
0; \W1.000000;\T1.000000;フローリング用}
   7
GMM002
  44
 0.79999984000003
   0
LINE
   5
24B
 100
AcDbEntity
   8
LEVEL001
 370
15
 100
AcDbLine
   6
DASHDOT
  62
8
  10
 51.624999999828
  20
 172.12796036963
  30
0.0
  11
 51.624999999828
  21
 183.12203963047
  31
0.0
   0
LINE
   5
24C
 100
AcDbEntity
   8
LEVEL001
 370
15
 100
AcDbLine
   6
DASHDOT
  62
8
  10
 42.508465283532
  20
 177.62500000005
  30
0.0
  11
 60.741534716125
  21
 177.62500000005
  31
0.0
   0
LWPOLYLINE
   5
24D
 100
AcDbEntity
   8
LEVEL001
 370
30
   6
CONTINUOUS
  62
7
 100
AcDbPolyline
  90
4
  70
1
  10
 44.124999999828
  20
 176.12500000005
  10
 59.124999999828
  20
 176.12500000005
  10
 59.124999999828
  20
 179.12500000005
  10
 44.124999999828
  20
 179.12500000005
   0
DIMENSION
   5
24E
 100
AcDbEntity
   8
LEVEL001
 370
15
   6
CONTINUOUS
  62
8
 100
AcDbDimension
   2
*D12
  10
 65.774117067367
  20
 179.12500000005
  30
0.0
  11
 65.774117067367
  21
 175.66290710648
  31
0.0
  70
128
   3
GMM002
 100
AcDbAlignedDimension
  13
 59.124999999828
  23
 176.12500000005
  33
0.0
  14
 59.124999999828
  24
 179.12500000005
  34
0.0
  50
 90.000000000000
 100
AcDbRotatedDimension
   0
DIMENSION
   5
24F
 100
AcDbEntity
   8
LEVEL001
 370
15
   6
CONTINUOUS
  62
8
 100
AcDbDimension
   2
*D13
  10
 59.124999999828
  20
 166.05483310702
  30
0.0
  11
 51.624999999828
  21
 166.05483310702
  31
0.0
  70
0
   3
GMM001
 100
AcDbAlignedDimension
  13
 44.124999999828
  23
 176.12500000005
  33
0.0
  14
 59.124999999828
  24
 176.12500000005
  34
0.0
 100
AcDbRotatedDimension
   0
MTEXT
   5
251
 100
AcDbEntity
   8
LEVEL001
 370
15
  62
8
 100
AcDbMText
  10
 15.799999999950
  20
 211.75000000000
  30
0.0
  40
 3.0000000000000
  41
0.0
  71
4
  72
1
   1
\W0.500000;\T1.000000; \W1.000000;\T1.000000;床見切
   7
GMM002
  44
 0.79999984000003
   0
MTEXT
   5
253
 100
AcDbEntity
   8
LEVEL001
 370
15
  62
8
 100
AcDbMText
  10
 88.049999999950
  20
 211.75000000000
  30
0.0
  40
 3.0000000000000
  41
0.0
  71
4
  72
1
   1
\W0.500000;\T1.000000; \W1.000000;\T1.000000;床見切
   7
GMM002
  44
 0.79999984000003
   0
LINE
   5
254
 100
AcDbEntity
   8
LEVEL001
 370
15
 100
AcDbLine
   6
DASHDOT
  62
8
  10
 123.87499999988
  20
 172.12796036963
  30
0.0
  11
 123.87499999988
  21
 183.12203963047
  31
0.0
   0
LWPOLYLINE
   5
255
 100
AcDbEntity
   8
LEVEL001
 370
30
   6
CONTINUOUS
  62
7
 100
AcDbPolyline
  90
4
  70
1
  10
 113.87499999988
  20
 176.12500000005
  10
 133.87499999988
  20
 176.12500000005
  10
 133.87499999988
  20
 179.12500000005
  10
 113.87499999988
  20
 179.12500000005
   0
LINE
   5
256
 100
AcDbEntity
   8
LEVEL001
 370
15
 100
AcDbLine
   6
DASHDOT
  62
8
  10
 112.43662448527
  20
 177.62500000005
  30
0.0
  11
 134.79857739364
  21
 177.62500000005
  31
0.0
   0
DIMENSION
   5
257
 100
AcDbEntity
   8
LEVEL001
 370
15
   6
CONTINUOUS
  62
8
 100
AcDbDimension
   2
*D14
  10
 140.52411706742
  20
 179.12500000005
  30
0.0
  11
 140.52411706742
  21
 175.66290710648
  31
0.0
  70
128
   3
GMM002
 100
AcDbAlignedDimension
  13
 133.87499999988
  23
 176.12500000005
  33
0.0
  14
 133.87499999988
  24
 179.12500000005
  34
0.0
  50
 90.000000000000
 100
AcDbRotatedDimension
   0
DIMENSION
   5
258
 100
AcDbEntity
   8
LEVEL001
 370
15
   6
CONTINUOUS
  62
8
 100
AcDbDimension
   2
*D15
  10
 133.87499999988
  20
 166.05483310702
  30
0.0
  11
 123.87499999988
  21
 166.05483310702
  31
0.0
  70
0
   3
GMM001
 100
AcDbAlignedDimension
  13
 113.87499999988
  23
 176.12500000005
  33
0.0
  14
 133.87499999988
  24
 176.12500000005
  34
0.0
 100
AcDbRotatedDimension
   0
MTEXT
   5
25A
 100
AcDbEntity
   8
LEVEL001
 370
15
  62
8
 100
AcDbMText
  10
 160.29999999995
  20
 211.75000000000
  30
0.0
  40
 3.0000000000000
  41
0.0
  71
4
  72
1
   1
\W0.500000;\T1.000000; \W1.000000;\T1.000000;床見切
   7
GMM002
  44
 0.79999984000003
   0
LINE
   5
25B
 100
AcDbEntity
   8
LEVEL001
 370
15
 100
AcDbLine
   6
DASHDOT
  62
8
  10
 196.12499999988
  20
 172.12796036963
  30
0.0
  11
 196.12499999988
  21
 183.12203963047
  31
0.0
   0
LWPOLYLINE
   5
25C
 100
AcDbEntity
   8
LEVEL001
 370
30
   6
CONTINUOUS
  62
7
 100
AcDbPolyline
  90
4
  70
1
  10
 183.62499999988
  20
 176.12500000005
  10
 208.62499999988
  20
 176.12500000005
  10
 208.62499999988
  20
 179.12500000005
  10
 183.62499999988
  20
 179.12500000005
   0
DIMENSION
   5
25D
 100
AcDbEntity
   8
LEVEL001
 370
15
   6
CONTINUOUS
  62
8
 100
AcDbDimension
   2
*D16
  10
 208.62499999988
  20
 166.05483310702
  30
0.0
  11
 196.12499999988
  21
 166.05483310702
  31
0.0
  70
0
   3
GMM001
 100
AcDbAlignedDimension
  13
 183.62499999988
  23
 176.12500000005
  33
0.0
  14
 208.62499999988
  24
 176.12500000005
  34
0.0
 100
AcDbRotatedDimension
   0
LINE
   5
25E
 100
AcDbEntity
   8
LEVEL001
 370
15
 100
AcDbLine
   6
DASHDOT
  62
8
  10
 181.72772770134
  20
 177.62500000005
  30
0.0
  11
 210.20246358467
  21
 177.62500000005
  31
0.0
   0
DIMENSION
   5
25F
 100
AcDbEntity
   8
LEVEL001
 370
15
   6
CONTINUOUS
  62
8
 100
AcDbDimension
   2
*D17
  10
 215.27411706742
  20
 179.12500000005
  30
0.0
  11
 215.27411706742
  21
 175.66290710648
  31
0.0
  70
128
   3
GMM002
 100
AcDbAlignedDimension
  13
 208.62499999988
  23
 176.12500000005
  33
0.0
  14
 208.62499999988
  24
 179.12500000005
  34
0.0
  50
 90.000000000000
 100
AcDbRotatedDimension
   0
MTEXT
   5
261
 100
AcDbEntity
   8
LEVEL001
 370
15
  62
8
 100
AcDbMText
  10
 232.54999999995
  20
 211.75000000000
  30
0.0
  40
 3.0000000000000
  41
0.0
  71
4
  72
1
   1
\W0.500000;\T1.000000; \W1.000000;\T1.000000;床見切
   7
GMM002
  44
 0.79999984000003
   0
LINE
   5
262
 100
AcDbEntity
   8
LEVEL001
 370
15
 100
AcDbLine
   6
DASHDOT
  62
8
  10
 268.37499999988
  20
 172.12796036963
  30
0.0
  11
 268.37499999988
  21
 183.12203963047
  31
0.0
   0
LWPOLYLINE
   5
263
 100
AcDbEntity
   8
LEVEL001
 370
30
   6
CONTINUOUS
  62
7
 100
AcDbPolyline
  90
4
  70
1
  10
 253.37499999988
  20
 176.12500000005
  10
 283.37499999988
  20
 176.12500000005
  10
 283.37499999988
  20
 179.12500000005
  10
 253.37499999988
  20
 179.12500000005
   0
LINE
   5
264
 100
AcDbEntity
   8
LEVEL001
 370
15
 100
AcDbLine
   6
DASHDOT
  62
8
  10
 251.41229422500
  20
 177.62500000005
  30
0.0
  11
 285.30342008613
  21
 177.62500000005
  31
0.0
   0
DIMENSION
   5
265
 100
AcDbEntity
   8
LEVEL001
 370
15
   6
CONTINUOUS
  62
8
 100
AcDbDimension
   2
*D18
  10
 283.37499999988
  20
 166.05483310702
  30
0.0
  11
 268.37499999988
  21
 166.05483310702
  31
0.0
  70
0
   3
GMM001
 100
AcDbAlignedDimension
  13
 253.37499999988
  23
 176.12500000005
  33
0.0
  14
 283.37499999988
  24
 176.12500000005
  34
0.0
 100
AcDbRotatedDimension
   0
DIMENSION
   5
266
 100
AcDbEntity
   8
LEVEL001
 370
15
   6
CONTINUOUS
  62
8
 100
AcDbDimension
   2
*D19
  10
 290.02411706742
  20
 179.12500000005
  30
0.0
  11
 290.02411706742
  21
 175.66290710648
  31
0.0
  70
128
   3
GMM002
 100
AcDbAlignedDimension
  13
 283.37499999988
  23
 176.12500000005
  33
0.0
  14
 283.37499999988
  24
 179.12500000005
  34
0.0
  50
 90.000000000000
 100
AcDbRotatedDimension
   0
MTEXT
   5
268
 100
AcDbEntity
   8
LEVEL002
 370
15
  62
8
 100
AcDbMText
  10
 51.624999999950
  20
 211.75000000000
  30
0.0
  40
 3.0000000000000
  41
0.0
  71
5
  72
1
   1
\T1.000000;Ａ３１５
   7
GMM002
  44
 0.79999984000003
   0
MTEXT
   5
26A
 100
AcDbEntity
   8
LEVEL002
 370
15
  62
8
 100
AcDbMText
  10
 123.87499999995
  20
 211.75000000000
  30
0.0
  40
 3.0000000000000
  41
0.0
  71
5
  72
1
   1
\T1.000000;Ａ３２０
   7
GMM002
  44
 0.79999984000003
   0
MTEXT
   5
26C
 100
AcDbEntity
   8
LEVEL002
 370
15
  62
8
 100
AcDbMText
  10
 196.12499999995
  20
 211.75000000000
  30
0.0
  40
 3.0000000000000
  41
0.0
  71
5
  72
1
   1
\T1.000000;Ａ３２５
   7
GMM002
  44
 0.79999984000003
   0
MTEXT
   5
26E
 100
AcDbEntity
   8
LEVEL002
 370
15
  62
8
 100
AcDbMText
  10
 268.37499999995
  20
 211.75000000000
  30
0.0
  40
 3.0000000000000
  41
0.0
  71
5
  72
1
   1
\T1.000000;Ａ３３０
   7
GMM002
  44
 0.79999984000003
   0
MTEXT
   5
270
 100
AcDbEntity
   8
LEVEL002
 370
15
  62
8
 100
AcDbMText
  10
 17.999999999950
  20
 204.91666666670
  30
0.0
  40
 2.0000000000000
  41
0.0
  71
1
  72
1
   3
{\W0.500000;\T1.000000;･\W1.000000;\T1.000000;定尺：４０００\W0.500000;\T1.000000;m/m}\P{\W0.500000;\T1.000000;･\W1.000000;\T1.000000;材質：Ａ６０６３Ｓ－Ｔ５}\P{\W0.500000;\T1.000000;･\W1.000000;\T1.000000;仕上：Ｂ２シルバー}\P{\W1.000000;\T1.000000
   1
;　　　（穴なし・穴付）\W0.500000;\T1.000000; \W1.000000;\T1.000000;穴サイズ：下穴%%c４皿%%c８}\P\P{\W0.500000;\T1.000000;･\W1.000000;\T1.000000;長尺シート用}
   7
GMM002
  44
 0.79999984000003
   0
MTEXT
   5
272
 100
AcDbEntity
   8
LEVEL002
 370
15
  62
8
 100
AcDbMText
  10
 90.249999999950
  20
 204.91666666670
  30
0.0
  40
 2.0000000000000
  41
0.0
  71
1
  72
1
   3
{\W0.500000;\T1.000000;･\W1.000000;\T1.000000;定尺：４０００\W0.500000;\T1.000000;m/m}\P{\W0.500000;\T1.000000;･\W1.000000;\T1.000000;材質：Ａ６０６３Ｓ－Ｔ５}\P{\W0.500000;\T1.000000;･\W1.000000;\T1.000000;仕上：Ｂ２シルバー}\P{\W1.000000;\T1.000000
   1
;　　　（穴なし・穴付）\W0.500000;\T1.000000; \W1.000000;\T1.000000;穴サイズ：下穴%%c４皿%%c８}\P\P{\W0.500000;\T1.000000;･\W1.000000;\T1.000000;長尺シート用}
   7
GMM002
  44
 0.79999984000003
   0
MTEXT
   5
274
 100
AcDbEntity
   8
LEVEL002
 370
15
  62
8
 100
AcDbMText
  10
 162.49999999995
  20
 204.91666666670
  30
0.0
  40
 2.0000000000000
  41
0.0
  71
1
  72
1
   3
{\W0.500000;\T1.000000;･\W1.000000;\T1.000000;定尺：４０００\W0.500000;\T1.000000;m/m}\P{\W0.500000;\T1.000000;･\W1.000000;\T1.000000;材質：Ａ６０６３Ｓ－Ｔ５}\P{\W0.500000;\T1.000000;･\W1.000000;\T1.000000;仕上：Ｂ２シルバー}\P{\W1.000000;\T1.000000
   1
;　　　（穴なし・穴付）\W0.500000;\T1.000000; \W1.000000;\T1.000000;穴サイズ：下穴%%c４皿%%c８}\P\P{\W0.500000;\T1.000000;･\W1.000000;\T1.000000;長尺シート用}
   7
GMM002
  44
 0.79999984000003
   0
MTEXT
   5
276
 100
AcDbEntity
   8
LEVEL002
 370
15
  62
8
 100
AcDbMText
  10
 234.74999999995
  20
 204.91666666670
  30
0.0
  40
 2.0000000000000
  41
0.0
  71
1
  72
1
   3
{\W0.500000;\T1.000000;･\W1.000000;\T1.000000;定尺：４０００\W0.500000;\T1.000000;m/m}\P{\W0.500000;\T1.000000;･\W1.000000;\T1.000000;材質：Ａ６０６３Ｓ－Ｔ５}\P{\W0.500000;\T1.000000;･\W1.000000;\T1.000000;仕上：Ｂ２シルバー}\P{\W1.000000;\T1.000000
   1
;　　　（穴なし・穴付）\W0.500000;\T1.000000; \W1.000000;\T1.000000;穴サイズ：下穴%%c４皿%%c８}\P\P{\W0.500000;\T1.000000;･\W1.000000;\T1.000000;長尺シート用}
   7
GMM002
  44
 0.79999984000003
   0
MTEXT
   5
278
 100
AcDbEntity
   8
LEVEL002
 370
15
  62
8
 100
AcDbMText
  10
 354.49999999995
  20
 227.86325301205
  30
0.0
  40
 4.0000000000000
  41
0.0
  71
5
  72
1
   1
\T1.000000;アルミ③
   7
GMM002
  44
 0.79999984000003
   0
MTEXT
   5
27A
 100
AcDbEntity
   8
LEVEL002
 370
15
  62
8
 100
AcDbMText
  10
 354.49999999995
  20
 222.52991967871
  30
0.0
  40
 3.0000000000000
  41
0.0
  71
5
  72
1
   1
\T1.000000;（角切目地、床見切）
   7
GMM002
  44
 0.79999984000003
   0
ENDSEC
  0
SECTION
  2
OBJECTS
  0
DICTIONARY
  5
C
100
AcDbDictionary
  3
ACAD_GROUP
350
D
  3
ACAD_MLINESTYLE
350
1B
  3
DWGPROPS
350
1C
  0
DICTIONARY
  5
D
102
{ACAD_REACTORS
330
C
102
}
100
AcDbDictionary
  0
DICTIONARY
  5
1B
102
{ACAD_REACTORS
330
C
102
}
100
AcDbDictionary
  3
STANDARD
350
1D
  0
MLINESTYLE
  5
1D
102
{ACAD_REACTORS
330
1B
102
}
100
AcDbMlineStyle
  2
STANDARD
 70
     0
  3

 62
   256
 51
90.0
 52
90.0
 71
     2
 49
0.5
 62
   256
  6
BYLAYER
 49
-0.5
 62
   256
  6
BYLAYER
   0
XRECORD
   5
1C
 102
{ACAD_REACTORS
 330
C
 102
}
 330
C
 100
AcDbXrecord
 280
1
   1
DWGPROPS COOKIE
   2
 
   3
 
   4
 
   6
 
   7
00000000.DRW
   8
 
   9

 300
 = 
 301
 = 
 302
 = 
 303
 = 
 304
 = 
 305
 = 
 306
 = 
 307
 = 
 308
 = 
 309
 = 
  40
0.0
  41
 2460114.5000000
  42
 2460114.5000000
   1

  90
10
   0
ENDSEC
   0
EOF
