   0
SECTION
   2
HEADER
   9
$ACADVER
   1
AC1015
   9
$DWGCODEPAGE
   3
ANSI_932
   9
$LIMMIN
  10
0.0
  20
0.0
   9
$LIMMAX
  10
 420.00000000000
  20
 297.00000000000
   9
$EXTMIN
  10
0.0
  20
0.0
  30
0.0
   9
$EXTMAX
  10
 420.00000000000
  20
 297.00000000000
  30
0.0
   9
$LTSCALE
  40
 8.4000000000000
   9
$HANDSEED
   5
37D
   0
ENDSEC
   0
SECTION
   2
TABLES
  0
TABLE
  2
VPORT
  5
8
100
AcDbSymbolTable
 70
     1
  0
VPORT
  5
37C
100
AcDbSymbolTableRecord
100
AcDbViewportTableRecord
  2
*ACTIVE
 70
     0
 10
0.0
 20
0.0
 11
1.0
 21
1.0
  12
 210.00000000000
  22
 148.50000000000
 13
0.0
 23
0.0
 14
1.0
 24
1.0
 15
0.0
 25
0.0
 16
0.0
 26
0.0
 36
1.0
 17
0.0
 27
0.0
 37
0.0
  40
 420.00000000000
  41
 1.4787878787879
 42
50.0
 43
0.0
 44
0.0
 50
0.0
 51
0.0
 71
     0
 72
   100
 73
     1
 74
     1
 75
     0
 76
     0
 77
     0
 78
     0
  0
ENDTAB
  0
TABLE
  2
LTYPE
  5
5
100
AcDbSymbolTable
 70
    25
  0
LTYPE
  5
12
100
AcDbSymbolTableRecord
100
AcDbLinetypeTableRecord
  2
BYBLOCK
 70
     0
  3

 72
    65
 73
     0
 40
0.0
  0
LTYPE
  5
13
100
AcDbSymbolTableRecord
100
AcDbLinetypeTableRecord
  2
BYLAYER
 70
     0
  3

 72
    65
 73
     0
 40
0.0
  0
LTYPE
  5
14
100
AcDbSymbolTableRecord
100
AcDbLinetypeTableRecord
  2
CONTINUOUS
 70
     0
  3
Solid line
 72
    65
 73
     0
 40
0.0
  0
LTYPE
  5
20
100
AcDbSymbolTableRecord
100
AcDbLinetypeTableRecord
  2
BORDER
 70
     0
  3
__ __ . __ __ . __ __ . __ __ . __ __ . __ __ .
 72
    65
 73
     6
 40
1.75
 49
0.5
 74
     0
 49
-0.25
 74
     0
 49
0.5
 74
     0
 49
-0.25
 74
     0
 49
0.0
 74
     0
 49
-0.25
 74
     0
  0
LTYPE
  5
21
100
AcDbSymbolTableRecord
100
AcDbLinetypeTableRecord
  2
BORDER2
 70
     0
  3
__.__.__.__.__.__.__.__.__.__.__.__.__.__.__.__
 72
    65
 73
     6
 40
0.875
 49
0.25
 74
     0
 49
-0.125
 74
     0
 49
0.25
 74
     0
 49
-0.125
 74
     0
 49
0.0
 74
     0
 49
-0.125
 74
     0
  0
LTYPE
  5
22
100
AcDbSymbolTableRecord
100
AcDbLinetypeTableRecord
  2
BORDERX2
 70
     0
  3
____  ____  .  ____  ____  .  ____  ____  .  __
 72
    65
 73
     6
 40
3.5
 49
1.0
 74
     0
 49
-0.5
 74
     0
 49
1.0
 74
     0
 49
-0.5
 74
     0
 49
0.0
 74
     0
 49
-0.5
 74
     0
  0
LTYPE
  5
23
100
AcDbSymbolTableRecord
100
AcDbLinetypeTableRecord
  2
CENTER
 70
     0
  3
____ _ ____ _ ____ _ ____ _ ____ _ ____ _ ____ 
 72
    65
 73
     4
 40
2.0
 49
1.25
 74
     0
 49
-0.25
 74
     0
 49
0.25
 74
     0
 49
-0.25
 74
     0
  0
LTYPE
  5
24
100
AcDbSymbolTableRecord
100
AcDbLinetypeTableRecord
  2
CENTER2
 70
     0
  3
___ _ ___ _ ___ _ ___ _ ___ _ ___ _ ___ _ ___ _
 72
    65
 73
     4
 40
1.125
 49
0.75
 74
     0
 49
-0.125
 74
     0
 49
0.125
 74
     0
 49
-0.125
 74
     0
  0
LTYPE
  5
25
100
AcDbSymbolTableRecord
100
AcDbLinetypeTableRecord
  2
CENTERX2
 70
     0
  3
________  __  ________  __  ________  __  _____
 72
    65
 73
     4
 40
4.0
 49
2.5
 74
     0
 49
-0.5
 74
     0
 49
0.5
 74
     0
 49
-0.5
 74
     0
  0
LTYPE
  5
26
100
AcDbSymbolTableRecord
100
AcDbLinetypeTableRecord
  2
DASHDOT
 70
     0
  3
__ . __ . __ . __ . __ . __ . __ . __ . __ . __
 72
    65
 73
     4
 40
1.0
 49
0.5
 74
     0
 49
-0.25
 74
     0
 49
0.0
 74
     0
 49
-0.25
 74
     0
  0
LTYPE
  5
27
100
AcDbSymbolTableRecord
100
AcDbLinetypeTableRecord
  2
DASHDOT2
 70
     0
  3
_._._._._._._._._._._._._._._._._._._._._._._._
 72
    65
 73
     4
 40
0.5
 49
0.25
 74
     0
 49
-0.125
 74
     0
 49
0.0
 74
     0
 49
-0.125
 74
     0
  0
LTYPE
  5
28
100
AcDbSymbolTableRecord
100
AcDbLinetypeTableRecord
  2
DASHDOTX2
 70
     0
  3
____  .  ____  .  ____  .  ____  .  ____  .  __
 72
    65
 73
     4
 40
2.0
 49
1.0
 74
     0
 49
-0.5
 74
     0
 49
0.0
 74
     0
 49
-0.5
 74
     0
  0
LTYPE
  5
29
100
AcDbSymbolTableRecord
100
AcDbLinetypeTableRecord
  2
DASHED
 70
     0
  3
__ __ __ __ __ __ __ __ __ __ __ __ __ __ __ __
 72
    65
 73
     2
 40
0.75
 49
0.5
 74
     0
 49
-0.25
 74
     0
  0
LTYPE
  5
2A
100
AcDbSymbolTableRecord
100
AcDbLinetypeTableRecord
  2
DASHED2
 70
     0
  3
_ _ _ _ _ _ _ _ _ _ _ _ _ _ _ _ _ _ _ _ _ _ _ _
 72
    65
 73
     2
 40
0.375
 49
0.25
 74
     0
 49
-0.125
 74
     0
  0
LTYPE
  5
2B
100
AcDbSymbolTableRecord
100
AcDbLinetypeTableRecord
  2
DASHEDX2
 70
     0
  3
____  ____  ____  ____  ____  ____  ____  ____ 
 72
    65
 73
     2
 40
1.5
 49
1.0
 74
     0
 49
-0.5
 74
     0
  0
LTYPE
  5
2C
100
AcDbSymbolTableRecord
100
AcDbLinetypeTableRecord
  2
DIVIDE
 70
     0
  3
____ . . ____ . . ____ . . ____ . . ____ . . __
 72
    65
 73
     6
 40
1.25
 49
0.5
 74
     0
 49
-0.25
 74
     0
 49
0.0
 74
     0
 49
-0.25
 74
     0
 49
0.0
 74
     0
 49
-0.25
 74
     0
  0
LTYPE
  5
2D
100
AcDbSymbolTableRecord
100
AcDbLinetypeTableRecord
  2
DIVIDE2
 70
     0
  3
__..__..__..__..__..__..__..__..__..__..__..__.
 72
    65
 73
     6
 40
0.625
 49
0.25
 74
     0
 49
-0.125
 74
     0
 49
0.0
 74
     0
 49
-0.125
 74
     0
 49
0.0
 74
     0
 49
-0.125
 74
     0
  0
LTYPE
  5
2E
100
AcDbSymbolTableRecord
100
AcDbLinetypeTableRecord
  2
DIVIDEX2
 70
     0
  3
________  .  .  ________  .  .  ________  .  . 
 72
    65
 73
     6
 40
2.5
 49
1.0
 74
     0
 49
-0.5
 74
     0
 49
0.0
 74
     0
 49
-0.5
 74
     0
 49
0.0
 74
     0
 49
-0.5
 74
     0
  0
LTYPE
  5
2F
100
AcDbSymbolTableRecord
100
AcDbLinetypeTableRecord
  2
DOT
 70
     0
  3
. . . . . . . . . . . . . . . . . . . . . . . .
 72
    65
 73
     2
 40
0.25
 49
0.0
 74
     0
 49
-0.25
 74
     0
  0
LTYPE
  5
30
100
AcDbSymbolTableRecord
100
AcDbLinetypeTableRecord
  2
DOT2
 70
     0
  3
...............................................
 72
    65
 73
     2
 40
0.125
 49
0.0
 74
     0
 49
-0.125
 74
     0
  0
LTYPE
  5
31
100
AcDbSymbolTableRecord
100
AcDbLinetypeTableRecord
  2
DOTX2
 70
     0
  3
.  .  .  .  .  .  .  .  .  .  .  .  .  .  .  . 
 72
    65
 73
     2
 40
0.5
 49
0.0
 74
     0
 49
-0.5
 74
     0
  0
LTYPE
  5
32
100
AcDbSymbolTableRecord
100
AcDbLinetypeTableRecord
  2
HIDDEN
 70
     0
  3
__ __ __ __ __ __ __ __ __ __ __ __ __ __ __ __
 72
    65
 73
     2
 40
0.375
 49
0.25
 74
     0
 49
-0.125
 74
     0
  0
LTYPE
  5
33
100
AcDbSymbolTableRecord
100
AcDbLinetypeTableRecord
  2
HIDDEN2
 70
     0
  3
_ _ _ _ _ _ _ _ _ _ _ _ _ _ _ _ _ _ _ _ _ _ _ _
 72
    65
 73
     2
 40
0.1875
 49
0.125
 74
     0
 49
-0.0625
 74
     0
  0
LTYPE
  5
34
100
AcDbSymbolTableRecord
100
AcDbLinetypeTableRecord
  2
HIDDENX2
 70
     0
  3
____ ____ ____ ____ ____ ____ ____ ____ ____ __
 72
    65
 73
     2
 40
0.75
 49
0.5
 74
     0
 49
-0.25
 74
     0
  0
LTYPE
  5
35
100
AcDbSymbolTableRecord
100
AcDbLinetypeTableRecord
  2
PHANTOM
 70
     0
  3
______  __  __  ______  __  __  ______  __  __ 
 72
    65
 73
     6
 40
2.5
 49
1.25
 74
     0
 49
-0.25
 74
     0
 49
0.25
 74
     0
 49
-0.25
 74
     0
 49
0.25
 74
     0
 49
-0.25
 74
     0
  0
LTYPE
  5
36
100
AcDbSymbolTableRecord
100
AcDbLinetypeTableRecord
  2
PHANTOM2
 70
     0
  3
___ _ _ ___ _ _ ___ _ _ ___ _ _ ___ _ _ ___ _ _
 72
    65
 73
     6
 40
1.25
 49
0.625
 74
     0
 49
-0.125
 74
     0
 49
0.125
 74
     0
 49
-0.125
 74
     0
 49
0.125
 74
     0
 49
-0.125
 74
     0
  0
LTYPE
  5
37
100
AcDbSymbolTableRecord
100
AcDbLinetypeTableRecord
  2
PHANTOMX2
 70
     0
  3
____________    ____    ____    ____________   
 72
    65
 73
     6
 40
5.0
 49
2.5
 74
     0
 49
-0.5
 74
     0
 49
0.5
 74
     0
 49
-0.5
 74
     0
 49
0.5
 74
     0
 49
-0.5
 74
     0
  0
ENDTAB
   0
TABLE
   2
LAYER
   5
2
 100
AcDbSymbolTable
  70
3
   0
LAYER
   5
E
 100
AcDbSymbolTableRecord
 100
AcDbLayerTableRecord
   2
0
  70
0
  62
7
   6
CONTINUOUS
 390
30
   0
LAYER
   5
39
 100
AcDbSymbolTableRecord
 100
AcDbLayerTableRecord
   2
LEVEL001
  70
0
  62
7
   6
CONTINUOUS
 390
30
   0
LAYER
   5
3A
 100
AcDbSymbolTableRecord
 100
AcDbLayerTableRecord
   2
LEVEL002
  70
0
  62
7
   6
CONTINUOUS
 390
30
   0
ENDTAB
  0
TABLE
  2
STYLE
  5
3
100
AcDbSymbolTable
  70
6
  0
STYLE
  5
F
100
AcDbSymbolTableRecord
100
AcDbTextStyleTableRecord
  2
STANDARD
 70
     0
 40
0.0
 41
1.0
 50
0.0
 71
     0
 42
0.2
  3
TXT
  4
BIGFONT
  0
STYLE
  5
38
100
AcDbSymbolTableRecord
100
AcDbTextStyleTableRecord
  2
STANDARD1
 70
     4
 40
0.0
 41
1.0
 50
0.0
 71
     0
 42
0.2
  3
TXT
  4
BIGFONT
   0
STYLE
   5
3B
 100
AcDbSymbolTableRecord
 100
AcDbTextStyleTableRecord
   2
GMM001
  70
0
  40
0.0
  41
 0.80000000000000
  50
0.0
  71
     0
  42
1.0
   3
txt.shx
   4
bigfont.shx
   0
STYLE
   5
3C
 100
AcDbSymbolTableRecord
 100
AcDbTextStyleTableRecord
   2
GMM002
  70
0
  40
0.0
  41
 1.0000000000000
  50
0.0
  71
     0
  42
1.0
   3
txt.shx
   4
bigfont.shx
   0
STYLE
   5
3D
 100
AcDbSymbolTableRecord
 100
AcDbTextStyleTableRecord
   2
GMM003
  70
0
  40
0.0
  41
 1.0714285714286
  50
0.0
  71
     0
  42
1.0
   3
txt.shx
   4
bigfont.shx
   0
STYLE
   5
3E
 100
AcDbSymbolTableRecord
 100
AcDbTextStyleTableRecord
   2
GMM004
  70
0
  40
0.0
  41
 0.88888888888889
  50
0.0
  71
     0
  42
1.0
   3
txt.shx
   4
bigfont.shx
   0
ENDTAB
  0
TABLE
  2
VIEW
  5
6
100
AcDbSymbolTable
 70
     0
  0
ENDTAB
  0
TABLE
  2
UCS
  5
7
100
AcDbSymbolTable
 70
     0
  0
ENDTAB
  0
TABLE
  2
APPID
  5
9
100
AcDbSymbolTable
 70
     1
  0
APPID
  5
10
100
AcDbSymbolTableRecord
100
AcDbRegAppTableRecord
  2
ACAD
 70
     0
  0
ENDTAB
   0
TABLE
   2
DIMSTYLE
   5
A
 100
AcDbSymbolTable
  70
7
 100
AcDbDimStyleTable
  0
DIMSTYLE
105
1D
100
AcDbSymbolTableRecord
100
AcDbDimStyleTableRecord
  2
STANDARD
 70
     0
  3

  4

  5

  6

  7

 40
1.0
 41
0.18
 42
0.0625
 43
0.38
 44
0.18
 45
0.0
 46
0.0
 47
0.0
 48
0.0
140
0.18
141
0.09
142
0.0
143
25.4
144
1.0
145
0.0
146
1.0
147
0.09
 71
     0
 72
     0
 73
     1
 74
     1
 75
     0
 76
     0
 77
     0
 78
     0
170
     0
171
     2
172
     0
173
     0
174
     0
175
     0
176
     0
177
     0
178
     0
270
     2
271
     4
272
     4
273
     2
274
     2
340
F
275
     0
280
     0
281
     0
282
     0
283
     1
284
     0
285
     0
286
     0
287
     3
288
     0
   0
DIMSTYLE
 105
3F
 100
AcDbSymbolTableRecord
 100
AcDbDimStyleTableRecord
   2
GMM001
  70
0
   3

   4

   5

   6

   7

  40
 1.0000000000000
  41
 2.0000000000000
  42
 1.0000000000000
  43
 8.0000000000000
  44
 1.0000000000000
  45
0.0
  46
0.0
  47
0.0
  48
0.0
 140
 2.5000000000000
 141
 1.0000000000000
 142
0.0
 143
 0.39400000000000E-1
 144
 1.0000000000000
 145
0.0
 146
 1.0000000000000
 147
 1.0000000000000
  71
0
  72
0
  73
0
  74
0
  75
0
  76
0
  77
3
  78
8
 170
0
 171
2
 172
1
 173
1
 174
0
 175
0
 176
8
 177
8
 178
8
 270
2
 271
6
 272
0
 273
2
 274
2
 340
3C
 275
1
 280
0
 281
0
 282
0
 283
1
 284
0
 285
0
 286
0
 287
3
 288
0
   0
DIMSTYLE
 105
40
 100
AcDbSymbolTableRecord
 100
AcDbDimStyleTableRecord
   2
GMM002
  70
0
   3

   4

   5

   6
_NONE
   7

  40
 1.0000000000000
  41
 2.0000000000000
  42
 1.0000000000000
  43
 8.0000000000000
  44
 1.0000000000000
  45
0.0
  46
0.0
  47
0.0
  48
0.0
 140
 2.5000000000000
 141
 1.0000000000000
 142
0.0
 143
 0.39400000000000E-1
 144
 1.0000000000000
 145
0.0
 146
 1.0000000000000
 147
 0.62286810305251
  71
0
  72
0
  73
0
  74
0
  75
0
  76
0
  77
3
  78
8
 170
0
 171
2
 172
1
 173
1
 174
0
 175
0
 176
8
 177
8
 178
8
 270
2
 271
6
 272
0
 273
2
 274
2
 340
3C
 275
1
 280
0
 281
0
 282
0
 283
1
 284
0
 285
0
 286
0
 287
3
 288
1
   0
DIMSTYLE
 105
41
 100
AcDbSymbolTableRecord
 100
AcDbDimStyleTableRecord
   2
GMM003
  70
0
   3

   4

   5

   6

   7

  40
 1.0000000000000
  41
 2.0000000000000
  42
 1.0000000000000
  43
 8.0000000000000
  44
 1.0000000000000
  45
0.0
  46
0.0
  47
0.0
  48
0.0
 140
 2.5000000000000
 141
 1.0000000000000
 142
0.0
 143
 0.39400000000000E-1
 144
 1.0000000000000
 145
0.0
 146
 1.0000000000000
 147
 1.0374783624356
  71
0
  72
0
  73
0
  74
0
  75
0
  76
0
  77
3
  78
8
 170
0
 171
2
 172
1
 173
1
 174
0
 175
0
 176
8
 177
8
 178
8
 270
2
 271
6
 272
0
 273
2
 274
2
 340
3C
 275
1
 280
0
 281
0
 282
0
 283
1
 284
0
 285
0
 286
0
 287
3
 288
1
   0
DIMSTYLE
 105
42
 100
AcDbSymbolTableRecord
 100
AcDbDimStyleTableRecord
   2
GMM004
  70
0
   3

   4

   5

   6

   7

  40
 1.0000000000000
  41
 2.0000000000000
  42
 1.0000000000000
  43
 8.0000000000000
  44
 1.0000000000000
  45
0.0
  46
0.0
  47
0.0
  48
0.0
 140
 2.5000000000000
 141
 1.0000000000000
 142
0.0
 143
 0.39400000000000E-1
 144
 1.0000000000000
 145
0.0
 146
 1.0000000000000
 147
 0.70665129476637
  71
0
  72
0
  73
0
  74
0
  75
0
  76
0
  77
3
  78
8
 170
0
 171
2
 172
1
 173
1
 174
0
 175
0
 176
8
 177
8
 178
8
 270
2
 271
6
 272
0
 273
2
 274
2
 340
3C
 275
1
 280
0
 281
0
 282
0
 283
1
 284
0
 285
0
 286
0
 287
3
 288
1
   0
DIMSTYLE
 105
43
 100
AcDbSymbolTableRecord
 100
AcDbDimStyleTableRecord
   2
GMM005
  70
0
   3

   4

   5

   6

   7
_NONE
  40
 1.0000000000000
  41
 2.0000000000000
  42
 1.0000000000000
  43
 8.0000000000000
  44
 1.0000000000000
  45
0.0
  46
0.0
  47
0.0
  48
0.0
 140
 2.5000000000000
 141
 1.0000000000000
 142
0.0
 143
 0.39400000000000E-1
 144
 1.0000000000000
 145
0.0
 146
 1.0000000000000
 147
 1.0470335002871
  71
0
  72
0
  73
0
  74
0
  75
0
  76
0
  77
3
  78
8
 170
0
 171
2
 172
1
 173
1
 174
0
 175
0
 176
8
 177
8
 178
8
 270
2
 271
6
 272
0
 273
2
 274
2
 340
3C
 275
1
 280
0
 281
0
 282
0
 283
1
 284
0
 285
0
 286
0
 287
3
 288
1
   0
ENDTAB
  0
TABLE
  2
BLOCK_RECORD
  5
1
100
AcDbSymbolTable
 70
     0
  0
BLOCK_RECORD
  5
18
100
AcDbSymbolTableRecord
100
AcDbBlockTableRecord
  2
*MODEL_SPACE
  0
BLOCK_RECORD
  5
15
100
AcDbSymbolTableRecord
100
AcDbBlockTableRecord
  2
*PAPER_SPACE
   0
BLOCK_RECORD
   5
44
 100
AcDbSymbolTableRecord
 100
AcDbBlockTableRecord
   2
*D1
   0
BLOCK_RECORD
   5
45
 100
AcDbSymbolTableRecord
 100
AcDbBlockTableRecord
   2
*D2
   0
BLOCK_RECORD
   5
46
 100
AcDbSymbolTableRecord
 100
AcDbBlockTableRecord
   2
*D3
   0
BLOCK_RECORD
   5
47
 100
AcDbSymbolTableRecord
 100
AcDbBlockTableRecord
   2
*D4
   0
BLOCK_RECORD
   5
48
 100
AcDbSymbolTableRecord
 100
AcDbBlockTableRecord
   2
*D5
   0
BLOCK_RECORD
   5
49
 100
AcDbSymbolTableRecord
 100
AcDbBlockTableRecord
   2
*D6
   0
BLOCK_RECORD
   5
4A
 100
AcDbSymbolTableRecord
 100
AcDbBlockTableRecord
   2
*D7
   0
BLOCK_RECORD
   5
4B
 100
AcDbSymbolTableRecord
 100
AcDbBlockTableRecord
   2
*D8
   0
BLOCK_RECORD
   5
4C
 100
AcDbSymbolTableRecord
 100
AcDbBlockTableRecord
   2
*D9
   0
BLOCK_RECORD
   5
4D
 100
AcDbSymbolTableRecord
 100
AcDbBlockTableRecord
   2
*D10
   0
BLOCK_RECORD
   5
4E
 100
AcDbSymbolTableRecord
 100
AcDbBlockTableRecord
   2
*D11
   0
BLOCK_RECORD
   5
4F
 100
AcDbSymbolTableRecord
 100
AcDbBlockTableRecord
   2
*D12
   0
BLOCK_RECORD
   5
50
 100
AcDbSymbolTableRecord
 100
AcDbBlockTableRecord
   2
*D13
   0
BLOCK_RECORD
   5
51
 100
AcDbSymbolTableRecord
 100
AcDbBlockTableRecord
   2
*D14
   0
BLOCK_RECORD
   5
52
 100
AcDbSymbolTableRecord
 100
AcDbBlockTableRecord
   2
*D15
   0
BLOCK_RECORD
   5
53
 100
AcDbSymbolTableRecord
 100
AcDbBlockTableRecord
   2
*D16
   0
BLOCK_RECORD
   5
54
 100
AcDbSymbolTableRecord
 100
AcDbBlockTableRecord
   2
*D17
   0
BLOCK_RECORD
   5
55
 100
AcDbSymbolTableRecord
 100
AcDbBlockTableRecord
   2
*D18
   0
BLOCK_RECORD
   5
56
 100
AcDbSymbolTableRecord
 100
AcDbBlockTableRecord
   2
*D19
   0
BLOCK_RECORD
   5
57
 100
AcDbSymbolTableRecord
 100
AcDbBlockTableRecord
   2
*D20
   0
BLOCK_RECORD
   5
58
 100
AcDbSymbolTableRecord
 100
AcDbBlockTableRecord
   2
*D21
   0
BLOCK_RECORD
   5
59
 100
AcDbSymbolTableRecord
 100
AcDbBlockTableRecord
   2
*D22
   0
BLOCK_RECORD
   5
5A
 100
AcDbSymbolTableRecord
 100
AcDbBlockTableRecord
   2
*D23
   0
BLOCK_RECORD
   5
5B
 100
AcDbSymbolTableRecord
 100
AcDbBlockTableRecord
   2
*D24
   0
BLOCK_RECORD
   5
5C
 100
AcDbSymbolTableRecord
 100
AcDbBlockTableRecord
   2
*D25
   0
BLOCK_RECORD
   5
5D
 100
AcDbSymbolTableRecord
 100
AcDbBlockTableRecord
   2
*D26
   0
BLOCK_RECORD
   5
5E
 100
AcDbSymbolTableRecord
 100
AcDbBlockTableRecord
   2
*D27
   0
BLOCK_RECORD
   5
5F
 100
AcDbSymbolTableRecord
 100
AcDbBlockTableRecord
   2
*D28
   0
BLOCK_RECORD
   5
60
 100
AcDbSymbolTableRecord
 100
AcDbBlockTableRecord
   2
*D29
   0
BLOCK_RECORD
   5
61
 100
AcDbSymbolTableRecord
 100
AcDbBlockTableRecord
   2
*D30
   0
BLOCK_RECORD
   5
62
 100
AcDbSymbolTableRecord
 100
AcDbBlockTableRecord
   2
*D31
   0
BLOCK_RECORD
   5
63
 100
AcDbSymbolTableRecord
 100
AcDbBlockTableRecord
   2
*D32
   0
BLOCK_RECORD
   5
64
 100
AcDbSymbolTableRecord
 100
AcDbBlockTableRecord
   2
*D33
   0
BLOCK_RECORD
   5
65
 100
AcDbSymbolTableRecord
 100
AcDbBlockTableRecord
   2
*D34
   0
BLOCK_RECORD
   5
66
 100
AcDbSymbolTableRecord
 100
AcDbBlockTableRecord
   2
*D35
   0
BLOCK_RECORD
   5
67
 100
AcDbSymbolTableRecord
 100
AcDbBlockTableRecord
   2
*D36
   0
BLOCK_RECORD
   5
68
 100
AcDbSymbolTableRecord
 100
AcDbBlockTableRecord
   2
*D37
   0
BLOCK_RECORD
   5
69
 100
AcDbSymbolTableRecord
 100
AcDbBlockTableRecord
   2
*D38
   0
BLOCK_RECORD
   5
6A
 100
AcDbSymbolTableRecord
 100
AcDbBlockTableRecord
   2
*D39
   0
BLOCK_RECORD
   5
6B
 100
AcDbSymbolTableRecord
 100
AcDbBlockTableRecord
   2
_ARCHTICK
   0
BLOCK_RECORD
   5
6C
 100
AcDbSymbolTableRecord
 100
AcDbBlockTableRecord
   2
_BOXBLANK
   0
BLOCK_RECORD
   5
6D
 100
AcDbSymbolTableRecord
 100
AcDbBlockTableRecord
   2
_BOXFILLED
   0
BLOCK_RECORD
   5
6E
 100
AcDbSymbolTableRecord
 100
AcDbBlockTableRecord
   2
_CLOSED
   0
BLOCK_RECORD
   5
6F
 100
AcDbSymbolTableRecord
 100
AcDbBlockTableRecord
   2
_CLOSEDBLANK
   0
BLOCK_RECORD
   5
70
 100
AcDbSymbolTableRecord
 100
AcDbBlockTableRecord
   2
_DATUMBLANK
   0
BLOCK_RECORD
   5
71
 100
AcDbSymbolTableRecord
 100
AcDbBlockTableRecord
   2
_DATUMFILLED
   0
BLOCK_RECORD
   5
72
 100
AcDbSymbolTableRecord
 100
AcDbBlockTableRecord
   2
_DOT
   0
BLOCK_RECORD
   5
73
 100
AcDbSymbolTableRecord
 100
AcDbBlockTableRecord
   2
_DOTBLANK
   0
BLOCK_RECORD
   5
74
 100
AcDbSymbolTableRecord
 100
AcDbBlockTableRecord
   2
_DOTSMALL
   0
BLOCK_RECORD
   5
75
 100
AcDbSymbolTableRecord
 100
AcDbBlockTableRecord
   2
_INTEGRAL
   0
BLOCK_RECORD
   5
76
 100
AcDbSymbolTableRecord
 100
AcDbBlockTableRecord
   2
_NONE
   0
BLOCK_RECORD
   5
77
 100
AcDbSymbolTableRecord
 100
AcDbBlockTableRecord
   2
_OBLIQUE
   0
BLOCK_RECORD
   5
78
 100
AcDbSymbolTableRecord
 100
AcDbBlockTableRecord
   2
_OPEN
   0
BLOCK_RECORD
   5
79
 100
AcDbSymbolTableRecord
 100
AcDbBlockTableRecord
   2
_OPEN30
   0
BLOCK_RECORD
   5
7A
 100
AcDbSymbolTableRecord
 100
AcDbBlockTableRecord
   2
_OPEN90
   0
BLOCK_RECORD
   5
7B
 100
AcDbSymbolTableRecord
 100
AcDbBlockTableRecord
   2
_ORIGIN
   0
ENDTAB
   0
ENDSEC
  0
SECTION
  2
BLOCKS
  0
BLOCK
  5
19
100
AcDbEntity
  8
0
100
AcDbBlockBegin
  2
*MODEL_SPACE
 70
     0
 10
0.0
 20
0.0
 30
0.0
  3
*MODEL_SPACE
  1

  0
ENDBLK
  5
1A
100
AcDbEntity
  8
0
100
AcDbBlockEnd
  0
BLOCK
  5
16
100
AcDbEntity
 67
     1
  8
0
100
AcDbBlockBegin
  2
*PAPER_SPACE
 70
     0
 10
0.0
 20
0.0
 30
0.0
  3
*PAPER_SPACE
  1

  0
ENDBLK
  5
17
100
AcDbEntity
 67
     1
  8
0
100
AcDbBlockEnd
   0
BLOCK
   5
7C
 100
AcDbEntity
   8
0
 100
AcDbBlockBegin
   2
_ARCHTICK
  70
0
  10
0.0
  20
0.0
  30
0.0
   3
_ARCHTICK
   0
POLYLINE
   5
7D
 100
AcDbEntity
   8
0
 370
-2
   6
BYBLOCK
  62
0
 100
AcDb2dPolyline
  66
1
  10
0.0
  20
0.0
  30
0.0
  70
1
  40
 0.15000000000000
  41
 0.15000000000000
   0
VERTEX
   5
7E
 100
AcDbEntity
   8
0
   6
BYBLOCK
  62
0
 100
AcDbVertex
 100
AcDb2dVertex
  10
-0.50000000000000
  20
-0.50000000000000
  30
0.0
  40
 0.15000000000000
  41
 0.15000000000000
   0
VERTEX
   5
7F
 100
AcDbEntity
   8
0
   6
BYBLOCK
  62
0
 100
AcDbVertex
 100
AcDb2dVertex
  10
 0.50000000000000
  20
 0.50000000000000
  30
0.0
  40
 0.15000000000000
  41
 0.15000000000000
   0
SEQEND
   5
80
 100
AcDbEntity
   8
0
   6
BYBLOCK
  62
0
   0
ENDBLK
   5
81
 100
AcDbEntity
   8
0
 100
AcDbBlockEnd
   0
BLOCK
   5
82
 100
AcDbEntity
   8
0
 100
AcDbBlockBegin
   2
_OBLIQUE
  70
0
  10
0.0
  20
0.0
  30
0.0
   3
_OBLIQUE
   0
LINE
   5
83
 100
AcDbEntity
   8
0
 370
-2
 100
AcDbLine
   6
BYBLOCK
  62
0
  10
-0.50000000000000
  20
-0.50000000000000
  30
0.0
  11
 0.50000000000000
  21
 0.50000000000000
  31
0.0
   0
ENDBLK
   5
84
 100
AcDbEntity
   8
0
 100
AcDbBlockEnd
   0
BLOCK
   5
85
 100
AcDbEntity
   8
0
 100
AcDbBlockBegin
   2
_BOXBLANK
  70
0
  10
0.0
  20
0.0
  30
0.0
   3
_BOXBLANK
   0
LINE
   5
86
 100
AcDbEntity
   8
0
 370
-2
 100
AcDbLine
   6
BYBLOCK
  62
0
  10
-0.50000000000000
  20
-0.50000000000000
  30
0.0
  11
 0.50000000000000
  21
-0.50000000000000
  31
0.0
   0
LINE
   5
87
 100
AcDbEntity
   8
0
 370
-2
 100
AcDbLine
   6
BYBLOCK
  62
0
  10
 0.50000000000000
  20
-0.50000000000000
  30
0.0
  11
 0.50000000000000
  21
 0.50000000000000
  31
0.0
   0
LINE
   5
88
 100
AcDbEntity
   8
0
 370
-2
 100
AcDbLine
   6
BYBLOCK
  62
0
  10
 0.50000000000000
  20
 0.50000000000000
  30
0.0
  11
-0.50000000000000
  21
 0.50000000000000
  31
0.0
   0
LINE
   5
89
 100
AcDbEntity
   8
0
 370
-2
 100
AcDbLine
   6
BYBLOCK
  62
0
  10
-0.50000000000000
  20
 0.50000000000000
  30
0.0
  11
-0.50000000000000
  21
-0.50000000000000
  31
0.0
   0
LINE
   5
8A
 100
AcDbEntity
   8
0
 370
-2
 100
AcDbLine
   6
BYBLOCK
  62
0
  10
-0.50000000000000
  20
0.0
  30
0.0
  11
-1.0000000000000
  21
0.0
  31
0.0
   0
ENDBLK
   5
8B
 100
AcDbEntity
   8
0
 100
AcDbBlockEnd
   0
BLOCK
   5
8C
 100
AcDbEntity
   8
0
 100
AcDbBlockBegin
   2
_BOXFILLED
  70
0
  10
0.0
  20
0.0
  30
0.0
   3
_BOXFILLED
   0
SOLID
   5
8D
 100
AcDbEntity
   8
0
 100
AcDbTrace
   6
BYBLOCK
  62
0
  10
-0.50000000000000
  20
 0.50000000000000
  30
0.0
  11
 0.50000000000000
  21
 0.50000000000000
  31
0.0
  12
-0.50000000000000
  22
-0.50000000000000
  32
0.0
  13
 0.50000000000000
  23
-0.50000000000000
  33
0.0
   0
LINE
   5
8E
 100
AcDbEntity
   8
0
 370
-2
 100
AcDbLine
   6
BYBLOCK
  62
0
  10
-0.50000000000000
  20
0.0
  30
0.0
  11
-1.0000000000000
  21
0.0
  31
0.0
   0
ENDBLK
   5
8F
 100
AcDbEntity
   8
0
 100
AcDbBlockEnd
   0
BLOCK
   5
90
 100
AcDbEntity
   8
0
 100
AcDbBlockBegin
   2
_CLOSED
  70
0
  10
0.0
  20
0.0
  30
0.0
   3
_CLOSED
   0
LINE
   5
91
 100
AcDbEntity
   8
0
 370
-2
 100
AcDbLine
   6
BYBLOCK
  62
0
  10
-1.0000000000000
  20
 0.16666666666667
  30
0.0
  11
0.0
  21
0.0
  31
0.0
   0
LINE
   5
92
 100
AcDbEntity
   8
0
 370
-2
 100
AcDbLine
   6
BYBLOCK
  62
0
  10
0.0
  20
0.0
  30
0.0
  11
-1.0000000000000
  21
-0.16666666666667
  31
0.0
   0
LINE
   5
93
 100
AcDbEntity
   8
0
 370
-2
 100
AcDbLine
   6
BYBLOCK
  62
0
  10
-1.0000000000000
  20
 0.16666666666667
  30
0.0
  11
-1.0000000000000
  21
-0.16666666666667
  31
0.0
   0
LINE
   5
94
 100
AcDbEntity
   8
0
 370
-2
 100
AcDbLine
   6
BYBLOCK
  62
0
  10
0.0
  20
0.0
  30
0.0
  11
-1.0000000000000
  21
0.0
  31
0.0
   0
ENDBLK
   5
95
 100
AcDbEntity
   8
0
 100
AcDbBlockEnd
   0
BLOCK
   5
96
 100
AcDbEntity
   8
0
 100
AcDbBlockBegin
   2
_OPEN
  70
0
  10
0.0
  20
0.0
  30
0.0
   3
_OPEN
   0
LINE
   5
97
 100
AcDbEntity
   8
0
 370
-2
 100
AcDbLine
   6
BYBLOCK
  62
0
  10
-1.0000000000000
  20
 0.16666666666667
  30
0.0
  11
0.0
  21
0.0
  31
0.0
   0
LINE
   5
98
 100
AcDbEntity
   8
0
 370
-2
 100
AcDbLine
   6
BYBLOCK
  62
0
  10
0.0
  20
0.0
  30
0.0
  11
-1.0000000000000
  21
-0.16666666666667
  31
0.0
   0
LINE
   5
99
 100
AcDbEntity
   8
0
 370
-2
 100
AcDbLine
   6
BYBLOCK
  62
0
  10
0.0
  20
0.0
  30
0.0
  11
-1.0000000000000
  21
0.0
  31
0.0
   0
ENDBLK
   5
9A
 100
AcDbEntity
   8
0
 100
AcDbBlockEnd
   0
BLOCK
   5
9B
 100
AcDbEntity
   8
0
 100
AcDbBlockBegin
   2
_OPEN30
  70
0
  10
0.0
  20
0.0
  30
0.0
   3
_OPEN30
   0
LINE
   5
9C
 100
AcDbEntity
   8
0
 370
-2
 100
AcDbLine
   6
BYBLOCK
  62
0
  10
-1.0000000000000
  20
 0.26794919243110
  30
0.0
  11
0.0
  21
0.0
  31
0.0
   0
LINE
   5
9D
 100
AcDbEntity
   8
0
 370
-2
 100
AcDbLine
   6
BYBLOCK
  62
0
  10
0.0
  20
0.0
  30
0.0
  11
-1.0000000000000
  21
-0.26794919243110
  31
0.0
   0
LINE
   5
9E
 100
AcDbEntity
   8
0
 370
-2
 100
AcDbLine
   6
BYBLOCK
  62
0
  10
0.0
  20
0.0
  30
0.0
  11
-1.0000000000000
  21
0.0
  31
0.0
   0
ENDBLK
   5
9F
 100
AcDbEntity
   8
0
 100
AcDbBlockEnd
   0
BLOCK
   5
A0
 100
AcDbEntity
   8
0
 100
AcDbBlockBegin
   2
_OPEN90
  70
0
  10
0.0
  20
0.0
  30
0.0
   3
_OPEN90
   0
LINE
   5
A1
 100
AcDbEntity
   8
0
 370
-2
 100
AcDbLine
   6
BYBLOCK
  62
0
  10
-0.50000000000000
  20
 0.50000000000000
  30
0.0
  11
0.0
  21
0.0
  31
0.0
   0
LINE
   5
A2
 100
AcDbEntity
   8
0
 370
-2
 100
AcDbLine
   6
BYBLOCK
  62
0
  10
0.0
  20
0.0
  30
0.0
  11
-0.50000000000000
  21
-0.50000000000000
  31
0.0
   0
LINE
   5
A3
 100
AcDbEntity
   8
0
 370
-2
 100
AcDbLine
   6
BYBLOCK
  62
0
  10
0.0
  20
0.0
  30
0.0
  11
-1.0000000000000
  21
0.0
  31
0.0
   0
ENDBLK
   5
A4
 100
AcDbEntity
   8
0
 100
AcDbBlockEnd
   0
BLOCK
   5
A5
 100
AcDbEntity
   8
0
 100
AcDbBlockBegin
   2
_CLOSEDBLANK
  70
0
  10
0.0
  20
0.0
  30
0.0
   3
_CLOSEDBLANK
   0
LINE
   5
A6
 100
AcDbEntity
   8
0
 370
-2
 100
AcDbLine
   6
BYBLOCK
  62
0
  10
-1.0000000000000
  20
 0.16666666666667
  30
0.0
  11
0.0
  21
0.0
  31
0.0
   0
LINE
   5
A7
 100
AcDbEntity
   8
0
 370
-2
 100
AcDbLine
   6
BYBLOCK
  62
0
  10
0.0
  20
0.0
  30
0.0
  11
-1.0000000000000
  21
-0.16666666666667
  31
0.0
   0
LINE
   5
A8
 100
AcDbEntity
   8
0
 370
-2
 100
AcDbLine
   6
BYBLOCK
  62
0
  10
-1.0000000000000
  20
 0.16666666666667
  30
0.0
  11
-1.0000000000000
  21
-0.16666666666667
  31
0.0
   0
ENDBLK
   5
A9
 100
AcDbEntity
   8
0
 100
AcDbBlockEnd
   0
BLOCK
   5
AA
 100
AcDbEntity
   8
0
 100
AcDbBlockBegin
   2
_DOT
  70
0
  10
0.0
  20
0.0
  30
0.0
   3
_DOT
   0
POLYLINE
   5
AB
 100
AcDbEntity
   8
0
 370
-2
   6
BYBLOCK
  62
0
 100
AcDb2dPolyline
  66
1
  10
0.0
  20
0.0
  30
0.0
  70
1
  40
 0.50000000000000
  41
 0.50000000000000
   0
VERTEX
   5
AC
 100
AcDbEntity
   8
0
   6
BYBLOCK
  62
0
 100
AcDbVertex
 100
AcDb2dVertex
  10
-0.25000000000000
  20
0.0
  30
0.0
  42
 1.0000000000000
  40
 0.50000000000000
  41
 0.50000000000000
   0
VERTEX
   5
AD
 100
AcDbEntity
   8
0
   6
BYBLOCK
  62
0
 100
AcDbVertex
 100
AcDb2dVertex
  10
 0.25000000000000
  20
0.0
  30
0.0
  42
 1.0000000000000
  40
 0.50000000000000
  41
 0.50000000000000
   0
SEQEND
   5
AE
 100
AcDbEntity
   8
0
   6
BYBLOCK
  62
0
   0
LINE
   5
AF
 100
AcDbEntity
   8
0
 370
-2
 100
AcDbLine
   6
BYBLOCK
  62
0
  10
-0.50000000000000
  20
0.0
  30
0.0
  11
-1.0000000000000
  21
0.0
  31
0.0
   0
ENDBLK
   5
B0
 100
AcDbEntity
   8
0
 100
AcDbBlockEnd
   0
BLOCK
   5
B1
 100
AcDbEntity
   8
0
 100
AcDbBlockBegin
   2
_DOTSMALL
  70
0
  10
0.0
  20
0.0
  30
0.0
   3
_DOTSMALL
   0
POLYLINE
   5
B2
 100
AcDbEntity
   8
0
 370
-2
   6
BYBLOCK
  62
0
 100
AcDb2dPolyline
  66
1
  10
0.0
  20
0.0
  30
0.0
  70
1
  40
 0.50000000000000
  41
 0.50000000000000
   0
VERTEX
   5
B3
 100
AcDbEntity
   8
0
   6
BYBLOCK
  62
0
 100
AcDbVertex
 100
AcDb2dVertex
  10
-0.62500000000000E-1
  20
0.0
  30
0.0
  42
 1.0000000000000
  40
 0.50000000000000
  41
 0.50000000000000
   0
VERTEX
   5
B4
 100
AcDbEntity
   8
0
   6
BYBLOCK
  62
0
 100
AcDbVertex
 100
AcDb2dVertex
  10
 0.62500000000000E-1
  20
0.0
  30
0.0
  42
 1.0000000000000
  40
 0.50000000000000
  41
 0.50000000000000
   0
SEQEND
   5
B5
 100
AcDbEntity
   8
0
   6
BYBLOCK
  62
0
   0
ENDBLK
   5
B6
 100
AcDbEntity
   8
0
 100
AcDbBlockEnd
   0
BLOCK
   5
B7
 100
AcDbEntity
   8
0
 100
AcDbBlockBegin
   2
_DATUMBLANK
  70
0
  10
0.0
  20
0.0
  30
0.0
   3
_DATUMBLANK
   0
LINE
   5
B8
 100
AcDbEntity
   8
0
 370
-2
 100
AcDbLine
   6
BYBLOCK
  62
0
  10
0.0
  20
 0.57735027000000
  30
0.0
  11
-1.0000000000000
  21
0.0
  31
0.0
   0
LINE
   5
B9
 100
AcDbEntity
   8
0
 370
-2
 100
AcDbLine
   6
BYBLOCK
  62
0
  10
-1.0000000000000
  20
0.0
  30
0.0
  11
0.0
  21
-0.57735027000000
  31
0.0
   0
LINE
   5
BA
 100
AcDbEntity
   8
0
 370
-2
 100
AcDbLine
   6
BYBLOCK
  62
0
  10
0.0
  20
-0.57735027000000
  30
0.0
  11
0.0
  21
 0.57735027000000
  31
0.0
   0
ENDBLK
   5
BB
 100
AcDbEntity
   8
0
 100
AcDbBlockEnd
   0
BLOCK
   5
BC
 100
AcDbEntity
   8
0
 100
AcDbBlockBegin
   2
_DATUMFILLED
  70
0
  10
0.0
  20
0.0
  30
0.0
   3
_DATUMFILLED
   0
SOLID
   5
BD
 100
AcDbEntity
   8
0
 100
AcDbTrace
   6
BYBLOCK
  62
0
  10
0.0
  20
 0.57735027000000
  30
0.0
  11
-1.0000000000000
  21
0.0
  31
0.0
  12
0.0
  22
-0.57735027000000
  32
0.0
  13
0.0
  23
-0.57735027000000
  33
0.0
   0
ENDBLK
   5
BE
 100
AcDbEntity
   8
0
 100
AcDbBlockEnd
   0
BLOCK
   5
BF
 100
AcDbEntity
   8
0
 100
AcDbBlockBegin
   2
_ORIGIN
  70
0
  10
0.0
  20
0.0
  30
0.0
   3
_ORIGIN
   0
CIRCLE
   5
C0
 100
AcDbEntity
   8
0
 370
-2
 100
AcDbCircle
   6
BYBLOCK
  62
0
  10
0.0
  20
0.0
  30
0.0
  40
 0.50000000000000
   0
LINE
   5
C1
 100
AcDbEntity
   8
0
 370
-2
 100
AcDbLine
   6
BYBLOCK
  62
0
  10
0.0
  20
0.0
  30
0.0
  11
-1.0000000000000
  21
0.0
  31
0.0
   0
ENDBLK
   5
C2
 100
AcDbEntity
   8
0
 100
AcDbBlockEnd
   0
BLOCK
   5
C3
 100
AcDbEntity
   8
0
 100
AcDbBlockBegin
   2
_NONE
  70
0
  10
0.0
  20
0.0
  30
0.0
   3
_NONE
   0
CIRCLE
   5
C4
 100
AcDbEntity
   8
0
 370
-2
 100
AcDbCircle
   6
BYBLOCK
  62
0
  10
0.0
  20
0.0
  30
0.0
  40
 0.25000000000000
   0
ENDBLK
   5
C5
 100
AcDbEntity
   8
0
 100
AcDbBlockEnd
   0
BLOCK
   5
C6
 100
AcDbEntity
   8
0
 100
AcDbBlockBegin
   2
_DOTBLANK
  70
0
  10
0.0
  20
0.0
  30
0.0
   3
_DOTBLANK
   0
CIRCLE
   5
C7
 100
AcDbEntity
   8
0
 370
-2
 100
AcDbCircle
   6
BYBLOCK
  62
0
  10
0.0
  20
0.0
  30
0.0
  40
 0.50000000000000
   0
LINE
   5
C8
 100
AcDbEntity
   8
0
 370
-2
 100
AcDbLine
   6
BYBLOCK
  62
0
  10
-0.50000000000000
  20
0.0
  30
0.0
  11
-1.0000000000000
  21
0.0
  31
0.0
   0
ENDBLK
   5
C9
 100
AcDbEntity
   8
0
 100
AcDbBlockEnd
   0
BLOCK
   5
CA
 100
AcDbEntity
   8
0
 100
AcDbBlockBegin
   2
_INTEGRAL
  70
0
  10
0.0
  20
0.0
  30
0.0
   3
_INTEGRAL
   0
ARC
   5
CB
 100
AcDbEntity
   8
0
 370
-2
   6
BYBLOCK
  62
0
 100
AcDbCircle
  10
 0.44488800000000
  20
-0.91335000000000E-1
  30
0.0
  40
 0.45416700000000
 100
AcDbArc
  50
 102.00000000000
  51
 168.00000000000
   0
ARC
   5
CC
 100
AcDbEntity
   8
0
 370
-2
   6
BYBLOCK
  62
0
 100
AcDbCircle
  10
-0.44488800000000
  20
 0.91335000000000E-1
  30
0.0
  40
 0.45416700000000
 100
AcDbArc
  50
 282.00000000000
  51
 348.00000000000
   0
ENDBLK
   5
CD
 100
AcDbEntity
   8
0
 100
AcDbBlockEnd
   0
BLOCK
   5
CE
 100
AcDbEntity
   8
0
 100
AcDbBlockBegin
   2
*D1
  70
65
  10
0.0
  20
0.0
  30
0.0
   3
*D1
   0
LINE
   5
CF
 100
AcDbEntity
   8
LEVEL001
 370
15
 100
AcDbLine
   6
CONTINUOUS
  62
8
  10
 60.977011079976
  20
 217.36769952895
  30
0.0
  11
 50.977011079976
  21
 217.36769952895
  31
0.0
   0
LINE
   5
D0
 100
AcDbEntity
   8
LEVEL001
 370
15
 100
AcDbLine
   6
CONTINUOUS
  62
8
  10
 63.977011079976
  20
 242.36769952895
  30
0.0
  11
 50.977011079976
  21
 242.36769952895
  31
0.0
   0
LINE
   5
D1
 100
AcDbEntity
   8
LEVEL001
 370
15
 100
AcDbLine
   6
CONTINUOUS
  62
8
  10
 51.977011079976
  20
 217.36769952895
  30
0.0
  11
 51.977011079976
  21
 229.86769952895
  31
0.0
   0
LINE
   5
D2
 100
AcDbEntity
   8
LEVEL001
 370
15
 100
AcDbLine
   6
CONTINUOUS
  62
8
  10
 51.977011079976
  20
 242.36769952895
  30
0.0
  11
 51.977011079976
  21
 229.86769952895
  31
0.0
   0
SOLID
   5
D3
 100
AcDbEntity
   8
LEVEL001
 100
AcDbTrace
   6
CONTINUOUS
  62
8
  10
 51.977011079976
  20
 217.36769952895
  30
0.0
  11
 52.329665041393
  21
 219.36769952895
  31
0.0
  12
 51.624357118559
  22
 219.36769952895
  32
0.0
  13
 51.624357118559
  23
 219.36769952895
  33
0.0
   0
SOLID
   5
D4
 100
AcDbEntity
   8
LEVEL001
 100
AcDbTrace
   6
CONTINUOUS
  62
8
  10
 51.977011079976
  20
 242.36769952895
  30
0.0
  11
 51.624357118559
  21
 240.36769952895
  31
0.0
  12
 52.329665041393
  22
 240.36769952895
  32
0.0
  13
 52.329665041393
  23
 240.36769952895
  33
0.0
   0
MTEXT
   5
D5
 100
AcDbEntity
   8
LEVEL001
 370
15
  62
8
 100
AcDbMText
  10
 50.977011079976
  20
 229.86769952895
  30
0.0
  40
 2.5000000000000
  41
0.0
  71
8
  72
1
   1
\A1;25
   7
GMM002
  11
0.0
  21
 1.0000000000000
  31
0.0
   0
ENDBLK
   5
D6
 100
AcDbEntity
   8
0
 100
AcDbBlockEnd
   0
BLOCK
   5
D7
 100
AcDbEntity
   8
0
 100
AcDbBlockBegin
   2
*D2
  70
65
  10
0.0
  20
0.0
  30
0.0
   3
*D2
   0
LINE
   5
D8
 100
AcDbEntity
   8
LEVEL001
 370
15
 100
AcDbLine
   6
CONTINUOUS
  62
8
  10
 61.977011079976
  20
 240.36769952895
  30
0.0
  11
 61.977011079976
  21
 253.36769952895
  31
0.0
   0
LINE
   5
D9
 100
AcDbEntity
   8
LEVEL001
 370
15
 100
AcDbLine
   6
CONTINUOUS
  62
8
  10
 86.977011079976
  20
 243.36769952895
  30
0.0
  11
 86.977011079976
  21
 253.36769952895
  31
0.0
   0
LINE
   5
DA
 100
AcDbEntity
   8
LEVEL001
 370
15
 100
AcDbLine
   6
CONTINUOUS
  62
8
  10
 61.977011079976
  20
 252.36769952895
  30
0.0
  11
 74.477011079976
  21
 252.36769952895
  31
0.0
   0
LINE
   5
DB
 100
AcDbEntity
   8
LEVEL001
 370
15
 100
AcDbLine
   6
CONTINUOUS
  62
8
  10
 86.977011079976
  20
 252.36769952895
  30
0.0
  11
 74.477011079976
  21
 252.36769952895
  31
0.0
   0
SOLID
   5
DC
 100
AcDbEntity
   8
LEVEL001
 100
AcDbTrace
   6
CONTINUOUS
  62
8
  10
 61.977011079976
  20
 252.36769952895
  30
0.0
  11
 63.977011079976
  21
 252.01504556753
  31
0.0
  12
 63.977011079976
  22
 252.72035349036
  32
0.0
  13
 63.977011079976
  23
 252.72035349036
  33
0.0
   0
SOLID
   5
DD
 100
AcDbEntity
   8
LEVEL001
 100
AcDbTrace
   6
CONTINUOUS
  62
8
  10
 86.977011079976
  20
 252.36769952895
  30
0.0
  11
 84.977011079976
  21
 252.72035349036
  31
0.0
  12
 84.977011079976
  22
 252.01504556753
  32
0.0
  13
 84.977011079976
  23
 252.01504556753
  33
0.0
   0
MTEXT
   5
DE
 100
AcDbEntity
   8
LEVEL001
 370
15
  62
8
 100
AcDbMText
  10
 74.477011079976
  20
 253.36769952895
  30
0.0
  40
 2.5000000000000
  41
0.0
  71
8
  72
1
   1
\A1;25
   7
GMM002
   0
ENDBLK
   5
DF
 100
AcDbEntity
   8
0
 100
AcDbBlockEnd
   0
BLOCK
   5
E0
 100
AcDbEntity
   8
0
 100
AcDbBlockBegin
   2
*D3
  70
65
  10
0.0
  20
0.0
  30
0.0
   3
*D3
   0
LINE
   5
E1
 100
AcDbEntity
   8
LEVEL001
 370
15
 100
AcDbLine
   6
CONTINUOUS
  62
8
  10
 60.977011079976
  20
 193.54039689737
  30
0.0
  11
 57.449908226816
  21
 193.54039689737
  31
0.0
   0
LINE
   5
E2
 100
AcDbEntity
   8
LEVEL001
 370
15
 100
AcDbLine
   6
CONTINUOUS
  62
8
  10
 58.449908226816
  20
 193.54039689737
  30
0.0
  11
 58.449908226816
  21
 197.04039689737
  31
0.0
   0
LINE
   5
E3
 100
AcDbEntity
   8
LEVEL001
 370
15
 100
AcDbLine
   6
CONTINUOUS
  62
8
  10
 58.449908226816
  20
 200.54039689737
  30
0.0
  11
 58.449908226816
  21
 197.04039689737
  31
0.0
   0
SOLID
   5
E4
 100
AcDbEntity
   8
LEVEL001
 100
AcDbTrace
   6
CONTINUOUS
  62
8
  10
 58.449908226816
  20
 193.54039689737
  30
0.0
  11
 58.802562188233
  21
 195.54039689737
  31
0.0
  12
 58.097254265399
  22
 195.54039689737
  32
0.0
  13
 58.097254265399
  23
 195.54039689737
  33
0.0
   0
SOLID
   5
E5
 100
AcDbEntity
   8
LEVEL001
 100
AcDbTrace
   6
CONTINUOUS
  62
8
  10
 58.449908226816
  20
 200.54039689737
  30
0.0
  11
 58.097254265399
  21
 198.54039689737
  31
0.0
  12
 58.802562188233
  22
 198.54039689737
  32
0.0
  13
 58.802562188233
  23
 198.54039689737
  33
0.0
   0
MTEXT
   5
E6
 100
AcDbEntity
   8
LEVEL001
 370
15
  62
8
 100
AcDbMText
  10
 57.449908226816
  20
 197.04039689737
  30
0.0
  40
 2.5000000000000
  41
0.0
  71
8
  72
1
   1
\A1;7
   7
GMM002
  11
0.0
  21
 1.0000000000000
  31
0.0
   0
ENDBLK
   5
E7
 100
AcDbEntity
   8
0
 100
AcDbBlockEnd
   0
BLOCK
   5
E8
 100
AcDbEntity
   8
0
 100
AcDbBlockBegin
   2
*D4
  70
65
  10
0.0
  20
0.0
  30
0.0
   3
*D4
   0
LINE
   5
E9
 100
AcDbEntity
   8
LEVEL001
 370
15
 100
AcDbLine
   6
CONTINUOUS
  62
8
  10
 61.477011079976
  20
 200.54039689737
  30
0.0
  11
 57.449908226816
  21
 200.54039689737
  31
0.0
   0
LINE
   5
EA
 100
AcDbEntity
   8
LEVEL001
 370
15
 100
AcDbLine
   6
CONTINUOUS
  62
8
  10
 61.477011079976
  20
 201.04039689737
  30
0.0
  11
 57.449908226816
  21
 201.04039689737
  31
0.0
   0
LINE
   5
EB
 100
AcDbEntity
   8
LEVEL001
 370
15
 100
AcDbLine
   6
CONTINUOUS
  62
8
  10
 58.449908226816
  20
 200.54039689737
  30
0.0
  11
 58.449908226816
  21
 200.79039689737
  31
0.0
   0
LINE
   5
EC
 100
AcDbEntity
   8
LEVEL001
 370
15
 100
AcDbLine
   6
CONTINUOUS
  62
8
  10
 58.449908226816
  20
 208.49266222723
  30
0.0
  11
 58.449908226816
  21
 200.79039689737
  31
0.0
   0
SOLID
   5
ED
 100
AcDbEntity
   8
LEVEL001
 100
AcDbTrace
   6
CONTINUOUS
  62
8
  10
 58.449908226816
  20
 201.04039689737
  30
0.0
  11
 58.802562188233
  21
 203.04039689737
  31
0.0
  12
 58.097254265399
  22
 203.04039689737
  32
0.0
  13
 58.097254265399
  23
 203.04039689737
  33
0.0
   0
MTEXT
   5
EE
 100
AcDbEntity
   8
LEVEL001
 370
15
  62
8
 100
AcDbMText
  10
 57.827040123763
  20
 202.99266222723
  30
0.0
  40
 2.5000000000000
  41
0.0
  71
7
  72
1
   1
\A1;0.5
   7
GMM002
  11
0.0
  21
 1.0000000000000
  31
0.0
   0
ENDBLK
   5
EF
 100
AcDbEntity
   8
0
 100
AcDbBlockEnd
   0
BLOCK
   5
F0
 100
AcDbEntity
   8
0
 100
AcDbBlockBegin
   2
*D5
  70
65
  10
0.0
  20
0.0
  30
0.0
   3
*D5
   0
LINE
   5
F1
 100
AcDbEntity
   8
LEVEL001
 370
15
 100
AcDbLine
   6
CONTINUOUS
  62
8
  10
 57.449908226816
  20
 193.54039689737
  30
0.0
  11
 50.977011079976
  21
 193.54039689737
  31
0.0
   0
LINE
   5
F2
 100
AcDbEntity
   8
LEVEL001
 370
15
 100
AcDbLine
   6
CONTINUOUS
  62
8
  10
 57.449908226816
  20
 201.04039689737
  30
0.0
  11
 50.977011079976
  21
 201.04039689737
  31
0.0
   0
LINE
   5
F3
 100
AcDbEntity
   8
LEVEL001
 370
15
 100
AcDbLine
   6
CONTINUOUS
  62
8
  10
 51.977011079976
  20
 193.54039689737
  30
0.0
  11
 51.977011079976
  21
 197.29039689737
  31
0.0
   0
LINE
   5
F4
 100
AcDbEntity
   8
LEVEL001
 370
15
 100
AcDbLine
   6
CONTINUOUS
  62
8
  10
 51.977011079976
  20
 201.04039689737
  30
0.0
  11
 51.977011079976
  21
 197.29039689737
  31
0.0
   0
SOLID
   5
F5
 100
AcDbEntity
   8
LEVEL001
 100
AcDbTrace
   6
CONTINUOUS
  62
8
  10
 51.977011079976
  20
 193.54039689737
  30
0.0
  11
 52.329665041393
  21
 195.54039689737
  31
0.0
  12
 51.624357118559
  22
 195.54039689737
  32
0.0
  13
 51.624357118559
  23
 195.54039689737
  33
0.0
   0
SOLID
   5
F6
 100
AcDbEntity
   8
LEVEL001
 100
AcDbTrace
   6
CONTINUOUS
  62
8
  10
 51.977011079976
  20
 201.04039689737
  30
0.0
  11
 51.624357118559
  21
 199.04039689737
  31
0.0
  12
 52.329665041393
  22
 199.04039689737
  32
0.0
  13
 52.329665041393
  23
 199.04039689737
  33
0.0
   0
MTEXT
   5
F7
 100
AcDbEntity
   8
LEVEL001
 370
15
  62
8
 100
AcDbMText
  10
 50.977011079976
  20
 197.29039689737
  30
0.0
  40
 2.5000000000000
  41
0.0
  71
8
  72
1
   1
\A1;7.5
   7
GMM002
  11
0.0
  21
 1.0000000000000
  31
0.0
   0
ENDBLK
   5
F8
 100
AcDbEntity
   8
0
 100
AcDbBlockEnd
   0
BLOCK
   5
F9
 100
AcDbEntity
   8
0
 100
AcDbBlockBegin
   2
*D6
  70
65
  10
0.0
  20
0.0
  30
0.0
   3
*D6
   0
LINE
   5
FA
 100
AcDbEntity
   8
LEVEL001
 370
15
 100
AcDbLine
   6
CONTINUOUS
  62
8
  10
 61.977011079976
  20
 216.36769952895
  30
0.0
  11
 61.977011079976
  21
 210.63867907188
  31
0.0
   0
LINE
   5
FB
 100
AcDbEntity
   8
LEVEL001
 370
15
 100
AcDbLine
   6
CONTINUOUS
  62
8
  10
 67.477011079976
  20
 216.36769952895
  30
0.0
  11
 67.477011079976
  21
 210.63867907188
  31
0.0
   0
LINE
   5
FC
 100
AcDbEntity
   8
LEVEL001
 370
15
 100
AcDbLine
   6
CONTINUOUS
  62
8
  10
 61.977011079976
  20
 211.63867907188
  30
0.0
  11
 64.727011079976
  21
 211.63867907188
  31
0.0
   0
LINE
   5
FD
 100
AcDbEntity
   8
LEVEL001
 370
15
 100
AcDbLine
   6
CONTINUOUS
  62
8
  10
 67.477011079976
  20
 211.63867907188
  30
0.0
  11
 64.727011079976
  21
 211.63867907188
  31
0.0
   0
SOLID
   5
FE
 100
AcDbEntity
   8
LEVEL001
 100
AcDbTrace
   6
CONTINUOUS
  62
8
  10
 61.977011079976
  20
 211.63867907188
  30
0.0
  11
 63.977011079976
  21
 211.28602511046
  31
0.0
  12
 63.977011079976
  22
 211.99133303329
  32
0.0
  13
 63.977011079976
  23
 211.99133303329
  33
0.0
   0
SOLID
   5
FF
 100
AcDbEntity
   8
LEVEL001
 100
AcDbTrace
   6
CONTINUOUS
  62
8
  10
 67.477011079976
  20
 211.63867907188
  30
0.0
  11
 65.477011079976
  21
 211.99133303329
  31
0.0
  12
 65.477011079976
  22
 211.28602511046
  32
0.0
  13
 65.477011079976
  23
 211.28602511046
  33
0.0
   0
MTEXT
   5
100
 100
AcDbEntity
   8
LEVEL001
 370
15
  62
8
 100
AcDbMText
  10
 64.727011079976
  20
 212.63867907188
  30
0.0
  40
 2.5000000000000
  41
0.0
  71
8
  72
1
   1
\A1;5.5
   7
GMM002
   0
ENDBLK
   5
101
 100
AcDbEntity
   8
0
 100
AcDbBlockEnd
   0
BLOCK
   5
102
 100
AcDbEntity
   8
0
 100
AcDbBlockBegin
   2
*D7
  70
65
  10
0.0
  20
0.0
  30
0.0
   3
*D7
   0
LINE
   5
103
 100
AcDbEntity
   8
LEVEL001
 370
15
 100
AcDbLine
   6
CONTINUOUS
  62
8
  10
 61.977011079976
  20
 192.54039689737
  30
0.0
  11
 61.977011079976
  21
 187.20822639698
  31
0.0
   0
LINE
   5
104
 100
AcDbEntity
   8
LEVEL001
 370
15
 100
AcDbLine
   6
CONTINUOUS
  62
8
  10
 62.477011079976
  20
 192.54039689737
  30
0.0
  11
 62.477011079976
  21
 187.20822639698
  31
0.0
   0
LINE
   5
105
 100
AcDbEntity
   8
LEVEL001
 370
15
 100
AcDbLine
   6
CONTINUOUS
  62
8
  10
 55.245955842421
  20
 188.20822639698
  30
0.0
  11
 62.227011079976
  21
 188.20822639698
  31
0.0
   0
LINE
   5
106
 100
AcDbEntity
   8
LEVEL001
 370
15
 100
AcDbLine
   6
CONTINUOUS
  62
8
  10
 64.977011079976
  20
 188.20822639698
  30
0.0
  11
 62.227011079976
  21
 188.20822639698
  31
0.0
   0
SOLID
   5
107
 100
AcDbEntity
   8
LEVEL001
 100
AcDbTrace
   6
CONTINUOUS
  62
8
  10
 61.977011079976
  20
 188.20822639698
  30
0.0
  11
 59.977011079976
  21
 188.56088035840
  31
0.0
  12
 59.977011079976
  22
 187.85557243556
  32
0.0
  13
 59.977011079976
  23
 187.85557243556
  33
0.0
   0
SOLID
   5
108
 100
AcDbEntity
   8
LEVEL001
 100
AcDbTrace
   6
CONTINUOUS
  62
8
  10
 62.477011079976
  20
 188.20822639698
  30
0.0
  11
 64.477011079976
  21
 187.85557243556
  31
0.0
  12
 64.477011079976
  22
 188.56088035840
  32
0.0
  13
 64.477011079976
  23
 188.56088035840
  33
0.0
   0
MTEXT
   5
109
 100
AcDbEntity
   8
LEVEL001
 370
15
  62
8
 100
AcDbMText
  10
 60.745955842421
  20
 189.24570475941
  30
0.0
  40
 2.5000000000000
  41
0.0
  71
9
  72
1
   1
\A1;0.5
   7
GMM002
   0
ENDBLK
   5
10A
 100
AcDbEntity
   8
0
 100
AcDbBlockEnd
   0
BLOCK
   5
10B
 100
AcDbEntity
   8
0
 100
AcDbBlockBegin
   2
*D8
  70
65
  10
0.0
  20
0.0
  30
0.0
   3
*D8
   0
LINE
   5
10C
 100
AcDbEntity
   8
LEVEL001
 370
15
 100
AcDbLine
   6
CONTINUOUS
  62
8
  10
 66.977011079976
  20
 192.54039689737
  30
0.0
  11
 66.977011079976
  21
 187.20822639698
  31
0.0
   0
LINE
   5
10D
 100
AcDbEntity
   8
LEVEL001
 370
15
 100
AcDbLine
   6
CONTINUOUS
  62
8
  10
 67.477011079976
  20
 192.54039689737
  30
0.0
  11
 67.477011079976
  21
 187.20822639698
  31
0.0
   0
LINE
   5
10E
 100
AcDbEntity
   8
LEVEL001
 370
15
 100
AcDbLine
   6
CONTINUOUS
  62
8
  10
 64.477011079976
  20
 188.20822639698
  30
0.0
  11
 67.227011079976
  21
 188.20822639698
  31
0.0
   0
LINE
   5
10F
 100
AcDbEntity
   8
LEVEL001
 370
15
 100
AcDbLine
   6
CONTINUOUS
  62
8
  10
 74.861244062972
  20
 188.20822639698
  30
0.0
  11
 67.227011079976
  21
 188.20822639698
  31
0.0
   0
SOLID
   5
110
 100
AcDbEntity
   8
LEVEL001
 100
AcDbTrace
   6
CONTINUOUS
  62
8
  10
 66.977011079976
  20
 188.20822639698
  30
0.0
  11
 64.977011079976
  21
 188.56088035840
  31
0.0
  12
 64.977011079976
  22
 187.85557243556
  32
0.0
  13
 64.977011079976
  23
 187.85557243556
  33
0.0
   0
SOLID
   5
111
 100
AcDbEntity
   8
LEVEL001
 100
AcDbTrace
   6
CONTINUOUS
  62
8
  10
 67.477011079976
  20
 188.20822639698
  30
0.0
  11
 69.477011079976
  21
 187.85557243556
  31
0.0
  12
 69.477011079976
  22
 188.56088035840
  32
0.0
  13
 69.477011079976
  23
 188.56088035840
  33
0.0
   0
MTEXT
   5
112
 100
AcDbEntity
   8
LEVEL001
 370
15
  62
8
 100
AcDbMText
  10
 69.361244062972
  20
 188.91487769174
  30
0.0
  40
 2.5000000000000
  41
0.0
  71
7
  72
1
   1
\A1;0.5
   7
GMM002
   0
ENDBLK
   5
113
 100
AcDbEntity
   8
0
 100
AcDbBlockEnd
   0
BLOCK
   5
114
 100
AcDbEntity
   8
0
 100
AcDbBlockBegin
   2
*D9
  70
65
  10
0.0
  20
0.0
  30
0.0
   3
*D9
   0
LINE
   5
115
 100
AcDbEntity
   8
LEVEL001
 370
15
 100
AcDbLine
   6
CONTINUOUS
  62
8
  10
 61.977011079976
  20
 187.54039689737
  30
0.0
  11
 61.977011079976
  21
 181.99341158216
  31
0.0
   0
LINE
   5
116
 100
AcDbEntity
   8
LEVEL001
 370
15
 100
AcDbLine
   6
CONTINUOUS
  62
8
  10
 86.977011079976
  20
 192.54039689737
  30
0.0
  11
 86.977011079976
  21
 181.99341158216
  31
0.0
   0
LINE
   5
117
 100
AcDbEntity
   8
LEVEL001
 370
15
 100
AcDbLine
   6
CONTINUOUS
  62
8
  10
 61.977011079976
  20
 182.99341158216
  30
0.0
  11
 74.477011079976
  21
 182.99341158216
  31
0.0
   0
LINE
   5
118
 100
AcDbEntity
   8
LEVEL001
 370
15
 100
AcDbLine
   6
CONTINUOUS
  62
8
  10
 86.977011079976
  20
 182.99341158216
  30
0.0
  11
 74.477011079976
  21
 182.99341158216
  31
0.0
   0
SOLID
   5
119
 100
AcDbEntity
   8
LEVEL001
 100
AcDbTrace
   6
CONTINUOUS
  62
8
  10
 61.977011079976
  20
 182.99341158216
  30
0.0
  11
 63.977011079976
  21
 182.64075762075
  31
0.0
  12
 63.977011079976
  22
 183.34606554358
  32
0.0
  13
 63.977011079976
  23
 183.34606554358
  33
0.0
   0
SOLID
   5
11A
 100
AcDbEntity
   8
LEVEL001
 100
AcDbTrace
   6
CONTINUOUS
  62
8
  10
 86.977011079976
  20
 182.99341158216
  30
0.0
  11
 84.977011079976
  21
 183.34606554358
  31
0.0
  12
 84.977011079976
  22
 182.64075762075
  32
0.0
  13
 84.977011079976
  23
 182.64075762075
  33
0.0
   0
MTEXT
   5
11B
 100
AcDbEntity
   8
LEVEL001
 370
15
  62
8
 100
AcDbMText
  10
 74.477011079976
  20
 183.99341158216
  30
0.0
  40
 2.5000000000000
  41
0.0
  71
8
  72
1
   1
\A1;25
   7
GMM002
   0
ENDBLK
   5
11C
 100
AcDbEntity
   8
0
 100
AcDbBlockEnd
   0
BLOCK
   5
11D
 100
AcDbEntity
   8
0
 100
AcDbBlockBegin
   2
*D10
  70
65
  10
0.0
  20
0.0
  30
0.0
   3
*D10
   0
LINE
   5
11E
 100
AcDbEntity
   8
LEVEL001
 370
15
 100
AcDbLine
   6
CONTINUOUS
  62
8
  10
 105.82175435212
  20
 242.86769952895
  30
0.0
  11
 105.82175435212
  21
 247.92921405130
  31
0.0
   0
LINE
   5
11F
 100
AcDbEntity
   8
LEVEL001
 370
15
 100
AcDbLine
   6
CONTINUOUS
  62
8
  10
 99.312379376177
  20
 246.92921405130
  30
0.0
  11
 106.07175435212
  21
 246.92921405130
  31
0.0
   0
LINE
   5
120
 100
AcDbEntity
   8
LEVEL001
 370
15
 100
AcDbLine
   6
CONTINUOUS
  62
8
  10
 106.32175435212
  20
 246.92921405130
  30
0.0
  11
 106.07175435212
  21
 246.92921405130
  31
0.0
   0
SOLID
   5
121
 100
AcDbEntity
   8
LEVEL001
 100
AcDbTrace
   6
CONTINUOUS
  62
8
  10
 105.82175435212
  20
 246.92921405130
  30
0.0
  11
 103.82175435212
  21
 247.28186801272
  31
0.0
  12
 103.82175435212
  22
 246.57656008988
  32
0.0
  13
 103.82175435212
  23
 246.57656008988
  33
0.0
   0
MTEXT
   5
122
 100
AcDbEntity
   8
LEVEL001
 370
15
  62
8
 100
AcDbMText
  10
 104.81237937618
  20
 247.97624755159
  30
0.0
  40
 2.5000000000000
  41
0.0
  71
9
  72
1
   1
\A1;0.5
   7
GMM002
   0
ENDBLK
   5
123
 100
AcDbEntity
   8
0
 100
AcDbBlockEnd
   0
BLOCK
   5
124
 100
AcDbEntity
   8
0
 100
AcDbBlockBegin
   2
*D11
  70
65
  10
0.0
  20
0.0
  30
0.0
   3
*D11
   0
LINE
   5
125
 100
AcDbEntity
   8
LEVEL001
 370
15
 100
AcDbLine
   6
CONTINUOUS
  62
8
  10
 106.32175435212
  20
 242.86769952895
  30
0.0
  11
 106.32175435212
  21
 247.92921405130
  31
0.0
   0
LINE
   5
126
 100
AcDbEntity
   8
LEVEL001
 370
15
 100
AcDbLine
   6
CONTINUOUS
  62
8
  10
 113.32175435212
  20
 243.36769952895
  30
0.0
  11
 113.32175435212
  21
 247.92921405130
  31
0.0
   0
LINE
   5
127
 100
AcDbEntity
   8
LEVEL001
 370
15
 100
AcDbLine
   6
CONTINUOUS
  62
8
  10
 106.32175435212
  20
 246.92921405130
  30
0.0
  11
 109.82175435212
  21
 246.92921405130
  31
0.0
   0
LINE
   5
128
 100
AcDbEntity
   8
LEVEL001
 370
15
 100
AcDbLine
   6
CONTINUOUS
  62
8
  10
 113.32175435212
  20
 246.92921405130
  30
0.0
  11
 109.82175435212
  21
 246.92921405130
  31
0.0
   0
SOLID
   5
129
 100
AcDbEntity
   8
LEVEL001
 100
AcDbTrace
   6
CONTINUOUS
  62
8
  10
 106.32175435212
  20
 246.92921405130
  30
0.0
  11
 108.32175435212
  21
 246.57656008988
  31
0.0
  12
 108.32175435212
  22
 247.28186801272
  32
0.0
  13
 108.32175435212
  23
 247.28186801272
  33
0.0
   0
SOLID
   5
12A
 100
AcDbEntity
   8
LEVEL001
 100
AcDbTrace
   6
CONTINUOUS
  62
8
  10
 113.32175435212
  20
 246.92921405130
  30
0.0
  11
 111.32175435212
  21
 247.28186801272
  31
0.0
  12
 111.32175435212
  22
 246.57656008988
  32
0.0
  13
 111.32175435212
  23
 246.57656008988
  33
0.0
   0
MTEXT
   5
12B
 100
AcDbEntity
   8
LEVEL001
 370
15
  62
8
 100
AcDbMText
  10
 109.82175435212
  20
 247.92921405130
  30
0.0
  40
 2.5000000000000
  41
0.0
  71
8
  72
1
   1
\A1;7
   7
GMM002
   0
ENDBLK
   5
12C
 100
AcDbEntity
   8
0
 100
AcDbBlockEnd
   0
BLOCK
   5
12D
 100
AcDbEntity
   8
0
 100
AcDbBlockBegin
   2
*D12
  70
65
  10
0.0
  20
0.0
  30
0.0
   3
*D12
   0
LINE
   5
12E
 100
AcDbEntity
   8
LEVEL001
 370
15
 100
AcDbLine
   6
CONTINUOUS
  62
8
  10
 105.82175435212
  20
 248.36769952895
  30
0.0
  11
 105.82175435212
  21
 253.36769952895
  31
0.0
   0
LINE
   5
12F
 100
AcDbEntity
   8
LEVEL001
 370
15
 100
AcDbLine
   6
CONTINUOUS
  62
8
  10
 113.32175435212
  20
 248.36769952895
  30
0.0
  11
 113.32175435212
  21
 253.36769952895
  31
0.0
   0
LINE
   5
130
 100
AcDbEntity
   8
LEVEL001
 370
15
 100
AcDbLine
   6
CONTINUOUS
  62
8
  10
 105.82175435212
  20
 252.36769952895
  30
0.0
  11
 109.57175435212
  21
 252.36769952895
  31
0.0
   0
LINE
   5
131
 100
AcDbEntity
   8
LEVEL001
 370
15
 100
AcDbLine
   6
CONTINUOUS
  62
8
  10
 113.32175435212
  20
 252.36769952895
  30
0.0
  11
 109.57175435212
  21
 252.36769952895
  31
0.0
   0
SOLID
   5
132
 100
AcDbEntity
   8
LEVEL001
 100
AcDbTrace
   6
CONTINUOUS
  62
8
  10
 105.82175435212
  20
 252.36769952895
  30
0.0
  11
 107.82175435212
  21
 252.01504556753
  31
0.0
  12
 107.82175435212
  22
 252.72035349036
  32
0.0
  13
 107.82175435212
  23
 252.72035349036
  33
0.0
   0
SOLID
   5
133
 100
AcDbEntity
   8
LEVEL001
 100
AcDbTrace
   6
CONTINUOUS
  62
8
  10
 113.32175435212
  20
 252.36769952895
  30
0.0
  11
 111.32175435212
  21
 252.72035349036
  31
0.0
  12
 111.32175435212
  22
 252.01504556753
  32
0.0
  13
 111.32175435212
  23
 252.01504556753
  33
0.0
   0
MTEXT
   5
134
 100
AcDbEntity
   8
LEVEL001
 370
15
  62
8
 100
AcDbMText
  10
 109.57175435212
  20
 253.36769952895
  30
0.0
  40
 2.5000000000000
  41
0.0
  71
8
  72
1
   1
\A1;7.5
   7
GMM002
   0
ENDBLK
   5
135
 100
AcDbEntity
   8
0
 100
AcDbBlockEnd
   0
BLOCK
   5
136
 100
AcDbEntity
   8
0
 100
AcDbBlockBegin
   2
*D13
  70
65
  10
0.0
  20
0.0
  30
0.0
   3
*D13
   0
LINE
   5
137
 100
AcDbEntity
   8
LEVEL001
 370
15
 100
AcDbLine
   6
CONTINUOUS
  62
8
  10
 87.977011079976
  20
 236.86769952895
  30
0.0
  11
 96.279537856446
  21
 236.86769952895
  31
0.0
   0
LINE
   5
138
 100
AcDbEntity
   8
LEVEL001
 370
15
 100
AcDbLine
   6
CONTINUOUS
  62
8
  10
 87.977011079976
  20
 242.36769952895
  30
0.0
  11
 96.279537856446
  21
 242.36769952895
  31
0.0
   0
LINE
   5
139
 100
AcDbEntity
   8
LEVEL001
 370
15
 100
AcDbLine
   6
CONTINUOUS
  62
8
  10
 95.279537856446
  20
 236.86769952895
  30
0.0
  11
 95.279537856446
  21
 239.61769952895
  31
0.0
   0
LINE
   5
13A
 100
AcDbEntity
   8
LEVEL001
 370
15
 100
AcDbLine
   6
CONTINUOUS
  62
8
  10
 95.279537856446
  20
 242.36769952895
  30
0.0
  11
 95.279537856446
  21
 239.61769952895
  31
0.0
   0
SOLID
   5
13B
 100
AcDbEntity
   8
LEVEL001
 100
AcDbTrace
   6
CONTINUOUS
  62
8
  10
 95.279537856446
  20
 236.86769952895
  30
0.0
  11
 95.632191817863
  21
 238.86769952895
  31
0.0
  12
 94.926883895029
  22
 238.86769952895
  32
0.0
  13
 94.926883895029
  23
 238.86769952895
  33
0.0
   0
SOLID
   5
13C
 100
AcDbEntity
   8
LEVEL001
 100
AcDbTrace
   6
CONTINUOUS
  62
8
  10
 95.279537856446
  20
 242.36769952895
  30
0.0
  11
 94.926883895029
  21
 240.36769952895
  31
0.0
  12
 95.632191817863
  22
 240.36769952895
  32
0.0
  13
 95.632191817863
  23
 240.36769952895
  33
0.0
   0
MTEXT
   5
13D
 100
AcDbEntity
   8
LEVEL001
 370
15
  62
8
 100
AcDbMText
  10
 94.279537856446
  20
 239.61769952895
  30
0.0
  40
 2.5000000000000
  41
0.0
  71
8
  72
1
   1
\A1;5.5
   7
GMM002
  11
0.0
  21
 1.0000000000000
  31
0.0
   0
ENDBLK
   5
13E
 100
AcDbEntity
   8
0
 100
AcDbBlockEnd
   0
BLOCK
   5
13F
 100
AcDbEntity
   8
0
 100
AcDbBlockBegin
   2
*D14
  70
65
  10
0.0
  20
0.0
  30
0.0
   3
*D14
   0
LINE
   5
140
 100
AcDbEntity
   8
LEVEL001
 370
15
 100
AcDbLine
   6
CONTINUOUS
  62
8
  10
 205.47701107998
  20
 217.36769952895
  30
0.0
  11
 195.47701107998
  21
 217.36769952895
  31
0.0
   0
LINE
   5
141
 100
AcDbEntity
   8
LEVEL001
 370
15
 100
AcDbLine
   6
CONTINUOUS
  62
8
  10
 208.47701107998
  20
 242.36769952895
  30
0.0
  11
 195.47701107998
  21
 242.36769952895
  31
0.0
   0
LINE
   5
142
 100
AcDbEntity
   8
LEVEL001
 370
15
 100
AcDbLine
   6
CONTINUOUS
  62
8
  10
 196.47701107998
  20
 217.36769952895
  30
0.0
  11
 196.47701107998
  21
 229.86769952895
  31
0.0
   0
LINE
   5
143
 100
AcDbEntity
   8
LEVEL001
 370
15
 100
AcDbLine
   6
CONTINUOUS
  62
8
  10
 196.47701107998
  20
 242.36769952895
  30
0.0
  11
 196.47701107998
  21
 229.86769952895
  31
0.0
   0
SOLID
   5
144
 100
AcDbEntity
   8
LEVEL001
 100
AcDbTrace
   6
CONTINUOUS
  62
8
  10
 196.47701107998
  20
 217.36769952895
  30
0.0
  11
 196.82966504139
  21
 219.36769952895
  31
0.0
  12
 196.12435711856
  22
 219.36769952895
  32
0.0
  13
 196.12435711856
  23
 219.36769952895
  33
0.0
   0
SOLID
   5
145
 100
AcDbEntity
   8
LEVEL001
 100
AcDbTrace
   6
CONTINUOUS
  62
8
  10
 196.47701107998
  20
 242.36769952895
  30
0.0
  11
 196.12435711856
  21
 240.36769952895
  31
0.0
  12
 196.82966504139
  22
 240.36769952895
  32
0.0
  13
 196.82966504139
  23
 240.36769952895
  33
0.0
   0
MTEXT
   5
146
 100
AcDbEntity
   8
LEVEL001
 370
15
  62
8
 100
AcDbMText
  10
 195.47701107998
  20
 229.86769952895
  30
0.0
  40
 2.5000000000000
  41
0.0
  71
8
  72
1
   1
\A1;25
   7
GMM002
  11
0.0
  21
 1.0000000000000
  31
0.0
   0
ENDBLK
   5
147
 100
AcDbEntity
   8
0
 100
AcDbBlockEnd
   0
BLOCK
   5
148
 100
AcDbEntity
   8
0
 100
AcDbBlockBegin
   2
*D15
  70
65
  10
0.0
  20
0.0
  30
0.0
   3
*D15
   0
LINE
   5
149
 100
AcDbEntity
   8
LEVEL001
 370
15
 100
AcDbLine
   6
CONTINUOUS
  62
8
  10
 206.47701107998
  20
 240.36769952895
  30
0.0
  11
 206.47701107998
  21
 253.36769952895
  31
0.0
   0
LINE
   5
14A
 100
AcDbEntity
   8
LEVEL001
 370
15
 100
AcDbLine
   6
CONTINUOUS
  62
8
  10
 231.47701107998
  20
 243.36769952895
  30
0.0
  11
 231.47701107998
  21
 253.36769952895
  31
0.0
   0
LINE
   5
14B
 100
AcDbEntity
   8
LEVEL001
 370
15
 100
AcDbLine
   6
CONTINUOUS
  62
8
  10
 206.47701107998
  20
 252.36769952895
  30
0.0
  11
 218.97701107998
  21
 252.36769952895
  31
0.0
   0
LINE
   5
14C
 100
AcDbEntity
   8
LEVEL001
 370
15
 100
AcDbLine
   6
CONTINUOUS
  62
8
  10
 231.47701107998
  20
 252.36769952895
  30
0.0
  11
 218.97701107998
  21
 252.36769952895
  31
0.0
   0
SOLID
   5
14D
 100
AcDbEntity
   8
LEVEL001
 100
AcDbTrace
   6
CONTINUOUS
  62
8
  10
 206.47701107998
  20
 252.36769952895
  30
0.0
  11
 208.47701107998
  21
 252.01504556753
  31
0.0
  12
 208.47701107998
  22
 252.72035349036
  32
0.0
  13
 208.47701107998
  23
 252.72035349036
  33
0.0
   0
SOLID
   5
14E
 100
AcDbEntity
   8
LEVEL001
 100
AcDbTrace
   6
CONTINUOUS
  62
8
  10
 231.47701107998
  20
 252.36769952895
  30
0.0
  11
 229.47701107998
  21
 252.72035349036
  31
0.0
  12
 229.47701107998
  22
 252.01504556753
  32
0.0
  13
 229.47701107998
  23
 252.01504556753
  33
0.0
   0
MTEXT
   5
14F
 100
AcDbEntity
   8
LEVEL001
 370
15
  62
8
 100
AcDbMText
  10
 218.97701107998
  20
 253.36769952895
  30
0.0
  40
 2.5000000000000
  41
0.0
  71
8
  72
1
   1
\A1;25
   7
GMM002
   0
ENDBLK
   5
150
 100
AcDbEntity
   8
0
 100
AcDbBlockEnd
   0
BLOCK
   5
151
 100
AcDbEntity
   8
0
 100
AcDbBlockBegin
   2
*D16
  70
65
  10
0.0
  20
0.0
  30
0.0
   3
*D16
   0
LINE
   5
152
 100
AcDbEntity
   8
LEVEL001
 370
15
 100
AcDbLine
   6
CONTINUOUS
  62
8
  10
 205.47701107998
  20
 193.54039689737
  30
0.0
  11
 201.94990822682
  21
 193.54039689737
  31
0.0
   0
LINE
   5
153
 100
AcDbEntity
   8
LEVEL001
 370
15
 100
AcDbLine
   6
CONTINUOUS
  62
8
  10
 202.94990822682
  20
 193.54039689737
  30
0.0
  11
 202.94990822682
  21
 197.04039689737
  31
0.0
   0
LINE
   5
154
 100
AcDbEntity
   8
LEVEL001
 370
15
 100
AcDbLine
   6
CONTINUOUS
  62
8
  10
 202.94990822682
  20
 200.54039689737
  30
0.0
  11
 202.94990822682
  21
 197.04039689737
  31
0.0
   0
SOLID
   5
155
 100
AcDbEntity
   8
LEVEL001
 100
AcDbTrace
   6
CONTINUOUS
  62
8
  10
 202.94990822682
  20
 193.54039689737
  30
0.0
  11
 203.30256218823
  21
 195.54039689737
  31
0.0
  12
 202.59725426540
  22
 195.54039689737
  32
0.0
  13
 202.59725426540
  23
 195.54039689737
  33
0.0
   0
SOLID
   5
156
 100
AcDbEntity
   8
LEVEL001
 100
AcDbTrace
   6
CONTINUOUS
  62
8
  10
 202.94990822682
  20
 200.54039689737
  30
0.0
  11
 202.59725426540
  21
 198.54039689737
  31
0.0
  12
 203.30256218823
  22
 198.54039689737
  32
0.0
  13
 203.30256218823
  23
 198.54039689737
  33
0.0
   0
MTEXT
   5
157
 100
AcDbEntity
   8
LEVEL001
 370
15
  62
8
 100
AcDbMText
  10
 201.94990822682
  20
 197.04039689737
  30
0.0
  40
 2.5000000000000
  41
0.0
  71
8
  72
1
   1
\A1;7
   7
GMM002
  11
0.0
  21
 1.0000000000000
  31
0.0
   0
ENDBLK
   5
158
 100
AcDbEntity
   8
0
 100
AcDbBlockEnd
   0
BLOCK
   5
159
 100
AcDbEntity
   8
0
 100
AcDbBlockBegin
   2
*D17
  70
65
  10
0.0
  20
0.0
  30
0.0
   3
*D17
   0
LINE
   5
15A
 100
AcDbEntity
   8
LEVEL001
 370
15
 100
AcDbLine
   6
CONTINUOUS
  62
8
  10
 205.97701107998
  20
 200.54039689737
  30
0.0
  11
 201.94990822682
  21
 200.54039689737
  31
0.0
   0
LINE
   5
15B
 100
AcDbEntity
   8
LEVEL001
 370
15
 100
AcDbLine
   6
CONTINUOUS
  62
8
  10
 205.97701107998
  20
 201.04039689737
  30
0.0
  11
 201.94990822682
  21
 201.04039689737
  31
0.0
   0
LINE
   5
15C
 100
AcDbEntity
   8
LEVEL001
 370
15
 100
AcDbLine
   6
CONTINUOUS
  62
8
  10
 202.94990822682
  20
 200.54039689737
  30
0.0
  11
 202.94990822682
  21
 200.79039689737
  31
0.0
   0
LINE
   5
15D
 100
AcDbEntity
   8
LEVEL001
 370
15
 100
AcDbLine
   6
CONTINUOUS
  62
8
  10
 202.94990822682
  20
 208.49266222723
  30
0.0
  11
 202.94990822682
  21
 200.79039689737
  31
0.0
   0
SOLID
   5
15E
 100
AcDbEntity
   8
LEVEL001
 100
AcDbTrace
   6
CONTINUOUS
  62
8
  10
 202.94990822682
  20
 201.04039689737
  30
0.0
  11
 203.30256218823
  21
 203.04039689737
  31
0.0
  12
 202.59725426540
  22
 203.04039689737
  32
0.0
  13
 202.59725426540
  23
 203.04039689737
  33
0.0
   0
MTEXT
   5
15F
 100
AcDbEntity
   8
LEVEL001
 370
15
  62
8
 100
AcDbMText
  10
 202.32704012376
  20
 202.99266222723
  30
0.0
  40
 2.5000000000000
  41
0.0
  71
7
  72
1
   1
\A1;0.5
   7
GMM002
  11
0.0
  21
 1.0000000000000
  31
0.0
   0
ENDBLK
   5
160
 100
AcDbEntity
   8
0
 100
AcDbBlockEnd
   0
BLOCK
   5
161
 100
AcDbEntity
   8
0
 100
AcDbBlockBegin
   2
*D18
  70
65
  10
0.0
  20
0.0
  30
0.0
   3
*D18
   0
LINE
   5
162
 100
AcDbEntity
   8
LEVEL001
 370
15
 100
AcDbLine
   6
CONTINUOUS
  62
8
  10
 201.94990822682
  20
 193.54039689737
  30
0.0
  11
 195.47701107998
  21
 193.54039689737
  31
0.0
   0
LINE
   5
163
 100
AcDbEntity
   8
LEVEL001
 370
15
 100
AcDbLine
   6
CONTINUOUS
  62
8
  10
 201.94990822682
  20
 201.04039689737
  30
0.0
  11
 195.47701107998
  21
 201.04039689737
  31
0.0
   0
LINE
   5
164
 100
AcDbEntity
   8
LEVEL001
 370
15
 100
AcDbLine
   6
CONTINUOUS
  62
8
  10
 196.47701107998
  20
 193.54039689737
  30
0.0
  11
 196.47701107998
  21
 197.29039689737
  31
0.0
   0
LINE
   5
165
 100
AcDbEntity
   8
LEVEL001
 370
15
 100
AcDbLine
   6
CONTINUOUS
  62
8
  10
 196.47701107998
  20
 201.04039689737
  30
0.0
  11
 196.47701107998
  21
 197.29039689737
  31
0.0
   0
SOLID
   5
166
 100
AcDbEntity
   8
LEVEL001
 100
AcDbTrace
   6
CONTINUOUS
  62
8
  10
 196.47701107998
  20
 193.54039689737
  30
0.0
  11
 196.82966504139
  21
 195.54039689737
  31
0.0
  12
 196.12435711856
  22
 195.54039689737
  32
0.0
  13
 196.12435711856
  23
 195.54039689737
  33
0.0
   0
SOLID
   5
167
 100
AcDbEntity
   8
LEVEL001
 100
AcDbTrace
   6
CONTINUOUS
  62
8
  10
 196.47701107998
  20
 201.04039689737
  30
0.0
  11
 196.12435711856
  21
 199.04039689737
  31
0.0
  12
 196.82966504139
  22
 199.04039689737
  32
0.0
  13
 196.82966504139
  23
 199.04039689737
  33
0.0
   0
MTEXT
   5
168
 100
AcDbEntity
   8
LEVEL001
 370
15
  62
8
 100
AcDbMText
  10
 195.47701107998
  20
 197.29039689737
  30
0.0
  40
 2.5000000000000
  41
0.0
  71
8
  72
1
   1
\A1;7.5
   7
GMM002
  11
0.0
  21
 1.0000000000000
  31
0.0
   0
ENDBLK
   5
169
 100
AcDbEntity
   8
0
 100
AcDbBlockEnd
   0
BLOCK
   5
16A
 100
AcDbEntity
   8
0
 100
AcDbBlockBegin
   2
*D19
  70
65
  10
0.0
  20
0.0
  30
0.0
   3
*D19
   0
LINE
   5
16B
 100
AcDbEntity
   8
LEVEL001
 370
15
 100
AcDbLine
   6
CONTINUOUS
  62
8
  10
 206.47701107998
  20
 216.36769952895
  30
0.0
  11
 206.47701107998
  21
 210.63867907188
  31
0.0
   0
LINE
   5
16C
 100
AcDbEntity
   8
LEVEL001
 370
15
 100
AcDbLine
   6
CONTINUOUS
  62
8
  10
 211.97701107998
  20
 216.36769952895
  30
0.0
  11
 211.97701107998
  21
 210.63867907188
  31
0.0
   0
LINE
   5
16D
 100
AcDbEntity
   8
LEVEL001
 370
15
 100
AcDbLine
   6
CONTINUOUS
  62
8
  10
 206.47701107998
  20
 211.63867907188
  30
0.0
  11
 209.22701107998
  21
 211.63867907188
  31
0.0
   0
LINE
   5
16E
 100
AcDbEntity
   8
LEVEL001
 370
15
 100
AcDbLine
   6
CONTINUOUS
  62
8
  10
 211.97701107998
  20
 211.63867907188
  30
0.0
  11
 209.22701107998
  21
 211.63867907188
  31
0.0
   0
SOLID
   5
16F
 100
AcDbEntity
   8
LEVEL001
 100
AcDbTrace
   6
CONTINUOUS
  62
8
  10
 206.47701107998
  20
 211.63867907188
  30
0.0
  11
 208.47701107998
  21
 211.28602511046
  31
0.0
  12
 208.47701107998
  22
 211.99133303329
  32
0.0
  13
 208.47701107998
  23
 211.99133303329
  33
0.0
   0
SOLID
   5
170
 100
AcDbEntity
   8
LEVEL001
 100
AcDbTrace
   6
CONTINUOUS
  62
8
  10
 211.97701107998
  20
 211.63867907188
  30
0.0
  11
 209.97701107998
  21
 211.99133303329
  31
0.0
  12
 209.97701107998
  22
 211.28602511046
  32
0.0
  13
 209.97701107998
  23
 211.28602511046
  33
0.0
   0
MTEXT
   5
171
 100
AcDbEntity
   8
LEVEL001
 370
15
  62
8
 100
AcDbMText
  10
 209.22701107998
  20
 212.63867907188
  30
0.0
  40
 2.5000000000000
  41
0.0
  71
8
  72
1
   1
\A1;5.5
   7
GMM002
   0
ENDBLK
   5
172
 100
AcDbEntity
   8
0
 100
AcDbBlockEnd
   0
BLOCK
   5
173
 100
AcDbEntity
   8
0
 100
AcDbBlockBegin
   2
*D20
  70
65
  10
0.0
  20
0.0
  30
0.0
   3
*D20
   0
LINE
   5
174
 100
AcDbEntity
   8
LEVEL001
 370
15
 100
AcDbLine
   6
CONTINUOUS
  62
8
  10
 206.47701107998
  20
 192.54039689737
  30
0.0
  11
 206.47701107998
  21
 187.20822639698
  31
0.0
   0
LINE
   5
175
 100
AcDbEntity
   8
LEVEL001
 370
15
 100
AcDbLine
   6
CONTINUOUS
  62
8
  10
 206.97701107998
  20
 192.54039689737
  30
0.0
  11
 206.97701107998
  21
 187.20822639698
  31
0.0
   0
LINE
   5
176
 100
AcDbEntity
   8
LEVEL001
 370
15
 100
AcDbLine
   6
CONTINUOUS
  62
8
  10
 199.74595584242
  20
 188.20822639698
  30
0.0
  11
 206.72701107998
  21
 188.20822639698
  31
0.0
   0
LINE
   5
177
 100
AcDbEntity
   8
LEVEL001
 370
15
 100
AcDbLine
   6
CONTINUOUS
  62
8
  10
 209.47701107998
  20
 188.20822639698
  30
0.0
  11
 206.72701107998
  21
 188.20822639698
  31
0.0
   0
SOLID
   5
178
 100
AcDbEntity
   8
LEVEL001
 100
AcDbTrace
   6
CONTINUOUS
  62
8
  10
 206.47701107998
  20
 188.20822639698
  30
0.0
  11
 204.47701107998
  21
 188.56088035840
  31
0.0
  12
 204.47701107998
  22
 187.85557243556
  32
0.0
  13
 204.47701107998
  23
 187.85557243556
  33
0.0
   0
SOLID
   5
179
 100
AcDbEntity
   8
LEVEL001
 100
AcDbTrace
   6
CONTINUOUS
  62
8
  10
 206.97701107998
  20
 188.20822639698
  30
0.0
  11
 208.97701107998
  21
 187.85557243556
  31
0.0
  12
 208.97701107998
  22
 188.56088035840
  32
0.0
  13
 208.97701107998
  23
 188.56088035840
  33
0.0
   0
MTEXT
   5
17A
 100
AcDbEntity
   8
LEVEL001
 370
15
  62
8
 100
AcDbMText
  10
 205.24595584242
  20
 189.24570475941
  30
0.0
  40
 2.5000000000000
  41
0.0
  71
9
  72
1
   1
\A1;0.5
   7
GMM002
   0
ENDBLK
   5
17B
 100
AcDbEntity
   8
0
 100
AcDbBlockEnd
   0
BLOCK
   5
17C
 100
AcDbEntity
   8
0
 100
AcDbBlockBegin
   2
*D21
  70
65
  10
0.0
  20
0.0
  30
0.0
   3
*D21
   0
LINE
   5
17D
 100
AcDbEntity
   8
LEVEL001
 370
15
 100
AcDbLine
   6
CONTINUOUS
  62
8
  10
 211.47701107998
  20
 192.54039689737
  30
0.0
  11
 211.47701107998
  21
 187.20822639698
  31
0.0
   0
LINE
   5
17E
 100
AcDbEntity
   8
LEVEL001
 370
15
 100
AcDbLine
   6
CONTINUOUS
  62
8
  10
 211.97701107998
  20
 192.54039689737
  30
0.0
  11
 211.97701107998
  21
 187.20822639698
  31
0.0
   0
LINE
   5
17F
 100
AcDbEntity
   8
LEVEL001
 370
15
 100
AcDbLine
   6
CONTINUOUS
  62
8
  10
 208.97701107998
  20
 188.20822639698
  30
0.0
  11
 211.72701107998
  21
 188.20822639698
  31
0.0
   0
LINE
   5
180
 100
AcDbEntity
   8
LEVEL001
 370
15
 100
AcDbLine
   6
CONTINUOUS
  62
8
  10
 219.36124406297
  20
 188.20822639698
  30
0.0
  11
 211.72701107998
  21
 188.20822639698
  31
0.0
   0
SOLID
   5
181
 100
AcDbEntity
   8
LEVEL001
 100
AcDbTrace
   6
CONTINUOUS
  62
8
  10
 211.47701107998
  20
 188.20822639698
  30
0.0
  11
 209.47701107998
  21
 188.56088035840
  31
0.0
  12
 209.47701107998
  22
 187.85557243556
  32
0.0
  13
 209.47701107998
  23
 187.85557243556
  33
0.0
   0
SOLID
   5
182
 100
AcDbEntity
   8
LEVEL001
 100
AcDbTrace
   6
CONTINUOUS
  62
8
  10
 211.97701107998
  20
 188.20822639698
  30
0.0
  11
 213.97701107998
  21
 187.85557243556
  31
0.0
  12
 213.97701107998
  22
 188.56088035840
  32
0.0
  13
 213.97701107998
  23
 188.56088035840
  33
0.0
   0
MTEXT
   5
183
 100
AcDbEntity
   8
LEVEL001
 370
15
  62
8
 100
AcDbMText
  10
 213.86124406297
  20
 188.91487769174
  30
0.0
  40
 2.5000000000000
  41
0.0
  71
7
  72
1
   1
\A1;0.5
   7
GMM002
   0
ENDBLK
   5
184
 100
AcDbEntity
   8
0
 100
AcDbBlockEnd
   0
BLOCK
   5
185
 100
AcDbEntity
   8
0
 100
AcDbBlockBegin
   2
*D22
  70
65
  10
0.0
  20
0.0
  30
0.0
   3
*D22
   0
LINE
   5
186
 100
AcDbEntity
   8
LEVEL001
 370
15
 100
AcDbLine
   6
CONTINUOUS
  62
8
  10
 206.47701107998
  20
 187.54039689737
  30
0.0
  11
 206.47701107998
  21
 181.99341158216
  31
0.0
   0
LINE
   5
187
 100
AcDbEntity
   8
LEVEL001
 370
15
 100
AcDbLine
   6
CONTINUOUS
  62
8
  10
 231.47701107998
  20
 192.54039689737
  30
0.0
  11
 231.47701107998
  21
 181.99341158216
  31
0.0
   0
LINE
   5
188
 100
AcDbEntity
   8
LEVEL001
 370
15
 100
AcDbLine
   6
CONTINUOUS
  62
8
  10
 206.47701107998
  20
 182.99341158216
  30
0.0
  11
 218.97701107998
  21
 182.99341158216
  31
0.0
   0
LINE
   5
189
 100
AcDbEntity
   8
LEVEL001
 370
15
 100
AcDbLine
   6
CONTINUOUS
  62
8
  10
 231.47701107998
  20
 182.99341158216
  30
0.0
  11
 218.97701107998
  21
 182.99341158216
  31
0.0
   0
SOLID
   5
18A
 100
AcDbEntity
   8
LEVEL001
 100
AcDbTrace
   6
CONTINUOUS
  62
8
  10
 206.47701107998
  20
 182.99341158216
  30
0.0
  11
 208.47701107998
  21
 182.64075762075
  31
0.0
  12
 208.47701107998
  22
 183.34606554358
  32
0.0
  13
 208.47701107998
  23
 183.34606554358
  33
0.0
   0
SOLID
   5
18B
 100
AcDbEntity
   8
LEVEL001
 100
AcDbTrace
   6
CONTINUOUS
  62
8
  10
 231.47701107998
  20
 182.99341158216
  30
0.0
  11
 229.47701107998
  21
 183.34606554358
  31
0.0
  12
 229.47701107998
  22
 182.64075762075
  32
0.0
  13
 229.47701107998
  23
 182.64075762075
  33
0.0
   0
MTEXT
   5
18C
 100
AcDbEntity
   8
LEVEL001
 370
15
  62
8
 100
AcDbMText
  10
 218.97701107998
  20
 183.99341158216
  30
0.0
  40
 2.5000000000000
  41
0.0
  71
8
  72
1
   1
\A1;25
   7
GMM002
   0
ENDBLK
   5
18D
 100
AcDbEntity
   8
0
 100
AcDbBlockEnd
   0
BLOCK
   5
18E
 100
AcDbEntity
   8
0
 100
AcDbBlockBegin
   2
*D23
  70
65
  10
0.0
  20
0.0
  30
0.0
   3
*D23
   0
LINE
   5
18F
 100
AcDbEntity
   8
LEVEL001
 370
15
 100
AcDbLine
   6
CONTINUOUS
  62
8
  10
 250.32175435212
  20
 242.86769952895
  30
0.0
  11
 250.32175435212
  21
 247.92921405130
  31
0.0
   0
LINE
   5
190
 100
AcDbEntity
   8
LEVEL001
 370
15
 100
AcDbLine
   6
CONTINUOUS
  62
8
  10
 243.81237937618
  20
 246.92921405130
  30
0.0
  11
 250.57175435212
  21
 246.92921405130
  31
0.0
   0
LINE
   5
191
 100
AcDbEntity
   8
LEVEL001
 370
15
 100
AcDbLine
   6
CONTINUOUS
  62
8
  10
 250.82175435212
  20
 246.92921405130
  30
0.0
  11
 250.57175435212
  21
 246.92921405130
  31
0.0
   0
SOLID
   5
192
 100
AcDbEntity
   8
LEVEL001
 100
AcDbTrace
   6
CONTINUOUS
  62
8
  10
 250.32175435212
  20
 246.92921405130
  30
0.0
  11
 248.32175435212
  21
 247.28186801272
  31
0.0
  12
 248.32175435212
  22
 246.57656008988
  32
0.0
  13
 248.32175435212
  23
 246.57656008988
  33
0.0
   0
MTEXT
   5
193
 100
AcDbEntity
   8
LEVEL001
 370
15
  62
8
 100
AcDbMText
  10
 249.31237937618
  20
 247.97624755159
  30
0.0
  40
 2.5000000000000
  41
0.0
  71
9
  72
1
   1
\A1;0.5
   7
GMM002
   0
ENDBLK
   5
194
 100
AcDbEntity
   8
0
 100
AcDbBlockEnd
   0
BLOCK
   5
195
 100
AcDbEntity
   8
0
 100
AcDbBlockBegin
   2
*D24
  70
65
  10
0.0
  20
0.0
  30
0.0
   3
*D24
   0
LINE
   5
196
 100
AcDbEntity
   8
LEVEL001
 370
15
 100
AcDbLine
   6
CONTINUOUS
  62
8
  10
 250.82175435212
  20
 242.86769952895
  30
0.0
  11
 250.82175435212
  21
 247.92921405130
  31
0.0
   0
LINE
   5
197
 100
AcDbEntity
   8
LEVEL001
 370
15
 100
AcDbLine
   6
CONTINUOUS
  62
8
  10
 257.82175435212
  20
 243.36769952895
  30
0.0
  11
 257.82175435212
  21
 247.92921405130
  31
0.0
   0
LINE
   5
198
 100
AcDbEntity
   8
LEVEL001
 370
15
 100
AcDbLine
   6
CONTINUOUS
  62
8
  10
 250.82175435212
  20
 246.92921405130
  30
0.0
  11
 254.32175435212
  21
 246.92921405130
  31
0.0
   0
LINE
   5
199
 100
AcDbEntity
   8
LEVEL001
 370
15
 100
AcDbLine
   6
CONTINUOUS
  62
8
  10
 257.82175435212
  20
 246.92921405130
  30
0.0
  11
 254.32175435212
  21
 246.92921405130
  31
0.0
   0
SOLID
   5
19A
 100
AcDbEntity
   8
LEVEL001
 100
AcDbTrace
   6
CONTINUOUS
  62
8
  10
 250.82175435212
  20
 246.92921405130
  30
0.0
  11
 252.82175435212
  21
 246.57656008988
  31
0.0
  12
 252.82175435212
  22
 247.28186801272
  32
0.0
  13
 252.82175435212
  23
 247.28186801272
  33
0.0
   0
SOLID
   5
19B
 100
AcDbEntity
   8
LEVEL001
 100
AcDbTrace
   6
CONTINUOUS
  62
8
  10
 257.82175435212
  20
 246.92921405130
  30
0.0
  11
 255.82175435212
  21
 247.28186801272
  31
0.0
  12
 255.82175435212
  22
 246.57656008988
  32
0.0
  13
 255.82175435212
  23
 246.57656008988
  33
0.0
   0
MTEXT
   5
19C
 100
AcDbEntity
   8
LEVEL001
 370
15
  62
8
 100
AcDbMText
  10
 254.32175435212
  20
 247.92921405130
  30
0.0
  40
 2.5000000000000
  41
0.0
  71
8
  72
1
   1
\A1;7
   7
GMM002
   0
ENDBLK
   5
19D
 100
AcDbEntity
   8
0
 100
AcDbBlockEnd
   0
BLOCK
   5
19E
 100
AcDbEntity
   8
0
 100
AcDbBlockBegin
   2
*D25
  70
65
  10
0.0
  20
0.0
  30
0.0
   3
*D25
   0
LINE
   5
19F
 100
AcDbEntity
   8
LEVEL001
 370
15
 100
AcDbLine
   6
CONTINUOUS
  62
8
  10
 250.32175435212
  20
 248.36769952895
  30
0.0
  11
 250.32175435212
  21
 253.36769952895
  31
0.0
   0
LINE
   5
1A0
 100
AcDbEntity
   8
LEVEL001
 370
15
 100
AcDbLine
   6
CONTINUOUS
  62
8
  10
 257.82175435212
  20
 248.36769952895
  30
0.0
  11
 257.82175435212
  21
 253.36769952895
  31
0.0
   0
LINE
   5
1A1
 100
AcDbEntity
   8
LEVEL001
 370
15
 100
AcDbLine
   6
CONTINUOUS
  62
8
  10
 250.32175435212
  20
 252.36769952895
  30
0.0
  11
 254.07175435212
  21
 252.36769952895
  31
0.0
   0
LINE
   5
1A2
 100
AcDbEntity
   8
LEVEL001
 370
15
 100
AcDbLine
   6
CONTINUOUS
  62
8
  10
 257.82175435212
  20
 252.36769952895
  30
0.0
  11
 254.07175435212
  21
 252.36769952895
  31
0.0
   0
SOLID
   5
1A3
 100
AcDbEntity
   8
LEVEL001
 100
AcDbTrace
   6
CONTINUOUS
  62
8
  10
 250.32175435212
  20
 252.36769952895
  30
0.0
  11
 252.32175435212
  21
 252.01504556753
  31
0.0
  12
 252.32175435212
  22
 252.72035349036
  32
0.0
  13
 252.32175435212
  23
 252.72035349036
  33
0.0
   0
SOLID
   5
1A4
 100
AcDbEntity
   8
LEVEL001
 100
AcDbTrace
   6
CONTINUOUS
  62
8
  10
 257.82175435212
  20
 252.36769952895
  30
0.0
  11
 255.82175435212
  21
 252.72035349036
  31
0.0
  12
 255.82175435212
  22
 252.01504556753
  32
0.0
  13
 255.82175435212
  23
 252.01504556753
  33
0.0
   0
MTEXT
   5
1A5
 100
AcDbEntity
   8
LEVEL001
 370
15
  62
8
 100
AcDbMText
  10
 254.07175435212
  20
 253.36769952895
  30
0.0
  40
 2.5000000000000
  41
0.0
  71
8
  72
1
   1
\A1;7.5
   7
GMM002
   0
ENDBLK
   5
1A6
 100
AcDbEntity
   8
0
 100
AcDbBlockEnd
   0
BLOCK
   5
1A7
 100
AcDbEntity
   8
0
 100
AcDbBlockBegin
   2
*D26
  70
65
  10
0.0
  20
0.0
  30
0.0
   3
*D26
   0
LINE
   5
1A8
 100
AcDbEntity
   8
LEVEL001
 370
15
 100
AcDbLine
   6
CONTINUOUS
  62
8
  10
 232.47701107998
  20
 236.86769952895
  30
0.0
  11
 240.77953785645
  21
 236.86769952895
  31
0.0
   0
LINE
   5
1A9
 100
AcDbEntity
   8
LEVEL001
 370
15
 100
AcDbLine
   6
CONTINUOUS
  62
8
  10
 232.47701107998
  20
 242.36769952895
  30
0.0
  11
 240.77953785645
  21
 242.36769952895
  31
0.0
   0
LINE
   5
1AA
 100
AcDbEntity
   8
LEVEL001
 370
15
 100
AcDbLine
   6
CONTINUOUS
  62
8
  10
 239.77953785645
  20
 236.86769952895
  30
0.0
  11
 239.77953785645
  21
 239.61769952895
  31
0.0
   0
LINE
   5
1AB
 100
AcDbEntity
   8
LEVEL001
 370
15
 100
AcDbLine
   6
CONTINUOUS
  62
8
  10
 239.77953785645
  20
 242.36769952895
  30
0.0
  11
 239.77953785645
  21
 239.61769952895
  31
0.0
   0
SOLID
   5
1AC
 100
AcDbEntity
   8
LEVEL001
 100
AcDbTrace
   6
CONTINUOUS
  62
8
  10
 239.77953785645
  20
 236.86769952895
  30
0.0
  11
 240.13219181786
  21
 238.86769952895
  31
0.0
  12
 239.42688389503
  22
 238.86769952895
  32
0.0
  13
 239.42688389503
  23
 238.86769952895
  33
0.0
   0
SOLID
   5
1AD
 100
AcDbEntity
   8
LEVEL001
 100
AcDbTrace
   6
CONTINUOUS
  62
8
  10
 239.77953785645
  20
 242.36769952895
  30
0.0
  11
 239.42688389503
  21
 240.36769952895
  31
0.0
  12
 240.13219181786
  22
 240.36769952895
  32
0.0
  13
 240.13219181786
  23
 240.36769952895
  33
0.0
   0
MTEXT
   5
1AE
 100
AcDbEntity
   8
LEVEL001
 370
15
  62
8
 100
AcDbMText
  10
 238.77953785645
  20
 239.61769952895
  30
0.0
  40
 2.5000000000000
  41
0.0
  71
8
  72
1
   1
\A1;5.5
   7
GMM002
  11
0.0
  21
 1.0000000000000
  31
0.0
   0
ENDBLK
   5
1AF
 100
AcDbEntity
   8
0
 100
AcDbBlockEnd
   0
BLOCK
   5
1B0
 100
AcDbEntity
   8
0
 100
AcDbBlockBegin
   2
*D27
  70
65
  10
0.0
  20
0.0
  30
0.0
   3
*D27
   0
LINE
   5
1B1
 100
AcDbEntity
   8
LEVEL001
 370
15
 100
AcDbLine
   6
CONTINUOUS
  62
8
  10
 60.977011079976
  20
 80.867699528956
  30
0.0
  11
 50.977011079976
  21
 80.867699528956
  31
0.0
   0
LINE
   5
1B2
 100
AcDbEntity
   8
LEVEL001
 370
15
 100
AcDbLine
   6
CONTINUOUS
  62
8
  10
 63.977011079976
  20
 105.86769952895
  30
0.0
  11
 50.977011079976
  21
 105.86769952895
  31
0.0
   0
LINE
   5
1B3
 100
AcDbEntity
   8
LEVEL001
 370
15
 100
AcDbLine
   6
CONTINUOUS
  62
8
  10
 51.977011079976
  20
 80.867699528956
  30
0.0
  11
 51.977011079976
  21
 93.367699528954
  31
0.0
   0
LINE
   5
1B4
 100
AcDbEntity
   8
LEVEL001
 370
15
 100
AcDbLine
   6
CONTINUOUS
  62
8
  10
 51.977011079976
  20
 105.86769952895
  30
0.0
  11
 51.977011079976
  21
 93.367699528954
  31
0.0
   0
SOLID
   5
1B5
 100
AcDbEntity
   8
LEVEL001
 100
AcDbTrace
   6
CONTINUOUS
  62
8
  10
 51.977011079976
  20
 80.867699528956
  30
0.0
  11
 52.329665041393
  21
 82.867699528956
  31
0.0
  12
 51.624357118559
  22
 82.867699528956
  32
0.0
  13
 51.624357118559
  23
 82.867699528956
  33
0.0
   0
SOLID
   5
1B6
 100
AcDbEntity
   8
LEVEL001
 100
AcDbTrace
   6
CONTINUOUS
  62
8
  10
 51.977011079976
  20
 105.86769952895
  30
0.0
  11
 51.624357118559
  21
 103.86769952895
  31
0.0
  12
 52.329665041393
  22
 103.86769952895
  32
0.0
  13
 52.329665041393
  23
 103.86769952895
  33
0.0
   0
MTEXT
   5
1B7
 100
AcDbEntity
   8
LEVEL001
 370
15
  62
8
 100
AcDbMText
  10
 50.977011079976
  20
 93.367699528954
  30
0.0
  40
 2.5000000000000
  41
0.0
  71
8
  72
1
   1
\A1;25
   7
GMM002
  11
0.0
  21
 1.0000000000000
  31
0.0
   0
ENDBLK
   5
1B8
 100
AcDbEntity
   8
0
 100
AcDbBlockEnd
   0
BLOCK
   5
1B9
 100
AcDbEntity
   8
0
 100
AcDbBlockBegin
   2
*D28
  70
65
  10
0.0
  20
0.0
  30
0.0
   3
*D28
   0
LINE
   5
1BA
 100
AcDbEntity
   8
LEVEL001
 370
15
 100
AcDbLine
   6
CONTINUOUS
  62
8
  10
 61.977011079976
  20
 103.86769952895
  30
0.0
  11
 61.977011079976
  21
 116.86769952895
  31
0.0
   0
LINE
   5
1BB
 100
AcDbEntity
   8
LEVEL001
 370
15
 100
AcDbLine
   6
CONTINUOUS
  62
8
  10
 86.977011079976
  20
 106.86769952895
  30
0.0
  11
 86.977011079976
  21
 116.86769952895
  31
0.0
   0
LINE
   5
1BC
 100
AcDbEntity
   8
LEVEL001
 370
15
 100
AcDbLine
   6
CONTINUOUS
  62
8
  10
 61.977011079976
  20
 115.86769952895
  30
0.0
  11
 74.477011079976
  21
 115.86769952895
  31
0.0
   0
LINE
   5
1BD
 100
AcDbEntity
   8
LEVEL001
 370
15
 100
AcDbLine
   6
CONTINUOUS
  62
8
  10
 86.977011079976
  20
 115.86769952895
  30
0.0
  11
 74.477011079976
  21
 115.86769952895
  31
0.0
   0
SOLID
   5
1BE
 100
AcDbEntity
   8
LEVEL001
 100
AcDbTrace
   6
CONTINUOUS
  62
8
  10
 61.977011079976
  20
 115.86769952895
  30
0.0
  11
 63.977011079976
  21
 115.51504556754
  31
0.0
  12
 63.977011079976
  22
 116.22035349037
  32
0.0
  13
 63.977011079976
  23
 116.22035349037
  33
0.0
   0
SOLID
   5
1BF
 100
AcDbEntity
   8
LEVEL001
 100
AcDbTrace
   6
CONTINUOUS
  62
8
  10
 86.977011079976
  20
 115.86769952895
  30
0.0
  11
 84.977011079976
  21
 116.22035349037
  31
0.0
  12
 84.977011079976
  22
 115.51504556754
  32
0.0
  13
 84.977011079976
  23
 115.51504556754
  33
0.0
   0
MTEXT
   5
1C0
 100
AcDbEntity
   8
LEVEL001
 370
15
  62
8
 100
AcDbMText
  10
 74.477011079976
  20
 116.86769952895
  30
0.0
  40
 2.5000000000000
  41
0.0
  71
8
  72
1
   1
\A1;25
   7
GMM002
   0
ENDBLK
   5
1C1
 100
AcDbEntity
   8
0
 100
AcDbBlockEnd
   0
BLOCK
   5
1C2
 100
AcDbEntity
   8
0
 100
AcDbBlockBegin
   2
*D29
  70
65
  10
0.0
  20
0.0
  30
0.0
   3
*D29
   0
LINE
   5
1C3
 100
AcDbEntity
   8
LEVEL001
 370
15
 100
AcDbLine
   6
CONTINUOUS
  62
8
  10
 60.977011079976
  20
 57.040396897377
  30
0.0
  11
 57.449908226816
  21
 57.040396897377
  31
0.0
   0
LINE
   5
1C4
 100
AcDbEntity
   8
LEVEL001
 370
15
 100
AcDbLine
   6
CONTINUOUS
  62
8
  10
 58.449908226816
  20
 57.040396897377
  30
0.0
  11
 58.449908226816
  21
 60.540396897376
  31
0.0
   0
LINE
   5
1C5
 100
AcDbEntity
   8
LEVEL001
 370
15
 100
AcDbLine
   6
CONTINUOUS
  62
8
  10
 58.449908226816
  20
 64.040396897376
  30
0.0
  11
 58.449908226816
  21
 60.540396897376
  31
0.0
   0
SOLID
   5
1C6
 100
AcDbEntity
   8
LEVEL001
 100
AcDbTrace
   6
CONTINUOUS
  62
8
  10
 58.449908226816
  20
 57.040396897377
  30
0.0
  11
 58.802562188233
  21
 59.040396897377
  31
0.0
  12
 58.097254265399
  22
 59.040396897377
  32
0.0
  13
 58.097254265399
  23
 59.040396897377
  33
0.0
   0
SOLID
   5
1C7
 100
AcDbEntity
   8
LEVEL001
 100
AcDbTrace
   6
CONTINUOUS
  62
8
  10
 58.449908226816
  20
 64.040396897376
  30
0.0
  11
 58.097254265399
  21
 62.040396897376
  31
0.0
  12
 58.802562188233
  22
 62.040396897376
  32
0.0
  13
 58.802562188233
  23
 62.040396897376
  33
0.0
   0
MTEXT
   5
1C8
 100
AcDbEntity
   8
LEVEL001
 370
15
  62
8
 100
AcDbMText
  10
 57.449908226816
  20
 60.540396897376
  30
0.0
  40
 2.5000000000000
  41
0.0
  71
8
  72
1
   1
\A1;7
   7
GMM002
  11
0.0
  21
 1.0000000000000
  31
0.0
   0
ENDBLK
   5
1C9
 100
AcDbEntity
   8
0
 100
AcDbBlockEnd
   0
BLOCK
   5
1CA
 100
AcDbEntity
   8
0
 100
AcDbBlockBegin
   2
*D30
  70
65
  10
0.0
  20
0.0
  30
0.0
   3
*D30
   0
LINE
   5
1CB
 100
AcDbEntity
   8
LEVEL001
 370
15
 100
AcDbLine
   6
CONTINUOUS
  62
8
  10
 61.477011079976
  20
 64.040396897376
  30
0.0
  11
 57.449908226816
  21
 64.040396897376
  31
0.0
   0
LINE
   5
1CC
 100
AcDbEntity
   8
LEVEL001
 370
15
 100
AcDbLine
   6
CONTINUOUS
  62
8
  10
 61.477011079976
  20
 64.540396897376
  30
0.0
  11
 57.449908226816
  21
 64.540396897376
  31
0.0
   0
LINE
   5
1CD
 100
AcDbEntity
   8
LEVEL001
 370
15
 100
AcDbLine
   6
CONTINUOUS
  62
8
  10
 58.449908226816
  20
 64.040396897376
  30
0.0
  11
 58.449908226816
  21
 64.290396897376
  31
0.0
   0
LINE
   5
1CE
 100
AcDbEntity
   8
LEVEL001
 370
15
 100
AcDbLine
   6
CONTINUOUS
  62
8
  10
 58.449908226816
  20
 71.992662227232
  30
0.0
  11
 58.449908226816
  21
 64.290396897376
  31
0.0
   0
SOLID
   5
1CF
 100
AcDbEntity
   8
LEVEL001
 100
AcDbTrace
   6
CONTINUOUS
  62
8
  10
 58.449908226816
  20
 64.540396897376
  30
0.0
  11
 58.802562188233
  21
 66.540396897376
  31
0.0
  12
 58.097254265399
  22
 66.540396897376
  32
0.0
  13
 58.097254265399
  23
 66.540396897376
  33
0.0
   0
MTEXT
   5
1D0
 100
AcDbEntity
   8
LEVEL001
 370
15
  62
8
 100
AcDbMText
  10
 57.827040123763
  20
 66.492662227232
  30
0.0
  40
 2.5000000000000
  41
0.0
  71
7
  72
1
   1
\A1;0.5
   7
GMM002
  11
0.0
  21
 1.0000000000000
  31
0.0
   0
ENDBLK
   5
1D1
 100
AcDbEntity
   8
0
 100
AcDbBlockEnd
   0
BLOCK
   5
1D2
 100
AcDbEntity
   8
0
 100
AcDbBlockBegin
   2
*D31
  70
65
  10
0.0
  20
0.0
  30
0.0
   3
*D31
   0
LINE
   5
1D3
 100
AcDbEntity
   8
LEVEL001
 370
15
 100
AcDbLine
   6
CONTINUOUS
  62
8
  10
 57.449908226816
  20
 57.040396897377
  30
0.0
  11
 50.977011079976
  21
 57.040396897377
  31
0.0
   0
LINE
   5
1D4
 100
AcDbEntity
   8
LEVEL001
 370
15
 100
AcDbLine
   6
CONTINUOUS
  62
8
  10
 57.449908226816
  20
 64.540396897376
  30
0.0
  11
 50.977011079976
  21
 64.540396897376
  31
0.0
   0
LINE
   5
1D5
 100
AcDbEntity
   8
LEVEL001
 370
15
 100
AcDbLine
   6
CONTINUOUS
  62
8
  10
 51.977011079976
  20
 57.040396897377
  30
0.0
  11
 51.977011079976
  21
 60.790396897376
  31
0.0
   0
LINE
   5
1D6
 100
AcDbEntity
   8
LEVEL001
 370
15
 100
AcDbLine
   6
CONTINUOUS
  62
8
  10
 51.977011079976
  20
 64.540396897376
  30
0.0
  11
 51.977011079976
  21
 60.790396897376
  31
0.0
   0
SOLID
   5
1D7
 100
AcDbEntity
   8
LEVEL001
 100
AcDbTrace
   6
CONTINUOUS
  62
8
  10
 51.977011079976
  20
 57.040396897377
  30
0.0
  11
 52.329665041393
  21
 59.040396897377
  31
0.0
  12
 51.624357118559
  22
 59.040396897377
  32
0.0
  13
 51.624357118559
  23
 59.040396897377
  33
0.0
   0
SOLID
   5
1D8
 100
AcDbEntity
   8
LEVEL001
 100
AcDbTrace
   6
CONTINUOUS
  62
8
  10
 51.977011079976
  20
 64.540396897376
  30
0.0
  11
 51.624357118559
  21
 62.540396897376
  31
0.0
  12
 52.329665041393
  22
 62.540396897376
  32
0.0
  13
 52.329665041393
  23
 62.540396897376
  33
0.0
   0
MTEXT
   5
1D9
 100
AcDbEntity
   8
LEVEL001
 370
15
  62
8
 100
AcDbMText
  10
 50.977011079976
  20
 60.790396897376
  30
0.0
  40
 2.5000000000000
  41
0.0
  71
8
  72
1
   1
\A1;7.5
   7
GMM002
  11
0.0
  21
 1.0000000000000
  31
0.0
   0
ENDBLK
   5
1DA
 100
AcDbEntity
   8
0
 100
AcDbBlockEnd
   0
BLOCK
   5
1DB
 100
AcDbEntity
   8
0
 100
AcDbBlockBegin
   2
*D32
  70
65
  10
0.0
  20
0.0
  30
0.0
   3
*D32
   0
LINE
   5
1DC
 100
AcDbEntity
   8
LEVEL001
 370
15
 100
AcDbLine
   6
CONTINUOUS
  62
8
  10
 61.977011079976
  20
 56.040396897377
  30
0.0
  11
 61.977011079976
  21
 50.708226396984
  31
0.0
   0
LINE
   5
1DD
 100
AcDbEntity
   8
LEVEL001
 370
15
 100
AcDbLine
   6
CONTINUOUS
  62
8
  10
 62.477011079976
  20
 56.040396897377
  30
0.0
  11
 62.477011079976
  21
 50.708226396984
  31
0.0
   0
LINE
   5
1DE
 100
AcDbEntity
   8
LEVEL001
 370
15
 100
AcDbLine
   6
CONTINUOUS
  62
8
  10
 55.245955842421
  20
 51.708226396984
  30
0.0
  11
 62.227011079976
  21
 51.708226396984
  31
0.0
   0
LINE
   5
1DF
 100
AcDbEntity
   8
LEVEL001
 370
15
 100
AcDbLine
   6
CONTINUOUS
  62
8
  10
 64.977011079976
  20
 51.708226396984
  30
0.0
  11
 62.227011079976
  21
 51.708226396984
  31
0.0
   0
SOLID
   5
1E0
 100
AcDbEntity
   8
LEVEL001
 100
AcDbTrace
   6
CONTINUOUS
  62
8
  10
 61.977011079976
  20
 51.708226396984
  30
0.0
  11
 59.977011079976
  21
 52.060880358400
  31
0.0
  12
 59.977011079976
  22
 51.355572435567
  32
0.0
  13
 59.977011079976
  23
 51.355572435567
  33
0.0
   0
SOLID
   5
1E1
 100
AcDbEntity
   8
LEVEL001
 100
AcDbTrace
   6
CONTINUOUS
  62
8
  10
 62.477011079976
  20
 51.708226396984
  30
0.0
  11
 64.477011079976
  21
 51.355572435567
  31
0.0
  12
 64.477011079976
  22
 52.060880358400
  32
0.0
  13
 64.477011079976
  23
 52.060880358400
  33
0.0
   0
MTEXT
   5
1E2
 100
AcDbEntity
   8
LEVEL001
 370
15
  62
8
 100
AcDbMText
  10
 60.745955842421
  20
 52.745704759419
  30
0.0
  40
 2.5000000000000
  41
0.0
  71
9
  72
1
   1
\A1;0.5
   7
GMM002
   0
ENDBLK
   5
1E3
 100
AcDbEntity
   8
0
 100
AcDbBlockEnd
   0
BLOCK
   5
1E4
 100
AcDbEntity
   8
0
 100
AcDbBlockBegin
   2
*D33
  70
65
  10
0.0
  20
0.0
  30
0.0
   3
*D33
   0
LINE
   5
1E5
 100
AcDbEntity
   8
LEVEL001
 370
15
 100
AcDbLine
   6
CONTINUOUS
  62
8
  10
 61.977011079976
  20
 51.040396897377
  30
0.0
  11
 61.977011079976
  21
 45.493411582169
  31
0.0
   0
LINE
   5
1E6
 100
AcDbEntity
   8
LEVEL001
 370
15
 100
AcDbLine
   6
CONTINUOUS
  62
8
  10
 86.977011079976
  20
 56.040396897377
  30
0.0
  11
 86.977011079976
  21
 45.493411582169
  31
0.0
   0
LINE
   5
1E7
 100
AcDbEntity
   8
LEVEL001
 370
15
 100
AcDbLine
   6
CONTINUOUS
  62
8
  10
 61.977011079976
  20
 46.493411582169
  30
0.0
  11
 74.477011079976
  21
 46.493411582169
  31
0.0
   0
LINE
   5
1E8
 100
AcDbEntity
   8
LEVEL001
 370
15
 100
AcDbLine
   6
CONTINUOUS
  62
8
  10
 86.977011079976
  20
 46.493411582169
  30
0.0
  11
 74.477011079976
  21
 46.493411582169
  31
0.0
   0
SOLID
   5
1E9
 100
AcDbEntity
   8
LEVEL001
 100
AcDbTrace
   6
CONTINUOUS
  62
8
  10
 61.977011079976
  20
 46.493411582169
  30
0.0
  11
 63.977011079976
  21
 46.140757620752
  31
0.0
  12
 63.977011079976
  22
 46.846065543586
  32
0.0
  13
 63.977011079976
  23
 46.846065543586
  33
0.0
   0
SOLID
   5
1EA
 100
AcDbEntity
   8
LEVEL001
 100
AcDbTrace
   6
CONTINUOUS
  62
8
  10
 86.977011079976
  20
 46.493411582169
  30
0.0
  11
 84.977011079976
  21
 46.846065543586
  31
0.0
  12
 84.977011079976
  22
 46.140757620752
  32
0.0
  13
 84.977011079976
  23
 46.140757620752
  33
0.0
   0
MTEXT
   5
1EB
 100
AcDbEntity
   8
LEVEL001
 370
15
  62
8
 100
AcDbMText
  10
 74.477011079976
  20
 47.493411582169
  30
0.0
  40
 2.5000000000000
  41
0.0
  71
8
  72
1
   1
\A1;25
   7
GMM002
   0
ENDBLK
   5
1EC
 100
AcDbEntity
   8
0
 100
AcDbBlockEnd
   0
BLOCK
   5
1ED
 100
AcDbEntity
   8
0
 100
AcDbBlockBegin
   2
*D34
  70
65
  10
0.0
  20
0.0
  30
0.0
   3
*D34
   0
LINE
   5
1EE
 100
AcDbEntity
   8
LEVEL001
 370
15
 100
AcDbLine
   6
CONTINUOUS
  62
8
  10
 105.82175435212
  20
 106.36769952895
  30
0.0
  11
 105.82175435212
  21
 111.42921405130
  31
0.0
   0
LINE
   5
1EF
 100
AcDbEntity
   8
LEVEL001
 370
15
 100
AcDbLine
   6
CONTINUOUS
  62
8
  10
 99.312379376177
  20
 110.42921405130
  30
0.0
  11
 106.07175435212
  21
 110.42921405130
  31
0.0
   0
LINE
   5
1F0
 100
AcDbEntity
   8
LEVEL001
 370
15
 100
AcDbLine
   6
CONTINUOUS
  62
8
  10
 106.32175435212
  20
 110.42921405130
  30
0.0
  11
 106.07175435212
  21
 110.42921405130
  31
0.0
   0
SOLID
   5
1F1
 100
AcDbEntity
   8
LEVEL001
 100
AcDbTrace
   6
CONTINUOUS
  62
8
  10
 105.82175435212
  20
 110.42921405130
  30
0.0
  11
 103.82175435212
  21
 110.78186801272
  31
0.0
  12
 103.82175435212
  22
 110.07656008989
  32
0.0
  13
 103.82175435212
  23
 110.07656008989
  33
0.0
   0
MTEXT
   5
1F2
 100
AcDbEntity
   8
LEVEL001
 370
15
  62
8
 100
AcDbMText
  10
 104.81237937618
  20
 111.47624755159
  30
0.0
  40
 2.5000000000000
  41
0.0
  71
9
  72
1
   1
\A1;0.5
   7
GMM002
   0
ENDBLK
   5
1F3
 100
AcDbEntity
   8
0
 100
AcDbBlockEnd
   0
BLOCK
   5
1F4
 100
AcDbEntity
   8
0
 100
AcDbBlockBegin
   2
*D35
  70
65
  10
0.0
  20
0.0
  30
0.0
   3
*D35
   0
LINE
   5
1F5
 100
AcDbEntity
   8
LEVEL001
 370
15
 100
AcDbLine
   6
CONTINUOUS
  62
8
  10
 106.32175435212
  20
 106.36769952895
  30
0.0
  11
 106.32175435212
  21
 111.42921405130
  31
0.0
   0
LINE
   5
1F6
 100
AcDbEntity
   8
LEVEL001
 370
15
 100
AcDbLine
   6
CONTINUOUS
  62
8
  10
 113.32175435212
  20
 106.86769952895
  30
0.0
  11
 113.32175435212
  21
 111.42921405130
  31
0.0
   0
LINE
   5
1F7
 100
AcDbEntity
   8
LEVEL001
 370
15
 100
AcDbLine
   6
CONTINUOUS
  62
8
  10
 106.32175435212
  20
 110.42921405130
  30
0.0
  11
 109.82175435212
  21
 110.42921405130
  31
0.0
   0
LINE
   5
1F8
 100
AcDbEntity
   8
LEVEL001
 370
15
 100
AcDbLine
   6
CONTINUOUS
  62
8
  10
 113.32175435212
  20
 110.42921405130
  30
0.0
  11
 109.82175435212
  21
 110.42921405130
  31
0.0
   0
SOLID
   5
1F9
 100
AcDbEntity
   8
LEVEL001
 100
AcDbTrace
   6
CONTINUOUS
  62
8
  10
 106.32175435212
  20
 110.42921405130
  30
0.0
  11
 108.32175435212
  21
 110.07656008989
  31
0.0
  12
 108.32175435212
  22
 110.78186801272
  32
0.0
  13
 108.32175435212
  23
 110.78186801272
  33
0.0
   0
SOLID
   5
1FA
 100
AcDbEntity
   8
LEVEL001
 100
AcDbTrace
   6
CONTINUOUS
  62
8
  10
 113.32175435212
  20
 110.42921405130
  30
0.0
  11
 111.32175435212
  21
 110.78186801272
  31
0.0
  12
 111.32175435212
  22
 110.07656008989
  32
0.0
  13
 111.32175435212
  23
 110.07656008989
  33
0.0
   0
MTEXT
   5
1FB
 100
AcDbEntity
   8
LEVEL001
 370
15
  62
8
 100
AcDbMText
  10
 109.82175435212
  20
 111.42921405130
  30
0.0
  40
 2.5000000000000
  41
0.0
  71
8
  72
1
   1
\A1;7
   7
GMM002
   0
ENDBLK
   5
1FC
 100
AcDbEntity
   8
0
 100
AcDbBlockEnd
   0
BLOCK
   5
1FD
 100
AcDbEntity
   8
0
 100
AcDbBlockBegin
   2
*D36
  70
65
  10
0.0
  20
0.0
  30
0.0
   3
*D36
   0
LINE
   5
1FE
 100
AcDbEntity
   8
LEVEL001
 370
15
 100
AcDbLine
   6
CONTINUOUS
  62
8
  10
 105.82175435212
  20
 111.86769952895
  30
0.0
  11
 105.82175435212
  21
 116.86769952895
  31
0.0
   0
LINE
   5
1FF
 100
AcDbEntity
   8
LEVEL001
 370
15
 100
AcDbLine
   6
CONTINUOUS
  62
8
  10
 113.32175435212
  20
 111.86769952895
  30
0.0
  11
 113.32175435212
  21
 116.86769952895
  31
0.0
   0
LINE
   5
200
 100
AcDbEntity
   8
LEVEL001
 370
15
 100
AcDbLine
   6
CONTINUOUS
  62
8
  10
 105.82175435212
  20
 115.86769952895
  30
0.0
  11
 109.57175435212
  21
 115.86769952895
  31
0.0
   0
LINE
   5
201
 100
AcDbEntity
   8
LEVEL001
 370
15
 100
AcDbLine
   6
CONTINUOUS
  62
8
  10
 113.32175435212
  20
 115.86769952895
  30
0.0
  11
 109.57175435212
  21
 115.86769952895
  31
0.0
   0
SOLID
   5
202
 100
AcDbEntity
   8
LEVEL001
 100
AcDbTrace
   6
CONTINUOUS
  62
8
  10
 105.82175435212
  20
 115.86769952895
  30
0.0
  11
 107.82175435212
  21
 115.51504556754
  31
0.0
  12
 107.82175435212
  22
 116.22035349037
  32
0.0
  13
 107.82175435212
  23
 116.22035349037
  33
0.0
   0
SOLID
   5
203
 100
AcDbEntity
   8
LEVEL001
 100
AcDbTrace
   6
CONTINUOUS
  62
8
  10
 113.32175435212
  20
 115.86769952895
  30
0.0
  11
 111.32175435212
  21
 116.22035349037
  31
0.0
  12
 111.32175435212
  22
 115.51504556754
  32
0.0
  13
 111.32175435212
  23
 115.51504556754
  33
0.0
   0
MTEXT
   5
204
 100
AcDbEntity
   8
LEVEL001
 370
15
  62
8
 100
AcDbMText
  10
 109.57175435212
  20
 116.86769952895
  30
0.0
  40
 2.5000000000000
  41
0.0
  71
8
  72
1
   1
\A1;7.5
   7
GMM002
   0
ENDBLK
   5
205
 100
AcDbEntity
   8
0
 100
AcDbBlockEnd
   0
BLOCK
   5
206
 100
AcDbEntity
   8
0
 100
AcDbBlockBegin
   2
*D37
  70
65
  10
0.0
  20
0.0
  30
0.0
   3
*D37
   0
LINE
   5
207
 100
AcDbEntity
   8
LEVEL001
 370
15
 100
AcDbLine
   6
CONTINUOUS
  62
8
  10
 61.977011079976
  20
 79.867699528956
  30
0.0
  11
 61.977011079976
  21
 74.138679071881
  31
0.0
   0
LINE
   5
208
 100
AcDbEntity
   8
LEVEL001
 370
15
 100
AcDbLine
   6
CONTINUOUS
  62
8
  10
 67.977011079976
  20
 79.867699528956
  30
0.0
  11
 67.977011079976
  21
 74.138679071881
  31
0.0
   0
LINE
   5
209
 100
AcDbEntity
   8
LEVEL001
 370
15
 100
AcDbLine
   6
CONTINUOUS
  62
8
  10
 61.977011079976
  20
 75.138679071881
  30
0.0
  11
 64.977011079976
  21
 75.138679071881
  31
0.0
   0
LINE
   5
20A
 100
AcDbEntity
   8
LEVEL001
 370
15
 100
AcDbLine
   6
CONTINUOUS
  62
8
  10
 67.977011079976
  20
 75.138679071881
  30
0.0
  11
 64.977011079976
  21
 75.138679071881
  31
0.0
   0
SOLID
   5
20B
 100
AcDbEntity
   8
LEVEL001
 100
AcDbTrace
   6
CONTINUOUS
  62
8
  10
 61.977011079976
  20
 75.138679071881
  30
0.0
  11
 63.977011079976
  21
 74.786025110464
  31
0.0
  12
 63.977011079976
  22
 75.491333033298
  32
0.0
  13
 63.977011079976
  23
 75.491333033298
  33
0.0
   0
SOLID
   5
20C
 100
AcDbEntity
   8
LEVEL001
 100
AcDbTrace
   6
CONTINUOUS
  62
8
  10
 67.977011079976
  20
 75.138679071881
  30
0.0
  11
 65.977011079976
  21
 75.491333033298
  31
0.0
  12
 65.977011079976
  22
 74.786025110464
  32
0.0
  13
 65.977011079976
  23
 74.786025110464
  33
0.0
   0
MTEXT
   5
20D
 100
AcDbEntity
   8
LEVEL001
 370
15
  62
8
 100
AcDbMText
  10
 64.977011079976
  20
 76.138679071881
  30
0.0
  40
 2.5000000000000
  41
0.0
  71
8
  72
1
   1
\A1;6
   7
GMM002
   0
ENDBLK
   5
20E
 100
AcDbEntity
   8
0
 100
AcDbBlockEnd
   0
BLOCK
   5
20F
 100
AcDbEntity
   8
0
 100
AcDbBlockBegin
   2
*D38
  70
65
  10
0.0
  20
0.0
  30
0.0
   3
*D38
   0
LINE
   5
210
 100
AcDbEntity
   8
LEVEL001
 370
15
 100
AcDbLine
   6
CONTINUOUS
  62
8
  10
 87.977011079976
  20
 99.867699528953
  30
0.0
  11
 96.279537856446
  21
 99.867699528953
  31
0.0
   0
LINE
   5
211
 100
AcDbEntity
   8
LEVEL001
 370
15
 100
AcDbLine
   6
CONTINUOUS
  62
8
  10
 87.977011079976
  20
 105.86769952895
  30
0.0
  11
 96.279537856446
  21
 105.86769952895
  31
0.0
   0
LINE
   5
212
 100
AcDbEntity
   8
LEVEL001
 370
15
 100
AcDbLine
   6
CONTINUOUS
  62
8
  10
 95.279537856446
  20
 99.867699528953
  30
0.0
  11
 95.279537856446
  21
 102.86769952895
  31
0.0
   0
LINE
   5
213
 100
AcDbEntity
   8
LEVEL001
 370
15
 100
AcDbLine
   6
CONTINUOUS
  62
8
  10
 95.279537856446
  20
 105.86769952895
  30
0.0
  11
 95.279537856446
  21
 102.86769952895
  31
0.0
   0
SOLID
   5
214
 100
AcDbEntity
   8
LEVEL001
 100
AcDbTrace
   6
CONTINUOUS
  62
8
  10
 95.279537856446
  20
 99.867699528953
  30
0.0
  11
 95.632191817863
  21
 101.86769952895
  31
0.0
  12
 94.926883895029
  22
 101.86769952895
  32
0.0
  13
 94.926883895029
  23
 101.86769952895
  33
0.0
   0
SOLID
   5
215
 100
AcDbEntity
   8
LEVEL001
 100
AcDbTrace
   6
CONTINUOUS
  62
8
  10
 95.279537856446
  20
 105.86769952895
  30
0.0
  11
 94.926883895029
  21
 103.86769952895
  31
0.0
  12
 95.632191817863
  22
 103.86769952895
  32
0.0
  13
 95.632191817863
  23
 103.86769952895
  33
0.0
   0
MTEXT
   5
216
 100
AcDbEntity
   8
LEVEL001
 370
15
  62
8
 100
AcDbMText
  10
 94.279537856446
  20
 102.86769952895
  30
0.0
  40
 2.5000000000000
  41
0.0
  71
8
  72
1
   1
\A1;6
   7
GMM002
  11
0.0
  21
 1.0000000000000
  31
0.0
   0
ENDBLK
   5
217
 100
AcDbEntity
   8
0
 100
AcDbBlockEnd
   0
BLOCK
   5
218
 100
AcDbEntity
   8
0
 100
AcDbBlockBegin
   2
*D39
  70
65
  10
0.0
  20
0.0
  30
0.0
   3
*D39
   0
LINE
   5
219
 100
AcDbEntity
   8
LEVEL001
 370
15
 100
AcDbLine
   6
CONTINUOUS
  62
8
  10
 67.477011079976
  20
 56.040396897377
  30
0.0
  11
 67.477011079976
  21
 50.708226396984
  31
0.0
   0
LINE
   5
21A
 100
AcDbEntity
   8
LEVEL001
 370
15
 100
AcDbLine
   6
CONTINUOUS
  62
8
  10
 67.977011079976
  20
 56.040396897377
  30
0.0
  11
 67.977011079976
  21
 50.708226396984
  31
0.0
   0
LINE
   5
21B
 100
AcDbEntity
   8
LEVEL001
 370
15
 100
AcDbLine
   6
CONTINUOUS
  62
8
  10
 64.977011079976
  20
 51.708226396984
  30
0.0
  11
 67.727011079976
  21
 51.708226396984
  31
0.0
   0
LINE
   5
21C
 100
AcDbEntity
   8
LEVEL001
 370
15
 100
AcDbLine
   6
CONTINUOUS
  62
8
  10
 75.361244062972
  20
 51.708226396984
  30
0.0
  11
 67.727011079976
  21
 51.708226396984
  31
0.0
   0
SOLID
   5
21D
 100
AcDbEntity
   8
LEVEL001
 100
AcDbTrace
   6
CONTINUOUS
  62
8
  10
 67.477011079976
  20
 51.708226396984
  30
0.0
  11
 65.477011079976
  21
 52.060880358400
  31
0.0
  12
 65.477011079976
  22
 51.355572435567
  32
0.0
  13
 65.477011079976
  23
 51.355572435567
  33
0.0
   0
SOLID
   5
21E
 100
AcDbEntity
   8
LEVEL001
 100
AcDbTrace
   6
CONTINUOUS
  62
8
  10
 67.977011079976
  20
 51.708226396984
  30
0.0
  11
 69.977011079976
  21
 51.355572435567
  31
0.0
  12
 69.977011079976
  22
 52.060880358400
  32
0.0
  13
 69.977011079976
  23
 52.060880358400
  33
0.0
   0
MTEXT
   5
21F
 100
AcDbEntity
   8
LEVEL001
 370
15
  62
8
 100
AcDbMText
  10
 69.861244062972
  20
 52.414877691750
  30
0.0
  40
 2.5000000000000
  41
0.0
  71
7
  72
1
   1
\A1;0.5
   7
GMM002
   0
ENDBLK
   5
220
 100
AcDbEntity
   8
0
 100
AcDbBlockEnd
   0
ENDSEC
   0
SECTION
   2
ENTITIES
   0
LINE
   5
221
 100
AcDbEntity
   8
LEVEL002
 370
30
 100
AcDbLine
   6
CONTINUOUS
  62
7
  10
 344.15000000000
  20
 272.07500000000
  30
0.0
  11
 336.95000000000
  21
 272.07500000000
  31
0.0
   0
LINE
   5
222
 100
AcDbEntity
   8
LEVEL002
 370
30
 100
AcDbLine
   6
CONTINUOUS
  62
7
  10
 336.95000000000
  20
 272.07500000000
  30
0.0
  11
 336.95000000000
  21
 261.27500000000
  31
0.0
   0
LINE
   5
223
 100
AcDbEntity
   8
LEVEL002
 370
30
 100
AcDbLine
   6
CONTINUOUS
  62
7
  10
 336.95000000000
  20
 261.27500000000
  30
0.0
  11
 340.55000000000
  21
 261.27500000000
  31
0.0
   0
LINE
   5
224
 100
AcDbEntity
   8
LEVEL002
 370
30
 100
AcDbLine
   6
CONTINUOUS
  62
7
  10
 340.55000000000
  20
 261.27500000000
  30
0.0
  11
 340.55000000000
  21
 263.07500000000
  31
0.0
   0
LINE
   5
225
 100
AcDbEntity
   8
LEVEL002
 370
30
 100
AcDbLine
   6
CONTINUOUS
  62
7
  10
 340.55000000000
  20
 263.07500000000
  30
0.0
  11
 344.15000000000
  21
 263.07500000000
  31
0.0
   0
ARC
   5
226
 100
AcDbEntity
   8
LEVEL002
 370
30
   6
CONTINUOUS
  62
7
 100
AcDbCircle
  10
 344.15000000000
  20
 267.57500000000
  30
0.0
  40
 4.5000000000000
 100
AcDbArc
  50
 270.00000000000
  51
 90.000000000000
   0
LINE
   5
227
 100
AcDbEntity
   8
LEVEL002
 370
30
 100
AcDbLine
   6
CONTINUOUS
  62
7
  10
 340.55000000000
  20
 266.67500000000
  30
0.0
  11
 344.15000000000
  21
 266.67500000000
  31
0.0
   0
ARC
   5
228
 100
AcDbEntity
   8
LEVEL002
 370
30
   6
CONTINUOUS
  62
7
 100
AcDbCircle
  10
 344.15000000000
  20
 267.57500000000
  30
0.0
  40
 0.90000000000000
 100
AcDbArc
  50
 270.00000000000
  51
 90.000000000000
   0
LINE
   5
229
 100
AcDbEntity
   8
LEVEL002
 370
30
 100
AcDbLine
   6
CONTINUOUS
  62
7
  10
 344.15000000000
  20
 268.47500000000
  30
0.0
  11
 340.55000000000
  21
 268.47500000000
  31
0.0
   0
LINE
   5
22A
 100
AcDbEntity
   8
LEVEL002
 370
30
 100
AcDbLine
   6
CONTINUOUS
  62
7
  10
 340.55000000000
  20
 268.47500000000
  30
0.0
  11
 340.55000000000
  21
 266.67500000000
  31
0.0
   0
LINE
   5
22B
 100
AcDbEntity
   8
LEVEL002
 370
30
 100
AcDbLine
   6
CONTINUOUS
  62
7
  10
 345.95000000000
  20
 261.27500000000
  30
0.0
  11
 353.15000000000
  21
 272.07500000000
  31
0.0
   0
LINE
   5
22C
 100
AcDbEntity
   8
LEVEL002
 370
30
 100
AcDbLine
   6
CONTINUOUS
  62
7
  10
 353.15000000000
  20
 272.07500000000
  30
0.0
  11
 362.15000000000
  21
 272.07500000000
  31
0.0
   0
LINE
   5
22D
 100
AcDbEntity
   8
LEVEL002
 370
30
 100
AcDbLine
   6
CONTINUOUS
  62
7
  10
 362.15000000000
  20
 272.07500000000
  30
0.0
  11
 362.15000000000
  21
 264.87500000000
  31
0.0
   0
LINE
   5
22E
 100
AcDbEntity
   8
LEVEL002
 370
30
 100
AcDbLine
   6
CONTINUOUS
  62
7
  10
 362.15000000000
  20
 264.87500000000
  30
0.0
  11
 367.55000000000
  21
 264.87500000000
  31
0.0
   0
LINE
   5
22F
 100
AcDbEntity
   8
LEVEL002
 370
30
 100
AcDbLine
   6
CONTINUOUS
  62
7
  10
 367.55000000000
  20
 264.87500000000
  30
0.0
  11
 367.55000000000
  21
 268.47500000000
  31
0.0
   0
LINE
   5
230
 100
AcDbEntity
   8
LEVEL002
 370
30
 100
AcDbLine
   6
CONTINUOUS
  62
7
  10
 367.55000000000
  20
 268.47500000000
  30
0.0
  11
 363.95000000000
  21
 268.47500000000
  31
0.0
   0
LINE
   5
231
 100
AcDbEntity
   8
LEVEL002
 370
30
 100
AcDbLine
   6
CONTINUOUS
  62
7
  10
 363.95000000000
  20
 268.47500000000
  30
0.0
  11
 363.95000000000
  21
 272.07500000000
  31
0.0
   0
LINE
   5
232
 100
AcDbEntity
   8
LEVEL002
 370
30
 100
AcDbLine
   6
CONTINUOUS
  62
7
  10
 363.95000000000
  20
 272.07500000000
  30
0.0
  11
 385.55000000000
  21
 272.07500000000
  31
0.0
   0
LINE
   5
233
 100
AcDbEntity
   8
LEVEL002
 370
30
 100
AcDbLine
   6
CONTINUOUS
  62
7
  10
 385.55000000000
  20
 272.07500000000
  30
0.0
  11
 385.55000000000
  21
 268.47500000000
  31
0.0
   0
LINE
   5
234
 100
AcDbEntity
   8
LEVEL002
 370
30
 100
AcDbLine
   6
CONTINUOUS
  62
7
  10
 385.55000000000
  20
 268.47500000000
  30
0.0
  11
 378.35000000000
  21
 268.47500000000
  31
0.0
   0
LINE
   5
235
 100
AcDbEntity
   8
LEVEL002
 370
30
 100
AcDbLine
   6
CONTINUOUS
  62
7
  10
 378.35000000000
  20
 268.47500000000
  30
0.0
  11
 378.35000000000
  21
 267.57500000000
  31
0.0
   0
LINE
   5
236
 100
AcDbEntity
   8
LEVEL002
 370
30
 100
AcDbLine
   6
CONTINUOUS
  62
7
  10
 378.35000000000
  20
 267.57500000000
  30
0.0
  11
 384.65000000000
  21
 267.57500000000
  31
0.0
   0
LINE
   5
237
 100
AcDbEntity
   8
LEVEL002
 370
30
 100
AcDbLine
   6
CONTINUOUS
  62
7
  10
 384.65000000000
  20
 267.57500000000
  30
0.0
  11
 384.65000000000
  21
 265.77500000000
  31
0.0
   0
LINE
   5
238
 100
AcDbEntity
   8
LEVEL002
 370
30
 100
AcDbLine
   6
CONTINUOUS
  62
7
  10
 384.65000000000
  20
 265.77500000000
  30
0.0
  11
 378.35000000000
  21
 265.77500000000
  31
0.0
   0
LINE
   5
239
 100
AcDbEntity
   8
LEVEL002
 370
30
 100
AcDbLine
   6
CONTINUOUS
  62
7
  10
 378.35000000000
  20
 265.77500000000
  30
0.0
  11
 378.35000000000
  21
 264.87500000000
  31
0.0
   0
LINE
   5
23A
 100
AcDbEntity
   8
LEVEL002
 370
30
 100
AcDbLine
   6
CONTINUOUS
  62
7
  10
 378.35000000000
  20
 264.87500000000
  30
0.0
  11
 385.55000000000
  21
 264.87500000000
  31
0.0
   0
LINE
   5
23B
 100
AcDbEntity
   8
LEVEL002
 370
30
 100
AcDbLine
   6
CONTINUOUS
  62
7
  10
 385.55000000000
  20
 264.87500000000
  30
0.0
  11
 385.55000000000
  21
 261.27500000000
  31
0.0
   0
LINE
   5
23C
 100
AcDbEntity
   8
LEVEL002
 370
30
 100
AcDbLine
   6
CONTINUOUS
  62
7
  10
 385.55000000000
  20
 261.27500000000
  30
0.0
  11
 374.75000000000
  21
 261.27500000000
  31
0.0
   0
LINE
   5
23D
 100
AcDbEntity
   8
LEVEL002
 370
30
 100
AcDbLine
   6
CONTINUOUS
  62
7
  10
 374.75000000000
  20
 261.27500000000
  30
0.0
  11
 374.75000000000
  21
 268.47500000000
  31
0.0
   0
LINE
   5
23E
 100
AcDbEntity
   8
LEVEL002
 370
30
 100
AcDbLine
   6
CONTINUOUS
  62
7
  10
 374.75000000000
  20
 268.47500000000
  30
0.0
  11
 371.15000000000
  21
 268.47500000000
  31
0.0
   0
LINE
   5
23F
 100
AcDbEntity
   8
LEVEL002
 370
30
 100
AcDbLine
   6
CONTINUOUS
  62
7
  10
 371.15000000000
  20
 268.47500000000
  30
0.0
  11
 371.15000000000
  21
 261.27500000000
  31
0.0
   0
LINE
   5
240
 100
AcDbEntity
   8
LEVEL002
 370
30
 100
AcDbLine
   6
CONTINUOUS
  62
7
  10
 371.15000000000
  20
 261.27500000000
  30
0.0
  11
 358.55000000000
  21
 261.27500000000
  31
0.0
   0
LINE
   5
241
 100
AcDbEntity
   8
LEVEL002
 370
30
 100
AcDbLine
   6
CONTINUOUS
  62
7
  10
 358.55000000000
  20
 261.27500000000
  30
0.0
  11
 358.55000000000
  21
 272.07500000000
  31
0.0
   0
LINE
   5
242
 100
AcDbEntity
   8
LEVEL002
 370
30
 100
AcDbLine
   6
CONTINUOUS
  62
7
  10
 358.55000000000
  20
 272.07500000000
  30
0.0
  11
 351.35000000000
  21
 261.27500000000
  31
0.0
   0
LINE
   5
243
 100
AcDbEntity
   8
LEVEL002
 370
30
 100
AcDbLine
   6
CONTINUOUS
  62
7
  10
 351.35000000000
  20
 261.27500000000
  30
0.0
  11
 345.95000000000
  21
 261.27500000000
  31
0.0
   0
LINE
   5
244
 100
AcDbEntity
   8
LEVEL002
 370
30
 100
AcDbLine
   6
CONTINUOUS
  62
7
  10
 357.35000000000
  20
 268.11166923470
  30
0.0
  11
 352.79222051020
  21
 261.27500000000
  31
0.0
   0
LINE
   5
245
 100
AcDbEntity
   8
LEVEL002
 370
30
 100
AcDbLine
   6
CONTINUOUS
  62
7
  10
 352.79222051020
  20
 261.27500000000
  30
0.0
  11
 357.35000000000
  21
 261.27500000000
  31
0.0
   0
LINE
   5
246
 100
AcDbEntity
   8
LEVEL002
 370
30
 100
AcDbLine
   6
CONTINUOUS
  62
7
  10
 357.35000000000
  20
 261.27500000000
  30
0.0
  11
 357.35000000000
  21
 268.11166923470
  31
0.0
   0
ARC
   5
247
 100
AcDbEntity
   8
LEVEL002
 370
30
   6
CONTINUOUS
  62
7
 100
AcDbCircle
  10
 390.95000000000
  20
 266.67500000000
  30
0.0
  40
 5.4000000000000
 100
AcDbArc
  50
 90.000000000000
  51
 270.00000000000
   0
ARC
   5
248
 100
AcDbEntity
   8
LEVEL002
 370
30
   6
CONTINUOUS
  62
7
 100
AcDbCircle
  10
 390.95000000000
  20
 266.67500000000
  30
0.0
  40
 1.8000000000000
 100
AcDbArc
  50
 90.000000000000
  51
 270.00000000000
   0
LINE
   5
249
 100
AcDbEntity
   8
LEVEL002
 370
30
 100
AcDbLine
   6
CONTINUOUS
  62
7
  10
 390.95000000000
  20
 272.07500000000
  30
0.0
  11
 396.35000000000
  21
 272.07500000000
  31
0.0
   0
LINE
   5
24A
 100
AcDbEntity
   8
LEVEL002
 370
30
 100
AcDbLine
   6
CONTINUOUS
  62
7
  10
 396.35000000000
  20
 272.07500000000
  30
0.0
  11
 396.35000000000
  21
 268.47500000000
  31
0.0
   0
LINE
   5
24B
 100
AcDbEntity
   8
LEVEL002
 370
30
 100
AcDbLine
   6
CONTINUOUS
  62
7
  10
 396.35000000000
  20
 268.47500000000
  30
0.0
  11
 390.95000000000
  21
 268.47500000000
  31
0.0
   0
LINE
   5
24C
 100
AcDbEntity
   8
LEVEL002
 370
30
 100
AcDbLine
   6
CONTINUOUS
  62
7
  10
 336.95000000000
  20
 272.07500000000
  30
0.0
  11
 336.95000000000
  21
 261.27500000000
  31
0.0
   0
LINE
   5
24D
 100
AcDbEntity
   8
LEVEL002
 370
30
 100
AcDbLine
   6
CONTINUOUS
  62
7
  10
 336.95000000000
  20
 261.27500000000
  30
0.0
  11
 340.55000000000
  21
 261.27500000000
  31
0.0
   0
LINE
   5
24E
 100
AcDbEntity
   8
LEVEL002
 370
30
 100
AcDbLine
   6
CONTINUOUS
  62
7
  10
 340.55000000000
  20
 261.27500000000
  30
0.0
  11
 340.55000000000
  21
 263.07500000000
  31
0.0
   0
LINE
   5
24F
 100
AcDbEntity
   8
LEVEL002
 370
30
 100
AcDbLine
   6
CONTINUOUS
  62
7
  10
 340.55000000000
  20
 263.07500000000
  30
0.0
  11
 344.15000000000
  21
 263.07500000000
  31
0.0
   0
ARC
   5
250
 100
AcDbEntity
   8
LEVEL002
 370
30
   6
CONTINUOUS
  62
7
 100
AcDbCircle
  10
 344.15000000000
  20
 267.57500000000
  30
0.0
  40
 4.5000000000000
 100
AcDbArc
  50
 270.00000000000
  51
 90.000000000000
   0
LINE
   5
251
 100
AcDbEntity
   8
LEVEL002
 370
30
 100
AcDbLine
   6
CONTINUOUS
  62
7
  10
 344.15000000000
  20
 272.07500000000
  30
0.0
  11
 336.95000000000
  21
 272.07500000000
  31
0.0
   0
LINE
   5
252
 100
AcDbEntity
   8
LEVEL002
 370
30
 100
AcDbLine
   6
CONTINUOUS
  62
7
  10
 340.55000000000
  20
 268.47500000000
  30
0.0
  11
 340.55000000000
  21
 266.67500000000
  31
0.0
   0
LINE
   5
253
 100
AcDbEntity
   8
LEVEL002
 370
30
 100
AcDbLine
   6
CONTINUOUS
  62
7
  10
 340.55000000000
  20
 266.67500000000
  30
0.0
  11
 344.15000000000
  21
 266.67500000000
  31
0.0
   0
ARC
   5
254
 100
AcDbEntity
   8
LEVEL002
 370
30
   6
CONTINUOUS
  62
7
 100
AcDbCircle
  10
 344.15000000000
  20
 267.57500000000
  30
0.0
  40
 0.90000000000000
 100
AcDbArc
  50
 270.00000000000
  51
 90.000000000000
   0
LINE
   5
255
 100
AcDbEntity
   8
LEVEL002
 370
30
 100
AcDbLine
   6
CONTINUOUS
  62
7
  10
 344.15000000000
  20
 268.47500000000
  30
0.0
  11
 340.55000000000
  21
 268.47500000000
  31
0.0
   0
LINE
   5
256
 100
AcDbEntity
   8
LEVEL002
 370
30
 100
AcDbLine
   6
CONTINUOUS
  62
7
  10
 353.15000000000
  20
 272.07500000000
  30
0.0
  11
 345.95000000000
  21
 261.27500000000
  31
0.0
   0
LINE
   5
257
 100
AcDbEntity
   8
LEVEL002
 370
30
 100
AcDbLine
   6
CONTINUOUS
  62
7
  10
 345.95000000000
  20
 261.27500000000
  30
0.0
  11
 351.35000000000
  21
 261.27500000000
  31
0.0
   0
LINE
   5
258
 100
AcDbEntity
   8
LEVEL002
 370
30
 100
AcDbLine
   6
CONTINUOUS
  62
7
  10
 351.35000000000
  20
 261.27500000000
  30
0.0
  11
 358.55000000000
  21
 272.07500000000
  31
0.0
   0
LINE
   5
259
 100
AcDbEntity
   8
LEVEL002
 370
30
 100
AcDbLine
   6
CONTINUOUS
  62
7
  10
 358.55000000000
  20
 272.07500000000
  30
0.0
  11
 353.15000000000
  21
 272.07500000000
  31
0.0
   0
LINE
   5
25A
 100
AcDbEntity
   8
LEVEL002
 370
30
 100
AcDbLine
   6
CONTINUOUS
  62
7
  10
 357.35000000000
  20
 261.27500000000
  30
0.0
  11
 357.35000000000
  21
 268.11166923470
  31
0.0
   0
LINE
   5
25B
 100
AcDbEntity
   8
LEVEL002
 370
30
 100
AcDbLine
   6
CONTINUOUS
  62
7
  10
 357.35000000000
  20
 268.11166923470
  30
0.0
  11
 352.79222051020
  21
 261.27500000000
  31
0.0
   0
LINE
   5
25C
 100
AcDbEntity
   8
LEVEL002
 370
30
 100
AcDbLine
   6
CONTINUOUS
  62
7
  10
 352.79222051020
  20
 261.27500000000
  30
0.0
  11
 357.35000000000
  21
 261.27500000000
  31
0.0
   0
LINE
   5
25D
 100
AcDbEntity
   8
LEVEL002
 370
30
 100
AcDbLine
   6
CONTINUOUS
  62
7
  10
 358.55000000000
  20
 261.27500000000
  30
0.0
  11
 371.15000000000
  21
 261.27500000000
  31
0.0
   0
LINE
   5
25E
 100
AcDbEntity
   8
LEVEL002
 370
30
 100
AcDbLine
   6
CONTINUOUS
  62
7
  10
 371.15000000000
  20
 261.27500000000
  30
0.0
  11
 371.15000000000
  21
 268.47500000000
  31
0.0
   0
LINE
   5
25F
 100
AcDbEntity
   8
LEVEL002
 370
30
 100
AcDbLine
   6
CONTINUOUS
  62
7
  10
 371.15000000000
  20
 268.47500000000
  30
0.0
  11
 374.75000000000
  21
 268.47500000000
  31
0.0
   0
LINE
   5
260
 100
AcDbEntity
   8
LEVEL002
 370
30
 100
AcDbLine
   6
CONTINUOUS
  62
7
  10
 374.75000000000
  20
 268.47500000000
  30
0.0
  11
 374.75000000000
  21
 261.27500000000
  31
0.0
   0
LINE
   5
261
 100
AcDbEntity
   8
LEVEL002
 370
30
 100
AcDbLine
   6
CONTINUOUS
  62
7
  10
 374.75000000000
  20
 261.27500000000
  30
0.0
  11
 385.55000000000
  21
 261.27500000000
  31
0.0
   0
LINE
   5
262
 100
AcDbEntity
   8
LEVEL002
 370
30
 100
AcDbLine
   6
CONTINUOUS
  62
7
  10
 385.55000000000
  20
 261.27500000000
  30
0.0
  11
 385.55000000000
  21
 264.87500000000
  31
0.0
   0
LINE
   5
263
 100
AcDbEntity
   8
LEVEL002
 370
30
 100
AcDbLine
   6
CONTINUOUS
  62
7
  10
 385.55000000000
  20
 264.87500000000
  30
0.0
  11
 378.35000000000
  21
 264.87500000000
  31
0.0
   0
LINE
   5
264
 100
AcDbEntity
   8
LEVEL002
 370
30
 100
AcDbLine
   6
CONTINUOUS
  62
7
  10
 378.35000000000
  20
 264.87500000000
  30
0.0
  11
 378.35000000000
  21
 265.77500000000
  31
0.0
   0
LINE
   5
265
 100
AcDbEntity
   8
LEVEL002
 370
30
 100
AcDbLine
   6
CONTINUOUS
  62
7
  10
 378.35000000000
  20
 265.77500000000
  30
0.0
  11
 384.65000000000
  21
 265.77500000000
  31
0.0
   0
LINE
   5
266
 100
AcDbEntity
   8
LEVEL002
 370
30
 100
AcDbLine
   6
CONTINUOUS
  62
7
  10
 384.65000000000
  20
 265.77500000000
  30
0.0
  11
 384.65000000000
  21
 267.57500000000
  31
0.0
   0
LINE
   5
267
 100
AcDbEntity
   8
LEVEL002
 370
30
 100
AcDbLine
   6
CONTINUOUS
  62
7
  10
 384.65000000000
  20
 267.57500000000
  30
0.0
  11
 378.35000000000
  21
 267.57500000000
  31
0.0
   0
LINE
   5
268
 100
AcDbEntity
   8
LEVEL002
 370
30
 100
AcDbLine
   6
CONTINUOUS
  62
7
  10
 378.35000000000
  20
 267.57500000000
  30
0.0
  11
 378.35000000000
  21
 268.47500000000
  31
0.0
   0
LINE
   5
269
 100
AcDbEntity
   8
LEVEL002
 370
30
 100
AcDbLine
   6
CONTINUOUS
  62
7
  10
 378.35000000000
  20
 268.47500000000
  30
0.0
  11
 385.55000000000
  21
 268.47500000000
  31
0.0
   0
LINE
   5
26A
 100
AcDbEntity
   8
LEVEL002
 370
30
 100
AcDbLine
   6
CONTINUOUS
  62
7
  10
 385.55000000000
  20
 268.47500000000
  30
0.0
  11
 385.55000000000
  21
 272.07500000000
  31
0.0
   0
LINE
   5
26B
 100
AcDbEntity
   8
LEVEL002
 370
30
 100
AcDbLine
   6
CONTINUOUS
  62
7
  10
 385.55000000000
  20
 272.07500000000
  30
0.0
  11
 363.95000000000
  21
 272.07500000000
  31
0.0
   0
LINE
   5
26C
 100
AcDbEntity
   8
LEVEL002
 370
30
 100
AcDbLine
   6
CONTINUOUS
  62
7
  10
 363.95000000000
  20
 272.07500000000
  30
0.0
  11
 363.95000000000
  21
 268.47500000000
  31
0.0
   0
LINE
   5
26D
 100
AcDbEntity
   8
LEVEL002
 370
30
 100
AcDbLine
   6
CONTINUOUS
  62
7
  10
 363.95000000000
  20
 268.47500000000
  30
0.0
  11
 367.55000000000
  21
 268.47500000000
  31
0.0
   0
LINE
   5
26E
 100
AcDbEntity
   8
LEVEL002
 370
30
 100
AcDbLine
   6
CONTINUOUS
  62
7
  10
 367.55000000000
  20
 268.47500000000
  30
0.0
  11
 367.55000000000
  21
 264.87500000000
  31
0.0
   0
LINE
   5
26F
 100
AcDbEntity
   8
LEVEL002
 370
30
 100
AcDbLine
   6
CONTINUOUS
  62
7
  10
 367.55000000000
  20
 264.87500000000
  30
0.0
  11
 362.15000000000
  21
 264.87500000000
  31
0.0
   0
LINE
   5
270
 100
AcDbEntity
   8
LEVEL002
 370
30
 100
AcDbLine
   6
CONTINUOUS
  62
7
  10
 362.15000000000
  20
 264.87500000000
  30
0.0
  11
 362.15000000000
  21
 272.07500000000
  31
0.0
   0
LINE
   5
271
 100
AcDbEntity
   8
LEVEL002
 370
30
 100
AcDbLine
   6
CONTINUOUS
  62
7
  10
 362.15000000000
  20
 272.07500000000
  30
0.0
  11
 358.55000000000
  21
 272.07500000000
  31
0.0
   0
LINE
   5
272
 100
AcDbEntity
   8
LEVEL002
 370
30
 100
AcDbLine
   6
CONTINUOUS
  62
7
  10
 358.55000000000
  20
 272.07500000000
  30
0.0
  11
 358.55000000000
  21
 261.27500000000
  31
0.0
   0
LINE
   5
273
 100
AcDbEntity
   8
LEVEL002
 370
30
 100
AcDbLine
   6
CONTINUOUS
  62
7
  10
 390.95000000000
  20
 261.27500000000
  30
0.0
  11
 396.35000000000
  21
 261.27500000000
  31
0.0
   0
LINE
   5
274
 100
AcDbEntity
   8
LEVEL002
 370
30
 100
AcDbLine
   6
CONTINUOUS
  62
7
  10
 396.35000000000
  20
 261.27500000000
  30
0.0
  11
 396.35000000000
  21
 264.87500000000
  31
0.0
   0
LINE
   5
275
 100
AcDbEntity
   8
LEVEL002
 370
30
 100
AcDbLine
   6
CONTINUOUS
  62
7
  10
 396.35000000000
  20
 264.87500000000
  30
0.0
  11
 390.95000000000
  21
 264.87500000000
  31
0.0
   0
ARC
   5
276
 100
AcDbEntity
   8
LEVEL002
 370
30
   6
CONTINUOUS
  62
7
 100
AcDbCircle
  10
 390.95000000000
  20
 266.67500000000
  30
0.0
  40
 1.8000000000000
 100
AcDbArc
  50
 90.000000000000
  51
 270.00000000000
   0
LINE
   5
277
 100
AcDbEntity
   8
LEVEL002
 370
30
 100
AcDbLine
   6
CONTINUOUS
  62
7
  10
 390.95000000000
  20
 268.47500000000
  30
0.0
  11
 396.35000000000
  21
 268.47500000000
  31
0.0
   0
LINE
   5
278
 100
AcDbEntity
   8
LEVEL002
 370
30
 100
AcDbLine
   6
CONTINUOUS
  62
7
  10
 396.35000000000
  20
 268.47500000000
  30
0.0
  11
 396.35000000000
  21
 272.07500000000
  31
0.0
   0
LINE
   5
279
 100
AcDbEntity
   8
LEVEL002
 370
30
 100
AcDbLine
   6
CONTINUOUS
  62
7
  10
 396.35000000000
  20
 272.07500000000
  30
0.0
  11
 390.95000000000
  21
 272.07500000000
  31
0.0
   0
ARC
   5
27A
 100
AcDbEntity
   8
LEVEL002
 370
30
   6
CONTINUOUS
  62
7
 100
AcDbCircle
  10
 390.95000000000
  20
 266.67500000000
  30
0.0
  40
 5.4000000000000
 100
AcDbArc
  50
 90.000000000000
  51
 270.00000000000
   0
MTEXT
   5
27C
 100
AcDbEntity
   8
LEVEL002
 370
30
  62
7
 100
AcDbMText
  10
 336.95000000000
  20
 273.87500000000
  30
0.0
  40
 3.7500000000000
  41
0.0
  71
7
  72
1
   1
\T1.000000;ケージーパルテック株式会社
   7
GMM001
  44
 0.79999984000003
   0
LINE
   5
27D
 100
AcDbEntity
   8
LEVEL002
 370
30
 100
AcDbLine
   6
CONTINUOUS
  62
7
  10
 333.35000000000
  20
 263.67500000000
  30
0.0
  11
 328.85000000000
  21
 270.87500000000
  31
0.0
   0
LINE
   5
27E
 100
AcDbEntity
   8
LEVEL002
 370
30
 100
AcDbLine
   6
CONTINUOUS
  62
7
  10
 328.85000000000
  20
 270.87500000000
  30
0.0
  11
 333.35000000000
  21
 270.87500000000
  31
0.0
   0
LINE
   5
27F
 100
AcDbEntity
   8
LEVEL002
 370
30
 100
AcDbLine
   6
CONTINUOUS
  62
7
  10
 333.35000000000
  20
 270.87500000000
  30
0.0
  11
 333.35000000000
  21
 263.67500000000
  31
0.0
   0
LINE
   5
280
 100
AcDbEntity
   8
LEVEL002
 370
30
 100
AcDbLine
   6
CONTINUOUS
  62
7
  10
 328.85000000000
  20
 270.87500000000
  30
0.0
  11
 333.35000000000
  21
 263.67500000000
  31
0.0
   0
LINE
   5
281
 100
AcDbEntity
   8
LEVEL002
 370
30
 100
AcDbLine
   6
CONTINUOUS
  62
7
  10
 333.35000000000
  20
 263.67500000000
  30
0.0
  11
 333.35000000000
  21
 270.87500000000
  31
0.0
   0
LINE
   5
282
 100
AcDbEntity
   8
LEVEL002
 370
30
 100
AcDbLine
   6
CONTINUOUS
  62
7
  10
 333.35000000000
  20
 270.87500000000
  30
0.0
  11
 328.85000000000
  21
 270.87500000000
  31
0.0
   0
LINE
   5
283
 100
AcDbEntity
   8
LEVEL002
 370
30
 100
AcDbLine
   6
CONTINUOUS
  62
7
  10
 319.05000000000
  20
 280.47500000000
  30
0.0
  11
 312.65000000000
  21
 270.87500000000
  31
0.0
   0
LINE
   5
284
 100
AcDbEntity
   8
LEVEL002
 370
30
 100
AcDbLine
   6
CONTINUOUS
  62
7
  10
 312.65000000000
  20
 270.87500000000
  30
0.0
  11
 319.05000000000
  21
 261.27500000000
  31
0.0
   0
LINE
   5
285
 100
AcDbEntity
   8
LEVEL002
 370
30
 100
AcDbLine
   6
CONTINUOUS
  62
7
  10
 324.45000000000
  20
 261.27500000000
  30
0.0
  11
 318.05000000000
  21
 270.87500000000
  31
0.0
   0
LINE
   5
286
 100
AcDbEntity
   8
LEVEL002
 370
30
 100
AcDbLine
   6
CONTINUOUS
  62
7
  10
 318.05000000000
  20
 270.87500000000
  30
0.0
  11
 324.45000000000
  21
 280.47500000000
  31
0.0
   0
LINE
   5
287
 100
AcDbEntity
   8
LEVEL002
 370
30
 100
AcDbLine
   6
CONTINUOUS
  62
7
  10
 327.15000000000
  20
 280.47500000000
  30
0.0
  11
 320.75000000000
  21
 270.87500000000
  31
0.0
   0
LINE
   5
288
 100
AcDbEntity
   8
LEVEL002
 370
30
 100
AcDbLine
   6
CONTINUOUS
  62
7
  10
 320.75000000000
  20
 270.87500000000
  30
0.0
  11
 327.15000000000
  21
 261.27500000000
  31
0.0
   0
LINE
   5
289
 100
AcDbEntity
   8
LEVEL002
 370
30
 100
AcDbLine
   6
CONTINUOUS
  62
7
  10
 332.55000000000
  20
 261.27500000000
  30
0.0
  11
 326.15000000000
  21
 270.87500000000
  31
0.0
   0
LINE
   5
28A
 100
AcDbEntity
   8
LEVEL002
 370
30
 100
AcDbLine
   6
CONTINUOUS
  62
7
  10
 326.15000000000
  20
 270.87500000000
  30
0.0
  11
 332.55000000000
  21
 280.47500000000
  31
0.0
   0
LINE
   5
28B
 100
AcDbEntity
   8
LEVEL002
 370
30
 100
AcDbLine
   6
CONTINUOUS
  62
7
  10
 319.05000000000
  20
 261.27500000000
  30
0.0
  11
 312.65000000000
  21
 270.87500000000
  31
0.0
   0
LINE
   5
28C
 100
AcDbEntity
   8
LEVEL002
 370
30
 100
AcDbLine
   6
CONTINUOUS
  62
7
  10
 312.65000000000
  20
 270.87500000000
  30
0.0
  11
 319.05000000000
  21
 280.47500000000
  31
0.0
   0
LINE
   5
28D
 100
AcDbEntity
   8
LEVEL002
 370
30
 100
AcDbLine
   6
CONTINUOUS
  62
7
  10
 319.05000000000
  20
 280.47500000000
  30
0.0
  11
 324.45000000000
  21
 280.47500000000
  31
0.0
   0
LINE
   5
28E
 100
AcDbEntity
   8
LEVEL002
 370
30
 100
AcDbLine
   6
CONTINUOUS
  62
7
  10
 324.45000000000
  20
 280.47500000000
  30
0.0
  11
 318.05000000000
  21
 270.87500000000
  31
0.0
   0
LINE
   5
28F
 100
AcDbEntity
   8
LEVEL002
 370
30
 100
AcDbLine
   6
CONTINUOUS
  62
7
  10
 318.05000000000
  20
 270.87500000000
  30
0.0
  11
 324.45000000000
  21
 261.27500000000
  31
0.0
   0
LINE
   5
290
 100
AcDbEntity
   8
LEVEL002
 370
30
 100
AcDbLine
   6
CONTINUOUS
  62
7
  10
 324.45000000000
  20
 261.27500000000
  30
0.0
  11
 319.05000000000
  21
 261.27500000000
  31
0.0
   0
LINE
   5
291
 100
AcDbEntity
   8
LEVEL002
 370
30
 100
AcDbLine
   6
CONTINUOUS
  62
7
  10
 327.15000000000
  20
 261.27500000000
  30
0.0
  11
 320.75000000000
  21
 270.87500000000
  31
0.0
   0
LINE
   5
292
 100
AcDbEntity
   8
LEVEL002
 370
30
 100
AcDbLine
   6
CONTINUOUS
  62
7
  10
 320.75000000000
  20
 270.87500000000
  30
0.0
  11
 327.15000000000
  21
 280.47500000000
  31
0.0
   0
LINE
   5
293
 100
AcDbEntity
   8
LEVEL002
 370
30
 100
AcDbLine
   6
CONTINUOUS
  62
7
  10
 327.15000000000
  20
 280.47500000000
  30
0.0
  11
 332.55000000000
  21
 280.47500000000
  31
0.0
   0
LINE
   5
294
 100
AcDbEntity
   8
LEVEL002
 370
30
 100
AcDbLine
   6
CONTINUOUS
  62
7
  10
 332.55000000000
  20
 280.47500000000
  30
0.0
  11
 326.15000000000
  21
 270.87500000000
  31
0.0
   0
LINE
   5
295
 100
AcDbEntity
   8
LEVEL002
 370
30
 100
AcDbLine
   6
CONTINUOUS
  62
7
  10
 326.15000000000
  20
 270.87500000000
  30
0.0
  11
 332.55000000000
  21
 261.27500000000
  31
0.0
   0
LINE
   5
296
 100
AcDbEntity
   8
LEVEL002
 370
30
 100
AcDbLine
   6
CONTINUOUS
  62
7
  10
 332.55000000000
  20
 261.27500000000
  30
0.0
  11
 327.15000000000
  21
 261.27500000000
  31
0.0
   0
LINE
   5
297
 100
AcDbEntity
   8
LEVEL001
 370
30
 100
AcDbLine
   6
DOT
  62
7
  10
0.0
  20
-0.56843418860808E-13
  30
0.0
  11
 420.00000000000
  21
-0.56843418860808E-13
  31
0.0
   0
LINE
   5
298
 100
AcDbEntity
   8
LEVEL001
 370
30
 100
AcDbLine
   6
DOT
  62
7
  10
 420.00000000000
  20
-0.56843418860808E-13
  30
0.0
  11
 420.00000000000
  21
 297.00000000000
  31
0.0
   0
LINE
   5
299
 100
AcDbEntity
   8
LEVEL001
 370
30
 100
AcDbLine
   6
DOT
  62
7
  10
 420.00000000000
  20
 297.00000000000
  30
0.0
  11
0.0
  21
 297.00000000000
  31
0.0
   0
LINE
   5
29A
 100
AcDbEntity
   8
LEVEL002
 370
40
 100
AcDbLine
   6
CONTINUOUS
  62
3
  10
 15.499999999950
  20
 275.00000000000
  30
0.0
  11
 304.49999999995
  21
 275.00000000000
  31
0.0
   0
LINE
   5
29B
 100
AcDbEntity
   8
LEVEL002
 370
40
 100
AcDbLine
   6
CONTINUOUS
  62
3
  10
 304.49999999995
  20
 256.75000000000
  30
0.0
  11
 404.49999999995
  21
 256.75000000000
  31
0.0
   0
LINE
   5
29C
 100
AcDbEntity
   8
LEVEL002
 370
40
 100
AcDbLine
   6
CONTINUOUS
  62
3
  10
 304.49999999995
  20
 236.75000000000
  30
0.0
  11
 404.49999999995
  21
 236.75000000000
  31
0.0
   0
LINE
   5
29D
 100
AcDbEntity
   8
LEVEL002
 370
40
 100
AcDbLine
   6
CONTINUOUS
  62
3
  10
 304.49999999995
  20
 216.75000000000
  30
0.0
  11
 404.49999999995
  21
 216.75000000000
  31
0.0
   0
LINE
   5
29E
 100
AcDbEntity
   8
LEVEL002
 370
40
 100
AcDbLine
   6
CONTINUOUS
  62
3
  10
 304.49999999995
  20
 72.000000000010
  30
0.0
  11
 404.49999999995
  21
 72.000000000010
  31
0.0
   0
LINE
   5
29F
 100
AcDbEntity
   8
LEVEL002
 370
40
 100
AcDbLine
   6
CONTINUOUS
  62
3
  10
 304.49999999995
  20
 52.000000000010
  30
0.0
  11
 404.49999999995
  21
 52.000000000010
  31
0.0
   0
LINE
   5
2A0
 100
AcDbEntity
   8
LEVEL002
 370
40
 100
AcDbLine
   6
CONTINUOUS
  62
3
  10
 304.49999999995
  20
 32.000000000010
  30
0.0
  11
 404.49999999995
  21
 32.000000000010
  31
0.0
   0
LINE
   5
2A1
 100
AcDbEntity
   8
LEVEL002
 370
40
 100
AcDbLine
   6
CONTINUOUS
  62
3
  10
 354.49999999995
  20
 52.000000000010
  30
0.0
  11
 354.49999999995
  21
 12.000000000010
  31
0.0
   0
LINE
   5
2A2
 100
AcDbEntity
   8
LEVEL002
 370
40
 100
AcDbLine
   6
CONTINUOUS
  62
3
  10
 354.49999999995
  20
 38.666666666680
  30
0.0
  11
 404.49999999995
  21
 38.666666666680
  31
0.0
   0
LINE
   5
2A3
 100
AcDbEntity
   8
LEVEL002
 370
40
 100
AcDbLine
   6
CONTINUOUS
  62
3
  10
 354.49999999995
  20
 45.333333333345
  30
0.0
  11
 404.49999999995
  21
 45.333333333345
  31
0.0
   0
LINE
   5
2A4
 100
AcDbEntity
   8
LEVEL002
 370
50
 100
AcDbLine
   6
CONTINUOUS
  62
4
  10
 404.49999999995
  20
 285.00000000000
  30
0.0
  11
 15.499999999950
  21
 285.00000000000
  31
0.0
   0
LINE
   5
2A5
 100
AcDbEntity
   8
LEVEL002
 370
50
 100
AcDbLine
   6
CONTINUOUS
  62
4
  10
 304.49999999995
  20
 285.00000000000
  30
0.0
  11
 304.49999999995
  21
 12.000000000010
  31
0.0
   0
LINE
   5
2A6
 100
AcDbEntity
   8
LEVEL002
 370
50
 100
AcDbLine
   6
CONTINUOUS
  62
4
  10
 404.49999999995
  20
 12.000000000010
  30
0.0
  11
 404.49999999995
  21
 285.00000000000
  31
0.0
   0
LINE
   5
2A7
 100
AcDbEntity
   8
LEVEL002
 370
50
 100
AcDbLine
   6
CONTINUOUS
  62
4
  10
 15.499999999950
  20
 285.00000000000
  30
0.0
  11
 15.499999999950
  21
 12.000000000010
  31
0.0
   0
LINE
   5
2A8
 100
AcDbEntity
   8
LEVEL002
 370
50
 100
AcDbLine
   6
CONTINUOUS
  62
4
  10
 15.499999999950
  20
 12.000000000010
  30
0.0
  11
 404.49999999995
  21
 12.000000000010
  31
0.0
   0
HATCH
   5
2A9
 100
AcDbEntity
   8
LEVEL001
  62
1
 100
AcDbHatch
  10
0.0
  20
0.0
  30
0.0
 210
0.0
 220
0.0
 230
 1.0000000000000
   2
SOLID
  70
1
  71
1
  91
7
  92
1
  93
6
  72
1
  10
 324.45000000000
  20
 280.47500000000
  11
 318.05000000000
  21
 270.87500000000
  72
1
  10
 318.05000000000
  20
 270.87500000000
  11
 324.45000000000
  21
 261.27500000000
  72
1
  10
 324.45000000000
  20
 261.27500000000
  11
 319.05000000000
  21
 261.27500000000
  72
1
  10
 319.05000000000
  20
 261.27500000000
  11
 312.65000000000
  21
 270.87500000000
  72
1
  10
 312.65000000000
  20
 270.87500000000
  11
 319.05000000000
  21
 280.47500000000
  72
1
  10
 319.05000000000
  20
 280.47500000000
  11
 324.45000000000
  21
 280.47500000000
  97
1
 330

  92
16
  93
6
  72
1
  10
 327.15000000000
  20
 280.47500000000
  11
 332.55000000000
  21
 280.47500000000
  72
1
  10
 332.55000000000
  20
 280.47500000000
  11
 326.15000000000
  21
 270.87500000000
  72
1
  10
 326.15000000000
  20
 270.87500000000
  11
 332.55000000000
  21
 261.27500000000
  72
1
  10
 332.55000000000
  20
 261.27500000000
  11
 327.15000000000
  21
 261.27500000000
  72
1
  10
 327.15000000000
  20
 261.27500000000
  11
 320.75000000000
  21
 270.87500000000
  72
1
  10
 320.75000000000
  20
 270.87500000000
  11
 327.15000000000
  21
 280.47500000000
  97
1
 330

  92
16
  93
3
  72
1
  10
 333.35000000000
  20
 270.87500000000
  11
 328.85000000000
  21
 270.87500000000
  72
1
  10
 328.85000000000
  20
 270.87500000000
  11
 333.35000000000
  21
 263.67500000000
  72
1
  10
 333.35000000000
  20
 263.67500000000
  11
 333.35000000000
  21
 270.87500000000
  97
1
 330

  92
16
  93
6
  72
1
  10
 336.95000000000
  20
 272.07500000000
  11
 344.15000000000
  21
 272.07500000000
  72
2
  10
 344.15000000000
  20
 267.57500000000
  40
 4.5000000000000
  50
 270.00000000000
  51
 90.000000000000
  73
0
  72
1
  10
 344.15000000000
  20
 263.07500000000
  11
 340.55000000000
  21
 263.07500000000
  72
1
  10
 340.55000000000
  20
 263.07500000000
  11
 340.55000000000
  21
 261.27500000000
  72
1
  10
 340.55000000000
  20
 261.27500000000
  11
 336.95000000000
  21
 261.27500000000
  72
1
  10
 336.95000000000
  20
 261.27500000000
  11
 336.95000000000
  21
 272.07500000000
  97
1
 330

  92
16
  93
4
  72
1
  10
 344.15000000000
  20
 268.47500000000
  11
 340.55000000000
  21
 268.47500000000
  72
1
  10
 340.55000000000
  20
 268.47500000000
  11
 340.55000000000
  21
 266.67500000000
  72
1
  10
 340.55000000000
  20
 266.67500000000
  11
 344.15000000000
  21
 266.67500000000
  72
2
  10
 344.15000000000
  20
 267.57500000000
  40
 0.90000000000000
  50
 270.00000000000
  51
 90.000000000000
  73
1
  97
1
 330

  92
16
  93
4
  72
1
  10
 345.95000000000
  20
 261.27500000000
  11
 353.15000000000
  21
 272.07500000000
  72
1
  10
 353.15000000000
  20
 272.07500000000
  11
 358.55000000000
  21
 272.07500000000
  72
1
  10
 358.55000000000
  20
 272.07500000000
  11
 351.35000000000
  21
 261.27500000000
  72
1
  10
 351.35000000000
  20
 261.27500000000
  11
 345.95000000000
  21
 261.27500000000
  97
1
 330

  92
16
  93
3
  72
1
  10
 357.35000000000
  20
 268.11166923470
  11
 352.79222051020
  21
 261.27500000000
  72
1
  10
 352.79222051020
  20
 261.27500000000
  11
 357.35000000000
  21
 261.27500000000
  72
1
  10
 357.35000000000
  20
 261.27500000000
  11
 357.35000000000
  21
 268.11166923470
  97
1
 330

  75
0
  76
1
  98
1
  10
0.0
  20
0.0
   0
HATCH
   5
2AA
 100
AcDbEntity
   8
LEVEL001
  62
1
 100
AcDbHatch
  10
0.0
  20
0.0
  30
0.0
 210
0.0
 220
0.0
 230
 1.0000000000000
   2
SOLID
  70
1
  71
1
  91
1
  92
1
  93
22
  72
1
  10
 358.55000000000
  20
 272.07500000000
  11
 362.15000000000
  21
 272.07500000000
  72
1
  10
 362.15000000000
  20
 272.07500000000
  11
 362.15000000000
  21
 264.87500000000
  72
1
  10
 362.15000000000
  20
 264.87500000000
  11
 367.55000000000
  21
 264.87500000000
  72
1
  10
 367.55000000000
  20
 264.87500000000
  11
 367.55000000000
  21
 268.47500000000
  72
1
  10
 367.55000000000
  20
 268.47500000000
  11
 363.95000000000
  21
 268.47500000000
  72
1
  10
 363.95000000000
  20
 268.47500000000
  11
 363.95000000000
  21
 272.07500000000
  72
1
  10
 363.95000000000
  20
 272.07500000000
  11
 385.55000000000
  21
 272.07500000000
  72
1
  10
 385.55000000000
  20
 272.07500000000
  11
 385.55000000000
  21
 268.47500000000
  72
1
  10
 385.55000000000
  20
 268.47500000000
  11
 378.35000000000
  21
 268.47500000000
  72
1
  10
 378.35000000000
  20
 268.47500000000
  11
 378.35000000000
  21
 267.57500000000
  72
1
  10
 378.35000000000
  20
 267.57500000000
  11
 384.65000000000
  21
 267.57500000000
  72
1
  10
 384.65000000000
  20
 267.57500000000
  11
 384.65000000000
  21
 265.77500000000
  72
1
  10
 384.65000000000
  20
 265.77500000000
  11
 378.35000000000
  21
 265.77500000000
  72
1
  10
 378.35000000000
  20
 265.77500000000
  11
 378.35000000000
  21
 264.87500000000
  72
1
  10
 378.35000000000
  20
 264.87500000000
  11
 385.55000000000
  21
 264.87500000000
  72
1
  10
 385.55000000000
  20
 264.87500000000
  11
 385.55000000000
  21
 261.27500000000
  72
1
  10
 385.55000000000
  20
 261.27500000000
  11
 374.75000000000
  21
 261.27500000000
  72
1
  10
 374.75000000000
  20
 261.27500000000
  11
 374.75000000000
  21
 268.47500000000
  72
1
  10
 374.75000000000
  20
 268.47500000000
  11
 371.15000000000
  21
 268.47500000000
  72
1
  10
 371.15000000000
  20
 268.47500000000
  11
 371.15000000000
  21
 261.27500000000
  72
1
  10
 371.15000000000
  20
 261.27500000000
  11
 358.55000000000
  21
 261.27500000000
  72
1
  10
 358.55000000000
  20
 261.27500000000
  11
 358.55000000000
  21
 272.07500000000
  97
1
 330

  75
0
  76
1
  98
1
  10
0.0
  20
0.0
   0
HATCH
   5
2AB
 100
AcDbEntity
   8
LEVEL001
  62
1
 100
AcDbHatch
  10
0.0
  20
0.0
  30
0.0
 210
0.0
 220
0.0
 230
 1.0000000000000
   2
SOLID
  70
1
  71
1
  91
1
  92
1
  93
8
  72
1
  10
 396.35000000000
  20
 272.07500000000
  11
 390.95000000000
  21
 272.07500000000
  72
2
  10
 390.95000000000
  20
 266.67500000000
  40
 5.4000000000000
  50
 90.000000000000
  51
 270.00000000000
  73
1
  72
1
  10
 390.95000000000
  20
 261.27500000000
  11
 396.35000000000
  21
 261.27500000000
  72
1
  10
 396.35000000000
  20
 261.27500000000
  11
 396.35000000000
  21
 264.87500000000
  72
1
  10
 396.35000000000
  20
 264.87500000000
  11
 390.95000000000
  21
 264.87500000000
  72
2
  10
 390.95000000000
  20
 266.67500000000
  40
 1.8000000000000
  50
 90.000000000000
  51
 270.00000000000
  73
0
  72
1
  10
 390.95000000000
  20
 268.47500000000
  11
 396.35000000000
  21
 268.47500000000
  72
1
  10
 396.35000000000
  20
 268.47500000000
  11
 396.35000000000
  21
 272.07500000000
  97
1
 330

  75
0
  76
1
  98
1
  10
0.0
  20
0.0
   0
MTEXT
   5
2AD
 100
AcDbEntity
   8
LEVEL002
 370
15
  62
8
 100
AcDbMText
  10
 310.79999999995
  20
 28.250000000010
  30
0.0
  40
 3.0000000000000
  41
0.0
  71
5
  72
1
   1
\T1.000000;サイズ：
   7
GMM002
  44
 0.79999984000003
   0
MTEXT
   5
2AF
 100
AcDbEntity
   8
LEVEL002
 370
15
  62
8
 100
AcDbMText
  10
 309.29999999995
  20
 48.250000000010
  30
0.0
  40
 3.0000000000000
  41
0.0
  71
5
  72
1
   1
\T1.000000;縮尺：
   7
GMM002
  44
 0.79999984000003
   0
MTEXT
   5
2B1
 100
AcDbEntity
   8
LEVEL002
 370
15
  62
8
 100
AcDbMText
  10
 312.29999999995
  20
 68.250000000010
  30
0.0
  40
 3.0000000000000
  41
0.0
  71
5
  72
1
   1
\T1.000000;図面名称：
   7
GMM002
  44
 0.79999984000003
   0
MTEXT
   5
2B3
 100
AcDbEntity
   8
LEVEL002
 370
15
  62
8
 100
AcDbMText
  10
 363.79999999995
  20
 28.250000000010
  30
0.0
  40
 3.0000000000000
  41
0.0
  71
5
  72
1
   1
\T1.000000;ファイル名：
   7
GMM002
  44
 0.79999984000003
   0
MTEXT
   5
2B5
 100
AcDbEntity
   8
LEVEL002
 370
15
  62
8
 100
AcDbMText
  10
 362.29999999995
  20
 48.666666666680
  30
0.0
  40
 2.8000000000000
  41
0.0
  71
5
  72
1
   1
\T1.000000;作成日付：
   7
GMM003
  44
 0.79999984000003
   0
MTEXT
   5
2B7
 100
AcDbEntity
   8
LEVEL002
 370
15
  62
8
 100
AcDbMText
  10
 362.29999999995
  20
 42.000000000010
  30
0.0
  40
 2.8000000000000
  41
0.0
  71
5
  72
1
   1
\T1.000000;変更日付：
   7
GMM003
  44
 0.79999984000003
   0
MTEXT
   5
2B9
 100
AcDbEntity
   8
LEVEL002
 370
15
  62
8
 100
AcDbMText
  10
 329.49999999995
  20
 18.250000000010
  30
0.0
  40
 3.7500000000000
  41
0.0
  71
5
  72
1
   1
\T1.000000;Ａ３
   7
GMM002
  44
 0.79999984000003
   0
MTEXT
   5
2BB
 100
AcDbEntity
   8
LEVEL002
 370
15
  62
8
 100
AcDbMText
  10
 309.29999999995
  20
 213.00000000000
  30
0.0
  40
 3.0000000000000
  41
0.0
  71
5
  72
1
   1
\T1.000000;仕様：
   7
GMM002
  44
 0.79999984000003
   0
MTEXT
   5
2BD
 100
AcDbEntity
   8
LEVEL002
 370
15
  62
8
 100
AcDbMText
  10
 309.29999999995
  20
 233.00000000000
  30
0.0
  40
 3.0000000000000
  41
0.0
  71
5
  72
1
   1
\T1.000000;形式：
   7
GMM002
  44
 0.79999984000003
   0
MTEXT
   5
2BF
 100
AcDbEntity
   8
LEVEL002
 370
15
  62
8
 100
AcDbMText
  10
 310.79999999995
  20
 253.00000000000
  30
0.0
  40
 3.0000000000000
  41
0.0
  71
5
  72
1
   1
\T1.000000;商品名：
   7
GMM002
  44
 0.79999984000003
   0
MTEXT
   5
2C1
 100
AcDbEntity
   8
LEVEL002
 370
15
  62
8
 100
AcDbMText
  10
 346.89999999995
  20
 76.870803459011
  30
0.0
  40
 4.0000000000000
  41
0.0
  71
5
  72
1
   1
\T1.000000;　※本製品は予告無しに変更する事があります。
   7
GMM002
  44
 0.79999984000003
   0
MTEXT
   5
2C3
 100
AcDbEntity
   8
LEVEL002
 370
15
  62
8
 100
AcDbMText
  10
 322.49999999995
  20
 244.50000000000
  30
0.0
  40
 4.5000000000000
  41
0.0
  71
7
  72
1
   1
\T1.000000;　フロアー金具コーナー部材
   7
GMM004
  44
 0.79999984000003
   0
LINE
   5
2C4
 100
AcDbEntity
   8
LEVEL001
 370
30
 100
AcDbLine
   6
DOT
  62
7
  10
0.0
  20
 297.00000000000
  30
0.0
  11
0.0
  21
0.0
  31
0.0
   0
MTEXT
   5
2C6
 100
AcDbEntity
   8
LEVEL002
 370
15
  62
8
 100
AcDbMText
  10
 387.21508456075
  20
 48.666666666680
  30
0.0
  40
 3.0000000000000
  41
0.0
  71
5
  72
1
   1
\T1.000000;令和０５年０３月３０日
   7
GMM002
  44
 0.79999984000003
   0
MTEXT
   5
2C8
 100
AcDbEntity
   8
LEVEL002
 370
15
  62
8
 100
AcDbMText
  10
 387.21508456075
  20
 42.000000000010
  30
0.0
  40
 3.0000000000000
  41
0.0
  71
5
  72
1
   1
\T1.000000;令和　　年　　月　　日
   7
GMM002
  44
 0.79999984000003
   0
MTEXT
   5
2CA
 100
AcDbEntity
   8
LEVEL002
 370
15
  62
8
 100
AcDbMText
  10
 387.21508456075
  20
 35.333333333345
  30
0.0
  40
 3.0000000000000
  41
0.0
  71
5
  72
1
   1
\T1.000000;令和　　年　　月　　日
   7
GMM002
  44
 0.79999984000003
   0
LINE
   5
2CB
 100
AcDbEntity
   8
LEVEL001
 370
40
 100
AcDbLine
   6
CONTINUOUS
  62
3
  10
 159.99999999995
  20
 285.00000000000
  30
0.0
  11
 159.99999999995
  21
 12.000000000010
  31
0.0
   0
MTEXT
   5
2CD
 100
AcDbEntity
   8
LEVEL002
 370
15
  62
8
 100
AcDbMText
  10
 379.49999999995
  20
 20.083333333345
  30
0.0
  40
 2.5000000000000
  41
0.0
  71
5
  72
1
   1
\T1.000000;フロアー金具コーナー部材－４
   7
GMM002
  44
 0.79999984000003
   0
MTEXT
   5
2CF
 100
AcDbEntity
   8
LEVEL002
 370
15
  62
8
 100
AcDbMText
  10
 329.49999999995
  20
 38.250000000010
  30
0.0
  40
 3.7500000000000
  41
0.0
  71
5
  72
1
   1
\T1.000000;Ｓ＝１：１
   7
GMM002
  44
 0.79999984000003
   0
MTEXT
   5
2D1
 100
AcDbEntity
   8
LEVEL002
 370
15
  62
8
 100
AcDbMText
  10
 354.49999999995
  20
 226.75000000000
  30
0.0
  40
 4.0000000000000
  41
0.0
  71
2
  72
1
   1
{\T1.000000;　　　　　　　　　部材④}\P{\T1.000000;（ＡＭ３１ＭＣ／ＳＣＭ１ＭＣ／ＳＣＭ１ＢＭＣ）}
   7
GMM002
  44
 0.79999984000003
   0
LINE
   5
2D2
 100
AcDbEntity
   8
LEVEL002
 370
40
 100
AcDbLine
   6
CONTINUOUS
  62
3
  10
 15.499999999950
  20
 138.50000000000
  30
0.0
  11
 304.49999999995
  21
 138.50000000000
  31
0.0
   0
LINE
   5
2D3
 100
AcDbEntity
   8
LEVEL002
 370
40
 100
AcDbLine
   6
CONTINUOUS
  62
3
  10
 15.499999999950
  20
 148.50000000000
  30
0.0
  11
 304.49999999995
  21
 148.50000000000
  31
0.0
   0
MTEXT
   5
2D5
 100
AcDbEntity
   8
LEVEL001
 370
15
  62
8
 100
AcDbMText
  10
 15.799999999950
  20
 280.00000000000
  30
0.0
  40
 2.5000000000000
  41
0.0
  71
4
  72
1
   1
\W0.500000;\T1.000000; \W1.000000;\T1.000000;巻き上げコーナー
   7
GMM002
  44
 0.79999984000003
   0
ARC
   5
2D6
 100
AcDbEntity
   8
LEVEL002
 370
25
   6
CONTINUOUS
  62
1
 100
AcDbCircle
  10
 69.477011079977
  20
 234.86769952895
  30
0.0
  40
 2.0000000000000
 100
AcDbArc
  50
 90.000000000013
  51
 180.00000000000
   0
ARC
   5
2D7
 100
AcDbEntity
   8
LEVEL002
 370
25
   6
CONTINUOUS
  62
1
 100
AcDbCircle
  10
 64.977011079976
  20
 239.36769952895
  30
0.0
  40
 3.0000000000000
 100
AcDbArc
  50
 89.999999999996
  51
 180.00000000000
   0
LINE
   5
2D8
 100
AcDbEntity
   8
LEVEL002
 370
25
 100
AcDbLine
   6
CONTINUOUS
  62
1
  10
 61.977011079976
  20
 239.36769952895
  30
0.0
  11
 61.977011079976
  21
 217.36769952895
  31
0.0
   0
LINE
   5
2D9
 100
AcDbEntity
   8
LEVEL002
 370
25
 100
AcDbLine
   6
CONTINUOUS
  62
1
  10
 61.977011079976
  20
 217.36769952895
  30
0.0
  11
 67.477011079976
  21
 217.36769952895
  31
0.0
   0
LINE
   5
2DA
 100
AcDbEntity
   8
LEVEL002
 370
25
 100
AcDbLine
   6
CONTINUOUS
  62
1
  10
 86.977011079976
  20
 236.86769952895
  30
0.0
  11
 86.977011079976
  21
 242.36769952895
  31
0.0
   0
LINE
   5
2DB
 100
AcDbEntity
   8
LEVEL002
 370
25
 100
AcDbLine
   6
CONTINUOUS
  62
1
  10
 86.977011079976
  20
 242.36769952895
  30
0.0
  11
 64.977011079976
  21
 242.36769952895
  31
0.0
   0
LINE
   5
2DC
 100
AcDbEntity
   8
LEVEL002
 370
25
 100
AcDbLine
   6
CONTINUOUS
  62
1
  10
 69.477011079976
  20
 236.86769952895
  30
0.0
  11
 86.977011079976
  21
 236.86769952895
  31
0.0
   0
LINE
   5
2DD
 100
AcDbEntity
   8
LEVEL002
 370
25
 100
AcDbLine
   6
CONTINUOUS
  62
1
  10
 67.477011079976
  20
 217.36769952895
  30
0.0
  11
 67.477011079976
  21
 234.86769952895
  31
0.0
   0
LINE
   5
2DE
 100
AcDbEntity
   8
LEVEL002
 370
25
 100
AcDbLine
   6
CONTINUOUS
  62
1
  10
 62.477011079976
  20
 193.54039689737
  30
0.0
  11
 62.477011079976
  21
 200.54039689737
  31
0.0
   0
LINE
   5
2DF
 100
AcDbEntity
   8
LEVEL002
 370
25
 100
AcDbLine
   6
CONTINUOUS
  62
1
  10
 62.477011079976
  20
 200.54039689737
  30
0.0
  11
 66.977011079976
  21
 200.54039689737
  31
0.0
   0
LINE
   5
2E0
 100
AcDbEntity
   8
LEVEL002
 370
25
 100
AcDbLine
   6
CONTINUOUS
  62
1
  10
 66.977011079976
  20
 200.54039689737
  30
0.0
  11
 66.977011079976
  21
 193.54039689737
  31
0.0
   0
LINE
   5
2E1
 100
AcDbEntity
   8
LEVEL002
 370
25
 100
AcDbLine
   6
CONTINUOUS
  62
1
  10
 61.977011079976
  20
 200.54039689737
  30
0.0
  11
 61.977011079976
  21
 193.54039689737
  31
0.0
   0
LINE
   5
2E2
 100
AcDbEntity
   8
LEVEL002
 370
25
 100
AcDbLine
   6
CONTINUOUS
  62
1
  10
 61.977011079976
  20
 193.54039689737
  30
0.0
  11
 86.977011079976
  21
 193.54039689737
  31
0.0
   0
LINE
   5
2E3
 100
AcDbEntity
   8
LEVEL002
 370
25
 100
AcDbLine
   6
CONTINUOUS
  62
1
  10
 86.977011079976
  20
 193.54039689737
  30
0.0
  11
 86.977011079976
  21
 201.04039689737
  31
0.0
   0
LINE
   5
2E4
 100
AcDbEntity
   8
LEVEL002
 370
25
 100
AcDbLine
   6
CONTINUOUS
  62
1
  10
 86.977011079976
  20
 201.04039689737
  30
0.0
  11
 62.477011079976
  21
 201.04039689737
  31
0.0
   0
ARC
   5
2E5
 100
AcDbEntity
   8
LEVEL002
 370
25
   6
CONTINUOUS
  62
1
 100
AcDbCircle
  10
 62.477011079976
  20
 200.54039689737
  30
0.0
  40
 0.50000000000000
 100
AcDbArc
  50
 90.000000000000
  51
 179.99999999990
   0
LINE
   5
2E6
 100
AcDbEntity
   8
LEVEL002
 370
25
 100
AcDbLine
   6
CONTINUOUS
  62
1
  10
 67.477011079976
  20
 200.54039689737
  30
0.0
  11
 67.477011079976
  21
 193.54039689737
  31
0.0
   0
ARC
   5
2E7
 100
AcDbEntity
   8
LEVEL002
 370
25
   6
CONTINUOUS
  62
1
 100
AcDbCircle
  10
 66.977011079977
  20
 200.54039689737
  30
0.0
  40
 0.50000000000000
 100
AcDbArc
  50
0.0
  51
 90.000000000000
   0
LINE
   5
2E8
 100
AcDbEntity
   8
LEVEL002
 370
25
 100
AcDbLine
   6
CONTINUOUS
  62
1
  10
 113.32175435212
  20
 241.86769952895
  30
0.0
  11
 106.32175435212
  21
 241.86769952895
  31
0.0
   0
LINE
   5
2E9
 100
AcDbEntity
   8
LEVEL002
 370
25
 100
AcDbLine
   6
CONTINUOUS
  62
1
  10
 106.32175435212
  20
 241.86769952895
  30
0.0
  11
 106.32175435212
  21
 237.36769952895
  31
0.0
   0
LINE
   5
2EA
 100
AcDbEntity
   8
LEVEL002
 370
25
 100
AcDbLine
   6
CONTINUOUS
  62
1
  10
 106.32175435212
  20
 237.36769952895
  30
0.0
  11
 113.32175435212
  21
 237.36769952895
  31
0.0
   0
ARC
   5
2EB
 100
AcDbEntity
   8
LEVEL002
 370
25
   6
CONTINUOUS
  62
1
 100
AcDbCircle
  10
 106.32175435212
  20
 237.36769952895
  30
0.0
  40
 0.50000000000000
 100
AcDbArc
  50
 180.00000000000
  51
 269.99999999988
   0
LINE
   5
2EC
 100
AcDbEntity
   8
LEVEL002
 370
25
 100
AcDbLine
   6
CONTINUOUS
  62
1
  10
 113.32175435212
  20
 236.86769952895
  30
0.0
  11
 106.32175435212
  21
 236.86769952895
  31
0.0
   0
LINE
   5
2ED
 100
AcDbEntity
   8
LEVEL002
 370
25
 100
AcDbLine
   6
CONTINUOUS
  62
1
  10
 105.82175435212
  20
 241.86769952895
  30
0.0
  11
 105.82175435212
  21
 217.36769952895
  31
0.0
   0
LINE
   5
2EE
 100
AcDbEntity
   8
LEVEL002
 370
25
 100
AcDbLine
   6
CONTINUOUS
  62
1
  10
 105.82175435212
  20
 217.36769952895
  30
0.0
  11
 113.32175435212
  21
 217.36769952895
  31
0.0
   0
LINE
   5
2EF
 100
AcDbEntity
   8
LEVEL002
 370
25
 100
AcDbLine
   6
CONTINUOUS
  62
1
  10
 113.32175435212
  20
 217.36769952895
  30
0.0
  11
 113.32175435212
  21
 242.36769952895
  31
0.0
   0
LINE
   5
2F0
 100
AcDbEntity
   8
LEVEL002
 370
25
 100
AcDbLine
   6
CONTINUOUS
  62
1
  10
 113.32175435212
  20
 242.36769952895
  30
0.0
  11
 106.32175435212
  21
 242.36769952895
  31
0.0
   0
ARC
   5
2F1
 100
AcDbEntity
   8
LEVEL002
 370
25
   6
CONTINUOUS
  62
1
 100
AcDbCircle
  10
 106.32175435212
  20
 241.86769952895
  30
0.0
  40
 0.50000000000000
 100
AcDbArc
  50
 90.000000000000
  51
 180.00000000005
   0
ARC
   5
2F2
 100
AcDbEntity
   8
LEVEL002
 370
15
   6
HIDDEN
  62
2
 100
AcDbCircle
  10
 65.477011079976
  20
 238.86769952895
  30
0.0
  40
 3.0000000000000
 100
AcDbArc
  50
 89.999999999996
  51
 180.00000000000
   0
LINE
   5
2F3
 100
AcDbEntity
   8
LEVEL002
 370
15
 100
AcDbLine
   6
HIDDEN
  62
2
  10
 66.977011079976
  20
 217.36769952895
  30
0.0
  11
 66.977011079976
  21
 235.36769952895
  31
0.0
   0
ARC
   5
2F4
 100
AcDbEntity
   8
LEVEL002
 370
15
   6
HIDDEN
  62
2
 100
AcDbCircle
  10
 68.977011079976
  20
 235.36769952895
  30
0.0
  40
 2.0000000000000
 100
AcDbArc
  50
 90.000000000000
  51
 180.00000000000
   0
LINE
   5
2F5
 100
AcDbEntity
   8
LEVEL002
 370
15
 100
AcDbLine
   6
HIDDEN
  62
2
  10
 62.477011079976
  20
 238.86769952895
  30
0.0
  11
 62.477011079976
  21
 217.36769952895
  31
0.0
   0
LINE
   5
2F6
 100
AcDbEntity
   8
LEVEL002
 370
15
 100
AcDbLine
   6
HIDDEN
  62
2
  10
 68.977011079976
  20
 237.36769952895
  30
0.0
  11
 86.977011079976
  21
 237.36769952895
  31
0.0
   0
LINE
   5
2F7
 100
AcDbEntity
   8
LEVEL002
 370
15
 100
AcDbLine
   6
HIDDEN
  62
2
  10
 86.977011079976
  20
 241.86769952895
  30
0.0
  11
 65.477011079976
  21
 241.86769952895
  31
0.0
   0
LINE
   5
2F8
 100
AcDbEntity
   8
LEVEL002
 370
15
 100
AcDbLine
   6
HIDDEN
  62
2
  10
 66.977011079977
  20
 200.54039689737
  30
0.0
  11
 86.977011079976
  21
 200.54039689737
  31
0.0
   0
LINE
   5
2F9
 100
AcDbEntity
   8
LEVEL002
 370
15
 100
AcDbLine
   6
HIDDEN
  62
2
  10
 106.32175435212
  20
 237.36769952895
  30
0.0
  11
 106.32175435212
  21
 217.36769952895
  31
0.0
   0
DIMENSION
   5
2FA
 100
AcDbEntity
   8
LEVEL001
 370
15
   6
CONTINUOUS
  62
8
 100
AcDbDimension
   2
*D1
  10
 51.977011079976
  20
 242.36769952895
  30
0.0
  11
 51.977011079976
  21
 229.86769952895
  31
0.0
  70
0
   3
GMM001
 100
AcDbAlignedDimension
  13
 61.977011079976
  23
 217.36769952895
  33
0.0
  14
 64.977011079976
  24
 242.36769952895
  34
0.0
  50
 90.000000000000
 100
AcDbRotatedDimension
   0
DIMENSION
   5
2FB
 100
AcDbEntity
   8
LEVEL001
 370
15
   6
CONTINUOUS
  62
8
 100
AcDbDimension
   2
*D2
  10
 86.977011079976
  20
 252.36769952895
  30
0.0
  11
 74.477011079976
  21
 252.36769952895
  31
0.0
  70
0
   3
GMM001
 100
AcDbAlignedDimension
  13
 61.977011079976
  23
 239.36769952895
  33
0.0
  14
 86.977011079976
  24
 242.36769952895
  34
0.0
 100
AcDbRotatedDimension
   0
DIMENSION
   5
2FC
 100
AcDbEntity
   8
LEVEL001
 370
15
   6
CONTINUOUS
  62
8
 100
AcDbDimension
   2
*D3
  10
 58.449908226816
  20
 200.54039689737
  30
0.0
  11
 58.449908226816
  21
 197.04039689737
  31
0.0
  70
0
   3
GMM001
 100
AcDbAlignedDimension
  13
 61.977011079976
  23
 193.54039689737
  33
0.0
  14
 62.477011079976
  24
 200.54039689737
  34
0.0
  50
 90.000000000000
 100
AcDbRotatedDimension
   0
DIMENSION
   5
2FD
 100
AcDbEntity
   8
LEVEL001
 370
15
   6
CONTINUOUS
  62
8
 100
AcDbDimension
   2
*D4
  10
 58.449908226816
  20
 201.04039689737
  30
0.0
  11
 58.449908226816
  21
 202.99266222723
  31
0.0
  70
128
   3
GMM002
 100
AcDbAlignedDimension
  13
 62.477011079976
  23
 200.54039689737
  33
0.0
  14
 62.477011079976
  24
 201.04039689737
  34
0.0
  50
 90.000000000000
 100
AcDbRotatedDimension
   0
DIMENSION
   5
2FE
 100
AcDbEntity
   8
LEVEL001
 370
15
   6
CONTINUOUS
  62
8
 100
AcDbDimension
   2
*D5
  10
 51.977011079976
  20
 201.04039689737
  30
0.0
  11
 51.977011079976
  21
 197.29039689737
  31
0.0
  70
0
   3
GMM001
 100
AcDbAlignedDimension
  13
 58.449908226816
  23
 193.54039689737
  33
0.0
  14
 58.449908226816
  24
 201.04039689737
  34
0.0
  50
 90.000000000000
 100
AcDbRotatedDimension
   0
DIMENSION
   5
2FF
 100
AcDbEntity
   8
LEVEL001
 370
15
   6
CONTINUOUS
  62
8
 100
AcDbDimension
   2
*D6
  10
 67.477011079976
  20
 211.63867907188
  30
0.0
  11
 64.727011079976
  21
 211.63867907188
  31
0.0
  70
0
   3
GMM001
 100
AcDbAlignedDimension
  13
 61.977011079976
  23
 217.36769952895
  33
0.0
  14
 67.477011079976
  24
 217.36769952895
  34
0.0
 100
AcDbRotatedDimension
   0
DIMENSION
   5
300
 100
AcDbEntity
   8
LEVEL001
 370
15
   6
CONTINUOUS
  62
8
 100
AcDbDimension
   2
*D7
  10
 62.477011079976
  20
 188.20822639698
  30
0.0
  11
 60.745955842421
  21
 188.20822639698
  31
0.0
  70
128
   3
GMM003
 100
AcDbAlignedDimension
  13
 61.977011079976
  23
 193.54039689737
  33
0.0
  14
 62.477011079976
  24
 193.54039689737
  34
0.0
 100
AcDbRotatedDimension
   0
DIMENSION
   5
301
 100
AcDbEntity
   8
LEVEL001
 370
15
   6
CONTINUOUS
  62
8
 100
AcDbDimension
   2
*D8
  10
 67.477011079976
  20
 188.20822639698
  30
0.0
  11
 69.361244062972
  21
 188.20822639698
  31
0.0
  70
128
   3
GMM004
 100
AcDbAlignedDimension
  13
 66.977011079976
  23
 193.54039689737
  33
0.0
  14
 67.477011079976
  24
 193.54039689737
  34
0.0
 100
AcDbRotatedDimension
   0
DIMENSION
   5
302
 100
AcDbEntity
   8
LEVEL001
 370
15
   6
CONTINUOUS
  62
8
 100
AcDbDimension
   2
*D9
  10
 86.977011079976
  20
 182.99341158216
  30
0.0
  11
 74.477011079976
  21
 182.99341158216
  31
0.0
  70
0
   3
GMM001
 100
AcDbAlignedDimension
  13
 61.977011079976
  23
 188.54039689737
  33
0.0
  14
 86.977011079976
  24
 193.54039689737
  34
0.0
 100
AcDbRotatedDimension
   0
DIMENSION
   5
303
 100
AcDbEntity
   8
LEVEL001
 370
15
   6
CONTINUOUS
  62
8
 100
AcDbDimension
   2
*D10
  10
 106.32175435212
  20
 246.92921405130
  30
0.0
  11
 104.81237937618
  21
 246.92921405130
  31
0.0
  70
128
   3
GMM005
 100
AcDbAlignedDimension
  13
 105.82175435212
  23
 241.86769952895
  33
0.0
  14
 106.32175435212
  24
 241.86769952895
  34
0.0
 100
AcDbRotatedDimension
   0
DIMENSION
   5
304
 100
AcDbEntity
   8
LEVEL001
 370
15
   6
CONTINUOUS
  62
8
 100
AcDbDimension
   2
*D11
  10
 113.32175435212
  20
 246.92921405130
  30
0.0
  11
 109.82175435212
  21
 246.92921405130
  31
0.0
  70
0
   3
GMM001
 100
AcDbAlignedDimension
  13
 106.32175435212
  23
 241.86769952895
  33
0.0
  14
 113.32175435212
  24
 242.36769952895
  34
0.0
 100
AcDbRotatedDimension
   0
DIMENSION
   5
305
 100
AcDbEntity
   8
LEVEL001
 370
15
   6
CONTINUOUS
  62
8
 100
AcDbDimension
   2
*D12
  10
 113.32175435212
  20
 252.36769952895
  30
0.0
  11
 109.57175435212
  21
 252.36769952895
  31
0.0
  70
0
   3
GMM001
 100
AcDbAlignedDimension
  13
 105.82175435212
  23
 247.36769952895
  33
0.0
  14
 113.32175435212
  24
 247.36769952895
  34
0.0
 100
AcDbRotatedDimension
   0
DIMENSION
   5
306
 100
AcDbEntity
   8
LEVEL001
 370
15
   6
CONTINUOUS
  62
8
 100
AcDbDimension
   2
*D13
  10
 95.279537856446
  20
 242.36769952895
  30
0.0
  11
 95.279537856446
  21
 239.61769952895
  31
0.0
  70
0
   3
GMM001
 100
AcDbAlignedDimension
  13
 86.977011079976
  23
 236.86769952895
  33
0.0
  14
 86.977011079976
  24
 242.36769952895
  34
0.0
  50
 90.000000000000
 100
AcDbRotatedDimension
   0
ARC
   5
307
 100
AcDbEntity
   8
LEVEL002
 370
25
   6
CONTINUOUS
  62
1
 100
AcDbCircle
  10
 213.97701107998
  20
 234.86769952895
  30
0.0
  40
 2.0000000000000
 100
AcDbArc
  50
 90.000000000013
  51
 180.00000000000
   0
ARC
   5
308
 100
AcDbEntity
   8
LEVEL002
 370
25
   6
CONTINUOUS
  62
1
 100
AcDbCircle
  10
 209.47701107998
  20
 239.36769952895
  30
0.0
  40
 3.0000000000000
 100
AcDbArc
  50
 89.999999999996
  51
 180.00000000000
   0
LINE
   5
309
 100
AcDbEntity
   8
LEVEL002
 370
25
 100
AcDbLine
   6
CONTINUOUS
  62
1
  10
 206.47701107998
  20
 239.36769952895
  30
0.0
  11
 206.47701107998
  21
 217.36769952895
  31
0.0
   0
LINE
   5
30A
 100
AcDbEntity
   8
LEVEL002
 370
25
 100
AcDbLine
   6
CONTINUOUS
  62
1
  10
 206.47701107998
  20
 217.36769952895
  30
0.0
  11
 211.97701107998
  21
 217.36769952895
  31
0.0
   0
LINE
   5
30B
 100
AcDbEntity
   8
LEVEL002
 370
25
 100
AcDbLine
   6
CONTINUOUS
  62
1
  10
 231.47701107998
  20
 236.86769952895
  30
0.0
  11
 231.47701107998
  21
 242.36769952895
  31
0.0
   0
LINE
   5
30C
 100
AcDbEntity
   8
LEVEL002
 370
25
 100
AcDbLine
   6
CONTINUOUS
  62
1
  10
 231.47701107998
  20
 242.36769952895
  30
0.0
  11
 209.47701107998
  21
 242.36769952895
  31
0.0
   0
LINE
   5
30D
 100
AcDbEntity
   8
LEVEL002
 370
25
 100
AcDbLine
   6
CONTINUOUS
  62
1
  10
 213.97701107998
  20
 236.86769952895
  30
0.0
  11
 231.47701107998
  21
 236.86769952895
  31
0.0
   0
LINE
   5
30E
 100
AcDbEntity
   8
LEVEL002
 370
25
 100
AcDbLine
   6
CONTINUOUS
  62
1
  10
 211.97701107998
  20
 217.36769952895
  30
0.0
  11
 211.97701107998
  21
 234.86769952895
  31
0.0
   0
LINE
   5
30F
 100
AcDbEntity
   8
LEVEL002
 370
25
 100
AcDbLine
   6
CONTINUOUS
  62
1
  10
 206.97701107998
  20
 193.54039689737
  30
0.0
  11
 206.97701107998
  21
 200.54039689737
  31
0.0
   0
LINE
   5
310
 100
AcDbEntity
   8
LEVEL002
 370
25
 100
AcDbLine
   6
CONTINUOUS
  62
1
  10
 206.97701107998
  20
 200.54039689737
  30
0.0
  11
 211.47701107998
  21
 200.54039689737
  31
0.0
   0
LINE
   5
311
 100
AcDbEntity
   8
LEVEL002
 370
25
 100
AcDbLine
   6
CONTINUOUS
  62
1
  10
 211.47701107998
  20
 200.54039689737
  30
0.0
  11
 211.47701107998
  21
 193.54039689737
  31
0.0
   0
LINE
   5
312
 100
AcDbEntity
   8
LEVEL002
 370
25
 100
AcDbLine
   6
CONTINUOUS
  62
1
  10
 206.47701107998
  20
 200.54039689737
  30
0.0
  11
 206.47701107998
  21
 193.54039689737
  31
0.0
   0
LINE
   5
313
 100
AcDbEntity
   8
LEVEL002
 370
25
 100
AcDbLine
   6
CONTINUOUS
  62
1
  10
 206.47701107998
  20
 193.54039689737
  30
0.0
  11
 231.47701107998
  21
 193.54039689737
  31
0.0
   0
LINE
   5
314
 100
AcDbEntity
   8
LEVEL002
 370
25
 100
AcDbLine
   6
CONTINUOUS
  62
1
  10
 231.47701107998
  20
 193.54039689737
  30
0.0
  11
 231.47701107998
  21
 201.04039689737
  31
0.0
   0
LINE
   5
315
 100
AcDbEntity
   8
LEVEL002
 370
25
 100
AcDbLine
   6
CONTINUOUS
  62
1
  10
 231.47701107998
  20
 201.04039689737
  30
0.0
  11
 206.97701107998
  21
 201.04039689737
  31
0.0
   0
ARC
   5
316
 100
AcDbEntity
   8
LEVEL002
 370
25
   6
CONTINUOUS
  62
1
 100
AcDbCircle
  10
 206.97701107998
  20
 200.54039689737
  30
0.0
  40
 0.50000000000000
 100
AcDbArc
  50
 90.000000000000
  51
 179.99999999990
   0
LINE
   5
317
 100
AcDbEntity
   8
LEVEL002
 370
25
 100
AcDbLine
   6
CONTINUOUS
  62
1
  10
 211.97701107998
  20
 200.54039689737
  30
0.0
  11
 211.97701107998
  21
 193.54039689737
  31
0.0
   0
ARC
   5
318
 100
AcDbEntity
   8
LEVEL002
 370
25
   6
CONTINUOUS
  62
1
 100
AcDbCircle
  10
 211.47701107998
  20
 200.54039689737
  30
0.0
  40
 0.50000000000000
 100
AcDbArc
  50
0.0
  51
 90.000000000000
   0
LINE
   5
319
 100
AcDbEntity
   8
LEVEL002
 370
25
 100
AcDbLine
   6
CONTINUOUS
  62
1
  10
 257.82175435212
  20
 241.86769952895
  30
0.0
  11
 250.82175435212
  21
 241.86769952895
  31
0.0
   0
LINE
   5
31A
 100
AcDbEntity
   8
LEVEL002
 370
25
 100
AcDbLine
   6
CONTINUOUS
  62
1
  10
 250.82175435212
  20
 241.86769952895
  30
0.0
  11
 250.82175435212
  21
 237.36769952895
  31
0.0
   0
LINE
   5
31B
 100
AcDbEntity
   8
LEVEL002
 370
25
 100
AcDbLine
   6
CONTINUOUS
  62
1
  10
 250.82175435212
  20
 237.36769952895
  30
0.0
  11
 257.82175435212
  21
 237.36769952895
  31
0.0
   0
ARC
   5
31C
 100
AcDbEntity
   8
LEVEL002
 370
25
   6
CONTINUOUS
  62
1
 100
AcDbCircle
  10
 250.82175435212
  20
 237.36769952895
  30
0.0
  40
 0.50000000000000
 100
AcDbArc
  50
 180.00000000000
  51
 269.99999999988
   0
LINE
   5
31D
 100
AcDbEntity
   8
LEVEL002
 370
25
 100
AcDbLine
   6
CONTINUOUS
  62
1
  10
 257.82175435212
  20
 236.86769952895
  30
0.0
  11
 250.82175435212
  21
 236.86769952895
  31
0.0
   0
LINE
   5
31E
 100
AcDbEntity
   8
LEVEL002
 370
25
 100
AcDbLine
   6
CONTINUOUS
  62
1
  10
 250.32175435212
  20
 241.86769952895
  30
0.0
  11
 250.32175435212
  21
 217.36769952895
  31
0.0
   0
LINE
   5
31F
 100
AcDbEntity
   8
LEVEL002
 370
25
 100
AcDbLine
   6
CONTINUOUS
  62
1
  10
 250.32175435212
  20
 217.36769952895
  30
0.0
  11
 257.82175435212
  21
 217.36769952895
  31
0.0
   0
LINE
   5
320
 100
AcDbEntity
   8
LEVEL002
 370
25
 100
AcDbLine
   6
CONTINUOUS
  62
1
  10
 257.82175435212
  20
 217.36769952895
  30
0.0
  11
 257.82175435212
  21
 242.36769952895
  31
0.0
   0
LINE
   5
321
 100
AcDbEntity
   8
LEVEL002
 370
25
 100
AcDbLine
   6
CONTINUOUS
  62
1
  10
 257.82175435212
  20
 242.36769952895
  30
0.0
  11
 250.82175435212
  21
 242.36769952895
  31
0.0
   0
ARC
   5
322
 100
AcDbEntity
   8
LEVEL002
 370
25
   6
CONTINUOUS
  62
1
 100
AcDbCircle
  10
 250.82175435212
  20
 241.86769952895
  30
0.0
  40
 0.50000000000000
 100
AcDbArc
  50
 90.000000000000
  51
 180.00000000005
   0
ARC
   5
323
 100
AcDbEntity
   8
LEVEL002
 370
15
   6
HIDDEN
  62
2
 100
AcDbCircle
  10
 209.97701107998
  20
 238.86769952895
  30
0.0
  40
 3.0000000000000
 100
AcDbArc
  50
 89.999999999996
  51
 180.00000000000
   0
LINE
   5
324
 100
AcDbEntity
   8
LEVEL002
 370
15
 100
AcDbLine
   6
HIDDEN
  62
2
  10
 211.47701107998
  20
 217.36769952895
  30
0.0
  11
 211.47701107998
  21
 235.36769952895
  31
0.0
   0
ARC
   5
325
 100
AcDbEntity
   8
LEVEL002
 370
15
   6
HIDDEN
  62
2
 100
AcDbCircle
  10
 213.47701107998
  20
 235.36769952895
  30
0.0
  40
 2.0000000000000
 100
AcDbArc
  50
 90.000000000000
  51
 180.00000000000
   0
LINE
   5
326
 100
AcDbEntity
   8
LEVEL002
 370
15
 100
AcDbLine
   6
HIDDEN
  62
2
  10
 206.97701107998
  20
 238.86769952895
  30
0.0
  11
 206.97701107998
  21
 217.36769952895
  31
0.0
   0
LINE
   5
327
 100
AcDbEntity
   8
LEVEL002
 370
15
 100
AcDbLine
   6
HIDDEN
  62
2
  10
 213.47701107998
  20
 237.36769952895
  30
0.0
  11
 231.47701107998
  21
 237.36769952895
  31
0.0
   0
LINE
   5
328
 100
AcDbEntity
   8
LEVEL002
 370
15
 100
AcDbLine
   6
HIDDEN
  62
2
  10
 231.47701107998
  20
 241.86769952895
  30
0.0
  11
 209.97701107998
  21
 241.86769952895
  31
0.0
   0
LINE
   5
329
 100
AcDbEntity
   8
LEVEL002
 370
15
 100
AcDbLine
   6
HIDDEN
  62
2
  10
 211.47701107998
  20
 200.54039689737
  30
0.0
  11
 231.47701107998
  21
 200.54039689737
  31
0.0
   0
LINE
   5
32A
 100
AcDbEntity
   8
LEVEL002
 370
15
 100
AcDbLine
   6
HIDDEN
  62
2
  10
 250.82175435212
  20
 237.36769952895
  30
0.0
  11
 250.82175435212
  21
 217.36769952895
  31
0.0
   0
DIMENSION
   5
32B
 100
AcDbEntity
   8
LEVEL001
 370
15
   6
CONTINUOUS
  62
8
 100
AcDbDimension
   2
*D14
  10
 196.47701107998
  20
 242.36769952895
  30
0.0
  11
 196.47701107998
  21
 229.86769952895
  31
0.0
  70
0
   3
GMM001
 100
AcDbAlignedDimension
  13
 206.47701107998
  23
 217.36769952895
  33
0.0
  14
 209.47701107998
  24
 242.36769952895
  34
0.0
  50
 90.000000000000
 100
AcDbRotatedDimension
   0
DIMENSION
   5
32C
 100
AcDbEntity
   8
LEVEL001
 370
15
   6
CONTINUOUS
  62
8
 100
AcDbDimension
   2
*D15
  10
 231.47701107998
  20
 252.36769952895
  30
0.0
  11
 218.97701107998
  21
 252.36769952895
  31
0.0
  70
0
   3
GMM001
 100
AcDbAlignedDimension
  13
 206.47701107998
  23
 239.36769952895
  33
0.0
  14
 231.47701107998
  24
 242.36769952895
  34
0.0
 100
AcDbRotatedDimension
   0
DIMENSION
   5
32D
 100
AcDbEntity
   8
LEVEL001
 370
15
   6
CONTINUOUS
  62
8
 100
AcDbDimension
   2
*D16
  10
 202.94990822682
  20
 200.54039689737
  30
0.0
  11
 202.94990822682
  21
 197.04039689737
  31
0.0
  70
0
   3
GMM001
 100
AcDbAlignedDimension
  13
 206.47701107998
  23
 193.54039689737
  33
0.0
  14
 206.97701107998
  24
 200.54039689737
  34
0.0
  50
 90.000000000000
 100
AcDbRotatedDimension
   0
DIMENSION
   5
32E
 100
AcDbEntity
   8
LEVEL001
 370
15
   6
CONTINUOUS
  62
8
 100
AcDbDimension
   2
*D17
  10
 202.94990822682
  20
 201.04039689737
  30
0.0
  11
 202.94990822682
  21
 202.99266222723
  31
0.0
  70
128
   3
GMM002
 100
AcDbAlignedDimension
  13
 206.97701107998
  23
 200.54039689737
  33
0.0
  14
 206.97701107998
  24
 201.04039689737
  34
0.0
  50
 90.000000000000
 100
AcDbRotatedDimension
   0
DIMENSION
   5
32F
 100
AcDbEntity
   8
LEVEL001
 370
15
   6
CONTINUOUS
  62
8
 100
AcDbDimension
   2
*D18
  10
 196.47701107998
  20
 201.04039689737
  30
0.0
  11
 196.47701107998
  21
 197.29039689737
  31
0.0
  70
0
   3
GMM001
 100
AcDbAlignedDimension
  13
 202.94990822682
  23
 193.54039689737
  33
0.0
  14
 202.94990822682
  24
 201.04039689737
  34
0.0
  50
 90.000000000000
 100
AcDbRotatedDimension
   0
DIMENSION
   5
330
 100
AcDbEntity
   8
LEVEL001
 370
15
   6
CONTINUOUS
  62
8
 100
AcDbDimension
   2
*D19
  10
 211.97701107998
  20
 211.63867907188
  30
0.0
  11
 209.22701107998
  21
 211.63867907188
  31
0.0
  70
0
   3
GMM001
 100
AcDbAlignedDimension
  13
 206.47701107998
  23
 217.36769952895
  33
0.0
  14
 211.97701107998
  24
 217.36769952895
  34
0.0
 100
AcDbRotatedDimension
   0
DIMENSION
   5
331
 100
AcDbEntity
   8
LEVEL001
 370
15
   6
CONTINUOUS
  62
8
 100
AcDbDimension
   2
*D20
  10
 206.97701107998
  20
 188.20822639698
  30
0.0
  11
 205.24595584242
  21
 188.20822639698
  31
0.0
  70
128
   3
GMM003
 100
AcDbAlignedDimension
  13
 206.47701107998
  23
 193.54039689737
  33
0.0
  14
 206.97701107998
  24
 193.54039689737
  34
0.0
 100
AcDbRotatedDimension
   0
DIMENSION
   5
332
 100
AcDbEntity
   8
LEVEL001
 370
15
   6
CONTINUOUS
  62
8
 100
AcDbDimension
   2
*D21
  10
 211.97701107998
  20
 188.20822639698
  30
0.0
  11
 213.86124406297
  21
 188.20822639698
  31
0.0
  70
128
   3
GMM004
 100
AcDbAlignedDimension
  13
 211.47701107998
  23
 193.54039689737
  33
0.0
  14
 211.97701107998
  24
 193.54039689737
  34
0.0
 100
AcDbRotatedDimension
   0
DIMENSION
   5
333
 100
AcDbEntity
   8
LEVEL001
 370
15
   6
CONTINUOUS
  62
8
 100
AcDbDimension
   2
*D22
  10
 231.47701107998
  20
 182.99341158216
  30
0.0
  11
 218.97701107998
  21
 182.99341158216
  31
0.0
  70
0
   3
GMM001
 100
AcDbAlignedDimension
  13
 206.47701107998
  23
 188.54039689737
  33
0.0
  14
 231.47701107998
  24
 193.54039689737
  34
0.0
 100
AcDbRotatedDimension
   0
DIMENSION
   5
334
 100
AcDbEntity
   8
LEVEL001
 370
15
   6
CONTINUOUS
  62
8
 100
AcDbDimension
   2
*D23
  10
 250.82175435212
  20
 246.92921405130
  30
0.0
  11
 249.31237937618
  21
 246.92921405130
  31
0.0
  70
128
   3
GMM005
 100
AcDbAlignedDimension
  13
 250.32175435212
  23
 241.86769952895
  33
0.0
  14
 250.82175435212
  24
 241.86769952895
  34
0.0
 100
AcDbRotatedDimension
   0
DIMENSION
   5
335
 100
AcDbEntity
   8
LEVEL001
 370
15
   6
CONTINUOUS
  62
8
 100
AcDbDimension
   2
*D24
  10
 257.82175435212
  20
 246.92921405130
  30
0.0
  11
 254.32175435212
  21
 246.92921405130
  31
0.0
  70
0
   3
GMM001
 100
AcDbAlignedDimension
  13
 250.82175435212
  23
 241.86769952895
  33
0.0
  14
 257.82175435212
  24
 242.36769952895
  34
0.0
 100
AcDbRotatedDimension
   0
DIMENSION
   5
336
 100
AcDbEntity
   8
LEVEL001
 370
15
   6
CONTINUOUS
  62
8
 100
AcDbDimension
   2
*D25
  10
 257.82175435212
  20
 252.36769952895
  30
0.0
  11
 254.07175435212
  21
 252.36769952895
  31
0.0
  70
0
   3
GMM001
 100
AcDbAlignedDimension
  13
 250.32175435212
  23
 247.36769952895
  33
0.0
  14
 257.82175435212
  24
 247.36769952895
  34
0.0
 100
AcDbRotatedDimension
   0
DIMENSION
   5
337
 100
AcDbEntity
   8
LEVEL001
 370
15
   6
CONTINUOUS
  62
8
 100
AcDbDimension
   2
*D26
  10
 239.77953785645
  20
 242.36769952895
  30
0.0
  11
 239.77953785645
  21
 239.61769952895
  31
0.0
  70
0
   3
GMM001
 100
AcDbAlignedDimension
  13
 231.47701107998
  23
 236.86769952895
  33
0.0
  14
 231.47701107998
  24
 242.36769952895
  34
0.0
  50
 90.000000000000
 100
AcDbRotatedDimension
   0
MTEXT
   5
339
 100
AcDbEntity
   8
LEVEL001
 370
15
  62
8
 100
AcDbMText
  10
 160.29999999995
  20
 280.00000000000
  30
0.0
  40
 2.5000000000000
  41
0.0
  71
4
  72
1
   1
\W0.500000;\T1.000000; \W1.000000;\T1.000000;巻き上げコーナー
   7
GMM002
  44
 0.79999984000003
   0
MTEXT
   5
33B
 100
AcDbEntity
   8
LEVEL002
 370
15
  62
8
 100
AcDbMText
  10
 87.749999999950
  20
 280.00000000000
  30
0.0
  40
 3.0000000000000
  41
0.0
  71
5
  72
1
   1
\T1.000000;ＡＭ３１ＭＣ
   7
GMM002
  44
 0.79999984000003
   0
MTEXT
   5
33D
 100
AcDbEntity
   8
LEVEL002
 370
15
  62
8
 100
AcDbMText
  10
 232.24999999995
  20
 280.00000000000
  30
0.0
  40
 3.0000000000000
  41
0.0
  71
5
  72
1
   1
\T1.000000;ＳＣＭ１ＭＣ
   7
GMM002
  44
 0.79999984000003
   0
MTEXT
   5
33F
 100
AcDbEntity
   8
LEVEL001
 370
15
  62
8
 100
AcDbMText
  10
 15.799999999950
  20
 143.50000000000
  30
0.0
  40
 2.5000000000000
  41
0.0
  71
4
  72
1
   1
\W0.500000;\T1.000000; \W1.000000;\T1.000000;巻き上げコーナー
   7
GMM002
  44
 0.79999984000003
   0
MTEXT
   5
341
 100
AcDbEntity
   8
LEVEL002
 370
15
  62
8
 100
AcDbMText
  10
 87.749999999950
  20
 143.50000000000
  30
0.0
  40
 3.0000000000000
  41
0.0
  71
5
  72
1
   1
\T1.000000;ＳＣＭ１ＢＭＣ
   7
GMM002
  44
 0.79999984000003
   0
MTEXT
   5
343
 100
AcDbEntity
   8
LEVEL002
 370
15
  62
8
 100
AcDbMText
  10
 17.999999999950
  20
 273.16666666670
  30
0.0
  40
 2.0000000000000
  41
0.0
  71
1
  72
1
   1
{\W0.500000;\T1.000000;･\W1.000000;\T1.000000;材質：アルミ}\P{\W0.500000;\T1.000000;･\W1.000000;\T1.000000;仕上：Ｂ２シルバー}\P\P{\W0.500000;\T1.000000;･\W1.000000;\T1.000000;適応品番：ＡＭ３１、ＡＭ３１Ｂ}
   7
GMM002
  44
 0.79999984000003
   0
MTEXT
   5
345
 100
AcDbEntity
   8
LEVEL002
 370
15
  62
8
 100
AcDbMText
  10
 162.49999999995
  20
 273.16666666670
  30
0.0
  40
 2.0000000000000
  41
0.0
  71
1
  72
1
   1
{\W0.500000;\T1.000000;･\W1.000000;\T1.000000;材質：ＳＵＳ３０４}\P{\W0.500000;\T1.000000;･\W1.000000;\T1.000000;仕上：生地バレル}\P\P{\W0.500000;\T1.000000;･\W1.000000;\T1.000000;適応品番：ＳＣＭ１}
   7
GMM002
  44
 0.79999984000003
   0
MTEXT
   5
347
 100
AcDbEntity
   8
LEVEL002
 370
15
  62
8
 100
AcDbMText
  10
 17.999999999950
  20
 136.66666666670
  30
0.0
  40
 2.0000000000000
  41
0.0
  71
1
  72
1
   1
{\W0.500000;\T1.000000;･\W1.000000;\T1.000000;材質：ＳＵＳ３０４}\P{\W0.500000;\T1.000000;･\W1.000000;\T1.000000;仕上：生地バレル}\P\P{\W0.500000;\T1.000000;･\W1.000000;\T1.000000;適応品番：ＳＣＭ１Ｂ}
   7
GMM002
  44
 0.79999984000003
   0
ARC
   5
348
 100
AcDbEntity
   8
LEVEL002
 370
25
   6
CONTINUOUS
  62
1
 100
AcDbCircle
  10
 64.977011079976
  20
 102.86769952895
  30
0.0
  40
 3.0000000000000
 100
AcDbArc
  50
 89.999999999996
  51
 180.00000000000
   0
LINE
   5
349
 100
AcDbEntity
   8
LEVEL002
 370
25
 100
AcDbLine
   6
CONTINUOUS
  62
1
  10
 61.977011079976
  20
 102.86769952895
  30
0.0
  11
 61.977011079976
  21
 80.867699528956
  31
0.0
   0
LINE
   5
34A
 100
AcDbEntity
   8
LEVEL002
 370
25
 100
AcDbLine
   6
CONTINUOUS
  62
1
  10
 86.977011079976
  20
 105.86769952895
  30
0.0
  11
 64.977011079976
  21
 105.86769952895
  31
0.0
   0
LINE
   5
34B
 100
AcDbEntity
   8
LEVEL002
 370
25
 100
AcDbLine
   6
CONTINUOUS
  62
1
  10
 61.977011079976
  20
 57.040396897377
  30
0.0
  11
 86.977011079976
  21
 57.040396897377
  31
0.0
   0
LINE
   5
34C
 100
AcDbEntity
   8
LEVEL002
 370
25
 100
AcDbLine
   6
CONTINUOUS
  62
1
  10
 86.977011079976
  20
 57.040396897377
  30
0.0
  11
 86.977011079976
  21
 64.540396897377
  31
0.0
   0
LINE
   5
34D
 100
AcDbEntity
   8
LEVEL002
 370
25
 100
AcDbLine
   6
CONTINUOUS
  62
1
  10
 113.32175435212
  20
 105.36769952895
  30
0.0
  11
 106.32175435212
  21
 105.36769952895
  31
0.0
   0
LINE
   5
34E
 100
AcDbEntity
   8
LEVEL002
 370
25
 100
AcDbLine
   6
CONTINUOUS
  62
1
  10
 106.32175435212
  20
 105.36769952895
  30
0.0
  11
 106.32175435212
  21
 100.86769952895
  31
0.0
   0
LINE
   5
34F
 100
AcDbEntity
   8
LEVEL002
 370
25
 100
AcDbLine
   6
CONTINUOUS
  62
1
  10
 106.32175435212
  20
 100.86769952895
  30
0.0
  11
 113.32175435212
  21
 100.86769952895
  31
0.0
   0
ARC
   5
350
 100
AcDbEntity
   8
LEVEL002
 370
25
   6
CONTINUOUS
  62
1
 100
AcDbCircle
  10
 106.32175435212
  20
 100.86769952895
  30
0.0
  40
 0.50000000000000
 100
AcDbArc
  50
 180.00000000000
  51
 269.99999999988
   0
LINE
   5
351
 100
AcDbEntity
   8
LEVEL002
 370
25
 100
AcDbLine
   6
CONTINUOUS
  62
1
  10
 113.32175435212
  20
 100.36769952895
  30
0.0
  11
 106.32175435212
  21
 100.36769952895
  31
0.0
   0
LINE
   5
352
 100
AcDbEntity
   8
LEVEL002
 370
25
 100
AcDbLine
   6
CONTINUOUS
  62
1
  10
 105.82175435212
  20
 105.36769952895
  30
0.0
  11
 105.82175435212
  21
 80.867699528956
  31
0.0
   0
LINE
   5
353
 100
AcDbEntity
   8
LEVEL002
 370
25
 100
AcDbLine
   6
CONTINUOUS
  62
1
  10
 105.82175435212
  20
 80.867699528956
  30
0.0
  11
 113.32175435212
  21
 80.867699528956
  31
0.0
   0
LINE
   5
354
 100
AcDbEntity
   8
LEVEL002
 370
25
 100
AcDbLine
   6
CONTINUOUS
  62
1
  10
 113.32175435212
  20
 80.867699528956
  30
0.0
  11
 113.32175435212
  21
 105.86769952895
  31
0.0
   0
LINE
   5
355
 100
AcDbEntity
   8
LEVEL002
 370
25
 100
AcDbLine
   6
CONTINUOUS
  62
1
  10
 113.32175435212
  20
 105.86769952895
  30
0.0
  11
 106.32175435212
  21
 105.86769952895
  31
0.0
   0
ARC
   5
356
 100
AcDbEntity
   8
LEVEL002
 370
25
   6
CONTINUOUS
  62
1
 100
AcDbCircle
  10
 106.32175435212
  20
 105.36769952895
  30
0.0
  40
 0.50000000000000
 100
AcDbArc
  50
 90.000000000000
  51
 180.00000000005
   0
ARC
   5
357
 100
AcDbEntity
   8
LEVEL002
 370
15
   6
HIDDEN
  62
2
 100
AcDbCircle
  10
 65.477011079976
  20
 102.36769952895
  30
0.0
  40
 3.0000000000000
 100
AcDbArc
  50
 89.999999999996
  51
 180.00000000000
   0
LINE
   5
358
 100
AcDbEntity
   8
LEVEL002
 370
15
 100
AcDbLine
   6
HIDDEN
  62
2
  10
 62.477011079976
  20
 102.36769952895
  30
0.0
  11
 62.477011079976
  21
 80.867699528956
  31
0.0
   0
LINE
   5
359
 100
AcDbEntity
   8
LEVEL002
 370
15
 100
AcDbLine
   6
HIDDEN
  62
2
  10
 86.977011079976
  20
 105.36769952895
  30
0.0
  11
 65.477011079976
  21
 105.36769952895
  31
0.0
   0
LINE
   5
35A
 100
AcDbEntity
   8
LEVEL002
 370
15
 100
AcDbLine
   6
HIDDEN
  62
2
  10
 106.32175435212
  20
 100.86769952895
  30
0.0
  11
 106.32175435212
  21
 80.867699528956
  31
0.0
   0
DIMENSION
   5
35B
 100
AcDbEntity
   8
LEVEL001
 370
15
   6
CONTINUOUS
  62
8
 100
AcDbDimension
   2
*D27
  10
 51.977011079976
  20
 105.86769952895
  30
0.0
  11
 51.977011079976
  21
 93.367699528954
  31
0.0
  70
0
   3
GMM001
 100
AcDbAlignedDimension
  13
 61.977011079976
  23
 80.867699528956
  33
0.0
  14
 64.977011079976
  24
 105.86769952895
  34
0.0
  50
 90.000000000000
 100
AcDbRotatedDimension
   0
DIMENSION
   5
35C
 100
AcDbEntity
   8
LEVEL001
 370
15
   6
CONTINUOUS
  62
8
 100
AcDbDimension
   2
*D28
  10
 86.977011079976
  20
 115.86769952895
  30
0.0
  11
 74.477011079976
  21
 115.86769952895
  31
0.0
  70
0
   3
GMM001
 100
AcDbAlignedDimension
  13
 61.977011079976
  23
 102.86769952895
  33
0.0
  14
 86.977011079976
  24
 105.86769952895
  34
0.0
 100
AcDbRotatedDimension
   0
DIMENSION
   5
35D
 100
AcDbEntity
   8
LEVEL001
 370
15
   6
CONTINUOUS
  62
8
 100
AcDbDimension
   2
*D29
  10
 58.449908226816
  20
 64.040396897376
  30
0.0
  11
 58.449908226816
  21
 60.540396897376
  31
0.0
  70
0
   3
GMM001
 100
AcDbAlignedDimension
  13
 61.977011079976
  23
 57.040396897377
  33
0.0
  14
 62.477011079976
  24
 64.040396897376
  34
0.0
  50
 90.000000000000
 100
AcDbRotatedDimension
   0
DIMENSION
   5
35E
 100
AcDbEntity
   8
LEVEL001
 370
15
   6
CONTINUOUS
  62
8
 100
AcDbDimension
   2
*D30
  10
 58.449908226816
  20
 64.540396897376
  30
0.0
  11
 58.449908226816
  21
 66.492662227232
  31
0.0
  70
128
   3
GMM002
 100
AcDbAlignedDimension
  13
 62.477011079976
  23
 64.040396897376
  33
0.0
  14
 62.477011079976
  24
 64.540396897376
  34
0.0
  50
 90.000000000000
 100
AcDbRotatedDimension
   0
DIMENSION
   5
35F
 100
AcDbEntity
   8
LEVEL001
 370
15
   6
CONTINUOUS
  62
8
 100
AcDbDimension
   2
*D31
  10
 51.977011079976
  20
 64.540396897376
  30
0.0
  11
 51.977011079976
  21
 60.790396897376
  31
0.0
  70
0
   3
GMM001
 100
AcDbAlignedDimension
  13
 58.449908226816
  23
 57.040396897377
  33
0.0
  14
 58.449908226816
  24
 64.540396897376
  34
0.0
  50
 90.000000000000
 100
AcDbRotatedDimension
   0
DIMENSION
   5
360
 100
AcDbEntity
   8
LEVEL001
 370
15
   6
CONTINUOUS
  62
8
 100
AcDbDimension
   2
*D32
  10
 62.477011079976
  20
 51.708226396984
  30
0.0
  11
 60.745955842421
  21
 51.708226396984
  31
0.0
  70
128
   3
GMM003
 100
AcDbAlignedDimension
  13
 61.977011079976
  23
 57.040396897377
  33
0.0
  14
 62.477011079976
  24
 57.040396897377
  34
0.0
 100
AcDbRotatedDimension
   0
DIMENSION
   5
361
 100
AcDbEntity
   8
LEVEL001
 370
15
   6
CONTINUOUS
  62
8
 100
AcDbDimension
   2
*D33
  10
 86.977011079976
  20
 46.493411582169
  30
0.0
  11
 74.477011079976
  21
 46.493411582169
  31
0.0
  70
0
   3
GMM001
 100
AcDbAlignedDimension
  13
 61.977011079976
  23
 52.040396897377
  33
0.0
  14
 86.977011079976
  24
 57.040396897377
  34
0.0
 100
AcDbRotatedDimension
   0
DIMENSION
   5
362
 100
AcDbEntity
   8
LEVEL001
 370
15
   6
CONTINUOUS
  62
8
 100
AcDbDimension
   2
*D34
  10
 106.32175435212
  20
 110.42921405130
  30
0.0
  11
 104.81237937618
  21
 110.42921405130
  31
0.0
  70
128
   3
GMM005
 100
AcDbAlignedDimension
  13
 105.82175435212
  23
 105.36769952895
  33
0.0
  14
 106.32175435212
  24
 105.36769952895
  34
0.0
 100
AcDbRotatedDimension
   0
DIMENSION
   5
363
 100
AcDbEntity
   8
LEVEL001
 370
15
   6
CONTINUOUS
  62
8
 100
AcDbDimension
   2
*D35
  10
 113.32175435212
  20
 110.42921405130
  30
0.0
  11
 109.82175435212
  21
 110.42921405130
  31
0.0
  70
0
   3
GMM001
 100
AcDbAlignedDimension
  13
 106.32175435212
  23
 105.36769952895
  33
0.0
  14
 113.32175435212
  24
 105.86769952895
  34
0.0
 100
AcDbRotatedDimension
   0
DIMENSION
   5
364
 100
AcDbEntity
   8
LEVEL001
 370
15
   6
CONTINUOUS
  62
8
 100
AcDbDimension
   2
*D36
  10
 113.32175435212
  20
 115.86769952895
  30
0.0
  11
 109.57175435212
  21
 115.86769952895
  31
0.0
  70
0
   3
GMM001
 100
AcDbAlignedDimension
  13
 105.82175435212
  23
 110.86769952895
  33
0.0
  14
 113.32175435212
  24
 110.86769952895
  34
0.0
 100
AcDbRotatedDimension
   0
LINE
   5
365
 100
AcDbEntity
   8
LEVEL002
 370
25
 100
AcDbLine
   6
CONTINUOUS
  62
1
  10
 86.977011079976
  20
 99.867699528953
  30
0.0
  11
 86.977011079976
  21
 105.86769952895
  31
0.0
   0
LINE
   5
366
 100
AcDbEntity
   8
LEVEL002
 370
25
 100
AcDbLine
   6
CONTINUOUS
  62
1
  10
 69.977011079976
  20
 99.867699528953
  30
0.0
  11
 86.977011079976
  21
 99.867699528953
  31
0.0
   0
ARC
   5
367
 100
AcDbEntity
   8
LEVEL002
 370
25
   6
CONTINUOUS
  62
1
 100
AcDbCircle
  10
 69.977011079976
  20
 97.867699528953
  30
0.0
  40
 2.0000000000000
 100
AcDbArc
  50
 90.000000000000
  51
 180.00000000000
   0
LINE
   5
368
 100
AcDbEntity
   8
LEVEL002
 370
15
 100
AcDbLine
   6
HIDDEN
  62
2
  10
 67.477011079976
  20
 80.867699528956
  30
0.0
  11
 67.477011079976
  21
 98.367699528953
  31
0.0
   0
ARC
   5
369
 100
AcDbEntity
   8
LEVEL002
 370
15
   6
HIDDEN
  62
2
 100
AcDbCircle
  10
 69.477011079976
  20
 98.367699528953
  30
0.0
  40
 2.0000000000000
 100
AcDbArc
  50
 90.000000000000
  51
 180.00000000000
   0
POINT
   5
36A
 100
AcDbEntity
   8
LEVEL002
 100
AcDbPoint
  62
2
  10
 67.477011079976
  20
 100.36769952895
  30
0.0
   0
LINE
   5
36B
 100
AcDbEntity
   8
LEVEL002
 370
15
 100
AcDbLine
   6
HIDDEN
  62
2
  10
 69.477011079976
  20
 100.36769952895
  30
0.0
  11
 86.977011079976
  21
 100.36769952895
  31
0.0
   0
DIMENSION
   5
36C
 100
AcDbEntity
   8
LEVEL001
 370
15
   6
CONTINUOUS
  62
8
 100
AcDbDimension
   2
*D37
  10
 67.977011079976
  20
 75.138679071881
  30
0.0
  11
 64.977011079976
  21
 75.138679071881
  31
0.0
  70
0
   3
GMM001
 100
AcDbAlignedDimension
  13
 61.977011079976
  23
 80.867699528956
  33
0.0
  14
 67.977011079976
  24
 80.867699528956
  34
0.0
 100
AcDbRotatedDimension
   0
DIMENSION
   5
36D
 100
AcDbEntity
   8
LEVEL001
 370
15
   6
CONTINUOUS
  62
8
 100
AcDbDimension
   2
*D38
  10
 95.279537856446
  20
 105.86769952895
  30
0.0
  11
 95.279537856446
  21
 102.86769952895
  31
0.0
  70
0
   3
GMM001
 100
AcDbAlignedDimension
  13
 86.977011079976
  23
 99.867699528953
  33
0.0
  14
 86.977011079976
  24
 105.86769952895
  34
0.0
  50
 90.000000000000
 100
AcDbRotatedDimension
   0
LINE
   5
36E
 100
AcDbEntity
   8
LEVEL002
 370
25
 100
AcDbLine
   6
CONTINUOUS
  62
1
  10
 61.977011079976
  20
 80.867699528956
  30
0.0
  11
 67.977011079976
  21
 80.867699528956
  31
0.0
   0
LINE
   5
36F
 100
AcDbEntity
   8
LEVEL002
 370
25
 100
AcDbLine
   6
CONTINUOUS
  62
1
  10
 67.977011079976
  20
 80.867699528956
  30
0.0
  11
 67.977011079976
  21
 97.867699528953
  31
0.0
   0
DIMENSION
   5
370
 100
AcDbEntity
   8
LEVEL001
 370
15
   6
CONTINUOUS
  62
8
 100
AcDbDimension
   2
*D39
  10
 67.977011079976
  20
 51.708226396984
  30
0.0
  11
 69.861244062972
  21
 51.708226396984
  31
0.0
  70
128
   3
GMM004
 100
AcDbAlignedDimension
  13
 67.477011079976
  23
 57.040396897377
  33
0.0
  14
 67.977011079976
  24
 57.040396897377
  34
0.0
 100
AcDbRotatedDimension
   0
LINE
   5
371
 100
AcDbEntity
   8
LEVEL002
 370
25
 100
AcDbLine
   6
CONTINUOUS
  62
1
  10
 86.977011079976
  20
 64.040396897377
  30
0.0
  11
 62.477011079976
  21
 64.040396897377
  31
0.0
   0
LINE
   5
372
 100
AcDbEntity
   8
LEVEL002
 370
15
 100
AcDbLine
   6
HIDDEN
  62
2
  10
 66.977011079977
  20
 63.540396897377
  30
0.0
  11
 86.977011079976
  21
 63.540396897377
  31
0.0
   0
ARC
   5
373
 100
AcDbEntity
   8
LEVEL002
 370
25
   6
CONTINUOUS
  62
1
 100
AcDbCircle
  10
 67.477011079977
  20
 63.540396897377
  30
0.0
  40
 0.50000000000000
 100
AcDbArc
  50
0.0
  51
 90.000000000000
   0
LINE
   5
374
 100
AcDbEntity
   8
LEVEL002
 370
25
 100
AcDbLine
   6
CONTINUOUS
  62
1
  10
 62.477011079976
  20
 63.540396897377
  30
0.0
  11
 67.477011079976
  21
 63.540396897377
  31
0.0
   0
ARC
   5
375
 100
AcDbEntity
   8
LEVEL002
 370
25
   6
CONTINUOUS
  62
1
 100
AcDbCircle
  10
 62.477011079976
  20
 63.540396897376
  30
0.0
  40
 0.50000000000000
 100
AcDbArc
  50
 90.000000000000
  51
 179.99999999990
   0
LINE
   5
376
 100
AcDbEntity
   8
LEVEL002
 370
25
 100
AcDbLine
   6
CONTINUOUS
  62
1
  10
 67.977011079976
  20
 63.540396897377
  30
0.0
  11
 67.977011079976
  21
 57.040396897377
  31
0.0
   0
LINE
   5
377
 100
AcDbEntity
   8
LEVEL002
 370
25
 100
AcDbLine
   6
CONTINUOUS
  62
1
  10
 67.477011079976
  20
 63.540396897377
  30
0.0
  11
 67.477011079976
  21
 57.040396897377
  31
0.0
   0
LINE
   5
378
 100
AcDbEntity
   8
LEVEL002
 370
25
 100
AcDbLine
   6
CONTINUOUS
  62
1
  10
 62.477011079976
  20
 57.040396897377
  30
0.0
  11
 62.477011079976
  21
 63.540396897376
  31
0.0
   0
LINE
   5
379
 100
AcDbEntity
   8
LEVEL002
 370
25
 100
AcDbLine
   6
CONTINUOUS
  62
1
  10
 61.977011079976
  20
 63.540396897376
  30
0.0
  11
 61.977011079976
  21
 57.040396897377
  31
0.0
   0
MTEXT
   5
37B
 100
AcDbEntity
   8
LEVEL002
 370
15
  62
8
 100
AcDbMText
  10
 354.49999999995
  20
 58.250000000010
  30
0.0
  40
 3.7500000000000
  41
0.0
  71
5
  72
1
   1
\T1.000000;三面図
   7
GMM002
  44
 0.79999984000003
   0
ENDSEC
  0
SECTION
  2
OBJECTS
  0
DICTIONARY
  5
C
100
AcDbDictionary
  3
ACAD_GROUP
350
D
  3
ACAD_MLINESTYLE
350
1B
  3
DWGPROPS
350
1C
  0
DICTIONARY
  5
D
102
{ACAD_REACTORS
330
C
102
}
100
AcDbDictionary
  0
DICTIONARY
  5
1B
102
{ACAD_REACTORS
330
C
102
}
100
AcDbDictionary
  3
STANDARD
350
1D
  0
MLINESTYLE
  5
1D
102
{ACAD_REACTORS
330
1B
102
}
100
AcDbMlineStyle
  2
STANDARD
 70
     0
  3

 62
   256
 51
90.0
 52
90.0
 71
     2
 49
0.5
 62
   256
  6
BYLAYER
 49
-0.5
 62
   256
  6
BYLAYER
   0
XRECORD
   5
1C
 102
{ACAD_REACTORS
 330
C
 102
}
 330
C
 100
AcDbXrecord
 280
1
   1
DWGPROPS COOKIE
   2
 
   3
 
   4
haruna
   6
 
   7
ﾌﾛｱｰ金具部材④
   8
haruna
   9

 300
 = 
 301
 = 
 302
 = 
 303
 = 
 304
 = 
 305
 = 
 306
 = 
 307
 = 
 308
 = 
 309
 = 
  40
0.0
  41
 2460033.5000000
  42
 2460114.5000000
   1

  90
10
   0
ENDSEC
   0
EOF
