   0
SECTION
   2
HEADER
   9
$ACADVER
   1
AC1015
   9
$DWGCODEPAGE
   3
ANSI_932
   9
$LIMMIN
  10
0.0
  20
0.0
   9
$LIMMAX
  10
 4200.0000000000
  20
 2970.0000000000
   9
$EXTMIN
  10
0.0
  20
0.0
  30
0.0
   9
$EXTMAX
  10
 4200.0000000000
  20
 2970.0000000000
  30
0.0
   9
$LTSCALE
  40
 84.000000000000
   9
$HANDSEED
   5
338
   0
ENDSEC
   0
SECTION
   2
TABLES
  0
TABLE
  2
VPORT
  5
8
100
AcDbSymbolTable
 70
     1
  0
VPORT
  5
337
100
AcDbSymbolTableRecord
100
AcDbViewportTableRecord
  2
*ACTIVE
 70
     0
 10
0.0
 20
0.0
 11
1.0
 21
1.0
  12
 2100.0000000000
  22
 1485.0000000000
 13
0.0
 23
0.0
 14
1.0
 24
1.0
 15
0.0
 25
0.0
 16
0.0
 26
0.0
 36
1.0
 17
0.0
 27
0.0
 37
0.0
  40
 4200.0000000000
  41
 1.4787878787879
 42
50.0
 43
0.0
 44
0.0
 50
0.0
 51
0.0
 71
     0
 72
   100
 73
     1
 74
     1
 75
     0
 76
     0
 77
     0
 78
     0
  0
ENDTAB
  0
TABLE
  2
LTYPE
  5
5
100
AcDbSymbolTable
 70
    25
  0
LTYPE
  5
12
100
AcDbSymbolTableRecord
100
AcDbLinetypeTableRecord
  2
BYBLOCK
 70
     0
  3

 72
    65
 73
     0
 40
0.0
  0
LTYPE
  5
13
100
AcDbSymbolTableRecord
100
AcDbLinetypeTableRecord
  2
BYLAYER
 70
     0
  3

 72
    65
 73
     0
 40
0.0
  0
LTYPE
  5
14
100
AcDbSymbolTableRecord
100
AcDbLinetypeTableRecord
  2
CONTINUOUS
 70
     0
  3
Solid line
 72
    65
 73
     0
 40
0.0
  0
LTYPE
  5
20
100
AcDbSymbolTableRecord
100
AcDbLinetypeTableRecord
  2
BORDER
 70
     0
  3
__ __ . __ __ . __ __ . __ __ . __ __ . __ __ .
 72
    65
 73
     6
 40
1.75
 49
0.5
 74
     0
 49
-0.25
 74
     0
 49
0.5
 74
     0
 49
-0.25
 74
     0
 49
0.0
 74
     0
 49
-0.25
 74
     0
  0
LTYPE
  5
21
100
AcDbSymbolTableRecord
100
AcDbLinetypeTableRecord
  2
BORDER2
 70
     0
  3
__.__.__.__.__.__.__.__.__.__.__.__.__.__.__.__
 72
    65
 73
     6
 40
0.875
 49
0.25
 74
     0
 49
-0.125
 74
     0
 49
0.25
 74
     0
 49
-0.125
 74
     0
 49
0.0
 74
     0
 49
-0.125
 74
     0
  0
LTYPE
  5
22
100
AcDbSymbolTableRecord
100
AcDbLinetypeTableRecord
  2
BORDERX2
 70
     0
  3
____  ____  .  ____  ____  .  ____  ____  .  __
 72
    65
 73
     6
 40
3.5
 49
1.0
 74
     0
 49
-0.5
 74
     0
 49
1.0
 74
     0
 49
-0.5
 74
     0
 49
0.0
 74
     0
 49
-0.5
 74
     0
  0
LTYPE
  5
23
100
AcDbSymbolTableRecord
100
AcDbLinetypeTableRecord
  2
CENTER
 70
     0
  3
____ _ ____ _ ____ _ ____ _ ____ _ ____ _ ____ 
 72
    65
 73
     4
 40
2.0
 49
1.25
 74
     0
 49
-0.25
 74
     0
 49
0.25
 74
     0
 49
-0.25
 74
     0
  0
LTYPE
  5
24
100
AcDbSymbolTableRecord
100
AcDbLinetypeTableRecord
  2
CENTER2
 70
     0
  3
___ _ ___ _ ___ _ ___ _ ___ _ ___ _ ___ _ ___ _
 72
    65
 73
     4
 40
1.125
 49
0.75
 74
     0
 49
-0.125
 74
     0
 49
0.125
 74
     0
 49
-0.125
 74
     0
  0
LTYPE
  5
25
100
AcDbSymbolTableRecord
100
AcDbLinetypeTableRecord
  2
CENTERX2
 70
     0
  3
________  __  ________  __  ________  __  _____
 72
    65
 73
     4
 40
4.0
 49
2.5
 74
     0
 49
-0.5
 74
     0
 49
0.5
 74
     0
 49
-0.5
 74
     0
  0
LTYPE
  5
26
100
AcDbSymbolTableRecord
100
AcDbLinetypeTableRecord
  2
DASHDOT
 70
     0
  3
__ . __ . __ . __ . __ . __ . __ . __ . __ . __
 72
    65
 73
     4
 40
1.0
 49
0.5
 74
     0
 49
-0.25
 74
     0
 49
0.0
 74
     0
 49
-0.25
 74
     0
  0
LTYPE
  5
27
100
AcDbSymbolTableRecord
100
AcDbLinetypeTableRecord
  2
DASHDOT2
 70
     0
  3
_._._._._._._._._._._._._._._._._._._._._._._._
 72
    65
 73
     4
 40
0.5
 49
0.25
 74
     0
 49
-0.125
 74
     0
 49
0.0
 74
     0
 49
-0.125
 74
     0
  0
LTYPE
  5
28
100
AcDbSymbolTableRecord
100
AcDbLinetypeTableRecord
  2
DASHDOTX2
 70
     0
  3
____  .  ____  .  ____  .  ____  .  ____  .  __
 72
    65
 73
     4
 40
2.0
 49
1.0
 74
     0
 49
-0.5
 74
     0
 49
0.0
 74
     0
 49
-0.5
 74
     0
  0
LTYPE
  5
29
100
AcDbSymbolTableRecord
100
AcDbLinetypeTableRecord
  2
DASHED
 70
     0
  3
__ __ __ __ __ __ __ __ __ __ __ __ __ __ __ __
 72
    65
 73
     2
 40
0.75
 49
0.5
 74
     0
 49
-0.25
 74
     0
  0
LTYPE
  5
2A
100
AcDbSymbolTableRecord
100
AcDbLinetypeTableRecord
  2
DASHED2
 70
     0
  3
_ _ _ _ _ _ _ _ _ _ _ _ _ _ _ _ _ _ _ _ _ _ _ _
 72
    65
 73
     2
 40
0.375
 49
0.25
 74
     0
 49
-0.125
 74
     0
  0
LTYPE
  5
2B
100
AcDbSymbolTableRecord
100
AcDbLinetypeTableRecord
  2
DASHEDX2
 70
     0
  3
____  ____  ____  ____  ____  ____  ____  ____ 
 72
    65
 73
     2
 40
1.5
 49
1.0
 74
     0
 49
-0.5
 74
     0
  0
LTYPE
  5
2C
100
AcDbSymbolTableRecord
100
AcDbLinetypeTableRecord
  2
DIVIDE
 70
     0
  3
____ . . ____ . . ____ . . ____ . . ____ . . __
 72
    65
 73
     6
 40
1.25
 49
0.5
 74
     0
 49
-0.25
 74
     0
 49
0.0
 74
     0
 49
-0.25
 74
     0
 49
0.0
 74
     0
 49
-0.25
 74
     0
  0
LTYPE
  5
2D
100
AcDbSymbolTableRecord
100
AcDbLinetypeTableRecord
  2
DIVIDE2
 70
     0
  3
__..__..__..__..__..__..__..__..__..__..__..__.
 72
    65
 73
     6
 40
0.625
 49
0.25
 74
     0
 49
-0.125
 74
     0
 49
0.0
 74
     0
 49
-0.125
 74
     0
 49
0.0
 74
     0
 49
-0.125
 74
     0
  0
LTYPE
  5
2E
100
AcDbSymbolTableRecord
100
AcDbLinetypeTableRecord
  2
DIVIDEX2
 70
     0
  3
________  .  .  ________  .  .  ________  .  . 
 72
    65
 73
     6
 40
2.5
 49
1.0
 74
     0
 49
-0.5
 74
     0
 49
0.0
 74
     0
 49
-0.5
 74
     0
 49
0.0
 74
     0
 49
-0.5
 74
     0
  0
LTYPE
  5
2F
100
AcDbSymbolTableRecord
100
AcDbLinetypeTableRecord
  2
DOT
 70
     0
  3
. . . . . . . . . . . . . . . . . . . . . . . .
 72
    65
 73
     2
 40
0.25
 49
0.0
 74
     0
 49
-0.25
 74
     0
  0
LTYPE
  5
30
100
AcDbSymbolTableRecord
100
AcDbLinetypeTableRecord
  2
DOT2
 70
     0
  3
...............................................
 72
    65
 73
     2
 40
0.125
 49
0.0
 74
     0
 49
-0.125
 74
     0
  0
LTYPE
  5
31
100
AcDbSymbolTableRecord
100
AcDbLinetypeTableRecord
  2
DOTX2
 70
     0
  3
.  .  .  .  .  .  .  .  .  .  .  .  .  .  .  . 
 72
    65
 73
     2
 40
0.5
 49
0.0
 74
     0
 49
-0.5
 74
     0
  0
LTYPE
  5
32
100
AcDbSymbolTableRecord
100
AcDbLinetypeTableRecord
  2
HIDDEN
 70
     0
  3
__ __ __ __ __ __ __ __ __ __ __ __ __ __ __ __
 72
    65
 73
     2
 40
0.375
 49
0.25
 74
     0
 49
-0.125
 74
     0
  0
LTYPE
  5
33
100
AcDbSymbolTableRecord
100
AcDbLinetypeTableRecord
  2
HIDDEN2
 70
     0
  3
_ _ _ _ _ _ _ _ _ _ _ _ _ _ _ _ _ _ _ _ _ _ _ _
 72
    65
 73
     2
 40
0.1875
 49
0.125
 74
     0
 49
-0.0625
 74
     0
  0
LTYPE
  5
34
100
AcDbSymbolTableRecord
100
AcDbLinetypeTableRecord
  2
HIDDENX2
 70
     0
  3
____ ____ ____ ____ ____ ____ ____ ____ ____ __
 72
    65
 73
     2
 40
0.75
 49
0.5
 74
     0
 49
-0.25
 74
     0
  0
LTYPE
  5
35
100
AcDbSymbolTableRecord
100
AcDbLinetypeTableRecord
  2
PHANTOM
 70
     0
  3
______  __  __  ______  __  __  ______  __  __ 
 72
    65
 73
     6
 40
2.5
 49
1.25
 74
     0
 49
-0.25
 74
     0
 49
0.25
 74
     0
 49
-0.25
 74
     0
 49
0.25
 74
     0
 49
-0.25
 74
     0
  0
LTYPE
  5
36
100
AcDbSymbolTableRecord
100
AcDbLinetypeTableRecord
  2
PHANTOM2
 70
     0
  3
___ _ _ ___ _ _ ___ _ _ ___ _ _ ___ _ _ ___ _ _
 72
    65
 73
     6
 40
1.25
 49
0.625
 74
     0
 49
-0.125
 74
     0
 49
0.125
 74
     0
 49
-0.125
 74
     0
 49
0.125
 74
     0
 49
-0.125
 74
     0
  0
LTYPE
  5
37
100
AcDbSymbolTableRecord
100
AcDbLinetypeTableRecord
  2
PHANTOMX2
 70
     0
  3
____________    ____    ____    ____________   
 72
    65
 73
     6
 40
5.0
 49
2.5
 74
     0
 49
-0.5
 74
     0
 49
0.5
 74
     0
 49
-0.5
 74
     0
 49
0.5
 74
     0
 49
-0.5
 74
     0
  0
ENDTAB
   0
TABLE
   2
LAYER
   5
2
 100
AcDbSymbolTable
  70
7
   0
LAYER
   5
E
 100
AcDbSymbolTableRecord
 100
AcDbLayerTableRecord
   2
0
  70
0
  62
7
   6
CONTINUOUS
 390
30
   0
LAYER
   5
39
 100
AcDbSymbolTableRecord
 100
AcDbLayerTableRecord
   2
LEVEL001
  70
0
  62
7
   6
CONTINUOUS
 390
30
   0
LAYER
   5
3A
 100
AcDbSymbolTableRecord
 100
AcDbLayerTableRecord
   2
LEVEL002
  70
0
  62
7
   6
CONTINUOUS
 390
30
   0
LAYER
   5
3B
 100
AcDbSymbolTableRecord
 100
AcDbLayerTableRecord
   2
LEVEL004
  70
0
  62
7
   6
CONTINUOUS
 390
30
   0
LAYER
   5
3C
 100
AcDbSymbolTableRecord
 100
AcDbLayerTableRecord
   2
LEVEL005
  70
0
  62
7
   6
CONTINUOUS
 390
30
   0
LAYER
   5
3D
 100
AcDbSymbolTableRecord
 100
AcDbLayerTableRecord
   2
LEVEL006
  70
0
  62
7
   6
CONTINUOUS
 390
30
   0
LAYER
   5
3E
 100
AcDbSymbolTableRecord
 100
AcDbLayerTableRecord
   2
LEVEL007
  70
0
  62
7
   6
CONTINUOUS
 390
30
   0
ENDTAB
  0
TABLE
  2
STYLE
  5
3
100
AcDbSymbolTable
  70
5
  0
STYLE
  5
F
100
AcDbSymbolTableRecord
100
AcDbTextStyleTableRecord
  2
STANDARD
 70
     0
 40
0.0
 41
1.0
 50
0.0
 71
     0
 42
0.2
  3
TXT
  4
BIGFONT
  0
STYLE
  5
38
100
AcDbSymbolTableRecord
100
AcDbTextStyleTableRecord
  2
STANDARD1
 70
     4
 40
0.0
 41
1.0
 50
0.0
 71
     0
 42
0.2
  3
TXT
  4
BIGFONT
   0
STYLE
   5
3F
 100
AcDbSymbolTableRecord
 100
AcDbTextStyleTableRecord
   2
GMM001
  70
0
  40
0.0
  41
 0.80000000000000
  50
0.0
  71
     0
  42
1.0
   3
txt.shx
   4
bigfont.shx
   0
STYLE
   5
40
 100
AcDbSymbolTableRecord
 100
AcDbTextStyleTableRecord
   2
GMM002
  70
0
  40
0.0
  41
 1.0000000000000
  50
0.0
  71
     0
  42
1.0
   3
txt.shx
   4
bigfont.shx
   0
STYLE
   5
41
 100
AcDbSymbolTableRecord
 100
AcDbTextStyleTableRecord
   2
GMM003
  70
0
  40
0.0
  41
 1.0714285714286
  50
0.0
  71
     0
  42
1.0
   3
txt.shx
   4
bigfont.shx
   0
ENDTAB
  0
TABLE
  2
VIEW
  5
6
100
AcDbSymbolTable
 70
     0
  0
ENDTAB
  0
TABLE
  2
UCS
  5
7
100
AcDbSymbolTable
 70
     0
  0
ENDTAB
  0
TABLE
  2
APPID
  5
9
100
AcDbSymbolTable
 70
     1
  0
APPID
  5
10
100
AcDbSymbolTableRecord
100
AcDbRegAppTableRecord
  2
ACAD
 70
     0
  0
ENDTAB
   0
TABLE
   2
DIMSTYLE
   5
A
 100
AcDbSymbolTable
  70
7
 100
AcDbDimStyleTable
  0
DIMSTYLE
105
1D
100
AcDbSymbolTableRecord
100
AcDbDimStyleTableRecord
  2
STANDARD
 70
     0
  3

  4

  5

  6

  7

 40
1.0
 41
0.18
 42
0.0625
 43
0.38
 44
0.18
 45
0.0
 46
0.0
 47
0.0
 48
0.0
140
0.18
141
0.09
142
0.0
143
25.4
144
1.0
145
0.0
146
1.0
147
0.09
 71
     0
 72
     0
 73
     1
 74
     1
 75
     0
 76
     0
 77
     0
 78
     0
170
     0
171
     2
172
     0
173
     0
174
     0
175
     0
176
     0
177
     0
178
     0
270
     2
271
     4
272
     4
273
     2
274
     2
340
F
275
     0
280
     0
281
     0
282
     0
283
     1
284
     0
285
     0
286
     0
287
     3
288
     0
   0
DIMSTYLE
 105
42
 100
AcDbSymbolTableRecord
 100
AcDbDimStyleTableRecord
   2
GMM001
  70
0
   3

   4

   5

   6
_DOT
   7
_NONE
  40
 1.0000000000000
  41
 4.0000000000000
  42
 10.000000000000
  43
 80.000000000000
  44
 10.000000000000
  45
0.0
  46
0.0
  47
0.0
  48
0.0
 140
 30.000000000000
 141
 10.000000000000
 142
0.0
 143
 0.39400000000000E-1
 144
 1.0000000000000
 145
0.0
 146
 0.83333333333333
 147
 10.000000000000
  71
0
  72
0
  73
0
  74
0
  75
0
  76
0
  77
3
  78
8
 170
0
 171
2
 172
1
 173
1
 174
0
 175
0
 176
8
 177
8
 178
8
 270
2
 271
6
 272
0
 273
2
 274
2
 340
40
 275
0
 280
0
 281
0
 282
0
 283
1
 284
0
 285
0
 286
0
 287
3
 288
0
   0
DIMSTYLE
 105
43
 100
AcDbSymbolTableRecord
 100
AcDbDimStyleTableRecord
   2
GMM002
  70
0
   3

   4

   5

   6
_DOT
   7
_DOT
  40
 1.0000000000000
  41
 4.0000000000000
  42
 10.000000000000
  43
 80.000000000000
  44
 10.000000000000
  45
0.0
  46
0.0
  47
0.0
  48
0.0
 140
 30.000000000000
 141
 10.000000000000
 142
0.0
 143
 0.39400000000000E-1
 144
 1.0000000000000
 145
0.0
 146
 0.83333333333333
 147
 10.000000000000
  71
0
  72
0
  73
0
  74
0
  75
0
  76
0
  77
3
  78
8
 170
0
 171
2
 172
1
 173
1
 174
0
 175
0
 176
8
 177
8
 178
8
 270
2
 271
6
 272
0
 273
2
 274
2
 340
40
 275
0
 280
0
 281
0
 282
0
 283
1
 284
0
 285
0
 286
0
 287
3
 288
0
   0
DIMSTYLE
 105
44
 100
AcDbSymbolTableRecord
 100
AcDbDimStyleTableRecord
   2
GMM003
  70
0
   3
%%c<>
   4

   5

   6
_DOT
   7
_DOT
  40
 1.0000000000000
  41
 4.0000000000000
  42
 10.000000000000
  43
 80.000000000000
  44
0.0
  45
0.0
  46
0.0
  47
0.0
  48
0.0
 140
 30.000000000000
 141
 10.000000000000
 142
0.0
 143
 0.39400000000000E-1
 144
 1.0000000000000
 145
0.0
 146
 0.83333333333333
 147
 10.000000000000
  71
0
  72
0
  73
0
  74
0
  75
1
  76
1
  77
3
  78
8
 170
0
 171
2
 172
1
 173
1
 174
0
 175
0
 176
8
 177
8
 178
8
 270
2
 271
6
 272
0
 273
2
 274
2
 340
40
 275
0
 280
0
 281
0
 282
0
 283
1
 284
0
 285
0
 286
0
 287
3
 288
1
   0
DIMSTYLE
 105
45
 100
AcDbSymbolTableRecord
 100
AcDbDimStyleTableRecord
   2
GMM004
  70
0
   3
R<>
   4

   5

   6
_NONE
   7

  40
 1.0000000000000
  41
 20.000000000000
  42
 10.000000000000
  43
 80.000000000000
  44
 10.000000000000
  45
0.0
  46
0.0
  47
0.0
  48
0.0
 140
 30.000000000000
 141
 10.000000000000
 142
0.0
 143
 0.39400000000000E-1
 144
 1.0000000000000
 145
0.0
 146
 0.83333333333333
 147
 10.000000000000
  71
0
  72
0
  73
0
  74
0
  75
0
  76
0
  77
3
  78
8
 170
0
 171
2
 172
1
 173
1
 174
0
 175
0
 176
8
 177
8
 178
8
 270
2
 271
6
 272
0
 273
2
 274
2
 340
40
 275
0
 280
0
 281
0
 282
0
 283
1
 284
0
 285
0
 286
0
 287
3
 288
1
   0
DIMSTYLE
 105
46
 100
AcDbSymbolTableRecord
 100
AcDbDimStyleTableRecord
   2
GMM005
  70
0
   3

   4

   5

   6

   7

  40
 1.0000000000000
  41
 20.000000000000
  42
 10.000000000000
  43
 80.000000000000
  44
 10.000000000000
  45
0.0
  46
0.0
  47
0.0
  48
0.0
 140
 30.000000000000
 141
 10.000000000000
 142
0.0
 143
 0.39400000000000E-1
 144
 1.0000000000000
 145
0.0
 146
 0.83333333333333
 147
0.0
  71
0
  72
0
  73
0
  74
0
  75
0
  76
0
  77
1
  78
0
 170
0
 171
2
 172
1
 173
1
 174
0
 175
0
 176
8
 177
8
 178
8
 270
2
 271
0
 272
0
 273
2
 274
2
 340
40
 275
1
 280
0
 281
0
 282
0
 283
1
 284
0
 285
0
 286
0
 287
3
 288
0
   0
ENDTAB
  0
TABLE
  2
BLOCK_RECORD
  5
1
100
AcDbSymbolTable
 70
     0
  0
BLOCK_RECORD
  5
18
100
AcDbSymbolTableRecord
100
AcDbBlockTableRecord
  2
*MODEL_SPACE
  0
BLOCK_RECORD
  5
15
100
AcDbSymbolTableRecord
100
AcDbBlockTableRecord
  2
*PAPER_SPACE
   0
BLOCK_RECORD
   5
47
 100
AcDbSymbolTableRecord
 100
AcDbBlockTableRecord
   2
*D1
   0
BLOCK_RECORD
   5
48
 100
AcDbSymbolTableRecord
 100
AcDbBlockTableRecord
   2
*D2
   0
BLOCK_RECORD
   5
49
 100
AcDbSymbolTableRecord
 100
AcDbBlockTableRecord
   2
*D3
   0
BLOCK_RECORD
   5
4A
 100
AcDbSymbolTableRecord
 100
AcDbBlockTableRecord
   2
*D4
   0
BLOCK_RECORD
   5
4B
 100
AcDbSymbolTableRecord
 100
AcDbBlockTableRecord
   2
*D5
   0
BLOCK_RECORD
   5
4C
 100
AcDbSymbolTableRecord
 100
AcDbBlockTableRecord
   2
*D6
   0
BLOCK_RECORD
   5
4D
 100
AcDbSymbolTableRecord
 100
AcDbBlockTableRecord
   2
*D7
   0
BLOCK_RECORD
   5
4E
 100
AcDbSymbolTableRecord
 100
AcDbBlockTableRecord
   2
*D8
   0
BLOCK_RECORD
   5
4F
 100
AcDbSymbolTableRecord
 100
AcDbBlockTableRecord
   2
*D9
   0
BLOCK_RECORD
   5
50
 100
AcDbSymbolTableRecord
 100
AcDbBlockTableRecord
   2
*D10
   0
BLOCK_RECORD
   5
51
 100
AcDbSymbolTableRecord
 100
AcDbBlockTableRecord
   2
*D11
   0
BLOCK_RECORD
   5
52
 100
AcDbSymbolTableRecord
 100
AcDbBlockTableRecord
   2
*D13
   0
BLOCK_RECORD
   5
53
 100
AcDbSymbolTableRecord
 100
AcDbBlockTableRecord
   2
*D14
   0
BLOCK_RECORD
   5
54
 100
AcDbSymbolTableRecord
 100
AcDbBlockTableRecord
   2
*D15
   0
BLOCK_RECORD
   5
55
 100
AcDbSymbolTableRecord
 100
AcDbBlockTableRecord
   2
*D16
   0
BLOCK_RECORD
   5
56
 100
AcDbSymbolTableRecord
 100
AcDbBlockTableRecord
   2
_ARCHTICK
   0
BLOCK_RECORD
   5
57
 100
AcDbSymbolTableRecord
 100
AcDbBlockTableRecord
   2
_BOXBLANK
   0
BLOCK_RECORD
   5
58
 100
AcDbSymbolTableRecord
 100
AcDbBlockTableRecord
   2
_BOXFILLED
   0
BLOCK_RECORD
   5
59
 100
AcDbSymbolTableRecord
 100
AcDbBlockTableRecord
   2
_CLOSED
   0
BLOCK_RECORD
   5
5A
 100
AcDbSymbolTableRecord
 100
AcDbBlockTableRecord
   2
_CLOSEDBLANK
   0
BLOCK_RECORD
   5
5B
 100
AcDbSymbolTableRecord
 100
AcDbBlockTableRecord
   2
_DATUMBLANK
   0
BLOCK_RECORD
   5
5C
 100
AcDbSymbolTableRecord
 100
AcDbBlockTableRecord
   2
_DATUMFILLED
   0
BLOCK_RECORD
   5
5D
 100
AcDbSymbolTableRecord
 100
AcDbBlockTableRecord
   2
_DOT
   0
BLOCK_RECORD
   5
5E
 100
AcDbSymbolTableRecord
 100
AcDbBlockTableRecord
   2
_DOTBLANK
   0
BLOCK_RECORD
   5
5F
 100
AcDbSymbolTableRecord
 100
AcDbBlockTableRecord
   2
_DOTSMALL
   0
BLOCK_RECORD
   5
60
 100
AcDbSymbolTableRecord
 100
AcDbBlockTableRecord
   2
_INTEGRAL
   0
BLOCK_RECORD
   5
61
 100
AcDbSymbolTableRecord
 100
AcDbBlockTableRecord
   2
_NONE
   0
BLOCK_RECORD
   5
62
 100
AcDbSymbolTableRecord
 100
AcDbBlockTableRecord
   2
_OBLIQUE
   0
BLOCK_RECORD
   5
63
 100
AcDbSymbolTableRecord
 100
AcDbBlockTableRecord
   2
_OPEN
   0
BLOCK_RECORD
   5
64
 100
AcDbSymbolTableRecord
 100
AcDbBlockTableRecord
   2
_OPEN30
   0
BLOCK_RECORD
   5
65
 100
AcDbSymbolTableRecord
 100
AcDbBlockTableRecord
   2
_OPEN90
   0
BLOCK_RECORD
   5
66
 100
AcDbSymbolTableRecord
 100
AcDbBlockTableRecord
   2
_ORIGIN
   0
ENDTAB
   0
ENDSEC
  0
SECTION
  2
BLOCKS
  0
BLOCK
  5
19
100
AcDbEntity
  8
0
100
AcDbBlockBegin
  2
*MODEL_SPACE
 70
     0
 10
0.0
 20
0.0
 30
0.0
  3
*MODEL_SPACE
  1

  0
ENDBLK
  5
1A
100
AcDbEntity
  8
0
100
AcDbBlockEnd
  0
BLOCK
  5
16
100
AcDbEntity
 67
     1
  8
0
100
AcDbBlockBegin
  2
*PAPER_SPACE
 70
     0
 10
0.0
 20
0.0
 30
0.0
  3
*PAPER_SPACE
  1

  0
ENDBLK
  5
17
100
AcDbEntity
 67
     1
  8
0
100
AcDbBlockEnd
   0
BLOCK
   5
67
 100
AcDbEntity
   8
0
 100
AcDbBlockBegin
   2
_ARCHTICK
  70
0
  10
0.0
  20
0.0
  30
0.0
   3
_ARCHTICK
   0
POLYLINE
   5
68
 100
AcDbEntity
   8
0
 370
-2
   6
BYBLOCK
  62
0
 100
AcDb2dPolyline
  66
1
  10
0.0
  20
0.0
  30
0.0
  70
1
  40
 0.15000000000000
  41
 0.15000000000000
   0
VERTEX
   5
69
 100
AcDbEntity
   8
0
   6
BYBLOCK
  62
0
 100
AcDbVertex
 100
AcDb2dVertex
  10
-0.50000000000000
  20
-0.50000000000000
  30
0.0
  40
 0.15000000000000
  41
 0.15000000000000
   0
VERTEX
   5
6A
 100
AcDbEntity
   8
0
   6
BYBLOCK
  62
0
 100
AcDbVertex
 100
AcDb2dVertex
  10
 0.50000000000000
  20
 0.50000000000000
  30
0.0
  40
 0.15000000000000
  41
 0.15000000000000
   0
SEQEND
   5
6B
 100
AcDbEntity
   8
0
   6
BYBLOCK
  62
0
   0
ENDBLK
   5
6C
 100
AcDbEntity
   8
0
 100
AcDbBlockEnd
   0
BLOCK
   5
6D
 100
AcDbEntity
   8
0
 100
AcDbBlockBegin
   2
_OBLIQUE
  70
0
  10
0.0
  20
0.0
  30
0.0
   3
_OBLIQUE
   0
LINE
   5
6E
 100
AcDbEntity
   8
0
 370
-2
 100
AcDbLine
   6
BYBLOCK
  62
0
  10
-0.50000000000000
  20
-0.50000000000000
  30
0.0
  11
 0.50000000000000
  21
 0.50000000000000
  31
0.0
   0
ENDBLK
   5
6F
 100
AcDbEntity
   8
0
 100
AcDbBlockEnd
   0
BLOCK
   5
70
 100
AcDbEntity
   8
0
 100
AcDbBlockBegin
   2
_BOXBLANK
  70
0
  10
0.0
  20
0.0
  30
0.0
   3
_BOXBLANK
   0
LINE
   5
71
 100
AcDbEntity
   8
0
 370
-2
 100
AcDbLine
   6
BYBLOCK
  62
0
  10
-0.50000000000000
  20
-0.50000000000000
  30
0.0
  11
 0.50000000000000
  21
-0.50000000000000
  31
0.0
   0
LINE
   5
72
 100
AcDbEntity
   8
0
 370
-2
 100
AcDbLine
   6
BYBLOCK
  62
0
  10
 0.50000000000000
  20
-0.50000000000000
  30
0.0
  11
 0.50000000000000
  21
 0.50000000000000
  31
0.0
   0
LINE
   5
73
 100
AcDbEntity
   8
0
 370
-2
 100
AcDbLine
   6
BYBLOCK
  62
0
  10
 0.50000000000000
  20
 0.50000000000000
  30
0.0
  11
-0.50000000000000
  21
 0.50000000000000
  31
0.0
   0
LINE
   5
74
 100
AcDbEntity
   8
0
 370
-2
 100
AcDbLine
   6
BYBLOCK
  62
0
  10
-0.50000000000000
  20
 0.50000000000000
  30
0.0
  11
-0.50000000000000
  21
-0.50000000000000
  31
0.0
   0
LINE
   5
75
 100
AcDbEntity
   8
0
 370
-2
 100
AcDbLine
   6
BYBLOCK
  62
0
  10
-0.50000000000000
  20
0.0
  30
0.0
  11
-1.0000000000000
  21
0.0
  31
0.0
   0
ENDBLK
   5
76
 100
AcDbEntity
   8
0
 100
AcDbBlockEnd
   0
BLOCK
   5
77
 100
AcDbEntity
   8
0
 100
AcDbBlockBegin
   2
_BOXFILLED
  70
0
  10
0.0
  20
0.0
  30
0.0
   3
_BOXFILLED
   0
SOLID
   5
78
 100
AcDbEntity
   8
0
 100
AcDbTrace
   6
BYBLOCK
  62
0
  10
-0.50000000000000
  20
 0.50000000000000
  30
0.0
  11
 0.50000000000000
  21
 0.50000000000000
  31
0.0
  12
-0.50000000000000
  22
-0.50000000000000
  32
0.0
  13
 0.50000000000000
  23
-0.50000000000000
  33
0.0
   0
LINE
   5
79
 100
AcDbEntity
   8
0
 370
-2
 100
AcDbLine
   6
BYBLOCK
  62
0
  10
-0.50000000000000
  20
0.0
  30
0.0
  11
-1.0000000000000
  21
0.0
  31
0.0
   0
ENDBLK
   5
7A
 100
AcDbEntity
   8
0
 100
AcDbBlockEnd
   0
BLOCK
   5
7B
 100
AcDbEntity
   8
0
 100
AcDbBlockBegin
   2
_CLOSED
  70
0
  10
0.0
  20
0.0
  30
0.0
   3
_CLOSED
   0
LINE
   5
7C
 100
AcDbEntity
   8
0
 370
-2
 100
AcDbLine
   6
BYBLOCK
  62
0
  10
-1.0000000000000
  20
 0.16666666666667
  30
0.0
  11
0.0
  21
0.0
  31
0.0
   0
LINE
   5
7D
 100
AcDbEntity
   8
0
 370
-2
 100
AcDbLine
   6
BYBLOCK
  62
0
  10
0.0
  20
0.0
  30
0.0
  11
-1.0000000000000
  21
-0.16666666666667
  31
0.0
   0
LINE
   5
7E
 100
AcDbEntity
   8
0
 370
-2
 100
AcDbLine
   6
BYBLOCK
  62
0
  10
-1.0000000000000
  20
 0.16666666666667
  30
0.0
  11
-1.0000000000000
  21
-0.16666666666667
  31
0.0
   0
LINE
   5
7F
 100
AcDbEntity
   8
0
 370
-2
 100
AcDbLine
   6
BYBLOCK
  62
0
  10
0.0
  20
0.0
  30
0.0
  11
-1.0000000000000
  21
0.0
  31
0.0
   0
ENDBLK
   5
80
 100
AcDbEntity
   8
0
 100
AcDbBlockEnd
   0
BLOCK
   5
81
 100
AcDbEntity
   8
0
 100
AcDbBlockBegin
   2
_OPEN
  70
0
  10
0.0
  20
0.0
  30
0.0
   3
_OPEN
   0
LINE
   5
82
 100
AcDbEntity
   8
0
 370
-2
 100
AcDbLine
   6
BYBLOCK
  62
0
  10
-1.0000000000000
  20
 0.16666666666667
  30
0.0
  11
0.0
  21
0.0
  31
0.0
   0
LINE
   5
83
 100
AcDbEntity
   8
0
 370
-2
 100
AcDbLine
   6
BYBLOCK
  62
0
  10
0.0
  20
0.0
  30
0.0
  11
-1.0000000000000
  21
-0.16666666666667
  31
0.0
   0
LINE
   5
84
 100
AcDbEntity
   8
0
 370
-2
 100
AcDbLine
   6
BYBLOCK
  62
0
  10
0.0
  20
0.0
  30
0.0
  11
-1.0000000000000
  21
0.0
  31
0.0
   0
ENDBLK
   5
85
 100
AcDbEntity
   8
0
 100
AcDbBlockEnd
   0
BLOCK
   5
86
 100
AcDbEntity
   8
0
 100
AcDbBlockBegin
   2
_OPEN30
  70
0
  10
0.0
  20
0.0
  30
0.0
   3
_OPEN30
   0
LINE
   5
87
 100
AcDbEntity
   8
0
 370
-2
 100
AcDbLine
   6
BYBLOCK
  62
0
  10
-1.0000000000000
  20
 0.26794919243110
  30
0.0
  11
0.0
  21
0.0
  31
0.0
   0
LINE
   5
88
 100
AcDbEntity
   8
0
 370
-2
 100
AcDbLine
   6
BYBLOCK
  62
0
  10
0.0
  20
0.0
  30
0.0
  11
-1.0000000000000
  21
-0.26794919243110
  31
0.0
   0
LINE
   5
89
 100
AcDbEntity
   8
0
 370
-2
 100
AcDbLine
   6
BYBLOCK
  62
0
  10
0.0
  20
0.0
  30
0.0
  11
-1.0000000000000
  21
0.0
  31
0.0
   0
ENDBLK
   5
8A
 100
AcDbEntity
   8
0
 100
AcDbBlockEnd
   0
BLOCK
   5
8B
 100
AcDbEntity
   8
0
 100
AcDbBlockBegin
   2
_OPEN90
  70
0
  10
0.0
  20
0.0
  30
0.0
   3
_OPEN90
   0
LINE
   5
8C
 100
AcDbEntity
   8
0
 370
-2
 100
AcDbLine
   6
BYBLOCK
  62
0
  10
-0.50000000000000
  20
 0.50000000000000
  30
0.0
  11
0.0
  21
0.0
  31
0.0
   0
LINE
   5
8D
 100
AcDbEntity
   8
0
 370
-2
 100
AcDbLine
   6
BYBLOCK
  62
0
  10
0.0
  20
0.0
  30
0.0
  11
-0.50000000000000
  21
-0.50000000000000
  31
0.0
   0
LINE
   5
8E
 100
AcDbEntity
   8
0
 370
-2
 100
AcDbLine
   6
BYBLOCK
  62
0
  10
0.0
  20
0.0
  30
0.0
  11
-1.0000000000000
  21
0.0
  31
0.0
   0
ENDBLK
   5
8F
 100
AcDbEntity
   8
0
 100
AcDbBlockEnd
   0
BLOCK
   5
90
 100
AcDbEntity
   8
0
 100
AcDbBlockBegin
   2
_CLOSEDBLANK
  70
0
  10
0.0
  20
0.0
  30
0.0
   3
_CLOSEDBLANK
   0
LINE
   5
91
 100
AcDbEntity
   8
0
 370
-2
 100
AcDbLine
   6
BYBLOCK
  62
0
  10
-1.0000000000000
  20
 0.16666666666667
  30
0.0
  11
0.0
  21
0.0
  31
0.0
   0
LINE
   5
92
 100
AcDbEntity
   8
0
 370
-2
 100
AcDbLine
   6
BYBLOCK
  62
0
  10
0.0
  20
0.0
  30
0.0
  11
-1.0000000000000
  21
-0.16666666666667
  31
0.0
   0
LINE
   5
93
 100
AcDbEntity
   8
0
 370
-2
 100
AcDbLine
   6
BYBLOCK
  62
0
  10
-1.0000000000000
  20
 0.16666666666667
  30
0.0
  11
-1.0000000000000
  21
-0.16666666666667
  31
0.0
   0
ENDBLK
   5
94
 100
AcDbEntity
   8
0
 100
AcDbBlockEnd
   0
BLOCK
   5
95
 100
AcDbEntity
   8
0
 100
AcDbBlockBegin
   2
_DOT
  70
0
  10
0.0
  20
0.0
  30
0.0
   3
_DOT
   0
POLYLINE
   5
96
 100
AcDbEntity
   8
0
 370
-2
   6
BYBLOCK
  62
0
 100
AcDb2dPolyline
  66
1
  10
0.0
  20
0.0
  30
0.0
  70
1
  40
 0.50000000000000
  41
 0.50000000000000
   0
VERTEX
   5
97
 100
AcDbEntity
   8
0
   6
BYBLOCK
  62
0
 100
AcDbVertex
 100
AcDb2dVertex
  10
-0.25000000000000
  20
0.0
  30
0.0
  42
 1.0000000000000
  40
 0.50000000000000
  41
 0.50000000000000
   0
VERTEX
   5
98
 100
AcDbEntity
   8
0
   6
BYBLOCK
  62
0
 100
AcDbVertex
 100
AcDb2dVertex
  10
 0.25000000000000
  20
0.0
  30
0.0
  42
 1.0000000000000
  40
 0.50000000000000
  41
 0.50000000000000
   0
SEQEND
   5
99
 100
AcDbEntity
   8
0
   6
BYBLOCK
  62
0
   0
LINE
   5
9A
 100
AcDbEntity
   8
0
 370
-2
 100
AcDbLine
   6
BYBLOCK
  62
0
  10
-0.50000000000000
  20
0.0
  30
0.0
  11
-1.0000000000000
  21
0.0
  31
0.0
   0
ENDBLK
   5
9B
 100
AcDbEntity
   8
0
 100
AcDbBlockEnd
   0
BLOCK
   5
9C
 100
AcDbEntity
   8
0
 100
AcDbBlockBegin
   2
_DOTSMALL
  70
0
  10
0.0
  20
0.0
  30
0.0
   3
_DOTSMALL
   0
POLYLINE
   5
9D
 100
AcDbEntity
   8
0
 370
-2
   6
BYBLOCK
  62
0
 100
AcDb2dPolyline
  66
1
  10
0.0
  20
0.0
  30
0.0
  70
1
  40
 0.50000000000000
  41
 0.50000000000000
   0
VERTEX
   5
9E
 100
AcDbEntity
   8
0
   6
BYBLOCK
  62
0
 100
AcDbVertex
 100
AcDb2dVertex
  10
-0.62500000000000E-1
  20
0.0
  30
0.0
  42
 1.0000000000000
  40
 0.50000000000000
  41
 0.50000000000000
   0
VERTEX
   5
9F
 100
AcDbEntity
   8
0
   6
BYBLOCK
  62
0
 100
AcDbVertex
 100
AcDb2dVertex
  10
 0.62500000000000E-1
  20
0.0
  30
0.0
  42
 1.0000000000000
  40
 0.50000000000000
  41
 0.50000000000000
   0
SEQEND
   5
A0
 100
AcDbEntity
   8
0
   6
BYBLOCK
  62
0
   0
ENDBLK
   5
A1
 100
AcDbEntity
   8
0
 100
AcDbBlockEnd
   0
BLOCK
   5
A2
 100
AcDbEntity
   8
0
 100
AcDbBlockBegin
   2
_DATUMBLANK
  70
0
  10
0.0
  20
0.0
  30
0.0
   3
_DATUMBLANK
   0
LINE
   5
A3
 100
AcDbEntity
   8
0
 370
-2
 100
AcDbLine
   6
BYBLOCK
  62
0
  10
0.0
  20
 0.57735027000000
  30
0.0
  11
-1.0000000000000
  21
0.0
  31
0.0
   0
LINE
   5
A4
 100
AcDbEntity
   8
0
 370
-2
 100
AcDbLine
   6
BYBLOCK
  62
0
  10
-1.0000000000000
  20
0.0
  30
0.0
  11
0.0
  21
-0.57735027000000
  31
0.0
   0
LINE
   5
A5
 100
AcDbEntity
   8
0
 370
-2
 100
AcDbLine
   6
BYBLOCK
  62
0
  10
0.0
  20
-0.57735027000000
  30
0.0
  11
0.0
  21
 0.57735027000000
  31
0.0
   0
ENDBLK
   5
A6
 100
AcDbEntity
   8
0
 100
AcDbBlockEnd
   0
BLOCK
   5
A7
 100
AcDbEntity
   8
0
 100
AcDbBlockBegin
   2
_DATUMFILLED
  70
0
  10
0.0
  20
0.0
  30
0.0
   3
_DATUMFILLED
   0
SOLID
   5
A8
 100
AcDbEntity
   8
0
 100
AcDbTrace
   6
BYBLOCK
  62
0
  10
0.0
  20
 0.57735027000000
  30
0.0
  11
-1.0000000000000
  21
0.0
  31
0.0
  12
0.0
  22
-0.57735027000000
  32
0.0
  13
0.0
  23
-0.57735027000000
  33
0.0
   0
ENDBLK
   5
A9
 100
AcDbEntity
   8
0
 100
AcDbBlockEnd
   0
BLOCK
   5
AA
 100
AcDbEntity
   8
0
 100
AcDbBlockBegin
   2
_ORIGIN
  70
0
  10
0.0
  20
0.0
  30
0.0
   3
_ORIGIN
   0
CIRCLE
   5
AB
 100
AcDbEntity
   8
0
 370
-2
 100
AcDbCircle
   6
BYBLOCK
  62
0
  10
0.0
  20
0.0
  30
0.0
  40
 0.50000000000000
   0
LINE
   5
AC
 100
AcDbEntity
   8
0
 370
-2
 100
AcDbLine
   6
BYBLOCK
  62
0
  10
0.0
  20
0.0
  30
0.0
  11
-1.0000000000000
  21
0.0
  31
0.0
   0
ENDBLK
   5
AD
 100
AcDbEntity
   8
0
 100
AcDbBlockEnd
   0
BLOCK
   5
AE
 100
AcDbEntity
   8
0
 100
AcDbBlockBegin
   2
_NONE
  70
0
  10
0.0
  20
0.0
  30
0.0
   3
_NONE
   0
CIRCLE
   5
AF
 100
AcDbEntity
   8
0
 370
-2
 100
AcDbCircle
   6
BYBLOCK
  62
0
  10
0.0
  20
0.0
  30
0.0
  40
 0.25000000000000
   0
ENDBLK
   5
B0
 100
AcDbEntity
   8
0
 100
AcDbBlockEnd
   0
BLOCK
   5
B1
 100
AcDbEntity
   8
0
 100
AcDbBlockBegin
   2
_DOTBLANK
  70
0
  10
0.0
  20
0.0
  30
0.0
   3
_DOTBLANK
   0
CIRCLE
   5
B2
 100
AcDbEntity
   8
0
 370
-2
 100
AcDbCircle
   6
BYBLOCK
  62
0
  10
0.0
  20
0.0
  30
0.0
  40
 0.50000000000000
   0
LINE
   5
B3
 100
AcDbEntity
   8
0
 370
-2
 100
AcDbLine
   6
BYBLOCK
  62
0
  10
-0.50000000000000
  20
0.0
  30
0.0
  11
-1.0000000000000
  21
0.0
  31
0.0
   0
ENDBLK
   5
B4
 100
AcDbEntity
   8
0
 100
AcDbBlockEnd
   0
BLOCK
   5
B5
 100
AcDbEntity
   8
0
 100
AcDbBlockBegin
   2
_INTEGRAL
  70
0
  10
0.0
  20
0.0
  30
0.0
   3
_INTEGRAL
   0
ARC
   5
B6
 100
AcDbEntity
   8
0
 370
-2
   6
BYBLOCK
  62
0
 100
AcDbCircle
  10
 0.44488800000000
  20
-0.91335000000000E-1
  30
0.0
  40
 0.45416700000000
 100
AcDbArc
  50
 102.00000000000
  51
 168.00000000000
   0
ARC
   5
B7
 100
AcDbEntity
   8
0
 370
-2
   6
BYBLOCK
  62
0
 100
AcDbCircle
  10
-0.44488800000000
  20
 0.91335000000000E-1
  30
0.0
  40
 0.45416700000000
 100
AcDbArc
  50
 282.00000000000
  51
 348.00000000000
   0
ENDBLK
   5
B8
 100
AcDbEntity
   8
0
 100
AcDbBlockEnd
   0
BLOCK
   5
B9
 100
AcDbEntity
   8
0
 100
AcDbBlockBegin
   2
*D1
  70
65
  10
0.0
  20
0.0
  30
0.0
   3
*D1
   0
LINE
   5
BA
 100
AcDbEntity
   8
LEVEL001
 370
15
 100
AcDbLine
   6
CONTINUOUS
  62
8
  10
 404.40339441695
  20
 354.10752896093
  30
0.0
  11
 414.40339441695
  21
 354.10752896093
  31
0.0
   0
LINE
   5
BB
 100
AcDbEntity
   8
LEVEL001
 370
15
 100
AcDbLine
   6
CONTINUOUS
  62
8
  10
 404.40339441695
  20
 354.10752896093
  30
0.0
  11
 404.40339441695
  21
 679.10752896096
  31
0.0
   0
LINE
   5
BC
 100
AcDbEntity
   8
LEVEL001
 370
15
 100
AcDbLine
   6
CONTINUOUS
  62
8
  10
 404.40339441695
  20
 1004.1075289610
  30
0.0
  11
 404.40339441695
  21
 679.10752896096
  31
0.0
   0
INSERT
   5
BD
 100
AcDbEntity
   8
LEVEL001
   6
CONTINUOUS
  62
8
 100
AcDbBlockReference
   2
_DOT
  10
 404.40339441695
  20
 354.10752896093
  30
0.0
  41
 4.0000000000000
  42
 4.0000000000000
  43
 4.0000000000000
  50
 270.00000000000
   0
MTEXT
   5
BE
 100
AcDbEntity
   8
LEVEL001
 370
15
  62
8
 100
AcDbMText
  10
 394.40339441695
  20
 679.10752896096
  30
0.0
  40
 30.000000000000
  41
0.0
  71
8
  72
1
   1
\A1;650
   7
GMM002
  11
0.0
  21
 1.0000000000000
  31
0.0
   0
ENDBLK
   5
BF
 100
AcDbEntity
   8
0
 100
AcDbBlockEnd
   0
BLOCK
   5
C0
 100
AcDbEntity
   8
0
 100
AcDbBlockBegin
   2
*D2
  70
65
  10
0.0
  20
0.0
  30
0.0
   3
*D2
   0
LINE
   5
C1
 100
AcDbEntity
   8
LEVEL001
 370
15
 100
AcDbLine
   6
CONTINUOUS
  62
8
  10
 634.49069267477
  20
 1004.1075289610
  30
0.0
  11
 394.40339441695
  21
 1004.1075289610
  31
0.0
   0
LINE
   5
C2
 100
AcDbEntity
   8
LEVEL001
 370
15
 100
AcDbLine
   6
CONTINUOUS
  62
8
  10
 634.49069267477
  20
 1204.1075289610
  30
0.0
  11
 394.40339441695
  21
 1204.1075289610
  31
0.0
   0
LINE
   5
C3
 100
AcDbEntity
   8
LEVEL001
 370
15
 100
AcDbLine
   6
CONTINUOUS
  62
8
  10
 404.40339441695
  20
 1004.1075289610
  30
0.0
  11
 404.40339441695
  21
 1104.1075289610
  31
0.0
   0
LINE
   5
C4
 100
AcDbEntity
   8
LEVEL001
 370
15
 100
AcDbLine
   6
CONTINUOUS
  62
8
  10
 404.40339441695
  20
 1204.1075289610
  30
0.0
  11
 404.40339441695
  21
 1104.1075289610
  31
0.0
   0
INSERT
   5
C5
 100
AcDbEntity
   8
LEVEL001
   6
CONTINUOUS
  62
8
 100
AcDbBlockReference
   2
_DOT
  10
 404.40339441695
  20
 1004.1075289610
  30
0.0
  41
 4.0000000000000
  42
 4.0000000000000
  43
 4.0000000000000
  50
 270.00000000000
   0
INSERT
   5
C6
 100
AcDbEntity
   8
LEVEL001
   6
CONTINUOUS
  62
8
 100
AcDbBlockReference
   2
_DOT
  10
 404.40339441695
  20
 1204.1075289610
  30
0.0
  41
 4.0000000000000
  42
 4.0000000000000
  43
 4.0000000000000
  50
 90.000000000000
   0
MTEXT
   5
C7
 100
AcDbEntity
   8
LEVEL001
 370
15
  62
8
 100
AcDbMText
  10
 394.40339441695
  20
 1104.1075289610
  30
0.0
  40
 30.000000000000
  41
0.0
  71
8
  72
1
   1
\A1;200
   7
GMM002
  11
0.0
  21
 1.0000000000000
  31
0.0
   0
ENDBLK
   5
C8
 100
AcDbEntity
   8
0
 100
AcDbBlockEnd
   0
BLOCK
   5
C9
 100
AcDbEntity
   8
0
 100
AcDbBlockBegin
   2
*D3
  70
65
  10
0.0
  20
0.0
  30
0.0
   3
*D3
   0
LINE
   5
CA
 100
AcDbEntity
   8
LEVEL001
 370
15
 100
AcDbLine
   6
CONTINUOUS
  62
8
  10
 394.40339441695
  20
 1204.1075289610
  30
0.0
  11
 282.02872843402
  21
 1204.1075289610
  31
0.0
   0
LINE
   5
CB
 100
AcDbEntity
   8
LEVEL001
 370
15
 100
AcDbLine
   6
CONTINUOUS
  62
8
  10
 292.02872843402
  20
 354.10752896093
  30
0.0
  11
 292.02872843402
  21
 779.10752896096
  31
0.0
   0
LINE
   5
CC
 100
AcDbEntity
   8
LEVEL001
 370
15
 100
AcDbLine
   6
CONTINUOUS
  62
8
  10
 292.02872843402
  20
 1204.1075289610
  30
0.0
  11
 292.02872843402
  21
 779.10752896096
  31
0.0
   0
INSERT
   5
CD
 100
AcDbEntity
   8
LEVEL001
   6
CONTINUOUS
  62
8
 100
AcDbBlockReference
   2
_DOT
  10
 292.02872843402
  20
 354.10752896093
  30
0.0
  41
 4.0000000000000
  42
 4.0000000000000
  43
 4.0000000000000
  50
 270.00000000000
   0
INSERT
   5
CE
 100
AcDbEntity
   8
LEVEL001
   6
CONTINUOUS
  62
8
 100
AcDbBlockReference
   2
_DOT
  10
 292.02872843402
  20
 1204.1075289610
  30
0.0
  41
 4.0000000000000
  42
 4.0000000000000
  43
 4.0000000000000
  50
 90.000000000000
   0
MTEXT
   5
CF
 100
AcDbEntity
   8
LEVEL001
 370
15
  62
8
 100
AcDbMText
  10
 282.02872843402
  20
 779.10752896096
  30
0.0
  40
 30.000000000000
  41
0.0
  71
8
  72
1
   1
\A1;850
   7
GMM002
  11
0.0
  21
 1.0000000000000
  31
0.0
   0
ENDBLK
   5
D0
 100
AcDbEntity
   8
0
 100
AcDbBlockEnd
   0
BLOCK
   5
D1
 100
AcDbEntity
   8
0
 100
AcDbBlockBegin
   2
*D4
  70
65
  10
0.0
  20
0.0
  30
0.0
   3
*D4
   0
LINE
   5
D2
 100
AcDbEntity
   8
LEVEL001
 370
15
 100
AcDbLine
   6
CONTINUOUS
  62
8
  10
 734.49069267475
  20
 1304.1075289610
  30
0.0
  11
 734.49069267475
  21
 1369.0049131541
  31
0.0
   0
LINE
   5
D3
 100
AcDbEntity
   8
LEVEL001
 370
15
 100
AcDbLine
   6
CONTINUOUS
  62
8
  10
 1334.4906926747
  20
 1304.1075289610
  30
0.0
  11
 1334.4906926747
  21
 1369.0049131541
  31
0.0
   0
LINE
   5
D4
 100
AcDbEntity
   8
LEVEL001
 370
15
 100
AcDbLine
   6
CONTINUOUS
  62
8
  10
 734.49069267475
  20
 1359.0049131541
  30
0.0
  11
 1034.4906926747
  21
 1359.0049131541
  31
0.0
   0
LINE
   5
D5
 100
AcDbEntity
   8
LEVEL001
 370
15
 100
AcDbLine
   6
CONTINUOUS
  62
8
  10
 1334.4906926747
  20
 1359.0049131541
  30
0.0
  11
 1034.4906926747
  21
 1359.0049131541
  31
0.0
   0
INSERT
   5
D6
 100
AcDbEntity
   8
LEVEL001
   6
CONTINUOUS
  62
8
 100
AcDbBlockReference
   2
_DOT
  10
 734.49069267475
  20
 1359.0049131541
  30
0.0
  41
 4.0000000000000
  42
 4.0000000000000
  43
 4.0000000000000
  50
 180.00000000000
   0
INSERT
   5
D7
 100
AcDbEntity
   8
LEVEL001
   6
CONTINUOUS
  62
8
 100
AcDbBlockReference
   2
_DOT
  10
 1334.4906926747
  20
 1359.0049131541
  30
0.0
  41
 4.0000000000000
  42
 4.0000000000000
  43
 4.0000000000000
  50
0.0
   0
MTEXT
   5
D8
 100
AcDbEntity
   8
LEVEL001
 370
15
  62
8
 100
AcDbMText
  10
 1034.4906926747
  20
 1369.0049131541
  30
0.0
  40
 30.000000000000
  41
0.0
  71
8
  72
1
   1
\A1;600
   7
GMM002
   0
ENDBLK
   5
D9
 100
AcDbEntity
   8
0
 100
AcDbBlockEnd
   0
BLOCK
   5
DA
 100
AcDbEntity
   8
0
 100
AcDbBlockBegin
   2
*D5
  70
65
  10
0.0
  20
0.0
  30
0.0
   3
*D5
   0
LINE
   5
DB
 100
AcDbEntity
   8
LEVEL001
 370
15
 100
AcDbLine
   6
CONTINUOUS
  62
8
  10
 717.49069267476
  20
 756.70980846895
  30
0.0
  11
 734.49069267476
  21
 756.70980846895
  31
0.0
   0
LINE
   5
DC
 100
AcDbEntity
   8
LEVEL001
 370
15
 100
AcDbLine
   6
CONTINUOUS
  62
8
  10
 855.26047298773
  20
 756.70980846895
  30
0.0
  11
 734.49069267476
  21
 756.70980846895
  31
0.0
   0
INSERT
   5
DD
 100
AcDbEntity
   8
LEVEL001
   6
CONTINUOUS
  62
8
 100
AcDbBlockReference
   2
_DOT
  10
 717.49069267476
  20
 756.70980846895
  30
0.0
  41
 4.0000000000000
  42
 4.0000000000000
  43
 4.0000000000000
  50
 180.00000000000
   0
INSERT
   5
DE
 100
AcDbEntity
   8
LEVEL001
   6
CONTINUOUS
  62
8
 100
AcDbBlockReference
   2
_DOT
  10
 751.49069267475
  20
 756.70980846895
  30
0.0
  41
 4.0000000000000
  42
 4.0000000000000
  43
 4.0000000000000
  50
0.0
   0
MTEXT
   5
DF
 100
AcDbEntity
   8
LEVEL001
 370
15
  62
8
 100
AcDbMText
  10
 775.26047298773
  20
 766.70980846895
  30
0.0
  40
 30.000000000000
  41
0.0
  71
7
  72
1
   1
\A1;%%c34
   7
GMM002
   0
ENDBLK
   5
E0
 100
AcDbEntity
   8
0
 100
AcDbBlockEnd
   0
BLOCK
   5
E1
 100
AcDbEntity
   8
0
 100
AcDbBlockBegin
   2
*D6
  70
65
  10
0.0
  20
0.0
  30
0.0
   3
*D6
   0
LINE
   5
E2
 100
AcDbEntity
   8
LEVEL001
 370
15
 100
AcDbLine
   6
CONTINUOUS
  62
8
  10
 1317.4906926747
  20
 756.70980846895
  30
0.0
  11
 1334.4906926747
  21
 756.70980846895
  31
0.0
   0
LINE
   5
E3
 100
AcDbEntity
   8
LEVEL001
 370
15
 100
AcDbLine
   6
CONTINUOUS
  62
8
  10
 1455.3520061701
  20
 756.70980846895
  30
0.0
  11
 1334.4906926747
  21
 756.70980846895
  31
0.0
   0
INSERT
   5
E4
 100
AcDbEntity
   8
LEVEL001
   6
CONTINUOUS
  62
8
 100
AcDbBlockReference
   2
_DOT
  10
 1317.4906926747
  20
 756.70980846895
  30
0.0
  41
 4.0000000000000
  42
 4.0000000000000
  43
 4.0000000000000
  50
 180.00000000000
   0
INSERT
   5
E5
 100
AcDbEntity
   8
LEVEL001
   6
CONTINUOUS
  62
8
 100
AcDbBlockReference
   2
_DOT
  10
 1351.4906926747
  20
 756.70980846895
  30
0.0
  41
 4.0000000000000
  42
 4.0000000000000
  43
 4.0000000000000
  50
0.0
   0
MTEXT
   5
E6
 100
AcDbEntity
   8
LEVEL001
 370
15
  62
8
 100
AcDbMText
  10
 1375.3520061701
  20
 766.70980846895
  30
0.0
  40
 30.000000000000
  41
0.0
  71
7
  72
1
   1
\A1;%%c34
   7
GMM002
   0
ENDBLK
   5
E7
 100
AcDbEntity
   8
0
 100
AcDbBlockEnd
   0
BLOCK
   5
E8
 100
AcDbEntity
   8
0
 100
AcDbBlockBegin
   2
*D7
  70
65
  10
0.0
  20
0.0
  30
0.0
   3
*D7
   0
LINE
   5
E9
 100
AcDbEntity
   8
LEVEL001
 370
15
 100
AcDbLine
   6
CONTINUOUS
  62
8
  10
 2139.8726799054
  20
 1004.1075289610
  30
0.0
  11
 1925.2068258603
  21
 1004.1075289610
  31
0.0
   0
LINE
   5
EA
 100
AcDbEntity
   8
LEVEL001
 370
15
 100
AcDbLine
   6
CONTINUOUS
  62
8
  10
 2129.8726799054
  20
 1204.1075289610
  30
0.0
  11
 1925.2068258603
  21
 1204.1075289610
  31
0.0
   0
LINE
   5
EB
 100
AcDbEntity
   8
LEVEL001
 370
15
 100
AcDbLine
   6
CONTINUOUS
  62
8
  10
 1935.2068258603
  20
 1004.1075289610
  30
0.0
  11
 1935.2068258603
  21
 1104.1075289610
  31
0.0
   0
LINE
   5
EC
 100
AcDbEntity
   8
LEVEL001
 370
15
 100
AcDbLine
   6
CONTINUOUS
  62
8
  10
 1935.2068258603
  20
 1204.1075289610
  30
0.0
  11
 1935.2068258603
  21
 1104.1075289610
  31
0.0
   0
INSERT
   5
ED
 100
AcDbEntity
   8
LEVEL001
   6
CONTINUOUS
  62
8
 100
AcDbBlockReference
   2
_DOT
  10
 1935.2068258603
  20
 1004.1075289610
  30
0.0
  41
 4.0000000000000
  42
 4.0000000000000
  43
 4.0000000000000
  50
 270.00000000000
   0
INSERT
   5
EE
 100
AcDbEntity
   8
LEVEL001
   6
CONTINUOUS
  62
8
 100
AcDbBlockReference
   2
_DOT
  10
 1935.2068258603
  20
 1204.1075289610
  30
0.0
  41
 4.0000000000000
  42
 4.0000000000000
  43
 4.0000000000000
  50
 90.000000000000
   0
MTEXT
   5
EF
 100
AcDbEntity
   8
LEVEL001
 370
15
  62
8
 100
AcDbMText
  10
 1925.2068258603
  20
 1104.1075289610
  30
0.0
  40
 30.000000000000
  41
0.0
  71
8
  72
1
   1
\A1;200
   7
GMM002
  11
0.0
  21
 1.0000000000000
  31
0.0
   0
ENDBLK
   5
F0
 100
AcDbEntity
   8
0
 100
AcDbBlockEnd
   0
BLOCK
   5
F1
 100
AcDbEntity
   8
0
 100
AcDbBlockBegin
   2
*D8
  70
65
  10
0.0
  20
0.0
  30
0.0
   3
*D8
   0
LINE
   5
F2
 100
AcDbEntity
   8
LEVEL001
 370
15
 100
AcDbLine
   6
CONTINUOUS
  62
8
  10
 2059.8726799054
  20
 1123.0891162755
  30
0.0
  11
 2059.8726799054
  21
 1369.0049131541
  31
0.0
   0
LINE
   5
F3
 100
AcDbEntity
   8
LEVEL001
 370
15
 100
AcDbLine
   6
CONTINUOUS
  62
8
  10
 2059.8726799054
  20
 1359.0049131541
  30
0.0
  11
 2209.8726799054
  21
 1359.0049131541
  31
0.0
   0
LINE
   5
F4
 100
AcDbEntity
   8
LEVEL001
 370
15
 100
AcDbLine
   6
CONTINUOUS
  62
8
  10
 2359.8726799054
  20
 1359.0049131541
  30
0.0
  11
 2209.8726799054
  21
 1359.0049131541
  31
0.0
   0
INSERT
   5
F5
 100
AcDbEntity
   8
LEVEL001
   6
CONTINUOUS
  62
8
 100
AcDbBlockReference
   2
_DOT
  10
 2059.8726799054
  20
 1359.0049131541
  30
0.0
  41
 4.0000000000000
  42
 4.0000000000000
  43
 4.0000000000000
  50
 180.00000000000
   0
MTEXT
   5
F6
 100
AcDbEntity
   8
LEVEL001
 370
15
  62
8
 100
AcDbMText
  10
 2209.8726799054
  20
 1369.0049131541
  30
0.0
  40
 30.000000000000
  41
0.0
  71
8
  72
1
   1
\A1;300
   7
GMM002
   0
ENDBLK
   5
F7
 100
AcDbEntity
   8
0
 100
AcDbBlockEnd
   0
BLOCK
   5
F8
 100
AcDbEntity
   8
0
 100
AcDbBlockBegin
   2
*D9
  70
65
  10
0.0
  20
0.0
  30
0.0
   3
*D9
   0
LINE
   5
F9
 100
AcDbEntity
   8
LEVEL001
 370
15
 100
AcDbLine
   6
CONTINUOUS
  62
8
  10
 2359.8726799054
  20
 1281.1075289610
  30
0.0
  11
 2359.8726799054
  21
 1369.0049131541
  31
0.0
   0
LINE
   5
FA
 100
AcDbEntity
   8
LEVEL001
 370
15
 100
AcDbLine
   6
CONTINUOUS
  62
8
  10
 2359.8726799054
  20
 1359.0049131541
  30
0.0
  11
 2609.8726799054
  21
 1359.0049131541
  31
0.0
   0
LINE
   5
FB
 100
AcDbEntity
   8
LEVEL001
 370
15
 100
AcDbLine
   6
CONTINUOUS
  62
8
  10
 2859.8726799054
  20
 1359.0049131541
  30
0.0
  11
 2609.8726799054
  21
 1359.0049131541
  31
0.0
   0
INSERT
   5
FC
 100
AcDbEntity
   8
LEVEL001
   6
CONTINUOUS
  62
8
 100
AcDbBlockReference
   2
_DOT
  10
 2359.8726799054
  20
 1359.0049131541
  30
0.0
  41
 4.0000000000000
  42
 4.0000000000000
  43
 4.0000000000000
  50
 180.00000000000
   0
INSERT
   5
FD
 100
AcDbEntity
   8
LEVEL001
   6
CONTINUOUS
  62
8
 100
AcDbBlockReference
   2
_DOT
  10
 2859.8726799054
  20
 1359.0049131541
  30
0.0
  41
 4.0000000000000
  42
 4.0000000000000
  43
 4.0000000000000
  50
0.0
   0
MTEXT
   5
FE
 100
AcDbEntity
   8
LEVEL001
 370
15
  62
8
 100
AcDbMText
  10
 2609.8726799054
  20
 1369.0049131541
  30
0.0
  40
 30.000000000000
  41
0.0
  71
8
  72
1
   1
\A1;500
   7
GMM002
   0
ENDBLK
   5
FF
 100
AcDbEntity
   8
0
 100
AcDbBlockEnd
   0
BLOCK
   5
100
 100
AcDbEntity
   8
0
 100
AcDbBlockBegin
   2
*D10
  70
65
  10
0.0
  20
0.0
  30
0.0
   3
*D10
   0
LINE
   5
101
 100
AcDbEntity
   8
LEVEL001
 370
15
 100
AcDbLine
   6
CONTINUOUS
  62
8
  10
 2059.8726799054
  20
 1369.0049131541
  30
0.0
  11
 2059.8726799054
  21
 1470.6459377660
  31
0.0
   0
LINE
   5
102
 100
AcDbEntity
   8
LEVEL001
 370
15
 100
AcDbLine
   6
CONTINUOUS
  62
8
  10
 2059.8726799054
  20
 1460.6459377660
  30
0.0
  11
 2459.8726799054
  21
 1460.6459377660
  31
0.0
   0
LINE
   5
103
 100
AcDbEntity
   8
LEVEL001
 370
15
 100
AcDbLine
   6
CONTINUOUS
  62
8
  10
 2859.8726799054
  20
 1460.6459377660
  30
0.0
  11
 2459.8726799054
  21
 1460.6459377660
  31
0.0
   0
INSERT
   5
104
 100
AcDbEntity
   8
LEVEL001
   6
CONTINUOUS
  62
8
 100
AcDbBlockReference
   2
_DOT
  10
 2059.8726799054
  20
 1460.6459377660
  30
0.0
  41
 4.0000000000000
  42
 4.0000000000000
  43
 4.0000000000000
  50
 180.00000000000
   0
INSERT
   5
105
 100
AcDbEntity
   8
LEVEL001
   6
CONTINUOUS
  62
8
 100
AcDbBlockReference
   2
_DOT
  10
 2859.8726799054
  20
 1460.6459377660
  30
0.0
  41
 4.0000000000000
  42
 4.0000000000000
  43
 4.0000000000000
  50
0.0
   0
MTEXT
   5
106
 100
AcDbEntity
   8
LEVEL001
 370
15
  62
8
 100
AcDbMText
  10
 2459.8726799054
  20
 1470.6459377660
  30
0.0
  40
 30.000000000000
  41
0.0
  71
8
  72
1
   1
\A1;800
   7
GMM002
   0
ENDBLK
   5
107
 100
AcDbEntity
   8
0
 100
AcDbBlockEnd
   0
BLOCK
   5
108
 100
AcDbEntity
   8
0
 100
AcDbBlockBegin
   2
*D11
  70
65
  10
0.0
  20
0.0
  30
0.0
   3
*D11
   0
LINE
   5
109
 100
AcDbEntity
   8
LEVEL001
 370
15
 100
AcDbLine
   6
CONTINUOUS
  62
8
  10
 2159.8726799054
  20
 1104.1075289610
  30
0.0
  11
 2123.5839833717
  21
 1138.5041931000
  31
0.0
   0
LINE
   5
10A
 100
AcDbEntity
   8
LEVEL001
 370
15
 100
AcDbLine
   6
CONTINUOUS
  62
8
  10
 2123.5839833717
  20
 1138.5041931000
  30
0.0
  11
 1944.3783902857
  21
 1308.3663040607
  31
0.0
   0
SOLID
   5
10B
 100
AcDbEntity
   8
LEVEL001
 100
AcDbTrace
   6
CONTINUOUS
  62
8
  10
 2087.2952868381
  20
 1172.9008572390
  30
0.0
  11
 2075.2058321983
  21
 1189.2189934120
  31
0.0
  12
 2070.3537842510
  22
 1184.1000523771
  32
0.0
  13
 2070.3537842510
  23
 1184.1000523771
  33
0.0
   0
MTEXT
   5
10C
 100
AcDbEntity
   8
LEVEL001
 370
15
  62
8
 100
AcDbMText
  10
 2027.4639858340
  20
 1243.3910486755
  30
0.0
  40
 30.000000000000
  41
0.0
  71
9
  72
1
   1
\A1;R100
   7
GMM002
  11
 0.72577393067234
  21
-0.68793328277997
  31
0.0
   0
ENDBLK
   5
10D
 100
AcDbEntity
   8
0
 100
AcDbBlockEnd
   0
BLOCK
   5
10E
 100
AcDbEntity
   8
0
 100
AcDbBlockBegin
   2
*D13
  70
65
  10
0.0
  20
0.0
  30
0.0
   3
*D13
   0
LINE
   5
10F
 100
AcDbEntity
   8
LEVEL001
 370
15
 100
AcDbLine
   6
CONTINUOUS
  62
8
  10
 657.49069267477
  20
 1577.1211049477
  30
0.0
  11
 394.40339441695
  21
 1577.1211049477
  31
0.0
   0
LINE
   5
110
 100
AcDbEntity
   8
LEVEL001
 370
15
 100
AcDbLine
   6
CONTINUOUS
  62
8
  10
 404.40339441695
  20
 1577.1211049477
  30
0.0
  11
 404.40339441695
  21
 1727.1211049477
  31
0.0
   0
LINE
   5
111
 100
AcDbEntity
   8
LEVEL001
 370
15
 100
AcDbLine
   6
CONTINUOUS
  62
8
  10
 404.40339441695
  20
 1877.1211049477
  30
0.0
  11
 404.40339441695
  21
 1727.1211049477
  31
0.0
   0
INSERT
   5
112
 100
AcDbEntity
   8
LEVEL001
   6
CONTINUOUS
  62
8
 100
AcDbBlockReference
   2
_DOT
  10
 404.40339441695
  20
 1577.1211049477
  30
0.0
  41
 4.0000000000000
  42
 4.0000000000000
  43
 4.0000000000000
  50
 270.00000000000
   0
MTEXT
   5
113
 100
AcDbEntity
   8
LEVEL001
 370
15
  62
8
 100
AcDbMText
  10
 394.40339441695
  20
 1727.1211049477
  30
0.0
  40
 30.000000000000
  41
0.0
  71
8
  72
1
   1
\A1;300
   7
GMM002
  11
0.0
  21
 1.0000000000000
  31
0.0
   0
ENDBLK
   5
114
 100
AcDbEntity
   8
0
 100
AcDbBlockEnd
   0
BLOCK
   5
115
 100
AcDbEntity
   8
0
 100
AcDbBlockBegin
   2
*D14
  70
65
  10
0.0
  20
0.0
  30
0.0
   3
*D14
   0
LINE
   5
116
 100
AcDbEntity
   8
LEVEL001
 370
15
 100
AcDbLine
   6
CONTINUOUS
  62
8
  10
 634.49069267477
  20
 1877.1211049477
  30
0.0
  11
 394.40339441695
  21
 1877.1211049477
  31
0.0
   0
LINE
   5
117
 100
AcDbEntity
   8
LEVEL001
 370
15
 100
AcDbLine
   6
CONTINUOUS
  62
8
  10
 527.71432299582
  20
 2377.1211049477
  30
0.0
  11
 394.40339441695
  21
 2377.1211049477
  31
0.0
   0
LINE
   5
118
 100
AcDbEntity
   8
LEVEL001
 370
15
 100
AcDbLine
   6
CONTINUOUS
  62
8
  10
 404.40339441695
  20
 1877.1211049477
  30
0.0
  11
 404.40339441695
  21
 2127.1211049477
  31
0.0
   0
LINE
   5
119
 100
AcDbEntity
   8
LEVEL001
 370
15
 100
AcDbLine
   6
CONTINUOUS
  62
8
  10
 404.40339441695
  20
 2377.1211049477
  30
0.0
  11
 404.40339441695
  21
 2127.1211049477
  31
0.0
   0
INSERT
   5
11A
 100
AcDbEntity
   8
LEVEL001
   6
CONTINUOUS
  62
8
 100
AcDbBlockReference
   2
_DOT
  10
 404.40339441695
  20
 1877.1211049477
  30
0.0
  41
 4.0000000000000
  42
 4.0000000000000
  43
 4.0000000000000
  50
 270.00000000000
   0
INSERT
   5
11B
 100
AcDbEntity
   8
LEVEL001
   6
CONTINUOUS
  62
8
 100
AcDbBlockReference
   2
_DOT
  10
 404.40339441695
  20
 2377.1211049477
  30
0.0
  41
 4.0000000000000
  42
 4.0000000000000
  43
 4.0000000000000
  50
 90.000000000000
   0
MTEXT
   5
11C
 100
AcDbEntity
   8
LEVEL001
 370
15
  62
8
 100
AcDbMText
  10
 394.40339441695
  20
 2127.1211049477
  30
0.0
  40
 30.000000000000
  41
0.0
  71
8
  72
1
   1
\A1;500
   7
GMM002
  11
0.0
  21
 1.0000000000000
  31
0.0
   0
ENDBLK
   5
11D
 100
AcDbEntity
   8
0
 100
AcDbBlockEnd
   0
BLOCK
   5
11E
 100
AcDbEntity
   8
0
 100
AcDbBlockBegin
   2
*D15
  70
65
  10
0.0
  20
0.0
  30
0.0
   3
*D15
   0
LINE
   5
11F
 100
AcDbEntity
   8
LEVEL001
 370
15
 100
AcDbLine
   6
CONTINUOUS
  62
8
  10
 394.40339441695
  20
 1577.1211049477
  30
0.0
  11
 282.02872843402
  21
 1577.1211049477
  31
0.0
   0
LINE
   5
120
 100
AcDbEntity
   8
LEVEL001
 370
15
 100
AcDbLine
   6
CONTINUOUS
  62
8
  10
 394.40339441695
  20
 2377.1211049477
  30
0.0
  11
 282.02872843402
  21
 2377.1211049477
  31
0.0
   0
LINE
   5
121
 100
AcDbEntity
   8
LEVEL001
 370
15
 100
AcDbLine
   6
CONTINUOUS
  62
8
  10
 292.02872843402
  20
 1577.1211049477
  30
0.0
  11
 292.02872843402
  21
 1977.1211049477
  31
0.0
   0
LINE
   5
122
 100
AcDbEntity
   8
LEVEL001
 370
15
 100
AcDbLine
   6
CONTINUOUS
  62
8
  10
 292.02872843402
  20
 2377.1211049477
  30
0.0
  11
 292.02872843402
  21
 1977.1211049477
  31
0.0
   0
INSERT
   5
123
 100
AcDbEntity
   8
LEVEL001
   6
CONTINUOUS
  62
8
 100
AcDbBlockReference
   2
_DOT
  10
 292.02872843402
  20
 1577.1211049477
  30
0.0
  41
 4.0000000000000
  42
 4.0000000000000
  43
 4.0000000000000
  50
 270.00000000000
   0
INSERT
   5
124
 100
AcDbEntity
   8
LEVEL001
   6
CONTINUOUS
  62
8
 100
AcDbBlockReference
   2
_DOT
  10
 292.02872843402
  20
 2377.1211049477
  30
0.0
  41
 4.0000000000000
  42
 4.0000000000000
  43
 4.0000000000000
  50
 90.000000000000
   0
MTEXT
   5
125
 100
AcDbEntity
   8
LEVEL001
 370
15
  62
8
 100
AcDbMText
  10
 282.02872843402
  20
 1977.1211049477
  30
0.0
  40
 30.000000000000
  41
0.0
  71
8
  72
1
   1
\A1;800
   7
GMM002
  11
0.0
  21
 1.0000000000000
  31
0.0
   0
ENDBLK
   5
126
 100
AcDbEntity
   8
0
 100
AcDbBlockEnd
   0
BLOCK
   5
127
 100
AcDbEntity
   8
0
 100
AcDbBlockBegin
   2
*D16
  70
65
  10
0.0
  20
0.0
  30
0.0
   3
*D16
   0
LINE
   5
128
 100
AcDbEntity
   8
LEVEL001
 370
15
 100
AcDbLine
   6
CONTINUOUS
  62
8
  10
 734.49069267475
  20
 2437.1211049477
  30
0.0
  11
 734.49069267475
  21
 2502.0184891408
  31
0.0
   0
LINE
   5
129
 100
AcDbEntity
   8
LEVEL001
 370
15
 100
AcDbLine
   6
CONTINUOUS
  62
8
  10
 1334.4906926747
  20
 2437.1211049477
  30
0.0
  11
 1334.4906926747
  21
 2502.0184891408
  31
0.0
   0
LINE
   5
12A
 100
AcDbEntity
   8
LEVEL001
 370
15
 100
AcDbLine
   6
CONTINUOUS
  62
8
  10
 734.49069267475
  20
 2492.0184891408
  30
0.0
  11
 1034.4906926747
  21
 2492.0184891408
  31
0.0
   0
LINE
   5
12B
 100
AcDbEntity
   8
LEVEL001
 370
15
 100
AcDbLine
   6
CONTINUOUS
  62
8
  10
 1334.4906926747
  20
 2492.0184891408
  30
0.0
  11
 1034.4906926747
  21
 2492.0184891408
  31
0.0
   0
INSERT
   5
12C
 100
AcDbEntity
   8
LEVEL001
   6
CONTINUOUS
  62
8
 100
AcDbBlockReference
   2
_DOT
  10
 734.49069267475
  20
 2492.0184891408
  30
0.0
  41
 4.0000000000000
  42
 4.0000000000000
  43
 4.0000000000000
  50
 180.00000000000
   0
INSERT
   5
12D
 100
AcDbEntity
   8
LEVEL001
   6
CONTINUOUS
  62
8
 100
AcDbBlockReference
   2
_DOT
  10
 1334.4906926747
  20
 2492.0184891408
  30
0.0
  41
 4.0000000000000
  42
 4.0000000000000
  43
 4.0000000000000
  50
0.0
   0
MTEXT
   5
12E
 100
AcDbEntity
   8
LEVEL001
 370
15
  62
8
 100
AcDbMText
  10
 1034.4906926747
  20
 2502.0184891408
  30
0.0
  40
 30.000000000000
  41
0.0
  71
8
  72
1
   1
\A1;600
   7
GMM002
   0
ENDBLK
   5
12F
 100
AcDbEntity
   8
0
 100
AcDbBlockEnd
   0
ENDSEC
   0
SECTION
   2
ENTITIES
   0
LINE
   5
130
 100
AcDbEntity
   8
LEVEL002
 370
30
 100
AcDbLine
   6
CONTINUOUS
  62
7
  10
 3441.5000000000
  20
 2720.7500000000
  30
0.0
  11
 3369.5000000000
  21
 2720.7500000000
  31
0.0
   0
LINE
   5
131
 100
AcDbEntity
   8
LEVEL002
 370
30
 100
AcDbLine
   6
CONTINUOUS
  62
7
  10
 3369.5000000000
  20
 2720.7500000000
  30
0.0
  11
 3369.5000000000
  21
 2612.7500000000
  31
0.0
   0
LINE
   5
132
 100
AcDbEntity
   8
LEVEL002
 370
30
 100
AcDbLine
   6
CONTINUOUS
  62
7
  10
 3369.5000000000
  20
 2612.7500000000
  30
0.0
  11
 3405.5000000000
  21
 2612.7500000000
  31
0.0
   0
LINE
   5
133
 100
AcDbEntity
   8
LEVEL002
 370
30
 100
AcDbLine
   6
CONTINUOUS
  62
7
  10
 3405.5000000000
  20
 2612.7500000000
  30
0.0
  11
 3405.5000000000
  21
 2630.7500000000
  31
0.0
   0
LINE
   5
134
 100
AcDbEntity
   8
LEVEL002
 370
30
 100
AcDbLine
   6
CONTINUOUS
  62
7
  10
 3405.5000000000
  20
 2630.7500000000
  30
0.0
  11
 3441.5000000000
  21
 2630.7500000000
  31
0.0
   0
ARC
   5
135
 100
AcDbEntity
   8
LEVEL002
 370
30
   6
CONTINUOUS
  62
7
 100
AcDbCircle
  10
 3441.5000000000
  20
 2675.7500000000
  30
0.0
  40
 45.000000000000
 100
AcDbArc
  50
 270.00000000000
  51
 90.000000000000
   0
LINE
   5
136
 100
AcDbEntity
   8
LEVEL002
 370
30
 100
AcDbLine
   6
CONTINUOUS
  62
7
  10
 3405.5000000000
  20
 2666.7500000000
  30
0.0
  11
 3441.5000000000
  21
 2666.7500000000
  31
0.0
   0
ARC
   5
137
 100
AcDbEntity
   8
LEVEL002
 370
30
   6
CONTINUOUS
  62
7
 100
AcDbCircle
  10
 3441.5000000000
  20
 2675.7500000000
  30
0.0
  40
 9.0000000000000
 100
AcDbArc
  50
 270.00000000000
  51
 90.000000000000
   0
LINE
   5
138
 100
AcDbEntity
   8
LEVEL002
 370
30
 100
AcDbLine
   6
CONTINUOUS
  62
7
  10
 3441.5000000000
  20
 2684.7500000000
  30
0.0
  11
 3405.5000000000
  21
 2684.7500000000
  31
0.0
   0
LINE
   5
139
 100
AcDbEntity
   8
LEVEL002
 370
30
 100
AcDbLine
   6
CONTINUOUS
  62
7
  10
 3405.5000000000
  20
 2684.7500000000
  30
0.0
  11
 3405.5000000000
  21
 2666.7500000000
  31
0.0
   0
LINE
   5
13A
 100
AcDbEntity
   8
LEVEL002
 370
30
 100
AcDbLine
   6
CONTINUOUS
  62
7
  10
 3459.5000000000
  20
 2612.7500000000
  30
0.0
  11
 3531.5000000000
  21
 2720.7500000000
  31
0.0
   0
LINE
   5
13B
 100
AcDbEntity
   8
LEVEL002
 370
30
 100
AcDbLine
   6
CONTINUOUS
  62
7
  10
 3531.5000000000
  20
 2720.7500000000
  30
0.0
  11
 3621.5000000000
  21
 2720.7500000000
  31
0.0
   0
LINE
   5
13C
 100
AcDbEntity
   8
LEVEL002
 370
30
 100
AcDbLine
   6
CONTINUOUS
  62
7
  10
 3621.5000000000
  20
 2720.7500000000
  30
0.0
  11
 3621.5000000000
  21
 2648.7500000000
  31
0.0
   0
LINE
   5
13D
 100
AcDbEntity
   8
LEVEL002
 370
30
 100
AcDbLine
   6
CONTINUOUS
  62
7
  10
 3621.5000000000
  20
 2648.7500000000
  30
0.0
  11
 3675.5000000000
  21
 2648.7500000000
  31
0.0
   0
LINE
   5
13E
 100
AcDbEntity
   8
LEVEL002
 370
30
 100
AcDbLine
   6
CONTINUOUS
  62
7
  10
 3675.5000000000
  20
 2648.7500000000
  30
0.0
  11
 3675.5000000000
  21
 2684.7500000000
  31
0.0
   0
LINE
   5
13F
 100
AcDbEntity
   8
LEVEL002
 370
30
 100
AcDbLine
   6
CONTINUOUS
  62
7
  10
 3675.5000000000
  20
 2684.7500000000
  30
0.0
  11
 3639.5000000000
  21
 2684.7500000000
  31
0.0
   0
LINE
   5
140
 100
AcDbEntity
   8
LEVEL002
 370
30
 100
AcDbLine
   6
CONTINUOUS
  62
7
  10
 3639.5000000000
  20
 2684.7500000000
  30
0.0
  11
 3639.5000000000
  21
 2720.7500000000
  31
0.0
   0
LINE
   5
141
 100
AcDbEntity
   8
LEVEL002
 370
30
 100
AcDbLine
   6
CONTINUOUS
  62
7
  10
 3639.5000000000
  20
 2720.7500000000
  30
0.0
  11
 3855.5000000000
  21
 2720.7500000000
  31
0.0
   0
LINE
   5
142
 100
AcDbEntity
   8
LEVEL002
 370
30
 100
AcDbLine
   6
CONTINUOUS
  62
7
  10
 3855.5000000000
  20
 2720.7500000000
  30
0.0
  11
 3855.5000000000
  21
 2684.7500000000
  31
0.0
   0
LINE
   5
143
 100
AcDbEntity
   8
LEVEL002
 370
30
 100
AcDbLine
   6
CONTINUOUS
  62
7
  10
 3855.5000000000
  20
 2684.7500000000
  30
0.0
  11
 3783.5000000000
  21
 2684.7500000000
  31
0.0
   0
LINE
   5
144
 100
AcDbEntity
   8
LEVEL002
 370
30
 100
AcDbLine
   6
CONTINUOUS
  62
7
  10
 3783.5000000000
  20
 2684.7500000000
  30
0.0
  11
 3783.5000000000
  21
 2675.7500000000
  31
0.0
   0
LINE
   5
145
 100
AcDbEntity
   8
LEVEL002
 370
30
 100
AcDbLine
   6
CONTINUOUS
  62
7
  10
 3783.5000000000
  20
 2675.7500000000
  30
0.0
  11
 3846.5000000000
  21
 2675.7500000000
  31
0.0
   0
LINE
   5
146
 100
AcDbEntity
   8
LEVEL002
 370
30
 100
AcDbLine
   6
CONTINUOUS
  62
7
  10
 3846.5000000000
  20
 2675.7500000000
  30
0.0
  11
 3846.5000000000
  21
 2657.7500000000
  31
0.0
   0
LINE
   5
147
 100
AcDbEntity
   8
LEVEL002
 370
30
 100
AcDbLine
   6
CONTINUOUS
  62
7
  10
 3846.5000000000
  20
 2657.7500000000
  30
0.0
  11
 3783.5000000000
  21
 2657.7500000000
  31
0.0
   0
LINE
   5
148
 100
AcDbEntity
   8
LEVEL002
 370
30
 100
AcDbLine
   6
CONTINUOUS
  62
7
  10
 3783.5000000000
  20
 2657.7500000000
  30
0.0
  11
 3783.5000000000
  21
 2648.7500000000
  31
0.0
   0
LINE
   5
149
 100
AcDbEntity
   8
LEVEL002
 370
30
 100
AcDbLine
   6
CONTINUOUS
  62
7
  10
 3783.5000000000
  20
 2648.7500000000
  30
0.0
  11
 3855.5000000000
  21
 2648.7500000000
  31
0.0
   0
LINE
   5
14A
 100
AcDbEntity
   8
LEVEL002
 370
30
 100
AcDbLine
   6
CONTINUOUS
  62
7
  10
 3855.5000000000
  20
 2648.7500000000
  30
0.0
  11
 3855.5000000000
  21
 2612.7500000000
  31
0.0
   0
LINE
   5
14B
 100
AcDbEntity
   8
LEVEL002
 370
30
 100
AcDbLine
   6
CONTINUOUS
  62
7
  10
 3855.5000000000
  20
 2612.7500000000
  30
0.0
  11
 3747.5000000000
  21
 2612.7500000000
  31
0.0
   0
LINE
   5
14C
 100
AcDbEntity
   8
LEVEL002
 370
30
 100
AcDbLine
   6
CONTINUOUS
  62
7
  10
 3747.5000000000
  20
 2612.7500000000
  30
0.0
  11
 3747.5000000000
  21
 2684.7500000000
  31
0.0
   0
LINE
   5
14D
 100
AcDbEntity
   8
LEVEL002
 370
30
 100
AcDbLine
   6
CONTINUOUS
  62
7
  10
 3747.5000000000
  20
 2684.7500000000
  30
0.0
  11
 3711.5000000000
  21
 2684.7500000000
  31
0.0
   0
LINE
   5
14E
 100
AcDbEntity
   8
LEVEL002
 370
30
 100
AcDbLine
   6
CONTINUOUS
  62
7
  10
 3711.5000000000
  20
 2684.7500000000
  30
0.0
  11
 3711.5000000000
  21
 2612.7500000000
  31
0.0
   0
LINE
   5
14F
 100
AcDbEntity
   8
LEVEL002
 370
30
 100
AcDbLine
   6
CONTINUOUS
  62
7
  10
 3711.5000000000
  20
 2612.7500000000
  30
0.0
  11
 3585.5000000000
  21
 2612.7500000000
  31
0.0
   0
LINE
   5
150
 100
AcDbEntity
   8
LEVEL002
 370
30
 100
AcDbLine
   6
CONTINUOUS
  62
7
  10
 3585.5000000000
  20
 2612.7500000000
  30
0.0
  11
 3585.5000000000
  21
 2720.7500000000
  31
0.0
   0
LINE
   5
151
 100
AcDbEntity
   8
LEVEL002
 370
30
 100
AcDbLine
   6
CONTINUOUS
  62
7
  10
 3585.5000000000
  20
 2720.7500000000
  30
0.0
  11
 3513.5000000000
  21
 2612.7500000000
  31
0.0
   0
LINE
   5
152
 100
AcDbEntity
   8
LEVEL002
 370
30
 100
AcDbLine
   6
CONTINUOUS
  62
7
  10
 3513.5000000000
  20
 2612.7500000000
  30
0.0
  11
 3459.5000000000
  21
 2612.7500000000
  31
0.0
   0
LINE
   5
153
 100
AcDbEntity
   8
LEVEL002
 370
30
 100
AcDbLine
   6
CONTINUOUS
  62
7
  10
 3573.5000000000
  20
 2681.1166923470
  30
0.0
  11
 3527.9222051020
  21
 2612.7500000000
  31
0.0
   0
LINE
   5
154
 100
AcDbEntity
   8
LEVEL002
 370
30
 100
AcDbLine
   6
CONTINUOUS
  62
7
  10
 3527.9222051020
  20
 2612.7500000000
  30
0.0
  11
 3573.5000000000
  21
 2612.7500000000
  31
0.0
   0
LINE
   5
155
 100
AcDbEntity
   8
LEVEL002
 370
30
 100
AcDbLine
   6
CONTINUOUS
  62
7
  10
 3573.5000000000
  20
 2612.7500000000
  30
0.0
  11
 3573.5000000000
  21
 2681.1166923470
  31
0.0
   0
ARC
   5
156
 100
AcDbEntity
   8
LEVEL002
 370
30
   6
CONTINUOUS
  62
7
 100
AcDbCircle
  10
 3909.5000000000
  20
 2666.7500000000
  30
0.0
  40
 54.000000000000
 100
AcDbArc
  50
 90.000000000000
  51
 270.00000000000
   0
ARC
   5
157
 100
AcDbEntity
   8
LEVEL002
 370
30
   6
CONTINUOUS
  62
7
 100
AcDbCircle
  10
 3909.5000000000
  20
 2666.7500000000
  30
0.0
  40
 18.000000000000
 100
AcDbArc
  50
 90.000000000000
  51
 270.00000000000
   0
LINE
   5
158
 100
AcDbEntity
   8
LEVEL002
 370
30
 100
AcDbLine
   6
CONTINUOUS
  62
7
  10
 3909.5000000000
  20
 2720.7500000000
  30
0.0
  11
 3963.5000000000
  21
 2720.7500000000
  31
0.0
   0
LINE
   5
159
 100
AcDbEntity
   8
LEVEL002
 370
30
 100
AcDbLine
   6
CONTINUOUS
  62
7
  10
 3963.5000000000
  20
 2720.7500000000
  30
0.0
  11
 3963.5000000000
  21
 2684.7500000000
  31
0.0
   0
LINE
   5
15A
 100
AcDbEntity
   8
LEVEL002
 370
30
 100
AcDbLine
   6
CONTINUOUS
  62
7
  10
 3963.5000000000
  20
 2684.7500000000
  30
0.0
  11
 3909.5000000000
  21
 2684.7500000000
  31
0.0
   0
LINE
   5
15B
 100
AcDbEntity
   8
LEVEL002
 370
30
 100
AcDbLine
   6
CONTINUOUS
  62
7
  10
 3369.5000000000
  20
 2720.7500000000
  30
0.0
  11
 3369.5000000000
  21
 2612.7500000000
  31
0.0
   0
LINE
   5
15C
 100
AcDbEntity
   8
LEVEL002
 370
30
 100
AcDbLine
   6
CONTINUOUS
  62
7
  10
 3369.5000000000
  20
 2612.7500000000
  30
0.0
  11
 3405.5000000000
  21
 2612.7500000000
  31
0.0
   0
LINE
   5
15D
 100
AcDbEntity
   8
LEVEL002
 370
30
 100
AcDbLine
   6
CONTINUOUS
  62
7
  10
 3405.5000000000
  20
 2612.7500000000
  30
0.0
  11
 3405.5000000000
  21
 2630.7500000000
  31
0.0
   0
LINE
   5
15E
 100
AcDbEntity
   8
LEVEL002
 370
30
 100
AcDbLine
   6
CONTINUOUS
  62
7
  10
 3405.5000000000
  20
 2630.7500000000
  30
0.0
  11
 3441.5000000000
  21
 2630.7500000000
  31
0.0
   0
ARC
   5
15F
 100
AcDbEntity
   8
LEVEL002
 370
30
   6
CONTINUOUS
  62
7
 100
AcDbCircle
  10
 3441.5000000000
  20
 2675.7500000000
  30
0.0
  40
 45.000000000000
 100
AcDbArc
  50
 270.00000000000
  51
 90.000000000000
   0
LINE
   5
160
 100
AcDbEntity
   8
LEVEL002
 370
30
 100
AcDbLine
   6
CONTINUOUS
  62
7
  10
 3441.5000000000
  20
 2720.7500000000
  30
0.0
  11
 3369.5000000000
  21
 2720.7500000000
  31
0.0
   0
LINE
   5
161
 100
AcDbEntity
   8
LEVEL002
 370
30
 100
AcDbLine
   6
CONTINUOUS
  62
7
  10
 3405.5000000000
  20
 2684.7500000000
  30
0.0
  11
 3405.5000000000
  21
 2666.7500000000
  31
0.0
   0
LINE
   5
162
 100
AcDbEntity
   8
LEVEL002
 370
30
 100
AcDbLine
   6
CONTINUOUS
  62
7
  10
 3405.5000000000
  20
 2666.7500000000
  30
0.0
  11
 3441.5000000000
  21
 2666.7500000000
  31
0.0
   0
ARC
   5
163
 100
AcDbEntity
   8
LEVEL002
 370
30
   6
CONTINUOUS
  62
7
 100
AcDbCircle
  10
 3441.5000000000
  20
 2675.7500000000
  30
0.0
  40
 9.0000000000000
 100
AcDbArc
  50
 270.00000000000
  51
 90.000000000000
   0
LINE
   5
164
 100
AcDbEntity
   8
LEVEL002
 370
30
 100
AcDbLine
   6
CONTINUOUS
  62
7
  10
 3441.5000000000
  20
 2684.7500000000
  30
0.0
  11
 3405.5000000000
  21
 2684.7500000000
  31
0.0
   0
LINE
   5
165
 100
AcDbEntity
   8
LEVEL002
 370
30
 100
AcDbLine
   6
CONTINUOUS
  62
7
  10
 3531.5000000000
  20
 2720.7500000000
  30
0.0
  11
 3459.5000000000
  21
 2612.7500000000
  31
0.0
   0
LINE
   5
166
 100
AcDbEntity
   8
LEVEL002
 370
30
 100
AcDbLine
   6
CONTINUOUS
  62
7
  10
 3459.5000000000
  20
 2612.7500000000
  30
0.0
  11
 3513.5000000000
  21
 2612.7500000000
  31
0.0
   0
LINE
   5
167
 100
AcDbEntity
   8
LEVEL002
 370
30
 100
AcDbLine
   6
CONTINUOUS
  62
7
  10
 3513.5000000000
  20
 2612.7500000000
  30
0.0
  11
 3585.5000000000
  21
 2720.7500000000
  31
0.0
   0
LINE
   5
168
 100
AcDbEntity
   8
LEVEL002
 370
30
 100
AcDbLine
   6
CONTINUOUS
  62
7
  10
 3585.5000000000
  20
 2720.7500000000
  30
0.0
  11
 3531.5000000000
  21
 2720.7500000000
  31
0.0
   0
LINE
   5
169
 100
AcDbEntity
   8
LEVEL002
 370
30
 100
AcDbLine
   6
CONTINUOUS
  62
7
  10
 3573.5000000000
  20
 2612.7500000000
  30
0.0
  11
 3573.5000000000
  21
 2681.1166923470
  31
0.0
   0
LINE
   5
16A
 100
AcDbEntity
   8
LEVEL002
 370
30
 100
AcDbLine
   6
CONTINUOUS
  62
7
  10
 3573.5000000000
  20
 2681.1166923470
  30
0.0
  11
 3527.9222051020
  21
 2612.7500000000
  31
0.0
   0
LINE
   5
16B
 100
AcDbEntity
   8
LEVEL002
 370
30
 100
AcDbLine
   6
CONTINUOUS
  62
7
  10
 3527.9222051020
  20
 2612.7500000000
  30
0.0
  11
 3573.5000000000
  21
 2612.7500000000
  31
0.0
   0
LINE
   5
16C
 100
AcDbEntity
   8
LEVEL002
 370
30
 100
AcDbLine
   6
CONTINUOUS
  62
7
  10
 3585.5000000000
  20
 2612.7500000000
  30
0.0
  11
 3711.5000000000
  21
 2612.7500000000
  31
0.0
   0
LINE
   5
16D
 100
AcDbEntity
   8
LEVEL002
 370
30
 100
AcDbLine
   6
CONTINUOUS
  62
7
  10
 3711.5000000000
  20
 2612.7500000000
  30
0.0
  11
 3711.5000000000
  21
 2684.7500000000
  31
0.0
   0
LINE
   5
16E
 100
AcDbEntity
   8
LEVEL002
 370
30
 100
AcDbLine
   6
CONTINUOUS
  62
7
  10
 3711.5000000000
  20
 2684.7500000000
  30
0.0
  11
 3747.5000000000
  21
 2684.7500000000
  31
0.0
   0
LINE
   5
16F
 100
AcDbEntity
   8
LEVEL002
 370
30
 100
AcDbLine
   6
CONTINUOUS
  62
7
  10
 3747.5000000000
  20
 2684.7500000000
  30
0.0
  11
 3747.5000000000
  21
 2612.7500000000
  31
0.0
   0
LINE
   5
170
 100
AcDbEntity
   8
LEVEL002
 370
30
 100
AcDbLine
   6
CONTINUOUS
  62
7
  10
 3747.5000000000
  20
 2612.7500000000
  30
0.0
  11
 3855.5000000000
  21
 2612.7500000000
  31
0.0
   0
LINE
   5
171
 100
AcDbEntity
   8
LEVEL002
 370
30
 100
AcDbLine
   6
CONTINUOUS
  62
7
  10
 3855.5000000000
  20
 2612.7500000000
  30
0.0
  11
 3855.5000000000
  21
 2648.7500000000
  31
0.0
   0
LINE
   5
172
 100
AcDbEntity
   8
LEVEL002
 370
30
 100
AcDbLine
   6
CONTINUOUS
  62
7
  10
 3855.5000000000
  20
 2648.7500000000
  30
0.0
  11
 3783.5000000000
  21
 2648.7500000000
  31
0.0
   0
LINE
   5
173
 100
AcDbEntity
   8
LEVEL002
 370
30
 100
AcDbLine
   6
CONTINUOUS
  62
7
  10
 3783.5000000000
  20
 2648.7500000000
  30
0.0
  11
 3783.5000000000
  21
 2657.7500000000
  31
0.0
   0
LINE
   5
174
 100
AcDbEntity
   8
LEVEL002
 370
30
 100
AcDbLine
   6
CONTINUOUS
  62
7
  10
 3783.5000000000
  20
 2657.7500000000
  30
0.0
  11
 3846.5000000000
  21
 2657.7500000000
  31
0.0
   0
LINE
   5
175
 100
AcDbEntity
   8
LEVEL002
 370
30
 100
AcDbLine
   6
CONTINUOUS
  62
7
  10
 3846.5000000000
  20
 2657.7500000000
  30
0.0
  11
 3846.5000000000
  21
 2675.7500000000
  31
0.0
   0
LINE
   5
176
 100
AcDbEntity
   8
LEVEL002
 370
30
 100
AcDbLine
   6
CONTINUOUS
  62
7
  10
 3846.5000000000
  20
 2675.7500000000
  30
0.0
  11
 3783.5000000000
  21
 2675.7500000000
  31
0.0
   0
LINE
   5
177
 100
AcDbEntity
   8
LEVEL002
 370
30
 100
AcDbLine
   6
CONTINUOUS
  62
7
  10
 3783.5000000000
  20
 2675.7500000000
  30
0.0
  11
 3783.5000000000
  21
 2684.7500000000
  31
0.0
   0
LINE
   5
178
 100
AcDbEntity
   8
LEVEL002
 370
30
 100
AcDbLine
   6
CONTINUOUS
  62
7
  10
 3783.5000000000
  20
 2684.7500000000
  30
0.0
  11
 3855.5000000000
  21
 2684.7500000000
  31
0.0
   0
LINE
   5
179
 100
AcDbEntity
   8
LEVEL002
 370
30
 100
AcDbLine
   6
CONTINUOUS
  62
7
  10
 3855.5000000000
  20
 2684.7500000000
  30
0.0
  11
 3855.5000000000
  21
 2720.7500000000
  31
0.0
   0
LINE
   5
17A
 100
AcDbEntity
   8
LEVEL002
 370
30
 100
AcDbLine
   6
CONTINUOUS
  62
7
  10
 3855.5000000000
  20
 2720.7500000000
  30
0.0
  11
 3639.5000000000
  21
 2720.7500000000
  31
0.0
   0
LINE
   5
17B
 100
AcDbEntity
   8
LEVEL002
 370
30
 100
AcDbLine
   6
CONTINUOUS
  62
7
  10
 3639.5000000000
  20
 2720.7500000000
  30
0.0
  11
 3639.5000000000
  21
 2684.7500000000
  31
0.0
   0
LINE
   5
17C
 100
AcDbEntity
   8
LEVEL002
 370
30
 100
AcDbLine
   6
CONTINUOUS
  62
7
  10
 3639.5000000000
  20
 2684.7500000000
  30
0.0
  11
 3675.5000000000
  21
 2684.7500000000
  31
0.0
   0
LINE
   5
17D
 100
AcDbEntity
   8
LEVEL002
 370
30
 100
AcDbLine
   6
CONTINUOUS
  62
7
  10
 3675.5000000000
  20
 2684.7500000000
  30
0.0
  11
 3675.5000000000
  21
 2648.7500000000
  31
0.0
   0
LINE
   5
17E
 100
AcDbEntity
   8
LEVEL002
 370
30
 100
AcDbLine
   6
CONTINUOUS
  62
7
  10
 3675.5000000000
  20
 2648.7500000000
  30
0.0
  11
 3621.5000000000
  21
 2648.7500000000
  31
0.0
   0
LINE
   5
17F
 100
AcDbEntity
   8
LEVEL002
 370
30
 100
AcDbLine
   6
CONTINUOUS
  62
7
  10
 3621.5000000000
  20
 2648.7500000000
  30
0.0
  11
 3621.5000000000
  21
 2720.7500000000
  31
0.0
   0
LINE
   5
180
 100
AcDbEntity
   8
LEVEL002
 370
30
 100
AcDbLine
   6
CONTINUOUS
  62
7
  10
 3621.5000000000
  20
 2720.7500000000
  30
0.0
  11
 3585.5000000000
  21
 2720.7500000000
  31
0.0
   0
LINE
   5
181
 100
AcDbEntity
   8
LEVEL002
 370
30
 100
AcDbLine
   6
CONTINUOUS
  62
7
  10
 3585.5000000000
  20
 2720.7500000000
  30
0.0
  11
 3585.5000000000
  21
 2612.7500000000
  31
0.0
   0
LINE
   5
182
 100
AcDbEntity
   8
LEVEL002
 370
30
 100
AcDbLine
   6
CONTINUOUS
  62
7
  10
 3909.5000000000
  20
 2612.7500000000
  30
0.0
  11
 3963.5000000000
  21
 2612.7500000000
  31
0.0
   0
LINE
   5
183
 100
AcDbEntity
   8
LEVEL002
 370
30
 100
AcDbLine
   6
CONTINUOUS
  62
7
  10
 3963.5000000000
  20
 2612.7500000000
  30
0.0
  11
 3963.5000000000
  21
 2648.7500000000
  31
0.0
   0
LINE
   5
184
 100
AcDbEntity
   8
LEVEL002
 370
30
 100
AcDbLine
   6
CONTINUOUS
  62
7
  10
 3963.5000000000
  20
 2648.7500000000
  30
0.0
  11
 3909.5000000000
  21
 2648.7500000000
  31
0.0
   0
ARC
   5
185
 100
AcDbEntity
   8
LEVEL002
 370
30
   6
CONTINUOUS
  62
7
 100
AcDbCircle
  10
 3909.5000000000
  20
 2666.7500000000
  30
0.0
  40
 18.000000000000
 100
AcDbArc
  50
 90.000000000000
  51
 270.00000000000
   0
LINE
   5
186
 100
AcDbEntity
   8
LEVEL002
 370
30
 100
AcDbLine
   6
CONTINUOUS
  62
7
  10
 3909.5000000000
  20
 2684.7500000000
  30
0.0
  11
 3963.5000000000
  21
 2684.7500000000
  31
0.0
   0
LINE
   5
187
 100
AcDbEntity
   8
LEVEL002
 370
30
 100
AcDbLine
   6
CONTINUOUS
  62
7
  10
 3963.5000000000
  20
 2684.7500000000
  30
0.0
  11
 3963.5000000000
  21
 2720.7500000000
  31
0.0
   0
LINE
   5
188
 100
AcDbEntity
   8
LEVEL002
 370
30
 100
AcDbLine
   6
CONTINUOUS
  62
7
  10
 3963.5000000000
  20
 2720.7500000000
  30
0.0
  11
 3909.5000000000
  21
 2720.7500000000
  31
0.0
   0
ARC
   5
189
 100
AcDbEntity
   8
LEVEL002
 370
30
   6
CONTINUOUS
  62
7
 100
AcDbCircle
  10
 3909.5000000000
  20
 2666.7500000000
  30
0.0
  40
 54.000000000000
 100
AcDbArc
  50
 90.000000000000
  51
 270.00000000000
   0
MTEXT
   5
18B
 100
AcDbEntity
   8
LEVEL002
 370
30
  62
7
 100
AcDbMText
  10
 3369.5000000000
  20
 2738.7500000000
  30
0.0
  40
 37.500000000000
  41
0.0
  71
7
  72
1
   1
\T1.000000;ケージーパルテック株式会社
   7
GMM001
  44
 0.79999984000003
   0
LINE
   5
18C
 100
AcDbEntity
   8
LEVEL002
 370
30
 100
AcDbLine
   6
CONTINUOUS
  62
7
  10
 3333.5000000000
  20
 2636.7500000000
  30
0.0
  11
 3288.5000000000
  21
 2708.7500000000
  31
0.0
   0
LINE
   5
18D
 100
AcDbEntity
   8
LEVEL002
 370
30
 100
AcDbLine
   6
CONTINUOUS
  62
7
  10
 3288.5000000000
  20
 2708.7500000000
  30
0.0
  11
 3333.5000000000
  21
 2708.7500000000
  31
0.0
   0
LINE
   5
18E
 100
AcDbEntity
   8
LEVEL002
 370
30
 100
AcDbLine
   6
CONTINUOUS
  62
7
  10
 3333.5000000000
  20
 2708.7500000000
  30
0.0
  11
 3333.5000000000
  21
 2636.7500000000
  31
0.0
   0
LINE
   5
18F
 100
AcDbEntity
   8
LEVEL002
 370
30
 100
AcDbLine
   6
CONTINUOUS
  62
7
  10
 3288.5000000000
  20
 2708.7500000000
  30
0.0
  11
 3333.5000000000
  21
 2636.7500000000
  31
0.0
   0
LINE
   5
190
 100
AcDbEntity
   8
LEVEL002
 370
30
 100
AcDbLine
   6
CONTINUOUS
  62
7
  10
 3333.5000000000
  20
 2636.7500000000
  30
0.0
  11
 3333.5000000000
  21
 2708.7500000000
  31
0.0
   0
LINE
   5
191
 100
AcDbEntity
   8
LEVEL002
 370
30
 100
AcDbLine
   6
CONTINUOUS
  62
7
  10
 3333.5000000000
  20
 2708.7500000000
  30
0.0
  11
 3288.5000000000
  21
 2708.7500000000
  31
0.0
   0
LINE
   5
192
 100
AcDbEntity
   8
LEVEL002
 370
30
 100
AcDbLine
   6
CONTINUOUS
  62
7
  10
 3190.5000000000
  20
 2804.7500000000
  30
0.0
  11
 3126.5000000000
  21
 2708.7500000000
  31
0.0
   0
LINE
   5
193
 100
AcDbEntity
   8
LEVEL002
 370
30
 100
AcDbLine
   6
CONTINUOUS
  62
7
  10
 3126.5000000000
  20
 2708.7500000000
  30
0.0
  11
 3190.5000000000
  21
 2612.7500000000
  31
0.0
   0
LINE
   5
194
 100
AcDbEntity
   8
LEVEL002
 370
30
 100
AcDbLine
   6
CONTINUOUS
  62
7
  10
 3244.5000000000
  20
 2612.7500000000
  30
0.0
  11
 3180.5000000000
  21
 2708.7500000000
  31
0.0
   0
LINE
   5
195
 100
AcDbEntity
   8
LEVEL002
 370
30
 100
AcDbLine
   6
CONTINUOUS
  62
7
  10
 3180.5000000000
  20
 2708.7500000000
  30
0.0
  11
 3244.5000000000
  21
 2804.7500000000
  31
0.0
   0
LINE
   5
196
 100
AcDbEntity
   8
LEVEL002
 370
30
 100
AcDbLine
   6
CONTINUOUS
  62
7
  10
 3271.5000000000
  20
 2804.7500000000
  30
0.0
  11
 3207.5000000000
  21
 2708.7500000000
  31
0.0
   0
LINE
   5
197
 100
AcDbEntity
   8
LEVEL002
 370
30
 100
AcDbLine
   6
CONTINUOUS
  62
7
  10
 3207.5000000000
  20
 2708.7500000000
  30
0.0
  11
 3271.5000000000
  21
 2612.7500000000
  31
0.0
   0
LINE
   5
198
 100
AcDbEntity
   8
LEVEL002
 370
30
 100
AcDbLine
   6
CONTINUOUS
  62
7
  10
 3325.5000000000
  20
 2612.7500000000
  30
0.0
  11
 3261.5000000000
  21
 2708.7500000000
  31
0.0
   0
LINE
   5
199
 100
AcDbEntity
   8
LEVEL002
 370
30
 100
AcDbLine
   6
CONTINUOUS
  62
7
  10
 3261.5000000000
  20
 2708.7500000000
  30
0.0
  11
 3325.5000000000
  21
 2804.7500000000
  31
0.0
   0
LINE
   5
19A
 100
AcDbEntity
   8
LEVEL002
 370
30
 100
AcDbLine
   6
CONTINUOUS
  62
7
  10
 3190.5000000000
  20
 2612.7500000000
  30
0.0
  11
 3126.5000000000
  21
 2708.7500000000
  31
0.0
   0
LINE
   5
19B
 100
AcDbEntity
   8
LEVEL002
 370
30
 100
AcDbLine
   6
CONTINUOUS
  62
7
  10
 3126.5000000000
  20
 2708.7500000000
  30
0.0
  11
 3190.5000000000
  21
 2804.7500000000
  31
0.0
   0
LINE
   5
19C
 100
AcDbEntity
   8
LEVEL002
 370
30
 100
AcDbLine
   6
CONTINUOUS
  62
7
  10
 3190.5000000000
  20
 2804.7500000000
  30
0.0
  11
 3244.5000000000
  21
 2804.7500000000
  31
0.0
   0
LINE
   5
19D
 100
AcDbEntity
   8
LEVEL002
 370
30
 100
AcDbLine
   6
CONTINUOUS
  62
7
  10
 3244.5000000000
  20
 2804.7500000000
  30
0.0
  11
 3180.5000000000
  21
 2708.7500000000
  31
0.0
   0
LINE
   5
19E
 100
AcDbEntity
   8
LEVEL002
 370
30
 100
AcDbLine
   6
CONTINUOUS
  62
7
  10
 3180.5000000000
  20
 2708.7500000000
  30
0.0
  11
 3244.5000000000
  21
 2612.7500000000
  31
0.0
   0
LINE
   5
19F
 100
AcDbEntity
   8
LEVEL002
 370
30
 100
AcDbLine
   6
CONTINUOUS
  62
7
  10
 3244.5000000000
  20
 2612.7500000000
  30
0.0
  11
 3190.5000000000
  21
 2612.7500000000
  31
0.0
   0
LINE
   5
1A0
 100
AcDbEntity
   8
LEVEL002
 370
30
 100
AcDbLine
   6
CONTINUOUS
  62
7
  10
 3271.5000000000
  20
 2612.7500000000
  30
0.0
  11
 3207.5000000000
  21
 2708.7500000000
  31
0.0
   0
LINE
   5
1A1
 100
AcDbEntity
   8
LEVEL002
 370
30
 100
AcDbLine
   6
CONTINUOUS
  62
7
  10
 3207.5000000000
  20
 2708.7500000000
  30
0.0
  11
 3271.5000000000
  21
 2804.7500000000
  31
0.0
   0
LINE
   5
1A2
 100
AcDbEntity
   8
LEVEL002
 370
30
 100
AcDbLine
   6
CONTINUOUS
  62
7
  10
 3271.5000000000
  20
 2804.7500000000
  30
0.0
  11
 3325.5000000000
  21
 2804.7500000000
  31
0.0
   0
LINE
   5
1A3
 100
AcDbEntity
   8
LEVEL002
 370
30
 100
AcDbLine
   6
CONTINUOUS
  62
7
  10
 3325.5000000000
  20
 2804.7500000000
  30
0.0
  11
 3261.5000000000
  21
 2708.7500000000
  31
0.0
   0
LINE
   5
1A4
 100
AcDbEntity
   8
LEVEL002
 370
30
 100
AcDbLine
   6
CONTINUOUS
  62
7
  10
 3261.5000000000
  20
 2708.7500000000
  30
0.0
  11
 3325.5000000000
  21
 2612.7500000000
  31
0.0
   0
LINE
   5
1A5
 100
AcDbEntity
   8
LEVEL002
 370
30
 100
AcDbLine
   6
CONTINUOUS
  62
7
  10
 3325.5000000000
  20
 2612.7500000000
  30
0.0
  11
 3271.5000000000
  21
 2612.7500000000
  31
0.0
   0
LINE
   5
1A6
 100
AcDbEntity
   8
LEVEL001
 370
30
 100
AcDbLine
   6
DOT
  62
7
  10
0.0
  20
0.0
  30
0.0
  11
 4200.0000000000
  21
0.0
  31
0.0
   0
LINE
   5
1A7
 100
AcDbEntity
   8
LEVEL001
 370
30
 100
AcDbLine
   6
DOT
  62
7
  10
 4200.0000000000
  20
0.0
  30
0.0
  11
 4200.0000000000
  21
 2970.0000000000
  31
0.0
   0
LINE
   5
1A8
 100
AcDbEntity
   8
LEVEL001
 370
30
 100
AcDbLine
   6
DOT
  62
7
  10
 4200.0000000000
  20
 2970.0000000000
  30
0.0
  11
0.0
  21
 2970.0000000000
  31
0.0
   0
LINE
   5
1A9
 100
AcDbEntity
   8
LEVEL001
 370
30
 100
AcDbLine
   6
DOT
  62
7
  10
0.0
  20
 2970.0000000000
  30
0.0
  11
0.0
  21
0.0
  31
0.0
   0
LINE
   5
1AA
 100
AcDbEntity
   8
LEVEL002
 370
40
 100
AcDbLine
   6
CONTINUOUS
  62
3
  10
 154.99999999950
  20
 2750.0000000000
  30
0.0
  11
 3044.9999999995
  21
 2750.0000000000
  31
0.0
   0
LINE
   5
1AB
 100
AcDbEntity
   8
LEVEL002
 370
40
 100
AcDbLine
   6
CONTINUOUS
  62
3
  10
 3044.9999999995
  20
 2567.5000000000
  30
0.0
  11
 4044.9999999995
  21
 2567.5000000000
  31
0.0
   0
LINE
   5
1AC
 100
AcDbEntity
   8
LEVEL002
 370
40
 100
AcDbLine
   6
CONTINUOUS
  62
3
  10
 3044.9999999995
  20
 2367.5000000000
  30
0.0
  11
 4044.9999999995
  21
 2367.5000000000
  31
0.0
   0
LINE
   5
1AD
 100
AcDbEntity
   8
LEVEL002
 370
40
 100
AcDbLine
   6
CONTINUOUS
  62
3
  10
 3044.9999999995
  20
 2167.5000000000
  30
0.0
  11
 4044.9999999995
  21
 2167.5000000000
  31
0.0
   0
LINE
   5
1AE
 100
AcDbEntity
   8
LEVEL002
 370
40
 100
AcDbLine
   6
CONTINUOUS
  62
3
  10
 3044.9999999995
  20
 720.00000000010
  30
0.0
  11
 4044.9999999995
  21
 720.00000000010
  31
0.0
   0
LINE
   5
1AF
 100
AcDbEntity
   8
LEVEL002
 370
40
 100
AcDbLine
   6
CONTINUOUS
  62
3
  10
 3044.9999999995
  20
 520.00000000010
  30
0.0
  11
 4044.9999999995
  21
 520.00000000010
  31
0.0
   0
LINE
   5
1B0
 100
AcDbEntity
   8
LEVEL002
 370
40
 100
AcDbLine
   6
CONTINUOUS
  62
3
  10
 3044.9999999995
  20
 320.00000000010
  30
0.0
  11
 4044.9999999995
  21
 320.00000000010
  31
0.0
   0
LINE
   5
1B1
 100
AcDbEntity
   8
LEVEL002
 370
40
 100
AcDbLine
   6
CONTINUOUS
  62
3
  10
 3544.9999999995
  20
 520.00000000010
  30
0.0
  11
 3544.9999999995
  21
 120.00000000010
  31
0.0
   0
LINE
   5
1B2
 100
AcDbEntity
   8
LEVEL002
 370
40
 100
AcDbLine
   6
CONTINUOUS
  62
3
  10
 3544.9999999995
  20
 386.66666666680
  30
0.0
  11
 4044.9999999995
  21
 386.66666666680
  31
0.0
   0
LINE
   5
1B3
 100
AcDbEntity
   8
LEVEL002
 370
40
 100
AcDbLine
   6
CONTINUOUS
  62
3
  10
 3544.9999999995
  20
 453.33333333345
  30
0.0
  11
 4044.9999999995
  21
 453.33333333345
  31
0.0
   0
LINE
   5
1B4
 100
AcDbEntity
   8
LEVEL002
 370
50
 100
AcDbLine
   6
CONTINUOUS
  62
4
  10
 4044.9999999995
  20
 2850.0000000000
  30
0.0
  11
 154.99999999950
  21
 2850.0000000000
  31
0.0
   0
LINE
   5
1B5
 100
AcDbEntity
   8
LEVEL002
 370
50
 100
AcDbLine
   6
CONTINUOUS
  62
4
  10
 3044.9999999995
  20
 2850.0000000000
  30
0.0
  11
 3044.9999999995
  21
 120.00000000010
  31
0.0
   0
LINE
   5
1B6
 100
AcDbEntity
   8
LEVEL002
 370
50
 100
AcDbLine
   6
CONTINUOUS
  62
4
  10
 4044.9999999995
  20
 120.00000000010
  30
0.0
  11
 4044.9999999995
  21
 2850.0000000000
  31
0.0
   0
LINE
   5
1B7
 100
AcDbEntity
   8
LEVEL002
 370
50
 100
AcDbLine
   6
CONTINUOUS
  62
4
  10
 154.99999999950
  20
 2850.0000000000
  30
0.0
  11
 154.99999999950
  21
 120.00000000010
  31
0.0
   0
LINE
   5
1B8
 100
AcDbEntity
   8
LEVEL002
 370
50
 100
AcDbLine
   6
CONTINUOUS
  62
4
  10
 154.99999999950
  20
 120.00000000010
  30
0.0
  11
 4044.9999999995
  21
 120.00000000010
  31
0.0
   0
HATCH
   5
1B9
 100
AcDbEntity
   8
LEVEL001
  62
1
 100
AcDbHatch
  10
0.0
  20
0.0
  30
0.0
 210
0.0
 220
0.0
 230
 1.0000000000000
   2
SOLID
  70
1
  71
1
  91
7
  92
1
  93
6
  72
1
  10
 3244.5000000000
  20
 2804.7500000000
  11
 3180.5000000000
  21
 2708.7500000000
  72
1
  10
 3180.5000000000
  20
 2708.7500000000
  11
 3244.5000000000
  21
 2612.7500000000
  72
1
  10
 3244.5000000000
  20
 2612.7500000000
  11
 3190.5000000000
  21
 2612.7500000000
  72
1
  10
 3190.5000000000
  20
 2612.7500000000
  11
 3126.5000000000
  21
 2708.7500000000
  72
1
  10
 3126.5000000000
  20
 2708.7500000000
  11
 3190.5000000000
  21
 2804.7500000000
  72
1
  10
 3190.5000000000
  20
 2804.7500000000
  11
 3244.5000000000
  21
 2804.7500000000
  97
1
 330

  92
16
  93
6
  72
1
  10
 3271.5000000000
  20
 2804.7500000000
  11
 3325.5000000000
  21
 2804.7500000000
  72
1
  10
 3325.5000000000
  20
 2804.7500000000
  11
 3261.5000000000
  21
 2708.7500000000
  72
1
  10
 3261.5000000000
  20
 2708.7500000000
  11
 3325.5000000000
  21
 2612.7500000000
  72
1
  10
 3325.5000000000
  20
 2612.7500000000
  11
 3271.5000000000
  21
 2612.7500000000
  72
1
  10
 3271.5000000000
  20
 2612.7500000000
  11
 3207.5000000000
  21
 2708.7500000000
  72
1
  10
 3207.5000000000
  20
 2708.7500000000
  11
 3271.5000000000
  21
 2804.7500000000
  97
1
 330

  92
16
  93
3
  72
1
  10
 3333.5000000000
  20
 2708.7500000000
  11
 3288.5000000000
  21
 2708.7500000000
  72
1
  10
 3288.5000000000
  20
 2708.7500000000
  11
 3333.5000000000
  21
 2636.7500000000
  72
1
  10
 3333.5000000000
  20
 2636.7500000000
  11
 3333.5000000000
  21
 2708.7500000000
  97
1
 330

  92
16
  93
6
  72
1
  10
 3369.5000000000
  20
 2720.7500000000
  11
 3441.5000000000
  21
 2720.7500000000
  72
2
  10
 3441.5000000000
  20
 2675.7500000000
  40
 45.000000000000
  50
 270.00000000000
  51
 90.000000000000
  73
0
  72
1
  10
 3441.5000000000
  20
 2630.7500000000
  11
 3405.5000000000
  21
 2630.7500000000
  72
1
  10
 3405.5000000000
  20
 2630.7500000000
  11
 3405.5000000000
  21
 2612.7500000000
  72
1
  10
 3405.5000000000
  20
 2612.7500000000
  11
 3369.5000000000
  21
 2612.7500000000
  72
1
  10
 3369.5000000000
  20
 2612.7500000000
  11
 3369.5000000000
  21
 2720.7500000000
  97
1
 330

  92
16
  93
4
  72
1
  10
 3441.5000000000
  20
 2684.7500000000
  11
 3405.5000000000
  21
 2684.7500000000
  72
1
  10
 3405.5000000000
  20
 2684.7500000000
  11
 3405.5000000000
  21
 2666.7500000000
  72
1
  10
 3405.5000000000
  20
 2666.7500000000
  11
 3441.5000000000
  21
 2666.7500000000
  72
2
  10
 3441.5000000000
  20
 2675.7500000000
  40
 9.0000000000000
  50
 270.00000000000
  51
 90.000000000000
  73
1
  97
1
 330

  92
16
  93
4
  72
1
  10
 3459.5000000000
  20
 2612.7500000000
  11
 3531.5000000000
  21
 2720.7500000000
  72
1
  10
 3531.5000000000
  20
 2720.7500000000
  11
 3585.5000000000
  21
 2720.7500000000
  72
1
  10
 3585.5000000000
  20
 2720.7500000000
  11
 3513.5000000000
  21
 2612.7500000000
  72
1
  10
 3513.5000000000
  20
 2612.7500000000
  11
 3459.5000000000
  21
 2612.7500000000
  97
1
 330

  92
16
  93
3
  72
1
  10
 3573.5000000000
  20
 2681.1166923470
  11
 3527.9222051020
  21
 2612.7500000000
  72
1
  10
 3527.9222051020
  20
 2612.7500000000
  11
 3573.5000000000
  21
 2612.7500000000
  72
1
  10
 3573.5000000000
  20
 2612.7500000000
  11
 3573.5000000000
  21
 2681.1166923470
  97
1
 330

  75
0
  76
1
  98
1
  10
0.0
  20
0.0
   0
HATCH
   5
1BA
 100
AcDbEntity
   8
LEVEL001
  62
1
 100
AcDbHatch
  10
0.0
  20
0.0
  30
0.0
 210
0.0
 220
0.0
 230
 1.0000000000000
   2
SOLID
  70
1
  71
1
  91
1
  92
1
  93
22
  72
1
  10
 3585.5000000000
  20
 2720.7500000000
  11
 3621.5000000000
  21
 2720.7500000000
  72
1
  10
 3621.5000000000
  20
 2720.7500000000
  11
 3621.5000000000
  21
 2648.7500000000
  72
1
  10
 3621.5000000000
  20
 2648.7500000000
  11
 3675.5000000000
  21
 2648.7500000000
  72
1
  10
 3675.5000000000
  20
 2648.7500000000
  11
 3675.5000000000
  21
 2684.7500000000
  72
1
  10
 3675.5000000000
  20
 2684.7500000000
  11
 3639.5000000000
  21
 2684.7500000000
  72
1
  10
 3639.5000000000
  20
 2684.7500000000
  11
 3639.5000000000
  21
 2720.7500000000
  72
1
  10
 3639.5000000000
  20
 2720.7500000000
  11
 3855.5000000000
  21
 2720.7500000000
  72
1
  10
 3855.5000000000
  20
 2720.7500000000
  11
 3855.5000000000
  21
 2684.7500000000
  72
1
  10
 3855.5000000000
  20
 2684.7500000000
  11
 3783.5000000000
  21
 2684.7500000000
  72
1
  10
 3783.5000000000
  20
 2684.7500000000
  11
 3783.5000000000
  21
 2675.7500000000
  72
1
  10
 3783.5000000000
  20
 2675.7500000000
  11
 3846.5000000000
  21
 2675.7500000000
  72
1
  10
 3846.5000000000
  20
 2675.7500000000
  11
 3846.5000000000
  21
 2657.7500000000
  72
1
  10
 3846.5000000000
  20
 2657.7500000000
  11
 3783.5000000000
  21
 2657.7500000000
  72
1
  10
 3783.5000000000
  20
 2657.7500000000
  11
 3783.5000000000
  21
 2648.7500000000
  72
1
  10
 3783.5000000000
  20
 2648.7500000000
  11
 3855.5000000000
  21
 2648.7500000000
  72
1
  10
 3855.5000000000
  20
 2648.7500000000
  11
 3855.5000000000
  21
 2612.7500000000
  72
1
  10
 3855.5000000000
  20
 2612.7500000000
  11
 3747.5000000000
  21
 2612.7500000000
  72
1
  10
 3747.5000000000
  20
 2612.7500000000
  11
 3747.5000000000
  21
 2684.7500000000
  72
1
  10
 3747.5000000000
  20
 2684.7500000000
  11
 3711.5000000000
  21
 2684.7500000000
  72
1
  10
 3711.5000000000
  20
 2684.7500000000
  11
 3711.5000000000
  21
 2612.7500000000
  72
1
  10
 3711.5000000000
  20
 2612.7500000000
  11
 3585.5000000000
  21
 2612.7500000000
  72
1
  10
 3585.5000000000
  20
 2612.7500000000
  11
 3585.5000000000
  21
 2720.7500000000
  97
1
 330

  75
0
  76
1
  98
1
  10
0.0
  20
0.0
   0
HATCH
   5
1BB
 100
AcDbEntity
   8
LEVEL001
  62
1
 100
AcDbHatch
  10
0.0
  20
0.0
  30
0.0
 210
0.0
 220
0.0
 230
 1.0000000000000
   2
SOLID
  70
1
  71
1
  91
1
  92
1
  93
8
  72
1
  10
 3963.5000000000
  20
 2720.7500000000
  11
 3909.5000000000
  21
 2720.7500000000
  72
2
  10
 3909.5000000000
  20
 2666.7500000000
  40
 54.000000000000
  50
 90.000000000000
  51
 270.00000000000
  73
1
  72
1
  10
 3909.5000000000
  20
 2612.7500000000
  11
 3963.5000000000
  21
 2612.7500000000
  72
1
  10
 3963.5000000000
  20
 2612.7500000000
  11
 3963.5000000000
  21
 2648.7500000000
  72
1
  10
 3963.5000000000
  20
 2648.7500000000
  11
 3909.5000000000
  21
 2648.7500000000
  72
2
  10
 3909.5000000000
  20
 2666.7500000000
  40
 18.000000000000
  50
 90.000000000000
  51
 270.00000000000
  73
0
  72
1
  10
 3909.5000000000
  20
 2684.7500000000
  11
 3963.5000000000
  21
 2684.7500000000
  72
1
  10
 3963.5000000000
  20
 2684.7500000000
  11
 3963.5000000000
  21
 2720.7500000000
  97
1
 330

  75
0
  76
1
  98
1
  10
0.0
  20
0.0
   0
MTEXT
   5
1BD
 100
AcDbEntity
   8
LEVEL002
 370
15
  62
8
 100
AcDbMText
  10
 3107.9999999995
  20
 282.50000000010
  30
0.0
  40
 30.000000000000
  41
0.0
  71
5
  72
1
   1
\T1.000000;サイズ：
   7
GMM002
  44
 0.79999984000003
   0
MTEXT
   5
1BF
 100
AcDbEntity
   8
LEVEL002
 370
15
  62
8
 100
AcDbMText
  10
 3092.9999999995
  20
 482.50000000010
  30
0.0
  40
 30.000000000000
  41
0.0
  71
5
  72
1
   1
\T1.000000;縮尺：
   7
GMM002
  44
 0.79999984000003
   0
MTEXT
   5
1C1
 100
AcDbEntity
   8
LEVEL002
 370
15
  62
8
 100
AcDbMText
  10
 3122.9999999995
  20
 682.50000000010
  30
0.0
  40
 30.000000000000
  41
0.0
  71
5
  72
1
   1
\T1.000000;図面名称：
   7
GMM002
  44
 0.79999984000003
   0
MTEXT
   5
1C3
 100
AcDbEntity
   8
LEVEL002
 370
15
  62
8
 100
AcDbMText
  10
 3637.9999999995
  20
 282.50000000010
  30
0.0
  40
 30.000000000000
  41
0.0
  71
5
  72
1
   1
\T1.000000;ファイル名：
   7
GMM002
  44
 0.79999984000003
   0
MTEXT
   5
1C5
 100
AcDbEntity
   8
LEVEL002
 370
15
  62
8
 100
AcDbMText
  10
 3622.9999999995
  20
 486.66666666680
  30
0.0
  40
 28.000000000000
  41
0.0
  71
5
  72
1
   1
\T1.000000;作成日付：
   7
GMM003
  44
 0.79999984000003
   0
MTEXT
   5
1C7
 100
AcDbEntity
   8
LEVEL002
 370
15
  62
8
 100
AcDbMText
  10
 3622.9999999995
  20
 420.00000000010
  30
0.0
  40
 28.000000000000
  41
0.0
  71
5
  72
1
   1
\T1.000000;変更日付：
   7
GMM003
  44
 0.79999984000003
   0
MTEXT
   5
1C9
 100
AcDbEntity
   8
LEVEL002
 370
15
  62
8
 100
AcDbMText
  10
 3294.9999999995
  20
 182.50000000010
  30
0.0
  40
 37.500000000000
  41
0.0
  71
5
  72
1
   1
\T1.000000;Ａ３
   7
GMM002
  44
 0.79999984000003
   0
MTEXT
   5
1CB
 100
AcDbEntity
   8
LEVEL002
 370
15
  62
8
 100
AcDbMText
  10
 3092.9999999995
  20
 2130.0000000000
  30
0.0
  40
 30.000000000000
  41
0.0
  71
5
  72
1
   1
\T1.000000;仕様：
   7
GMM002
  44
 0.79999984000003
   0
MTEXT
   5
1CD
 100
AcDbEntity
   8
LEVEL002
 370
15
  62
8
 100
AcDbMText
  10
 3092.9999999995
  20
 2330.0000000000
  30
0.0
  40
 30.000000000000
  41
0.0
  71
5
  72
1
   1
\T1.000000;形式：
   7
GMM002
  44
 0.79999984000003
   0
MTEXT
   5
1CF
 100
AcDbEntity
   8
LEVEL002
 370
15
  62
8
 100
AcDbMText
  10
 3107.9999999995
  20
 2530.0000000000
  30
0.0
  40
 30.000000000000
  41
0.0
  71
5
  72
1
   1
\T1.000000;商品名：
   7
GMM002
  44
 0.79999984000003
   0
MTEXT
   5
1D1
 100
AcDbEntity
   8
LEVEL002
 370
15
  62
8
 100
AcDbMText
  10
 3468.9999999995
  20
 768.70803459012
  30
0.0
  40
 40.000000000000
  41
0.0
  71
5
  72
1
   1
\T1.000000;　※本製品は予告無しに変更する事があります。
   7
GMM002
  44
 0.79999984000003
   0
MTEXT
   5
1D3
 100
AcDbEntity
   8
LEVEL002
 370
15
  62
8
 100
AcDbMText
  10
 3544.9999999995
  20
 582.50000000010
  30
0.0
  40
 37.500000000000
  41
0.0
  71
5
  72
1
   1
\T1.000000;三面図
   7
GMM002
  44
 0.79999984000003
   0
MTEXT
   5
1D5
 100
AcDbEntity
   8
LEVEL002
 370
15
  62
8
 100
AcDbMText
  10
 3872.1508456075
  20
 420.00000000010
  30
0.0
  40
 30.000000000000
  41
0.0
  71
5
  72
1
   1
\T1.000000;令和　　年　　月　　日
   7
GMM002
  44
 0.79999984000003
   0
MTEXT
   5
1D7
 100
AcDbEntity
   8
LEVEL002
 370
15
  62
8
 100
AcDbMText
  10
 3872.1508456075
  20
 353.33333333345
  30
0.0
  40
 30.000000000000
  41
0.0
  71
5
  72
1
   1
\T1.000000;令和　　年　　月　　日
   7
GMM002
  44
 0.79999984000003
   0
MTEXT
   5
1D9
 100
AcDbEntity
   8
LEVEL002
 370
15
  62
8
 100
AcDbMText
  10
 3294.9999999995
  20
 382.50000000010
  30
0.0
  40
 37.500000000000
  41
0.0
  71
5
  72
1
   1
\T1.000000;Ｓ＝１：１０
   7
GMM002
  44
 0.79999984000003
   0
MTEXT
   5
1DB
 100
AcDbEntity
   8
LEVEL002
 370
15
  62
8
 100
AcDbMText
  10
 3544.9999999995
  20
 2267.5000000000
  30
0.0
  40
 40.000000000000
  41
0.0
  71
5
  72
1
   1
\T1.000000;ＰＪ２タイプ
   7
GMM002
  44
 0.79999984000003
   0
MTEXT
   5
1DD
 100
AcDbEntity
   8
LEVEL002
 370
15
  62
8
 100
AcDbMText
  10
 3364.9999999995
  20
 2475.0000000000
  30
0.0
  40
 45.000000000000
  41
0.0
  71
4
  72
1
   1
{\T1.000000;ジャンティサポート}\P{\T1.000000;洗面・手洗器用}
   7
GMM002
  44
 0.79999984000003
   0
MTEXT
   5
1DF
 100
AcDbEntity
   8
LEVEL002
 370
15
  62
8
 100
AcDbMText
  10
 3122.5057208233
  20
 2079.1666666670
  30
0.0
  40
 35.000000000000
  41
0.0
  71
1
  72
1
   3
{\W0.500000;\T1.000000;･\W1.000000;\T1.000000;手摺本体\W0.500000;\T1.000000;(\W1.000000;\T1.000000;笠木%%c３４\W0.500000;\T1.000000;) }\P{\W1.000000;\T1.000000;表面材：軟質塩ビ被膜（抗菌材入り）}\P{\W1.000000;\T1.000000;芯　材：ステンレスパイプ　%%c
   3
２７\W0.500000;\T1.000000;.\W1.000000;\T1.000000;２×１\W0.500000;\T1.000000;.\W1.000000;\T1.000000;５ｔ}\P{\W1.000000;\T1.000000;　　　　}\P\P{\W1.000000;\T1.000000;・ＰＪタイプ}\P{\W1.000000;\T1.000000;　色　：ＢＵ　ベージュ}\P{\W1.000000;\T1.00000
   3
0;　　　　ＣＰ　ピンク}\P{\W1.000000;\T1.000000;　　　　ＬＧ　ライトグリーン}\P{\W1.000000;\T1.000000;　　　　ＲＣ　カーディナルレッド}\P{\W1.000000;\T1.000000;　　　　ＡＷ　アイボリーホワイト}\P{\W1.000000;\T1.000000;　　　}\P{\W1.000000;\T1.000000;
   3
　　（木目調）}\P{\W1.000000;\T1.000000;　　　　ＮＡ　ナチュラル}\P{\W1.000000;\T1.000000;　　　　ＬＴ　ライト}\P\P{\W0.500000;\T1.000000;･\W1.000000;\T1.000000;樹脂製化粧カバー（ＡＢＳ）}\P{\W0.500000;\T1.000000;･\W1.000000;\T1.000000;固定クリップ（
   1
ＡＢＳ）}\P{\W0.500000;\T1.000000;･\W1.000000;\T1.000000;ステンレス取付座金（ｔ＝３\W0.500000;\T1.000000;.\W1.000000;\T1.000000;０）}\P\P{\W0.500000;\T1.000000; }
   7
GMM002
  44
 0.79999984000003
   0
MTEXT
   5
1E1
 100
AcDbEntity
   8
LEVEL002
 370
15
  62
8
 100
AcDbMText
  10
 3794.9999999995
  20
 200.83333333345
  30
0.0
  40
 25.000000000000
  41
0.0
  71
5
  72
1
   1
\T1.000000;ＰＪ－２
   7
GMM002
  44
 0.79999984000003
   0
MTEXT
   5
1E3
 100
AcDbEntity
   8
LEVEL001
 370
15
  62
8
 100
AcDbMText
  10
 157.99999999950
  20
 2800.0000000000
  30
0.0
  40
 30.000000000000
  41
0.0
  71
4
  72
1
   1
\W0.500000;\T1.000000; \W1.000000;\T1.000000;　ＰＪ２
   7
GMM002
  44
 0.79999984000003
   0
MTEXT
   5
1E5
 100
AcDbEntity
   8
LEVEL002
 370
15
  62
8
 100
AcDbMText
  10
 3872.1508456075
  20
 486.66666666680
  30
0.0
  40
 30.000000000000
  41
0.0
  71
5
  72
1
   1
\T1.000000;令和０５年０８月０１日
   7
GMM002
  44
 0.79999984000003
   0
LINE
   5
1E6
 100
AcDbEntity
   8
LEVEL004
 370
30
 100
AcDbLine
   6
CONTINUOUS
  62
7
  10
 776.29042945975
  20
 1894.1211049477
  30
0.0
  11
 1292.6909558898
  21
 1894.1211049477
  31
0.0
   0
LINE
   5
1E7
 100
AcDbEntity
   8
LEVEL004
 370
30
 100
AcDbLine
   6
CONTINUOUS
  62
7
  10
 776.29042945975
  20
 1860.1211049477
  30
0.0
  11
 1292.6909558898
  21
 1860.1211049477
  31
0.0
   0
LINE
   5
1E8
 100
AcDbEntity
   8
LEVEL004
 370
30
 100
AcDbLine
   6
CONTINUOUS
  62
7
  10
 751.49069267475
  20
 2358.1211049477
  30
0.0
  11
 751.49069267475
  21
 1893.5566801671
  31
0.0
   0
LINE
   5
1E9
 100
AcDbEntity
   8
LEVEL004
 370
30
 100
AcDbLine
   6
CONTINUOUS
  62
7
  10
 717.49069267477
  20
 2358.1211049477
  30
0.0
  11
 717.49069267477
  21
 1577.1211049477
  31
0.0
   0
LINE
   5
1EA
 100
AcDbEntity
   8
LEVEL004
 370
30
 100
AcDbLine
   6
CONTINUOUS
  62
7
  10
 1317.4906926747
  20
 2358.1211049477
  30
0.0
  11
 1317.4906926747
  21
 1913.3288389281
  31
0.0
   0
LINE
   5
1EB
 100
AcDbEntity
   8
LEVEL004
 370
30
 100
AcDbLine
   6
CONTINUOUS
  62
7
  10
 1351.4906926747
  20
 2358.1211049477
  30
0.0
  11
 1351.4906926747
  21
 1913.3288389281
  31
0.0
   0
LINE
   5
1EC
 100
AcDbEntity
   8
LEVEL004
 370
30
 100
AcDbLine
   6
CONTINUOUS
  62
7
  10
 1351.4906926747
  20
 2358.1211049477
  30
0.0
  11
 1351.4906926747
  21
 1840.9133709672
  31
0.0
   0
LINE
   5
1ED
 100
AcDbEntity
   8
LEVEL004
 370
30
 100
AcDbLine
   6
CONTINUOUS
  62
7
  10
 1317.4906926747
  20
 2358.1211049477
  30
0.0
  11
 1317.4906926747
  21
 1893.5566801671
  31
0.0
   0
ARC
   5
1EE
 100
AcDbEntity
   8
LEVEL004
 370
30
   6
CONTINUOUS
  62
7
 100
AcDbCircle
  10
 1334.4906926747
  20
 1204.1075289610
  30
0.0
  40
 17.000000000000
 100
AcDbArc
  50
0.0
  51
 180.00000000000
   0
ARC
   5
1EF
 100
AcDbEntity
   8
LEVEL004
 370
30
   6
CONTINUOUS
  62
7
 100
AcDbCircle
  10
 734.49069267475
  20
 1204.1075289610
  30
0.0
  40
 17.000000000000
 100
AcDbArc
  50
0.0
  51
 180.00000000000
   0
LINE
   5
1F0
 100
AcDbEntity
   8
LEVEL004
 370
30
 100
AcDbLine
   6
CONTINUOUS
  62
7
  10
 1351.4906926747
  20
 1840.9133709672
  30
0.0
  11
 1351.4906926747
  21
 1577.1211049477
  31
0.0
   0
LINE
   5
1F1
 100
AcDbEntity
   8
LEVEL004
 370
30
 100
AcDbLine
   6
CONTINUOUS
  62
7
  10
 1317.4906926747
  20
 1860.3283173380
  30
0.0
  11
 1317.4906926747
  21
 1577.1211049477
  31
0.0
   0
ARC
   5
1F2
 100
AcDbEntity
   8
LEVEL004
 370
30
   6
CONTINUOUS
  62
7
 100
AcDbCircle
  10
 1334.4906926747
  20
 1577.1211049477
  30
0.0
  40
 17.000000000000
 100
AcDbArc
  50
 180.00000000000
  51
0.0
   0
ARC
   5
1F3
 100
AcDbEntity
   8
LEVEL004
 370
30
   6
CONTINUOUS
  62
7
 100
AcDbCircle
  10
 734.49069267475
  20
 1577.1211049477
  30
0.0
  40
 17.000000000000
 100
AcDbArc
  50
 180.00000000000
  51
0.0
   0
LINE
   5
1F4
 100
AcDbEntity
   8
LEVEL004
 370
30
 100
AcDbLine
   6
CONTINUOUS
  62
7
  10
 751.49069267475
  20
 1204.1075289610
  30
0.0
  11
 751.49069267475
  21
 1004.1075289610
  31
0.0
   0
LINE
   5
1F5
 100
AcDbEntity
   8
LEVEL004
 370
30
 100
AcDbLine
   6
CONTINUOUS
  62
7
  10
 717.49069267477
  20
 1204.1075289610
  30
0.0
  11
 717.49069267477
  21
 1004.1075289610
  31
0.0
   0
LINE
   5
1F6
 100
AcDbEntity
   8
LEVEL004
 370
30
 100
AcDbLine
   6
CONTINUOUS
  62
7
  10
 775.99069267475
  20
 1221.1075289610
  30
0.0
  11
 1292.9906926747
  21
 1221.1075289610
  31
0.0
   0
LINE
   5
1F7
 100
AcDbEntity
   8
LEVEL004
 370
30
 100
AcDbLine
   6
CONTINUOUS
  62
7
  10
 775.99069267475
  20
 1187.1075289610
  30
0.0
  11
 1292.9906926747
  21
 1187.1075289610
  31
0.0
   0
LINE
   5
1F8
 100
AcDbEntity
   8
LEVEL004
 370
30
 100
AcDbLine
   6
CONTINUOUS
  62
7
  10
 1317.4906926747
  20
 1204.1075289610
  30
0.0
  11
 1317.4906926747
  21
 1004.1075289610
  31
0.0
   0
LINE
   5
1F9
 100
AcDbEntity
   8
LEVEL004
 370
30
 100
AcDbLine
   6
CONTINUOUS
  62
7
  10
 1351.4906926747
  20
 1204.1075289610
  30
0.0
  11
 1351.4906926747
  21
 1004.1075289610
  31
0.0
   0
ARC
   5
1FA
 100
AcDbEntity
   8
LEVEL004
 370
30
   6
CONTINUOUS
  62
7
 100
AcDbCircle
  10
 734.49069267475
  20
 1004.1075289610
  30
0.0
  40
 17.000000000000
 100
AcDbArc
  50
 180.00000000000
  51
0.0
   0
LINE
   5
1FB
 100
AcDbEntity
   8
LEVEL004
 370
30
 100
AcDbLine
   6
CONTINUOUS
  62
7
  10
 751.49069267475
  20
 962.60752896099
  30
0.0
  11
 751.49069267475
  21
 373.10752896093
  31
0.0
   0
LINE
   5
1FC
 100
AcDbEntity
   8
LEVEL004
 370
30
 100
AcDbLine
   6
CONTINUOUS
  62
7
  10
 717.49069267475
  20
 962.60752896099
  30
0.0
  11
 717.49069267477
  21
 373.10752896093
  31
0.0
   0
LINE
   5
1FD
 100
AcDbEntity
   8
LEVEL004
 370
30
 100
AcDbLine
   6
CONTINUOUS
  62
7
  10
 1317.4906926747
  20
 962.60752896099
  30
0.0
  11
 1317.4906926747
  21
 373.10752896093
  31
0.0
   0
LINE
   5
1FE
 100
AcDbEntity
   8
LEVEL004
 370
30
 100
AcDbLine
   6
CONTINUOUS
  62
7
  10
 1351.4906926747
  20
 962.60752896099
  30
0.0
  11
 1351.4906926747
  21
 373.10752896093
  31
0.0
   0
LINE
   5
1FF
 100
AcDbEntity
   8
LEVEL004
 370
30
 100
AcDbLine
   6
CONTINUOUS
  62
7
  10
 751.49069267475
  20
 1860.3283173380
  30
0.0
  11
 751.49069267475
  21
 1577.1211049477
  31
0.0
   0
ARC
   5
200
 100
AcDbEntity
   8
LEVEL004
 370
30
   6
CONTINUOUS
  62
7
 100
AcDbCircle
  10
 1334.4906926747
  20
 1004.1075289610
  30
0.0
  40
 17.000000000000
 100
AcDbArc
  50
 180.00000000000
  51
0.0
   0
ARC
   5
201
 100
AcDbEntity
   8
LEVEL006
 370
30
   6
CONTINUOUS
  62
7
 100
AcDbCircle
  10
 1316.6779875301
  20
 1876.9424987525
  30
0.0
  40
 11.312725426261
 100
AcDbArc
  50
 322.50000000001
  51
 37.499999999986
   0
LINE
   5
202
 100
AcDbEntity
   8
LEVEL006
 370
30
 100
AcDbLine
   6
CONTINUOUS
  62
7
  10
 1312.6909558898
  20
 1858.6211049477
  30
0.0
  11
 1312.6909558898
  21
 1895.6211049477
  31
0.0
   0
LINE
   5
203
 100
AcDbEntity
   8
LEVEL006
 370
30
 100
AcDbLine
   6
CONTINUOUS
  62
7
  10
 1292.6909558898
  20
 1858.6211049477
  30
0.0
  11
 1292.6909558898
  21
 1895.6211049477
  31
0.0
   0
LINE
   5
204
 100
AcDbEntity
   8
LEVEL006
 370
30
 100
AcDbLine
   6
CONTINUOUS
  62
7
  10
 1317.1909558898
  20
 1893.9138925574
  30
0.0
  11
 1325.6529760347
  21
 1883.8292496490
  31
0.0
   0
LINE
   5
205
 100
AcDbEntity
   8
LEVEL006
 370
30
 100
AcDbLine
   6
CONTINUOUS
  62
7
  10
 1293.6909558898
  20
 1857.6211049477
  30
0.0
  11
 1311.6909558898
  21
 1857.6211049477
  31
0.0
   0
LINE
   5
206
 100
AcDbEntity
   8
LEVEL006
 370
30
 100
AcDbLine
   6
CONTINUOUS
  62
7
  10
 1317.4906926747
  20
 1860.3283173380
  30
0.0
  11
 1325.6529760347
  21
 1870.0557478560
  31
0.0
   0
ARC
   5
207
 100
AcDbEntity
   8
LEVEL006
 370
30
   6
CONTINUOUS
  62
7
 100
AcDbCircle
  10
 1316.7246482317
  20
 1860.9711049477
  30
0.0
  40
 1.0000000000000
 100
AcDbArc
  50
 269.99999999896
  51
 319.99999999745
   0
ARC
   5
208
 100
AcDbEntity
   8
LEVEL006
 370
30
   6
CONTINUOUS
  62
7
 100
AcDbCircle
  10
 1311.6909558898
  20
 1858.6211049478
  30
0.0
  40
 1.0000000000000
 100
AcDbArc
  50
 270.00000000000
  51
0.0
   0
ARC
   5
209
 100
AcDbEntity
   8
LEVEL006
 370
30
   6
CONTINUOUS
  62
7
 100
AcDbCircle
  10
 1313.9909558898
  20
 1858.6711049475
  30
0.0
  40
 1.3000000000000
 100
AcDbArc
  50
 90.000000000160
  51
 179.99999999400
   0
LINE
   5
20A
 100
AcDbEntity
   8
LEVEL006
 370
30
 100
AcDbLine
   6
CONTINUOUS
  62
7
  10
 1312.6909558898
  20
 1858.6211049477
  30
0.0
  11
 1312.6909558898
  21
 1858.6711049477
  31
0.0
   0
LINE
   5
20B
 100
AcDbEntity
   8
LEVEL006
 370
30
 100
AcDbLine
   6
CONTINUOUS
  62
7
  10
 1313.9909558897
  20
 1859.9711049477
  30
0.0
  11
 1316.7246482317
  21
 1859.9711049477
  31
0.0
   0
ARC
   5
20C
 100
AcDbEntity
   8
LEVEL006
 370
30
   6
CONTINUOUS
  62
7
 100
AcDbCircle
  10
 1293.6909558898
  20
 1858.6211049477
  30
0.0
  40
 1.0000000000000
 100
AcDbArc
  50
 179.99999999990
  51
 270.00000000292
   0
LINE
   5
20D
 100
AcDbEntity
   8
LEVEL006
 370
30
 100
AcDbLine
   6
CONTINUOUS
  62
7
  10
 1293.6909558898
  20
 1896.6211049477
  30
0.0
  11
 1311.6909558898
  21
 1896.6211049477
  31
0.0
   0
ARC
   5
20E
 100
AcDbEntity
   8
LEVEL006
 370
30
   6
CONTINUOUS
  62
7
 100
AcDbCircle
  10
 1316.4249114466
  20
 1893.2711049477
  30
0.0
  40
 1.0000000000000
 100
AcDbArc
  50
 39.999999994625
  51
 89.999999991871
   0
ARC
   5
20F
 100
AcDbEntity
   8
LEVEL006
 370
30
   6
CONTINUOUS
  62
7
 100
AcDbCircle
  10
 1311.6909558898
  20
 1895.6211049477
  30
0.0
  40
 1.0000000000000
 100
AcDbArc
  50
0.0
  51
 90.000000000834
   0
ARC
   5
210
 100
AcDbEntity
   8
LEVEL006
 370
30
   6
CONTINUOUS
  62
7
 100
AcDbCircle
  10
 1313.9909558898
  20
 1895.5711049477
  30
0.0
  40
 1.3000000000000
 100
AcDbArc
  50
 180.00000000015
  51
 269.99999999888
   0
LINE
   5
211
 100
AcDbEntity
   8
LEVEL006
 370
30
 100
AcDbLine
   6
CONTINUOUS
  62
7
  10
 1312.6909558898
  20
 1895.6211049477
  30
0.0
  11
 1312.6909558898
  21
 1895.5711049477
  31
0.0
   0
LINE
   5
212
 100
AcDbEntity
   8
LEVEL006
 370
30
 100
AcDbLine
   6
CONTINUOUS
  62
7
  10
 1313.9909558897
  20
 1894.2711049477
  30
0.0
  11
 1316.4249114467
  21
 1894.2711049477
  31
0.0
   0
ARC
   5
213
 100
AcDbEntity
   8
LEVEL006
 370
30
   6
CONTINUOUS
  62
7
 100
AcDbCircle
  10
 1293.6909558898
  20
 1895.6211049477
  30
0.0
  40
 1.0000000000000
 100
AcDbArc
  50
 90.000000000000
  51
 179.99999999964
   0
ARC
   5
214
 100
AcDbEntity
   8
LEVEL006
 370
30
   6
CONTINUOUS
  62
7
 100
AcDbCircle
  10
 752.30339781945
  20
 1876.9424987525
  30
0.0
  40
 11.312725426261
 100
AcDbArc
  50
 142.50000000002
  51
 217.50000000004
   0
LINE
   5
215
 100
AcDbEntity
   8
LEVEL006
 370
30
 100
AcDbLine
   6
CONTINUOUS
  62
7
  10
 756.29042945975
  20
 1858.6211049477
  30
0.0
  11
 756.29042945975
  21
 1895.6211049477
  31
0.0
   0
LINE
   5
216
 100
AcDbEntity
   8
LEVEL006
 370
30
 100
AcDbLine
   6
CONTINUOUS
  62
7
  10
 776.29042945975
  20
 1858.6211049477
  30
0.0
  11
 776.29042945975
  21
 1895.6211049477
  31
0.0
   0
LINE
   5
217
 100
AcDbEntity
   8
LEVEL006
 370
30
 100
AcDbLine
   6
CONTINUOUS
  62
7
  10
 751.79042945975
  20
 1893.9138925574
  30
0.0
  11
 743.32840931475
  21
 1883.8292496490
  31
0.0
   0
LINE
   5
218
 100
AcDbEntity
   8
LEVEL006
 370
30
 100
AcDbLine
   6
CONTINUOUS
  62
7
  10
 775.29042945975
  20
 1857.6211049477
  30
0.0
  11
 757.29042945975
  21
 1857.6211049477
  31
0.0
   0
LINE
   5
219
 100
AcDbEntity
   8
LEVEL006
 370
30
 100
AcDbLine
   6
CONTINUOUS
  62
7
  10
 751.49069267475
  20
 1860.3283173380
  30
0.0
  11
 743.32840931475
  21
 1870.0557478560
  31
0.0
   0
ARC
   5
21A
 100
AcDbEntity
   8
LEVEL006
 370
30
   6
CONTINUOUS
  62
7
 100
AcDbCircle
  10
 752.25673711795
  20
 1860.9711049477
  30
0.0
  40
 1.0000000000000
 100
AcDbArc
  50
 219.99999999729
  51
 269.99999999646
   0
ARC
   5
21B
 100
AcDbEntity
   8
LEVEL006
 370
30
   6
CONTINUOUS
  62
7
 100
AcDbCircle
  10
 757.29042945986
  20
 1858.6211049477
  30
0.0
  40
 1.0000000000000
 100
AcDbArc
  50
 179.99999999990
  51
 269.99999999125
   0
ARC
   5
21C
 100
AcDbEntity
   8
LEVEL006
 370
30
   6
CONTINUOUS
  62
7
 100
AcDbCircle
  10
 754.99042945975
  20
 1858.6711049477
  30
0.0
  40
 1.3000000000000
 100
AcDbArc
  50
 0.30063581481420E-10
  51
 90.000000001443
   0
LINE
   5
21D
 100
AcDbEntity
   8
LEVEL006
 370
30
 100
AcDbLine
   6
CONTINUOUS
  62
7
  10
 756.29042945975
  20
 1858.6211049477
  30
0.0
  11
 756.29042945975
  21
 1858.6711049477
  31
0.0
   0
LINE
   5
21E
 100
AcDbEntity
   8
LEVEL006
 370
30
 100
AcDbLine
   6
CONTINUOUS
  62
7
  10
 754.99042945975
  20
 1859.9711049477
  30
0.0
  11
 752.25673711785
  21
 1859.9711049477
  31
0.0
   0
ARC
   5
21F
 100
AcDbEntity
   8
LEVEL006
 370
30
   6
CONTINUOUS
  62
7
 100
AcDbCircle
  10
 775.29042945975
  20
 1858.6211049476
  30
0.0
  40
 1.0000000000000
 100
AcDbArc
  50
 270.00000000000
  51
 0.43251472557912E-8
   0
LINE
   5
220
 100
AcDbEntity
   8
LEVEL006
 370
30
 100
AcDbLine
   6
CONTINUOUS
  62
7
  10
 775.29042945975
  20
 1896.6211049477
  30
0.0
  11
 757.29042945975
  21
 1896.6211049477
  31
0.0
   0
ARC
   5
221
 100
AcDbEntity
   8
LEVEL006
 370
30
   6
CONTINUOUS
  62
7
 100
AcDbCircle
  10
 752.55647390295
  20
 1893.2711049478
  30
0.0
  40
 1.0000000000000
 100
AcDbArc
  50
 90.000000006879
  51
 140.00000000985
   0
ARC
   5
222
 100
AcDbEntity
   8
LEVEL006
 370
30
   6
CONTINUOUS
  62
7
 100
AcDbCircle
  10
 757.29042945975
  20
 1895.6211049479
  30
0.0
  40
 1.0000000000000
 100
AcDbArc
  50
 89.999999999166
  51
 180.00000001219
   0
ARC
   5
223
 100
AcDbEntity
   8
LEVEL006
 370
30
   6
CONTINUOUS
  62
7
 100
AcDbCircle
  10
 754.99042945975
  20
 1895.5711049476
  30
0.0
  40
 1.3000000000000
 100
AcDbArc
  50
 270.00000000048
  51
 0.55016354110998E-8
   0
LINE
   5
224
 100
AcDbEntity
   8
LEVEL006
 370
30
 100
AcDbLine
   6
CONTINUOUS
  62
7
  10
 756.29042945975
  20
 1895.6211049477
  30
0.0
  11
 756.29042945975
  21
 1895.5711049477
  31
0.0
   0
LINE
   5
225
 100
AcDbEntity
   8
LEVEL006
 370
30
 100
AcDbLine
   6
CONTINUOUS
  62
7
  10
 754.99042945975
  20
 1894.2711049477
  30
0.0
  11
 752.55647390285
  21
 1894.2711049477
  31
0.0
   0
ARC
   5
226
 100
AcDbEntity
   8
LEVEL006
 370
30
   6
CONTINUOUS
  62
7
 100
AcDbCircle
  10
 775.29042945955
  20
 1895.6211049477
  30
0.0
  40
 1.0000000000000
 100
AcDbArc
  50
0.0
  51
 89.999999992913
   0
LINE
   5
227
 100
AcDbEntity
   8
LEVEL007
 370
30
 100
AcDbLine
   6
CONTINUOUS
  62
7
  10
 1312.9906926747
  20
 1222.6075289610
  30
0.0
  11
 1312.9906926747
  21
 1185.6075289610
  31
0.0
   0
LINE
   5
228
 100
AcDbEntity
   8
LEVEL007
 370
30
 100
AcDbLine
   6
CONTINUOUS
  62
7
  10
 1292.9906926747
  20
 1222.6075289610
  30
0.0
  11
 1292.9906926747
  21
 1185.6075289610
  31
0.0
   0
ARC
   5
229
 100
AcDbEntity
   8
LEVEL007
 370
30
   6
CONTINUOUS
  62
7
 100
AcDbCircle
  10
 1334.4906926747
  20
 1204.1075289609
  30
0.0
  40
 17.000000000000
 100
AcDbArc
  50
 107.10463517659
  51
 179.99999999998
   0
LINE
   5
22A
 100
AcDbEntity
   8
LEVEL007
 370
30
 100
AcDbLine
   6
CONTINUOUS
  62
7
  10
 1293.9906926747
  20
 1184.6075289610
  30
0.0
  11
 1311.9906926747
  21
 1184.6075289610
  31
0.0
   0
LINE
   5
22B
 100
AcDbEntity
   8
LEVEL007
 370
30
 100
AcDbLine
   6
CONTINUOUS
  62
7
  10
 1314.2906926748
  20
 1186.9575289610
  30
0.0
  11
 1317.4906926747
  21
 1186.9575289610
  31
0.0
   0
ARC
   5
22C
 100
AcDbEntity
   8
LEVEL007
 370
30
   6
CONTINUOUS
  62
7
 100
AcDbCircle
  10
 1311.9906926747
  20
 1185.6075289609
  30
0.0
  40
 1.0000000000000
 100
AcDbArc
  50
 270.00000000083
  51
 0.30223920582637E-8
   0
LINE
   5
22D
 100
AcDbEntity
   8
LEVEL007
 370
30
 100
AcDbLine
   6
CONTINUOUS
  62
7
  10
 1312.9906926747
  20
 1185.6075289610
  30
0.0
  11
 1312.9906926747
  21
 1185.6575289610
  31
0.0
   0
ARC
   5
22E
 100
AcDbEntity
   8
LEVEL007
 370
30
   6
CONTINUOUS
  62
7
 100
AcDbCircle
  10
 1314.2906926747
  20
 1185.6575289609
  30
0.0
  40
 1.3000000000000
 100
AcDbArc
  50
 89.999999999840
  51
 179.99999999957
   0
ARC
   5
22F
 100
AcDbEntity
   8
LEVEL007
 370
30
   6
CONTINUOUS
  62
7
 100
AcDbCircle
  10
 1293.9906926750
  20
 1185.6075289610
  30
0.0
  40
 1.0000000000000
 100
AcDbArc
  50
 180.00000000000
  51
 269.99999998916
   0
LINE
   5
230
 100
AcDbEntity
   8
LEVEL007
 370
30
 100
AcDbLine
   6
CONTINUOUS
  62
7
  10
 1293.9906926747
  20
 1223.6075289610
  30
0.0
  11
 1311.9906926747
  21
 1223.6075289610
  31
0.0
   0
LINE
   5
231
 100
AcDbEntity
   8
LEVEL007
 370
30
 100
AcDbLine
   6
CONTINUOUS
  62
7
  10
 1314.2906926748
  20
 1221.2575289610
  30
0.0
  11
 1328.9906926747
  21
 1221.2575289610
  31
0.0
   0
LINE
   5
232
 100
AcDbEntity
   8
LEVEL007
 370
30
 100
AcDbLine
   6
CONTINUOUS
  62
7
  10
 1329.4906926747
  20
 1220.7575289610
  30
0.0
  11
 1329.4906926747
  21
 1220.3556057702
  31
0.0
   0
ARC
   5
233
 100
AcDbEntity
   8
LEVEL007
 370
30
   6
CONTINUOUS
  62
7
 100
AcDbCircle
  10
 1328.9906926749
  20
 1220.7575289610
  30
0.0
  40
 0.50000000000000
 100
AcDbArc
  50
0.0
  51
 90.000000010005
   0
ARC
   5
234
 100
AcDbEntity
   8
LEVEL007
 370
30
   6
CONTINUOUS
  62
7
 100
AcDbCircle
  10
 1311.9906926747
  20
 1222.6075289610
  30
0.0
  40
 1.0000000000000
 100
AcDbArc
  50
0.0
  51
 89.999999997499
   0
LINE
   5
235
 100
AcDbEntity
   8
LEVEL007
 370
30
 100
AcDbLine
   6
CONTINUOUS
  62
7
  10
 1312.9906926747
  20
 1222.6075289610
  30
0.0
  11
 1312.9906926747
  21
 1222.5575289610
  31
0.0
   0
ARC
   5
236
 100
AcDbEntity
   8
LEVEL007
 370
30
   6
CONTINUOUS
  62
7
 100
AcDbCircle
  10
 1314.2906926747
  20
 1222.5575289610
  30
0.0
  40
 1.3000000000000
 100
AcDbArc
  50
 179.99999999995
  51
 270.00000000144
   0
ARC
   5
237
 100
AcDbEntity
   8
LEVEL007
 370
30
   6
CONTINUOUS
  62
7
 100
AcDbCircle
  10
 1293.9906926747
  20
 1222.6075289611
  30
0.0
  40
 1.0000000000000
 100
AcDbArc
  50
 90.000000000000
  51
 180.00000000891
   0
LINE
   5
238
 100
AcDbEntity
   8
LEVEL007
 370
30
 100
AcDbLine
   6
CONTINUOUS
  62
7
  10
 755.99069267475
  20
 1222.6075289610
  30
0.0
  11
 755.99069267475
  21
 1185.6075289610
  31
0.0
   0
LINE
   5
239
 100
AcDbEntity
   8
LEVEL007
 370
30
 100
AcDbLine
   6
CONTINUOUS
  62
7
  10
 775.99069267475
  20
 1222.6075289610
  30
0.0
  11
 775.99069267475
  21
 1185.6075289610
  31
0.0
   0
LINE
   5
23A
 100
AcDbEntity
   8
LEVEL007
 370
30
 100
AcDbLine
   6
CONTINUOUS
  62
7
  10
 774.99069267475
  20
 1184.6075289610
  30
0.0
  11
 756.99069267475
  21
 1184.6075289610
  31
0.0
   0
LINE
   5
23B
 100
AcDbEntity
   8
LEVEL007
 370
30
 100
AcDbLine
   6
CONTINUOUS
  62
7
  10
 754.69069267475
  20
 1186.9575289610
  30
0.0
  11
 751.49069267475
  21
 1186.9575289610
  31
0.0
   0
ARC
   5
23C
 100
AcDbEntity
   8
LEVEL007
 370
30
   6
CONTINUOUS
  62
7
 100
AcDbCircle
  10
 756.99069267475
  20
 1185.6075289610
  30
0.0
  40
 1.0000000000000
 100
AcDbArc
  50
 180.00000000000
  51
 270.00000000250
   0
LINE
   5
23D
 100
AcDbEntity
   8
LEVEL007
 370
30
 100
AcDbLine
   6
CONTINUOUS
  62
7
  10
 755.99069267475
  20
 1185.6075289610
  30
0.0
  11
 755.99069267475
  21
 1185.6575289610
  31
0.0
   0
ARC
   5
23E
 100
AcDbEntity
   8
LEVEL007
 370
30
   6
CONTINUOUS
  62
7
 100
AcDbCircle
  10
 754.69069267475
  20
 1185.6575289610
  30
0.0
  40
 1.3000000000000
 100
AcDbArc
  50
 0.30063581481420E-10
  51
 90.000000002084
   0
ARC
   5
23F
 100
AcDbEntity
   8
LEVEL007
 370
30
   6
CONTINUOUS
  62
7
 100
AcDbCircle
  10
 774.99069267475
  20
 1185.6075289610
  30
0.0
  40
 1.0000000000000
 100
AcDbArc
  50
 270.00000000000
  51
0.0
   0
LINE
   5
240
 100
AcDbEntity
   8
LEVEL007
 370
30
 100
AcDbLine
   6
CONTINUOUS
  62
7
  10
 774.99069267475
  20
 1223.6075289610
  30
0.0
  11
 756.99069267475
  21
 1223.6075289610
  31
0.0
   0
LINE
   5
241
 100
AcDbEntity
   8
LEVEL007
 370
30
 100
AcDbLine
   6
CONTINUOUS
  62
7
  10
 754.69069267475
  20
 1221.2575289610
  30
0.0
  11
 739.99069267475
  21
 1221.2575289610
  31
0.0
   0
LINE
   5
242
 100
AcDbEntity
   8
LEVEL007
 370
30
 100
AcDbLine
   6
CONTINUOUS
  62
7
  10
 739.49069267475
  20
 1220.7575289610
  30
0.0
  11
 739.49069267475
  21
 1220.3556057702
  31
0.0
   0
ARC
   5
243
 100
AcDbEntity
   8
LEVEL007
 370
30
   6
CONTINUOUS
  62
7
 100
AcDbCircle
  10
 739.99069267475
  20
 1220.7575289612
  30
0.0
  40
 0.50000000000000
 100
AcDbArc
  50
 90.000000001668
  51
 180.00000002793
   0
ARC
   5
244
 100
AcDbEntity
   8
LEVEL007
 370
30
   6
CONTINUOUS
  62
7
 100
AcDbCircle
  10
 756.99069267475
  20
 1222.6075289609
  30
0.0
  40
 1.0000000000000
 100
AcDbArc
  50
 89.999999999166
  51
 179.99999999672
   0
LINE
   5
245
 100
AcDbEntity
   8
LEVEL007
 370
30
 100
AcDbLine
   6
CONTINUOUS
  62
7
  10
 755.99069267475
  20
 1222.6075289610
  30
0.0
  11
 755.99069267475
  21
 1222.5575289610
  31
0.0
   0
ARC
   5
246
 100
AcDbEntity
   8
LEVEL007
 370
30
   6
CONTINUOUS
  62
7
 100
AcDbCircle
  10
 754.69069267475
  20
 1222.5575289610
  30
0.0
  40
 1.3000000000000
 100
AcDbArc
  50
 269.99999999984
  51
 0.10021193827140E-10
   0
ARC
   5
247
 100
AcDbEntity
   8
LEVEL007
 370
30
   6
CONTINUOUS
  62
7
 100
AcDbCircle
  10
 774.99069267485
  20
 1222.6075289610
  30
0.0
  40
 1.0000000000000
 100
AcDbArc
  50
0.0
  51
 90.000000003752
   0
ARC
   5
248
 100
AcDbEntity
   8
LEVEL007
 370
30
   6
CONTINUOUS
  62
7
 100
AcDbCircle
  10
 734.49069267475
  20
 1204.1075289610
  30
0.0
  40
 17.000000000000
 100
AcDbArc
  50
0.0
  51
 72.895364823279
   0
LINE
   5
249
 100
AcDbEntity
   8
LEVEL007
 370
30
 100
AcDbLine
   6
CONTINUOUS
  62
7
  10
 1315.9906926747
  20
 982.60752896099
  30
0.0
  11
 1352.9906926747
  21
 982.60752896099
  31
0.0
   0
LINE
   5
24A
 100
AcDbEntity
   8
LEVEL007
 370
30
 100
AcDbLine
   6
CONTINUOUS
  62
7
  10
 1315.9906926747
  20
 962.60752896099
  30
0.0
  11
 1352.9906926747
  21
 962.60752896099
  31
0.0
   0
ARC
   5
24B
 100
AcDbEntity
   8
LEVEL007
 370
30
   6
CONTINUOUS
  62
7
 100
AcDbCircle
  10
 1334.4906926747
  20
 1004.1075289610
  30
0.0
  40
 17.000000000000
 100
AcDbArc
  50
 197.10463517672
  51
 342.89536482327
   0
LINE
   5
24C
 100
AcDbEntity
   8
LEVEL007
 370
30
 100
AcDbLine
   6
CONTINUOUS
  62
7
  10
 1353.9906926747
  20
 963.60752896099
  30
0.0
  11
 1353.9906926747
  21
 981.60752896089
  31
0.0
   0
LINE
   5
24D
 100
AcDbEntity
   8
LEVEL007
 370
30
 100
AcDbLine
   6
CONTINUOUS
  62
7
  10
 1351.6406926748
  20
 983.90752896098
  30
0.0
  11
 1351.6406926748
  21
 998.60752896089
  31
0.0
   0
ARC
   5
24E
 100
AcDbEntity
   8
LEVEL007
 370
30
   6
CONTINUOUS
  62
7
 100
AcDbCircle
  10
 1351.1406926748
  20
 998.60752896099
  30
0.0
  40
 0.50000000000000
 100
AcDbArc
  50
0.0
  51
 89.999999995831
   0
LINE
   5
24F
 100
AcDbEntity
   8
LEVEL007
 370
30
 100
AcDbLine
   6
CONTINUOUS
  62
7
  10
 1350.7387694841
  20
 999.10752896099
  30
0.0
  11
 1351.1406926748
  21
 999.10752896099
  31
0.0
   0
ARC
   5
250
 100
AcDbEntity
   8
LEVEL007
 370
30
   6
CONTINUOUS
  62
7
 100
AcDbCircle
  10
 1352.9906926747
  20
 981.60752896099
  30
0.0
  40
 1.0000000000000
 100
AcDbArc
  50
0.0
  51
 89.999999996665
   0
LINE
   5
251
 100
AcDbEntity
   8
LEVEL007
 370
30
 100
AcDbLine
   6
CONTINUOUS
  62
7
  10
 1352.9906926747
  20
 982.60752896099
  30
0.0
  11
 1352.9406926747
  21
 982.60752896099
  31
0.0
   0
ARC
   5
252
 100
AcDbEntity
   8
LEVEL007
 370
30
   6
CONTINUOUS
  62
7
 100
AcDbCircle
  10
 1352.9406926748
  20
 983.90752896099
  30
0.0
  40
 1.3000000000000
 100
AcDbArc
  50
 180.00000000003
  51
 269.99999999952
   0
ARC
   5
253
 100
AcDbEntity
   8
LEVEL007
 370
30
   6
CONTINUOUS
  62
7
 100
AcDbCircle
  10
 1352.9906926747
  20
 963.60752896089
  30
0.0
  40
 1.0000000000000
 100
AcDbArc
  50
 270.00000000000
  51
 0.44293676715934E-8
   0
LINE
   5
254
 100
AcDbEntity
   8
LEVEL007
 370
30
 100
AcDbLine
   6
CONTINUOUS
  62
7
  10
 1314.9906926747
  20
 963.60752896099
  30
0.0
  11
 1314.9906926747
  21
 981.60752896089
  31
0.0
   0
LINE
   5
255
 100
AcDbEntity
   8
LEVEL007
 370
30
 100
AcDbLine
   6
CONTINUOUS
  62
7
  10
 1317.3406926748
  20
 983.90752896098
  30
0.0
  11
 1317.3406926748
  21
 998.60752896089
  31
0.0
   0
LINE
   5
256
 100
AcDbEntity
   8
LEVEL007
 370
30
 100
AcDbLine
   6
CONTINUOUS
  62
7
  10
 1317.8406926748
  20
 999.10752896099
  30
0.0
  11
 1318.2426158655
  21
 999.10752896099
  31
0.0
   0
ARC
   5
257
 100
AcDbEntity
   8
LEVEL007
 370
30
   6
CONTINUOUS
  62
7
 100
AcDbCircle
  10
 1317.8406926748
  20
 998.60752896109
  30
0.0
  40
 0.50000000000000
 100
AcDbArc
  50
 90.000000000000
  51
 180.00000001761
   0
ARC
   5
258
 100
AcDbEntity
   8
LEVEL007
 370
30
   6
CONTINUOUS
  62
7
 100
AcDbCircle
  10
 1315.9906926747
  20
 981.60752896109
  30
0.0
  40
 1.0000000000000
 100
AcDbArc
  50
 90.000000000000
  51
 180.00000000886
   0
LINE
   5
259
 100
AcDbEntity
   8
LEVEL007
 370
30
 100
AcDbLine
   6
CONTINUOUS
  62
7
  10
 1315.9906926747
  20
 982.60752896099
  30
0.0
  11
 1316.0406926748
  21
 982.60752896099
  31
0.0
   0
ARC
   5
25A
 100
AcDbEntity
   8
LEVEL007
 370
30
   6
CONTINUOUS
  62
7
 100
AcDbCircle
  10
 1316.0406926748
  20
 983.90752896079
  30
0.0
  40
 1.3000000000000
 100
AcDbArc
  50
 269.99999999984
  51
 0.57421440629512E-8
   0
ARC
   5
25B
 100
AcDbEntity
   8
LEVEL007
 370
30
   6
CONTINUOUS
  62
7
 100
AcDbCircle
  10
 1315.9906926750
  20
 963.60752896099
  30
0.0
  40
 1.0000000000000
 100
AcDbArc
  50
 180.00000000000
  51
 269.99999998916
   0
LINE
   5
25C
 100
AcDbEntity
   8
LEVEL007
 370
30
 100
AcDbLine
   6
CONTINUOUS
  62
7
  10
 715.99069267475
  20
 982.60752896099
  30
0.0
  11
 752.99069267475
  21
 982.60752896099
  31
0.0
   0
LINE
   5
25D
 100
AcDbEntity
   8
LEVEL007
 370
30
 100
AcDbLine
   6
CONTINUOUS
  62
7
  10
 715.99069267475
  20
 962.60752896099
  30
0.0
  11
 752.99069267475
  21
 962.60752896099
  31
0.0
   0
ARC
   5
25E
 100
AcDbEntity
   8
LEVEL007
 370
30
   6
CONTINUOUS
  62
7
 100
AcDbCircle
  10
 734.49069267475
  20
 1004.1075289610
  30
0.0
  40
 17.000000000000
 100
AcDbArc
  50
 197.10463517669
  51
 342.89536482331
   0
LINE
   5
25F
 100
AcDbEntity
   8
LEVEL007
 370
30
 100
AcDbLine
   6
CONTINUOUS
  62
7
  10
 753.99069267475
  20
 963.60752896099
  30
0.0
  11
 753.99069267475
  21
 981.60752896099
  31
0.0
   0
LINE
   5
260
 100
AcDbEntity
   8
LEVEL007
 370
30
 100
AcDbLine
   6
CONTINUOUS
  62
7
  10
 751.64069267475
  20
 983.90752896098
  30
0.0
  11
 751.64069267475
  21
 998.60752896099
  31
0.0
   0
ARC
   5
261
 100
AcDbEntity
   8
LEVEL007
 370
30
   6
CONTINUOUS
  62
7
 100
AcDbCircle
  10
 751.14069267475
  20
 998.60752896099
  30
0.0
  40
 0.50000000000000
 100
AcDbArc
  50
0.0
  51
 89.999999998332
   0
LINE
   5
262
 100
AcDbEntity
   8
LEVEL007
 370
30
 100
AcDbLine
   6
CONTINUOUS
  62
7
  10
 750.73876948405
  20
 999.10752896099
  30
0.0
  11
 751.14069267475
  21
 999.10752896099
  31
0.0
   0
ARC
   5
263
 100
AcDbEntity
   8
LEVEL007
 370
30
   6
CONTINUOUS
  62
7
 100
AcDbCircle
  10
 752.99069267485
  20
 981.60752896099
  30
0.0
  40
 1.0000000000000
 100
AcDbArc
  50
0.0
  51
 90.000000003752
   0
LINE
   5
264
 100
AcDbEntity
   8
LEVEL007
 370
30
 100
AcDbLine
   6
CONTINUOUS
  62
7
  10
 752.99069267475
  20
 982.60752896099
  30
0.0
  11
 752.94069267475
  21
 982.60752896099
  31
0.0
   0
ARC
   5
265
 100
AcDbEntity
   8
LEVEL007
 370
30
   6
CONTINUOUS
  62
7
 100
AcDbCircle
  10
 752.94069267475
  20
 983.90752896099
  30
0.0
  40
 1.3000000000000
 100
AcDbArc
  50
 179.99999999995
  51
 270.00000000112
   0
ARC
   5
266
 100
AcDbEntity
   8
LEVEL007
 370
30
   6
CONTINUOUS
  62
7
 100
AcDbCircle
  10
 752.99069267475
  20
 963.60752896109
  30
0.0
  40
 1.0000000000000
 100
AcDbArc
  50
 270.00000000000
  51
0.0
   0
LINE
   5
267
 100
AcDbEntity
   8
LEVEL007
 370
30
 100
AcDbLine
   6
CONTINUOUS
  62
7
  10
 714.99069267477
  20
 963.60752896099
  30
0.0
  11
 714.99069267477
  21
 981.60752896099
  31
0.0
   0
LINE
   5
268
 100
AcDbEntity
   8
LEVEL007
 370
30
 100
AcDbLine
   6
CONTINUOUS
  62
7
  10
 717.34069267476
  20
 983.90752896098
  30
0.0
  11
 717.34069267476
  21
 998.60752896099
  31
0.0
   0
LINE
   5
269
 100
AcDbEntity
   8
LEVEL007
 370
30
 100
AcDbLine
   6
CONTINUOUS
  62
7
  10
 717.84069267476
  20
 999.10752896099
  30
0.0
  11
 718.24261586549
  21
 999.10752896099
  31
0.0
   0
ARC
   5
26A
 100
AcDbEntity
   8
LEVEL007
 370
30
   6
CONTINUOUS
  62
7
 100
AcDbCircle
  10
 717.84069267476
  20
 998.60752896109
  30
0.0
  40
 0.50000000000000
 100
AcDbArc
  50
 90.000000000000
  51
 180.00000001449
   0
ARC
   5
26B
 100
AcDbEntity
   8
LEVEL007
 370
30
   6
CONTINUOUS
  62
7
 100
AcDbCircle
  10
 715.99069267475
  20
 981.60752896089
  30
0.0
  40
 1.0000000000000
 100
AcDbArc
  50
 90.000000000000
  51
 179.99999999557
   0
LINE
   5
26C
 100
AcDbEntity
   8
LEVEL007
 370
30
 100
AcDbLine
   6
CONTINUOUS
  62
7
  10
 715.99069267475
  20
 982.60752896099
  30
0.0
  11
 716.04069267477
  21
 982.60752896099
  31
0.0
   0
ARC
   5
26D
 100
AcDbEntity
   8
LEVEL007
 370
30
   6
CONTINUOUS
  62
7
 100
AcDbCircle
  10
 716.04069267476
  20
 983.90752896089
  30
0.0
  40
 1.3000000000000
 100
AcDbArc
  50
 269.99999999984
  51
 0.53112327283841E-9
   0
ARC
   5
26E
 100
AcDbEntity
   8
LEVEL007
 370
30
   6
CONTINUOUS
  62
7
 100
AcDbCircle
  10
 715.99069267463
  20
 963.60752896099
  30
0.0
  40
 1.0000000000000
 100
AcDbArc
  50
 179.99999999990
  51
 270.00000000750
   0
LINE
   5
26F
 100
AcDbEntity
   8
LEVEL004
 370
30
 100
AcDbLine
   6
CONTINUOUS
  62
7
  10
 770.99069267475
  20
 361.10752896093
  30
0.0
  11
 697.99069267475
  21
 361.10752896094
  31
0.0
   0
LINE
   5
270
 100
AcDbEntity
   8
LEVEL004
 370
30
 100
AcDbLine
   6
CONTINUOUS
  62
7
  10
 770.99069267475
  20
 354.10752896093
  30
0.0
  11
 697.99069267475
  21
 354.10752896094
  31
0.0
   0
LINE
   5
271
 100
AcDbEntity
   8
LEVEL004
 370
30
 100
AcDbLine
   6
CONTINUOUS
  62
7
  10
 697.99069267475
  20
 361.10752896094
  30
0.0
  11
 710.74069267477
  21
 371.60752896093
  31
0.0
   0
LINE
   5
272
 100
AcDbEntity
   8
LEVEL004
 370
30
 100
AcDbLine
   6
CONTINUOUS
  62
7
  10
 697.99069267475
  20
 354.10752896093
  30
0.0
  11
 697.99069267475
  21
 361.10752896094
  31
0.0
   0
LINE
   5
273
 100
AcDbEntity
   8
LEVEL004
 370
30
 100
AcDbLine
   6
CONTINUOUS
  62
7
  10
 770.99069267475
  20
 361.10752896093
  30
0.0
  11
 758.24069267475
  21
 371.60752896093
  31
0.0
   0
LINE
   5
274
 100
AcDbEntity
   8
LEVEL004
 370
30
 100
AcDbLine
   6
CONTINUOUS
  62
7
  10
 758.24069267475
  20
 371.60752896093
  30
0.0
  11
 753.24069267475
  21
 371.60752896093
  31
0.0
   0
LINE
   5
275
 100
AcDbEntity
   8
LEVEL004
 370
30
 100
AcDbLine
   6
HIDDEN
  62
7
  10
 757.49069267475
  20
 373.10752896093
  30
0.0
  11
 757.49069267475
  21
 371.60752896093
  31
0.0
   0
LINE
   5
276
 100
AcDbEntity
   8
LEVEL004
 370
30
 100
AcDbLine
   6
CONTINUOUS
  62
7
  10
 757.49069267475
  20
 373.10752896093
  30
0.0
  11
 757.49069267475
  21
 371.60752896093
  31
0.0
   0
LINE
   5
277
 100
AcDbEntity
   8
LEVEL004
 370
30
 100
AcDbLine
   6
HIDDEN
  62
7
  10
 711.49069267475
  20
 373.10752896093
  30
0.0
  11
 711.49069267475
  21
 371.60752896093
  31
0.0
   0
LINE
   5
278
 100
AcDbEntity
   8
LEVEL004
 370
30
 100
AcDbLine
   6
CONTINUOUS
  62
7
  10
 711.49069267475
  20
 373.10752896093
  30
0.0
  11
 711.49069267475
  21
 371.60752896093
  31
0.0
   0
LINE
   5
279
 100
AcDbEntity
   8
LEVEL004
 370
30
 100
AcDbLine
   6
HIDDEN
  62
7
  10
 711.49069267475
  20
 373.10752896094
  30
0.0
  11
 711.49069267475
  21
 371.60752896093
  31
0.0
   0
LINE
   5
27A
 100
AcDbEntity
   8
LEVEL004
 370
30
 100
AcDbLine
   6
CONTINUOUS
  62
7
  10
 711.49069267475
  20
 373.10752896094
  30
0.0
  11
 711.49069267475
  21
 371.60752896093
  31
0.0
   0
LINE
   5
27B
 100
AcDbEntity
   8
LEVEL004
 370
30
 100
AcDbLine
   6
CONTINUOUS
  62
7
  10
 757.49069267475
  20
 371.60752896093
  30
0.0
  11
 711.49069267475
  21
 371.60752896093
  31
0.0
   0
LINE
   5
27C
 100
AcDbEntity
   8
LEVEL004
 370
30
 100
AcDbLine
   6
CONTINUOUS
  62
7
  10
 757.49069267475
  20
 373.10752896093
  30
0.0
  11
 711.49069267475
  21
 373.10752896094
  31
0.0
   0
LINE
   5
27D
 100
AcDbEntity
   8
LEVEL004
 370
30
 100
AcDbLine
   6
CONTINUOUS
  62
7
  10
 710.74069267477
  20
 371.60752896093
  30
0.0
  11
 715.74069267477
  21
 371.60752896093
  31
0.0
   0
LINE
   5
27E
 100
AcDbEntity
   8
LEVEL004
 370
30
 100
AcDbLine
   6
CONTINUOUS
  62
7
  10
 770.99069267475
  20
 354.10752896093
  30
0.0
  11
 770.99069267475
  21
 361.10752896093
  31
0.0
   0
LINE
   5
27F
 100
AcDbEntity
   8
LEVEL004
 370
30
 100
AcDbLine
   6
CONTINUOUS
  62
7
  10
 697.99069267475
  20
 2370.1211049477
  30
0.0
  11
 770.99069267475
  21
 2370.1211049477
  31
0.0
   0
LINE
   5
280
 100
AcDbEntity
   8
LEVEL004
 370
30
 100
AcDbLine
   6
CONTINUOUS
  62
7
  10
 697.99069267475
  20
 2377.1211049477
  30
0.0
  11
 770.99069267475
  21
 2377.1211049477
  31
0.0
   0
LINE
   5
281
 100
AcDbEntity
   8
LEVEL004
 370
30
 100
AcDbLine
   6
CONTINUOUS
  62
7
  10
 770.99069267475
  20
 2370.1211049477
  30
0.0
  11
 758.24069267475
  21
 2359.6211049477
  31
0.0
   0
LINE
   5
282
 100
AcDbEntity
   8
LEVEL004
 370
30
 100
AcDbLine
   6
CONTINUOUS
  62
7
  10
 770.99069267475
  20
 2377.1211049477
  30
0.0
  11
 770.99069267475
  21
 2370.1211049477
  31
0.0
   0
LINE
   5
283
 100
AcDbEntity
   8
LEVEL004
 370
30
 100
AcDbLine
   6
CONTINUOUS
  62
7
  10
 697.99069267475
  20
 2370.1211049477
  30
0.0
  11
 710.74069267477
  21
 2359.6211049477
  31
0.0
   0
LINE
   5
284
 100
AcDbEntity
   8
LEVEL004
 370
30
 100
AcDbLine
   6
CONTINUOUS
  62
7
  10
 710.74069267477
  20
 2359.6211049477
  30
0.0
  11
 715.74069267477
  21
 2359.6211049477
  31
0.0
   0
LINE
   5
285
 100
AcDbEntity
   8
LEVEL004
 370
30
 100
AcDbLine
   6
HIDDEN
  62
7
  10
 711.49069267475
  20
 2358.1211049477
  30
0.0
  11
 711.49069267475
  21
 2359.6211049477
  31
0.0
   0
LINE
   5
286
 100
AcDbEntity
   8
LEVEL004
 370
30
 100
AcDbLine
   6
CONTINUOUS
  62
7
  10
 711.49069267475
  20
 2358.1211049477
  30
0.0
  11
 711.49069267475
  21
 2359.6211049477
  31
0.0
   0
LINE
   5
287
 100
AcDbEntity
   8
LEVEL004
 370
30
 100
AcDbLine
   6
HIDDEN
  62
7
  10
 757.49069267475
  20
 2358.1211049477
  30
0.0
  11
 757.49069267475
  21
 2359.6211049477
  31
0.0
   0
LINE
   5
288
 100
AcDbEntity
   8
LEVEL004
 370
30
 100
AcDbLine
   6
CONTINUOUS
  62
7
  10
 757.49069267475
  20
 2358.1211049477
  30
0.0
  11
 757.49069267475
  21
 2359.6211049477
  31
0.0
   0
LINE
   5
289
 100
AcDbEntity
   8
LEVEL004
 370
30
 100
AcDbLine
   6
HIDDEN
  62
7
  10
 757.49069267475
  20
 2358.1211049477
  30
0.0
  11
 757.49069267475
  21
 2359.6211049477
  31
0.0
   0
LINE
   5
28A
 100
AcDbEntity
   8
LEVEL004
 370
30
 100
AcDbLine
   6
CONTINUOUS
  62
7
  10
 757.49069267475
  20
 2358.1211049477
  30
0.0
  11
 757.49069267475
  21
 2359.6211049477
  31
0.0
   0
LINE
   5
28B
 100
AcDbEntity
   8
LEVEL004
 370
30
 100
AcDbLine
   6
CONTINUOUS
  62
7
  10
 711.49069267475
  20
 2359.6211049477
  30
0.0
  11
 757.49069267475
  21
 2359.6211049477
  31
0.0
   0
LINE
   5
28C
 100
AcDbEntity
   8
LEVEL004
 370
30
 100
AcDbLine
   6
CONTINUOUS
  62
7
  10
 711.49069267475
  20
 2358.1211049477
  30
0.0
  11
 757.49069267475
  21
 2358.1211049477
  31
0.0
   0
LINE
   5
28D
 100
AcDbEntity
   8
LEVEL004
 370
30
 100
AcDbLine
   6
CONTINUOUS
  62
7
  10
 758.24069267475
  20
 2359.6211049477
  30
0.0
  11
 753.24069267475
  21
 2359.6211049477
  31
0.0
   0
LINE
   5
28E
 100
AcDbEntity
   8
LEVEL004
 370
30
 100
AcDbLine
   6
CONTINUOUS
  62
7
  10
 697.99069267475
  20
 2377.1211049477
  30
0.0
  11
 697.99069267475
  21
 2370.1211049477
  31
0.0
   0
LINE
   5
28F
 100
AcDbEntity
   8
LEVEL004
 370
30
 100
AcDbLine
   6
CONTINUOUS
  62
7
  10
 1297.9906926747
  20
 2370.1211049477
  30
0.0
  11
 1370.9906926747
  21
 2370.1211049477
  31
0.0
   0
LINE
   5
290
 100
AcDbEntity
   8
LEVEL004
 370
30
 100
AcDbLine
   6
CONTINUOUS
  62
7
  10
 1297.9906926747
  20
 2377.1211049477
  30
0.0
  11
 1370.9906926747
  21
 2377.1211049477
  31
0.0
   0
LINE
   5
291
 100
AcDbEntity
   8
LEVEL004
 370
30
 100
AcDbLine
   6
CONTINUOUS
  62
7
  10
 1370.9906926747
  20
 2370.1211049477
  30
0.0
  11
 1358.2406926747
  21
 2359.6211049477
  31
0.0
   0
LINE
   5
292
 100
AcDbEntity
   8
LEVEL004
 370
30
 100
AcDbLine
   6
CONTINUOUS
  62
7
  10
 1370.9906926747
  20
 2377.1211049477
  30
0.0
  11
 1370.9906926747
  21
 2370.1211049477
  31
0.0
   0
LINE
   5
293
 100
AcDbEntity
   8
LEVEL004
 370
30
 100
AcDbLine
   6
CONTINUOUS
  62
7
  10
 1297.9906926747
  20
 2370.1211049477
  30
0.0
  11
 1310.7406926747
  21
 2359.6211049477
  31
0.0
   0
LINE
   5
294
 100
AcDbEntity
   8
LEVEL004
 370
30
 100
AcDbLine
   6
CONTINUOUS
  62
7
  10
 1310.7406926747
  20
 2359.6211049477
  30
0.0
  11
 1315.7406926747
  21
 2359.6211049477
  31
0.0
   0
LINE
   5
295
 100
AcDbEntity
   8
LEVEL004
 370
30
 100
AcDbLine
   6
HIDDEN
  62
7
  10
 1311.4906926747
  20
 2358.1211049477
  30
0.0
  11
 1311.4906926747
  21
 2359.6211049477
  31
0.0
   0
LINE
   5
296
 100
AcDbEntity
   8
LEVEL004
 370
30
 100
AcDbLine
   6
CONTINUOUS
  62
7
  10
 1311.4906926747
  20
 2358.1211049477
  30
0.0
  11
 1311.4906926747
  21
 2359.6211049477
  31
0.0
   0
LINE
   5
297
 100
AcDbEntity
   8
LEVEL004
 370
30
 100
AcDbLine
   6
HIDDEN
  62
7
  10
 1357.4906926747
  20
 2358.1211049477
  30
0.0
  11
 1357.4906926747
  21
 2359.6211049477
  31
0.0
   0
LINE
   5
298
 100
AcDbEntity
   8
LEVEL004
 370
30
 100
AcDbLine
   6
CONTINUOUS
  62
7
  10
 1357.4906926747
  20
 2358.1211049477
  30
0.0
  11
 1357.4906926747
  21
 2359.6211049477
  31
0.0
   0
LINE
   5
299
 100
AcDbEntity
   8
LEVEL004
 370
30
 100
AcDbLine
   6
HIDDEN
  62
7
  10
 1357.4906926747
  20
 2358.1211049477
  30
0.0
  11
 1357.4906926747
  21
 2359.6211049477
  31
0.0
   0
LINE
   5
29A
 100
AcDbEntity
   8
LEVEL004
 370
30
 100
AcDbLine
   6
CONTINUOUS
  62
7
  10
 1357.4906926747
  20
 2358.1211049477
  30
0.0
  11
 1357.4906926747
  21
 2359.6211049477
  31
0.0
   0
LINE
   5
29B
 100
AcDbEntity
   8
LEVEL004
 370
30
 100
AcDbLine
   6
CONTINUOUS
  62
7
  10
 1311.4906926747
  20
 2359.6211049477
  30
0.0
  11
 1357.4906926747
  21
 2359.6211049477
  31
0.0
   0
LINE
   5
29C
 100
AcDbEntity
   8
LEVEL004
 370
30
 100
AcDbLine
   6
CONTINUOUS
  62
7
  10
 1311.4906926747
  20
 2358.1211049477
  30
0.0
  11
 1357.4906926747
  21
 2358.1211049477
  31
0.0
   0
LINE
   5
29D
 100
AcDbEntity
   8
LEVEL004
 370
30
 100
AcDbLine
   6
CONTINUOUS
  62
7
  10
 1358.2406926747
  20
 2359.6211049477
  30
0.0
  11
 1353.2406926747
  21
 2359.6211049477
  31
0.0
   0
LINE
   5
29E
 100
AcDbEntity
   8
LEVEL004
 370
30
 100
AcDbLine
   6
CONTINUOUS
  62
7
  10
 1297.9906926747
  20
 2377.1211049477
  30
0.0
  11
 1297.9906926747
  21
 2370.1211049477
  31
0.0
   0
LINE
   5
29F
 100
AcDbEntity
   8
LEVEL004
 370
30
 100
AcDbLine
   6
CONTINUOUS
  62
7
  10
 1370.9906926747
  20
 361.10752896093
  30
0.0
  11
 1297.9906926747
  21
 361.10752896094
  31
0.0
   0
LINE
   5
2A0
 100
AcDbEntity
   8
LEVEL004
 370
30
 100
AcDbLine
   6
CONTINUOUS
  62
7
  10
 1370.9906926747
  20
 354.10752896093
  30
0.0
  11
 1297.9906926747
  21
 354.10752896094
  31
0.0
   0
LINE
   5
2A1
 100
AcDbEntity
   8
LEVEL004
 370
30
 100
AcDbLine
   6
CONTINUOUS
  62
7
  10
 1297.9906926747
  20
 361.10752896094
  30
0.0
  11
 1310.7406926747
  21
 371.60752896093
  31
0.0
   0
LINE
   5
2A2
 100
AcDbEntity
   8
LEVEL004
 370
30
 100
AcDbLine
   6
CONTINUOUS
  62
7
  10
 1297.9906926747
  20
 354.10752896093
  30
0.0
  11
 1297.9906926747
  21
 361.10752896094
  31
0.0
   0
LINE
   5
2A3
 100
AcDbEntity
   8
LEVEL004
 370
30
 100
AcDbLine
   6
CONTINUOUS
  62
7
  10
 1370.9906926747
  20
 361.10752896093
  30
0.0
  11
 1358.2406926747
  21
 371.60752896093
  31
0.0
   0
LINE
   5
2A4
 100
AcDbEntity
   8
LEVEL004
 370
30
 100
AcDbLine
   6
CONTINUOUS
  62
7
  10
 1358.2406926747
  20
 371.60752896093
  30
0.0
  11
 1353.2406926747
  21
 371.60752896093
  31
0.0
   0
LINE
   5
2A5
 100
AcDbEntity
   8
LEVEL004
 370
30
 100
AcDbLine
   6
HIDDEN
  62
7
  10
 1357.4906926747
  20
 373.10752896093
  30
0.0
  11
 1357.4906926747
  21
 371.60752896093
  31
0.0
   0
LINE
   5
2A6
 100
AcDbEntity
   8
LEVEL004
 370
30
 100
AcDbLine
   6
CONTINUOUS
  62
7
  10
 1357.4906926747
  20
 373.10752896093
  30
0.0
  11
 1357.4906926747
  21
 371.60752896093
  31
0.0
   0
LINE
   5
2A7
 100
AcDbEntity
   8
LEVEL004
 370
30
 100
AcDbLine
   6
HIDDEN
  62
7
  10
 1311.4906926747
  20
 373.10752896093
  30
0.0
  11
 1311.4906926747
  21
 371.60752896093
  31
0.0
   0
LINE
   5
2A8
 100
AcDbEntity
   8
LEVEL004
 370
30
 100
AcDbLine
   6
CONTINUOUS
  62
7
  10
 1311.4906926747
  20
 373.10752896093
  30
0.0
  11
 1311.4906926747
  21
 371.60752896093
  31
0.0
   0
LINE
   5
2A9
 100
AcDbEntity
   8
LEVEL004
 370
30
 100
AcDbLine
   6
HIDDEN
  62
7
  10
 1311.4906926747
  20
 373.10752896094
  30
0.0
  11
 1311.4906926747
  21
 371.60752896093
  31
0.0
   0
LINE
   5
2AA
 100
AcDbEntity
   8
LEVEL004
 370
30
 100
AcDbLine
   6
CONTINUOUS
  62
7
  10
 1311.4906926747
  20
 373.10752896094
  30
0.0
  11
 1311.4906926747
  21
 371.60752896093
  31
0.0
   0
LINE
   5
2AB
 100
AcDbEntity
   8
LEVEL004
 370
30
 100
AcDbLine
   6
CONTINUOUS
  62
7
  10
 1357.4906926747
  20
 371.60752896093
  30
0.0
  11
 1311.4906926747
  21
 371.60752896093
  31
0.0
   0
LINE
   5
2AC
 100
AcDbEntity
   8
LEVEL004
 370
30
 100
AcDbLine
   6
CONTINUOUS
  62
7
  10
 1357.4906926747
  20
 373.10752896093
  30
0.0
  11
 1311.4906926747
  21
 373.10752896094
  31
0.0
   0
LINE
   5
2AD
 100
AcDbEntity
   8
LEVEL004
 370
30
 100
AcDbLine
   6
CONTINUOUS
  62
7
  10
 1310.7406926747
  20
 371.60752896093
  30
0.0
  11
 1315.7406926747
  21
 371.60752896093
  31
0.0
   0
LINE
   5
2AE
 100
AcDbEntity
   8
LEVEL004
 370
30
 100
AcDbLine
   6
CONTINUOUS
  62
7
  10
 1370.9906926747
  20
 354.10752896093
  30
0.0
  11
 1370.9906926747
  21
 361.10752896093
  31
0.0
   0
ARC
   5
2AF
 100
AcDbEntity
   8
LEVEL005
 370
30
   6
CONTINUOUS
  62
7
 100
AcDbCircle
  10
 1334.4906926748
  20
 1004.1075289609
  30
0.0
  40
 23.750000000000
 100
AcDbArc
  50
 316.22856951460
  51
 44.292063194857
   0
ARC
   5
2B0
 100
AcDbEntity
   8
LEVEL005
 370
30
   6
CONTINUOUS
  62
7
 100
AcDbCircle
  10
 1334.4906926747
  20
 1004.1075289610
  30
0.0
  40
 36.500000000000
 100
AcDbArc
  50
 302.29283042653
  51
 62.241006698474
   0
ARC
   5
2B1
 100
AcDbEntity
   8
LEVEL005
 370
30
   6
CONTINUOUS
  62
7
 100
AcDbCircle
  10
 1334.4906926747
  20
 1004.1075289610
  30
0.0
  40
 36.500000000000
 100
AcDbArc
  50
 117.75899330153
  51
 237.70716957348
   0
ARC
   5
2B2
 100
AcDbEntity
   8
LEVEL005
 370
30
   6
CONTINUOUS
  62
7
 100
AcDbCircle
  10
 1334.4906926747
  20
 1004.1075289610
  30
0.0
  40
 23.750000000000
 100
AcDbArc
  50
 135.70793680516
  51
 223.77143048544
   0
ARC
   5
2B3
 100
AcDbEntity
   8
LEVEL005
 370
30
   6
CONTINUOUS
  62
7
 100
AcDbCircle
  10
 734.49069267475
  20
 1004.1075289609
  30
0.0
  40
 23.750000000000
 100
AcDbArc
  50
 316.22856951460
  51
 44.292063194858
   0
ARC
   5
2B4
 100
AcDbEntity
   8
LEVEL005
 370
30
   6
CONTINUOUS
  62
7
 100
AcDbCircle
  10
 734.49069267475
  20
 1004.1075289610
  30
0.0
  40
 36.500000000000
 100
AcDbArc
  50
 302.29283042653
  51
 62.241006698474
   0
ARC
   5
2B5
 100
AcDbEntity
   8
LEVEL005
 370
30
   6
CONTINUOUS
  62
7
 100
AcDbCircle
  10
 734.49069267475
  20
 1004.1075289610
  30
0.0
  40
 36.500000000000
 100
AcDbArc
  50
 117.75899330153
  51
 237.70716957348
   0
ARC
   5
2B6
 100
AcDbEntity
   8
LEVEL005
 370
30
   6
CONTINUOUS
  62
7
 100
AcDbCircle
  10
 734.49069267475
  20
 1004.1075289610
  30
0.0
  40
 23.750000000000
 100
AcDbArc
  50
 135.70793680517
  51
 223.77143048543
   0
ARC
   5
2B7
 100
AcDbEntity
   8
LEVEL007
 370
30
   6
CONTINUOUS
  62
7
 100
AcDbCircle
  10
 734.49069267475
  20
 1204.1075289609
  30
0.0
  40
 36.500000000000
 100
AcDbArc
  50
 32.292830426544
  51
 242.24100669845
   0
ARC
   5
2B8
 100
AcDbEntity
   8
LEVEL007
 370
30
   6
CONTINUOUS
  62
7
 100
AcDbCircle
  10
 734.49069267474
  20
 1204.1075289609
  30
0.0
  40
 23.750000000000
 100
AcDbArc
  50
 46.228569514536
  51
 224.29206319487
   0
ARC
   5
2B9
 100
AcDbEntity
   8
LEVEL007
 370
30
   6
CONTINUOUS
  62
7
 100
AcDbCircle
  10
 734.49069267475
  20
 1204.1075289610
  30
0.0
  40
 36.500000000000
 100
AcDbArc
  50
 297.75899330151
  51
 327.70716957345
   0
ARC
   5
2BA
 100
AcDbEntity
   8
LEVEL007
 370
30
   6
CONTINUOUS
  62
7
 100
AcDbCircle
  10
 1334.4906926748
  20
 1204.1075289610
  30
0.0
  40
 36.500000000000
 100
AcDbArc
  50
 297.75899330149
  51
 147.70716957350
   0
ARC
   5
2BB
 100
AcDbEntity
   8
LEVEL007
 370
30
   6
CONTINUOUS
  62
7
 100
AcDbCircle
  10
 1334.4906926747
  20
 1204.1075289608
  30
0.0
  40
 23.750000000000
 100
AcDbArc
  50
 315.70793680557
  51
 133.77143048499
   0
ARC
   5
2BC
 100
AcDbEntity
   8
LEVEL007
 370
30
   6
CONTINUOUS
  62
7
 100
AcDbCircle
  10
 1334.4906926747
  20
 1204.1075289610
  30
0.0
  40
 36.500000000000
 100
AcDbArc
  50
 212.29283042656
  51
 242.24100669852
   0
ARC
   5
2BD
 100
AcDbEntity
   8
LEVEL006
 370
30
   6
CONTINUOUS
  62
7
 100
AcDbCircle
  10
 1334.4906926747
  20
 1877.1211049477
  30
0.0
  40
 36.500000000000
 100
AcDbArc
  50
 117.75899330155
  51
 147.70716957348
   0
ARC
   5
2BE
 100
AcDbEntity
   8
LEVEL006
 370
30
   6
CONTINUOUS
  62
7
 100
AcDbCircle
  10
 1334.4906926748
  20
 1877.1211049477
  30
0.0
  40
 36.500000000000
 100
AcDbArc
  50
 297.75899330152
  51
 62.241006698480
   0
ARC
   5
2BF
 100
AcDbEntity
   8
LEVEL006
 370
30
   6
CONTINUOUS
  62
7
 100
AcDbCircle
  10
 1334.4906926747
  20
 1877.1211049477
  30
0.0
  40
 36.500000000000
 100
AcDbArc
  50
 212.29283042652
  51
 242.24100669847
   0
ARC
   5
2C0
 100
AcDbEntity
   8
LEVEL006
 370
30
   6
CONTINUOUS
  62
7
 100
AcDbCircle
  10
 1334.4906926748
  20
 1877.1211049477
  30
0.0
  40
 23.750000000000
 100
AcDbArc
  50
 315.70793680514
  51
 44.292063194857
   0
ARC
   5
2C1
 100
AcDbEntity
   8
LEVEL006
 370
30
   6
CONTINUOUS
  62
7
 100
AcDbCircle
  10
 734.49069267475
  20
 1877.1211049477
  30
0.0
  40
 36.500000000000
 100
AcDbArc
  50
 32.292830426543
  51
 62.241006698493
   0
ARC
   5
2C2
 100
AcDbEntity
   8
LEVEL006
 370
30
   6
CONTINUOUS
  62
7
 100
AcDbCircle
  10
 734.49069267475
  20
 1877.1211049477
  30
0.0
  40
 36.500000000000
 100
AcDbArc
  50
 117.75899330152
  51
 242.24100669848
   0
ARC
   5
2C3
 100
AcDbEntity
   8
LEVEL006
 370
30
   6
CONTINUOUS
  62
7
 100
AcDbCircle
  10
 734.49069267475
  20
 1877.1211049477
  30
0.0
  40
 36.500000000000
 100
AcDbArc
  50
 297.75899330149
  51
 327.70716957344
   0
ARC
   5
2C4
 100
AcDbEntity
   8
LEVEL006
 370
30
   6
CONTINUOUS
  62
7
 100
AcDbCircle
  10
 734.49069267475
  20
 1877.1211049477
  30
0.0
  40
 23.750000000000
 100
AcDbArc
  50
 135.70793680516
  51
 224.29206319484
   0
LINE
   5
2C5
 100
AcDbEntity
   8
LEVEL004
 370
30
 100
AcDbLine
   6
CONTINUOUS
  62
7
  10
 2159.8726799054
  20
 1187.1075289610
  30
0.0
  11
 2840.8726799054
  21
 1187.1075289610
  31
0.0
   0
LINE
   5
2C6
 100
AcDbEntity
   8
LEVEL004
 370
30
 100
AcDbLine
   6
CONTINUOUS
  62
7
  10
 2159.8726799054
  20
 1221.1075289610
  30
0.0
  11
 2840.8726799054
  21
 1221.1075289610
  31
0.0
   0
LINE
   5
2C7
 100
AcDbEntity
   8
LEVEL004
 370
30
 100
AcDbLine
   6
CONTINUOUS
  62
7
  10
 2159.8726799054
  20
 987.10752896099
  30
0.0
  11
 2343.4371046860
  21
 987.10752896099
  31
0.0
   0
LINE
   5
2C8
 100
AcDbEntity
   8
LEVEL004
 370
30
 100
AcDbLine
   6
CONTINUOUS
  62
7
  10
 2159.8726799054
  20
 1021.1075289610
  30
0.0
  11
 2840.8726799054
  21
 1021.1075289610
  31
0.0
   0
ARC
   5
2C9
 100
AcDbEntity
   8
LEVEL004
 370
30
   6
CONTINUOUS
  62
7
 100
AcDbCircle
  10
 2359.8726799054
  20
 1204.1075289610
  30
0.0
  40
 25.000000000000
 100
AcDbArc
  50
 42.843643043582
  51
 137.15635695642
   0
ARC
   5
2CA
 100
AcDbEntity
   8
LEVEL004
 370
30
   6
CONTINUOUS
  62
7
 100
AcDbCircle
  10
 2359.8726799054
  20
 1204.1075289610
  30
0.0
  40
 25.000000000000
 100
AcDbArc
  50
 222.84364304359
  51
 317.15635695640
   0
ARC
   5
2CB
 100
AcDbEntity
   8
LEVEL004
 370
30
   6
CONTINUOUS
  62
7
 100
AcDbCircle
  10
 2159.8726799054
  20
 1104.1075289610
  30
0.0
  40
 83.000000000000
 100
AcDbArc
  50
 90.000000000000
  51
 270.00000000000
   0
ARC
   5
2CC
 100
AcDbEntity
   8
LEVEL004
 370
30
   6
CONTINUOUS
  62
7
 100
AcDbCircle
  10
 2159.8726799054
  20
 1104.1075289610
  30
0.0
  40
 117.00000000000
 100
AcDbArc
  50
 90.000000000000
  51
 270.00000000000
   0
LINE
   5
2CD
 100
AcDbEntity
   8
LEVEL004
 370
30
 100
AcDbLine
   6
CONTINUOUS
  62
7
  10
 2342.8726799054
  20
 962.30779217599
  30
0.0
  11
 2342.8726799054
  21
 374.10752896093
  31
0.0
   0
LINE
   5
2CE
 100
AcDbEntity
   8
LEVEL004
 370
30
 100
AcDbLine
   6
CONTINUOUS
  62
7
  10
 2376.8726799054
  20
 962.30779217599
  30
0.0
  11
 2376.8726799054
  21
 374.10752896093
  31
0.0
   0
LINE
   5
2CF
 100
AcDbEntity
   8
LEVEL004
 370
30
 100
AcDbLine
   6
CONTINUOUS
  62
7
  10
 2376.6654675150
  20
 987.10752896099
  30
0.0
  11
 2840.8726799054
  21
 987.10752896099
  31
0.0
   0
ARC
   5
2D0
 100
AcDbEntity
   8
LEVEL006
 370
30
   6
CONTINUOUS
  62
7
 100
AcDbCircle
  10
 2360.0512861006
  20
 986.29482381619
  30
0.0
  40
 11.312725426261
 100
AcDbArc
  50
 52.499999999962
  51
 127.49999999999
   0
LINE
   5
2D1
 100
AcDbEntity
   8
LEVEL006
 370
30
 100
AcDbLine
   6
CONTINUOUS
  62
7
  10
 2378.3726799054
  20
 982.30779217599
  30
0.0
  11
 2341.3726799054
  21
 982.30779217599
  31
0.0
   0
LINE
   5
2D2
 100
AcDbEntity
   8
LEVEL006
 370
30
 100
AcDbLine
   6
CONTINUOUS
  62
7
  10
 2378.3726799054
  20
 962.30779217599
  30
0.0
  11
 2341.3726799054
  21
 962.30779217599
  31
0.0
   0
LINE
   5
2D3
 100
AcDbEntity
   8
LEVEL006
 370
30
 100
AcDbLine
   6
CONTINUOUS
  62
7
  10
 2343.0798922957
  20
 986.80779217599
  30
0.0
  11
 2353.1645352041
  21
 995.26981232098
  31
0.0
   0
LINE
   5
2D4
 100
AcDbEntity
   8
LEVEL006
 370
30
 100
AcDbLine
   6
CONTINUOUS
  62
7
  10
 2379.3726799054
  20
 963.30779217599
  30
0.0
  11
 2379.3726799054
  21
 981.30779217599
  31
0.0
   0
LINE
   5
2D5
 100
AcDbEntity
   8
LEVEL006
 370
30
 100
AcDbLine
   6
CONTINUOUS
  62
7
  10
 2376.6654675150
  20
 987.10752896099
  30
0.0
  11
 2366.9380369970
  21
 995.26981232098
  31
0.0
   0
ARC
   5
2D6
 100
AcDbEntity
   8
LEVEL006
 370
30
   6
CONTINUOUS
  62
7
 100
AcDbCircle
  10
 2376.0226799050
  20
 986.34148451818
  30
0.0
  40
 1.0000000000000
 100
AcDbArc
  50
 0.13678929574038E-9
  51
 49.999999966851
   0
ARC
   5
2D7
 100
AcDbEntity
   8
LEVEL006
 370
30
   6
CONTINUOUS
  62
7
 100
AcDbCircle
  10
 2378.3726799054
  20
 981.30779217599
  30
0.0
  40
 1.0000000000000
 100
AcDbArc
  50
0.0
  51
 89.999999999166
   0
ARC
   5
2D8
 100
AcDbEntity
   8
LEVEL006
 370
30
   6
CONTINUOUS
  62
7
 100
AcDbCircle
  10
 2378.3226799053
  20
 983.60779217598
  30
0.0
  40
 1.3000000000000
 100
AcDbArc
  50
 180.00000000003
  51
 270.00000000080
   0
LINE
   5
2D9
 100
AcDbEntity
   8
LEVEL006
 370
30
 100
AcDbLine
   6
CONTINUOUS
  62
7
  10
 2378.3726799054
  20
 982.30779217599
  30
0.0
  11
 2378.3226799054
  21
 982.30779217599
  31
0.0
   0
LINE
   5
2DA
 100
AcDbEntity
   8
LEVEL006
 370
30
 100
AcDbLine
   6
CONTINUOUS
  62
7
  10
 2377.0226799053
  20
 983.60779217598
  30
0.0
  11
 2377.0226799053
  21
 986.34148451778
  31
0.0
   0
ARC
   5
2DB
 100
AcDbEntity
   8
LEVEL006
 370
30
   6
CONTINUOUS
  62
7
 100
AcDbCircle
  10
 2378.3726799054
  20
 963.30779217588
  30
0.0
  40
 1.0000000000000
 100
AcDbArc
  50
 270.00000000000
  51
 0.43772574636923E-8
   0
LINE
   5
2DC
 100
AcDbEntity
   8
LEVEL006
 370
30
 100
AcDbLine
   6
CONTINUOUS
  62
7
  10
 2340.3726799054
  20
 963.30779217599
  30
0.0
  11
 2340.3726799054
  21
 981.30779217599
  31
0.0
   0
ARC
   5
2DD
 100
AcDbEntity
   8
LEVEL006
 370
30
   6
CONTINUOUS
  62
7
 100
AcDbCircle
  10
 2343.7226799054
  20
 986.04174773249
  30
0.0
  40
 1.0000000000000
 100
AcDbArc
  50
 129.99999998526
  51
 179.99999997794
   0
ARC
   5
2DE
 100
AcDbEntity
   8
LEVEL006
 370
30
   6
CONTINUOUS
  62
7
 100
AcDbCircle
  10
 2341.3726799054
  20
 981.30779217588
  30
0.0
  40
 1.0000000000000
 100
AcDbArc
  50
 90.000000000000
  51
 179.99999999323
   0
ARC
   5
2DF
 100
AcDbEntity
   8
LEVEL006
 370
30
   6
CONTINUOUS
  62
7
 100
AcDbCircle
  10
 2341.4226799054
  20
 983.60779217629
  30
0.0
  40
 1.3000000000000
 100
AcDbArc
  50
 270.00000000048
  51
0.0
   0
LINE
   5
2E0
 100
AcDbEntity
   8
LEVEL006
 370
30
 100
AcDbLine
   6
CONTINUOUS
  62
7
  10
 2341.3726799054
  20
 982.30779217599
  30
0.0
  11
 2341.4226799054
  21
 982.30779217599
  31
0.0
   0
LINE
   5
2E1
 100
AcDbEntity
   8
LEVEL006
 370
30
 100
AcDbLine
   6
CONTINUOUS
  62
7
  10
 2342.7226799054
  20
 983.60779217598
  30
0.0
  11
 2342.7226799054
  21
 986.04174773288
  31
0.0
   0
ARC
   5
2E2
 100
AcDbEntity
   8
LEVEL006
 370
30
   6
CONTINUOUS
  62
7
 100
AcDbCircle
  10
 2341.3726799054
  20
 963.30779217599
  30
0.0
  40
 1.0000000000000
 100
AcDbArc
  50
 180.00000000010
  51
 270.00000000250
   0
LINE
   5
2E3
 100
AcDbEntity
   8
LEVEL004
 370
30
 100
AcDbLine
   6
CONTINUOUS
  62
7
  10
 2396.3726799054
  20
 361.10752896093
  30
0.0
  11
 2323.3726799054
  21
 361.10752896094
  31
0.0
   0
LINE
   5
2E4
 100
AcDbEntity
   8
LEVEL004
 370
30
 100
AcDbLine
   6
CONTINUOUS
  62
7
  10
 2396.3726799054
  20
 354.10752896093
  30
0.0
  11
 2323.3726799054
  21
 354.10752896094
  31
0.0
   0
LINE
   5
2E5
 100
AcDbEntity
   8
LEVEL004
 370
30
 100
AcDbLine
   6
CONTINUOUS
  62
7
  10
 2323.3726799054
  20
 361.10752896094
  30
0.0
  11
 2336.1226799054
  21
 371.60752896093
  31
0.0
   0
LINE
   5
2E6
 100
AcDbEntity
   8
LEVEL004
 370
30
 100
AcDbLine
   6
CONTINUOUS
  62
7
  10
 2323.3726799054
  20
 354.10752896093
  30
0.0
  11
 2323.3726799054
  21
 361.10752896094
  31
0.0
   0
LINE
   5
2E7
 100
AcDbEntity
   8
LEVEL004
 370
30
 100
AcDbLine
   6
CONTINUOUS
  62
7
  10
 2396.3726799054
  20
 361.10752896093
  30
0.0
  11
 2383.6226799054
  21
 371.60752896093
  31
0.0
   0
LINE
   5
2E8
 100
AcDbEntity
   8
LEVEL004
 370
30
 100
AcDbLine
   6
CONTINUOUS
  62
7
  10
 2383.6226799054
  20
 371.60752896093
  30
0.0
  11
 2378.6226799054
  21
 371.60752896093
  31
0.0
   0
LINE
   5
2E9
 100
AcDbEntity
   8
LEVEL004
 370
30
 100
AcDbLine
   6
HIDDEN
  62
7
  10
 2382.8726799054
  20
 373.10752896093
  30
0.0
  11
 2382.8726799054
  21
 371.60752896093
  31
0.0
   0
LINE
   5
2EA
 100
AcDbEntity
   8
LEVEL004
 370
30
 100
AcDbLine
   6
CONTINUOUS
  62
7
  10
 2382.8726799054
  20
 373.10752896093
  30
0.0
  11
 2382.8726799054
  21
 371.60752896093
  31
0.0
   0
LINE
   5
2EB
 100
AcDbEntity
   8
LEVEL004
 370
30
 100
AcDbLine
   6
HIDDEN
  62
7
  10
 2336.8726799054
  20
 373.10752896093
  30
0.0
  11
 2336.8726799054
  21
 371.60752896093
  31
0.0
   0
LINE
   5
2EC
 100
AcDbEntity
   8
LEVEL004
 370
30
 100
AcDbLine
   6
CONTINUOUS
  62
7
  10
 2336.8726799054
  20
 373.10752896093
  30
0.0
  11
 2336.8726799054
  21
 371.60752896093
  31
0.0
   0
LINE
   5
2ED
 100
AcDbEntity
   8
LEVEL004
 370
30
 100
AcDbLine
   6
HIDDEN
  62
7
  10
 2336.8726799054
  20
 373.10752896094
  30
0.0
  11
 2336.8726799054
  21
 371.60752896093
  31
0.0
   0
LINE
   5
2EE
 100
AcDbEntity
   8
LEVEL004
 370
30
 100
AcDbLine
   6
CONTINUOUS
  62
7
  10
 2336.8726799054
  20
 373.10752896094
  30
0.0
  11
 2336.8726799054
  21
 371.60752896093
  31
0.0
   0
LINE
   5
2EF
 100
AcDbEntity
   8
LEVEL004
 370
30
 100
AcDbLine
   6
CONTINUOUS
  62
7
  10
 2382.8726799054
  20
 371.60752896093
  30
0.0
  11
 2336.8726799054
  21
 371.60752896093
  31
0.0
   0
LINE
   5
2F0
 100
AcDbEntity
   8
LEVEL004
 370
30
 100
AcDbLine
   6
CONTINUOUS
  62
7
  10
 2382.8726799054
  20
 373.10752896093
  30
0.0
  11
 2336.8726799054
  21
 373.10752896094
  31
0.0
   0
LINE
   5
2F1
 100
AcDbEntity
   8
LEVEL004
 370
30
 100
AcDbLine
   6
CONTINUOUS
  62
7
  10
 2336.1226799054
  20
 371.60752896093
  30
0.0
  11
 2341.1226799054
  21
 371.60752896093
  31
0.0
   0
LINE
   5
2F2
 100
AcDbEntity
   8
LEVEL004
 370
30
 100
AcDbLine
   6
CONTINUOUS
  62
7
  10
 2396.3726799054
  20
 354.10752896093
  30
0.0
  11
 2396.3726799054
  21
 361.10752896093
  31
0.0
   0
LINE
   5
2F3
 100
AcDbEntity
   8
LEVEL004
 370
30
 100
AcDbLine
   6
CONTINUOUS
  62
7
  10
 2852.8726799054
  20
 1040.6075289610
  30
0.0
  11
 2852.8726799054
  21
 967.60752896099
  31
0.0
   0
LINE
   5
2F4
 100
AcDbEntity
   8
LEVEL004
 370
30
 100
AcDbLine
   6
CONTINUOUS
  62
7
  10
 2859.8726799054
  20
 1040.6075289609
  30
0.0
  11
 2859.8726799054
  21
 967.60752896099
  31
0.0
   0
LINE
   5
2F5
 100
AcDbEntity
   8
LEVEL004
 370
30
 100
AcDbLine
   6
CONTINUOUS
  62
7
  10
 2852.8726799054
  20
 967.60752896099
  30
0.0
  11
 2842.3726799054
  21
 980.35752896099
  31
0.0
   0
LINE
   5
2F6
 100
AcDbEntity
   8
LEVEL004
 370
30
 100
AcDbLine
   6
CONTINUOUS
  62
7
  10
 2859.8726799054
  20
 967.60752896099
  30
0.0
  11
 2852.8726799054
  21
 967.60752896099
  31
0.0
   0
LINE
   5
2F7
 100
AcDbEntity
   8
LEVEL004
 370
30
 100
AcDbLine
   6
CONTINUOUS
  62
7
  10
 2852.8726799054
  20
 1040.6075289610
  30
0.0
  11
 2842.3726799054
  21
 1027.8575289610
  31
0.0
   0
LINE
   5
2F8
 100
AcDbEntity
   8
LEVEL004
 370
30
 100
AcDbLine
   6
CONTINUOUS
  62
7
  10
 2842.3726799054
  20
 1027.8575289610
  30
0.0
  11
 2842.3726799054
  21
 1027.1075289610
  31
0.0
   0
LINE
   5
2F9
 100
AcDbEntity
   8
LEVEL004
 370
30
 100
AcDbLine
   6
HIDDEN
  62
7
  10
 2840.8726799054
  20
 1027.1075289610
  30
0.0
  11
 2842.3726799054
  21
 1027.1075289610
  31
0.0
   0
LINE
   5
2FA
 100
AcDbEntity
   8
LEVEL004
 370
30
 100
AcDbLine
   6
CONTINUOUS
  62
7
  10
 2840.8726799054
  20
 1027.1075289610
  30
0.0
  11
 2842.3726799054
  21
 1027.1075289610
  31
0.0
   0
LINE
   5
2FB
 100
AcDbEntity
   8
LEVEL004
 370
30
 100
AcDbLine
   6
HIDDEN
  62
7
  10
 2840.8726799054
  20
 981.10752896099
  30
0.0
  11
 2842.3726799054
  21
 981.10752896099
  31
0.0
   0
LINE
   5
2FC
 100
AcDbEntity
   8
LEVEL004
 370
30
 100
AcDbLine
   6
CONTINUOUS
  62
7
  10
 2840.8726799054
  20
 981.10752896099
  30
0.0
  11
 2842.3726799054
  21
 981.10752896099
  31
0.0
   0
LINE
   5
2FD
 100
AcDbEntity
   8
LEVEL004
 370
30
 100
AcDbLine
   6
HIDDEN
  62
7
  10
 2840.8726799054
  20
 981.10752896099
  30
0.0
  11
 2842.3726799054
  21
 981.10752896099
  31
0.0
   0
LINE
   5
2FE
 100
AcDbEntity
   8
LEVEL004
 370
30
 100
AcDbLine
   6
CONTINUOUS
  62
7
  10
 2840.8726799054
  20
 981.10752896099
  30
0.0
  11
 2842.3726799054
  21
 981.10752896099
  31
0.0
   0
LINE
   5
2FF
 100
AcDbEntity
   8
LEVEL004
 370
30
 100
AcDbLine
   6
CONTINUOUS
  62
7
  10
 2842.3726799054
  20
 1027.1075289610
  30
0.0
  11
 2842.3726799054
  21
 981.10752896099
  31
0.0
   0
LINE
   5
300
 100
AcDbEntity
   8
LEVEL004
 370
30
 100
AcDbLine
   6
CONTINUOUS
  62
7
  10
 2840.8726799054
  20
 1027.1075289610
  30
0.0
  11
 2840.8726799054
  21
 981.10752896099
  31
0.0
   0
LINE
   5
301
 100
AcDbEntity
   8
LEVEL004
 370
30
 100
AcDbLine
   6
CONTINUOUS
  62
7
  10
 2842.3726799054
  20
 980.35752896099
  30
0.0
  11
 2842.3726799054
  21
 981.10752896099
  31
0.0
   0
LINE
   5
302
 100
AcDbEntity
   8
LEVEL004
 370
30
 100
AcDbLine
   6
CONTINUOUS
  62
7
  10
 2859.8726799054
  20
 1040.6075289609
  30
0.0
  11
 2852.8726799054
  21
 1040.6075289610
  31
0.0
   0
LINE
   5
303
 100
AcDbEntity
   8
LEVEL004
 370
30
 100
AcDbLine
   6
CONTINUOUS
  62
7
  10
 2852.8726799054
  20
 1240.6075289610
  30
0.0
  11
 2852.8726799054
  21
 1167.6075289610
  31
0.0
   0
LINE
   5
304
 100
AcDbEntity
   8
LEVEL004
 370
30
 100
AcDbLine
   6
CONTINUOUS
  62
7
  10
 2859.8726799054
  20
 1240.6075289609
  30
0.0
  11
 2859.8726799054
  21
 1167.6075289610
  31
0.0
   0
LINE
   5
305
 100
AcDbEntity
   8
LEVEL004
 370
30
 100
AcDbLine
   6
CONTINUOUS
  62
7
  10
 2852.8726799054
  20
 1167.6075289610
  30
0.0
  11
 2842.3726799054
  21
 1180.3575289610
  31
0.0
   0
LINE
   5
306
 100
AcDbEntity
   8
LEVEL004
 370
30
 100
AcDbLine
   6
CONTINUOUS
  62
7
  10
 2859.8726799054
  20
 1167.6075289610
  30
0.0
  11
 2852.8726799054
  21
 1167.6075289610
  31
0.0
   0
LINE
   5
307
 100
AcDbEntity
   8
LEVEL004
 370
30
 100
AcDbLine
   6
CONTINUOUS
  62
7
  10
 2852.8726799054
  20
 1240.6075289610
  30
0.0
  11
 2842.3726799054
  21
 1227.8575289610
  31
0.0
   0
LINE
   5
308
 100
AcDbEntity
   8
LEVEL004
 370
30
 100
AcDbLine
   6
CONTINUOUS
  62
7
  10
 2842.3726799054
  20
 1227.8575289610
  30
0.0
  11
 2842.3726799054
  21
 1227.1075289610
  31
0.0
   0
LINE
   5
309
 100
AcDbEntity
   8
LEVEL004
 370
30
 100
AcDbLine
   6
HIDDEN
  62
7
  10
 2840.8726799054
  20
 1227.1075289610
  30
0.0
  11
 2842.3726799054
  21
 1227.1075289610
  31
0.0
   0
LINE
   5
30A
 100
AcDbEntity
   8
LEVEL004
 370
30
 100
AcDbLine
   6
CONTINUOUS
  62
7
  10
 2840.8726799054
  20
 1227.1075289610
  30
0.0
  11
 2842.3726799054
  21
 1227.1075289610
  31
0.0
   0
LINE
   5
30B
 100
AcDbEntity
   8
LEVEL004
 370
30
 100
AcDbLine
   6
HIDDEN
  62
7
  10
 2840.8726799054
  20
 1181.1075289610
  30
0.0
  11
 2842.3726799054
  21
 1181.1075289610
  31
0.0
   0
LINE
   5
30C
 100
AcDbEntity
   8
LEVEL004
 370
30
 100
AcDbLine
   6
CONTINUOUS
  62
7
  10
 2840.8726799054
  20
 1181.1075289610
  30
0.0
  11
 2842.3726799054
  21
 1181.1075289610
  31
0.0
   0
LINE
   5
30D
 100
AcDbEntity
   8
LEVEL004
 370
30
 100
AcDbLine
   6
HIDDEN
  62
7
  10
 2840.8726799054
  20
 1181.1075289610
  30
0.0
  11
 2842.3726799054
  21
 1181.1075289610
  31
0.0
   0
LINE
   5
30E
 100
AcDbEntity
   8
LEVEL004
 370
30
 100
AcDbLine
   6
CONTINUOUS
  62
7
  10
 2840.8726799054
  20
 1181.1075289610
  30
0.0
  11
 2842.3726799054
  21
 1181.1075289610
  31
0.0
   0
LINE
   5
30F
 100
AcDbEntity
   8
LEVEL004
 370
30
 100
AcDbLine
   6
CONTINUOUS
  62
7
  10
 2842.3726799054
  20
 1227.1075289610
  30
0.0
  11
 2842.3726799054
  21
 1181.1075289610
  31
0.0
   0
LINE
   5
310
 100
AcDbEntity
   8
LEVEL004
 370
30
 100
AcDbLine
   6
CONTINUOUS
  62
7
  10
 2840.8726799054
  20
 1227.1075289610
  30
0.0
  11
 2840.8726799054
  21
 1181.1075289610
  31
0.0
   0
LINE
   5
311
 100
AcDbEntity
   8
LEVEL004
 370
30
 100
AcDbLine
   6
CONTINUOUS
  62
7
  10
 2842.3726799054
  20
 1180.3575289610
  30
0.0
  11
 2842.3726799054
  21
 1181.1075289610
  31
0.0
   0
LINE
   5
312
 100
AcDbEntity
   8
LEVEL004
 370
30
 100
AcDbLine
   6
CONTINUOUS
  62
7
  10
 2859.8726799054
  20
 1240.6075289609
  30
0.0
  11
 2852.8726799054
  21
 1240.6075289610
  31
0.0
   0
LINE
   5
313
 100
AcDbEntity
   8
LEVEL004
 370
40
 100
AcDbLine
   6
CONTINUOUS
  62
3
  10
 2859.8726799054
  20
 1510.3287781139
  30
0.0
  11
 2859.8726799054
  21
 354.10752896093
  31
0.0
   0
LINE
   5
314
 100
AcDbEntity
   8
LEVEL004
 370
40
 100
AcDbLine
   6
CONTINUOUS
  62
3
  10
 1984.0845740034
  20
 354.10752896093
  30
0.0
  11
 2859.8726799054
  21
 354.10752896093
  31
0.0
   0
LINE
   5
315
 100
AcDbEntity
   8
LEVEL004
 370
40
 100
AcDbLine
   6
CONTINUOUS
  62
3
  10
 537.71432299582
  20
 2377.1211049477
  30
0.0
  11
 1591.4608925170
  21
 2377.1211049477
  31
0.0
   0
LINE
   5
316
 100
AcDbEntity
   8
LEVEL004
 370
15
 100
AcDbLine
   6
DASHDOT
  62
8
  10
 734.49069267475
  20
 2427.1211049477
  30
0.0
  11
 734.49069267475
  21
 1510.1211049477
  31
0.0
   0
LINE
   5
317
 100
AcDbEntity
   8
LEVEL004
 370
15
 100
AcDbLine
   6
DASHDOT
  62
8
  10
 1334.4906926747
  20
 2427.1211049477
  30
0.0
  11
 1334.4906926747
  21
 1510.1211049477
  31
0.0
   0
LINE
   5
318
 100
AcDbEntity
   8
LEVEL004
 370
15
 100
AcDbLine
   6
DASHDOT
  62
8
  10
 644.49069267477
  20
 1204.1075289610
  30
0.0
  11
 1424.4906926747
  21
 1204.1075289610
  31
0.0
   0
LINE
   5
319
 100
AcDbEntity
   8
LEVEL004
 370
15
 100
AcDbLine
   6
DASHDOT
  62
8
  10
 734.49069267475
  20
 1294.1075289610
  30
0.0
  11
 734.49069267475
  21
 310.33735241653
  31
0.0
   0
LINE
   5
31A
 100
AcDbEntity
   8
LEVEL004
 370
15
 100
AcDbLine
   6
DASHDOT
  62
8
  10
 1334.4906926747
  20
 1294.1075289610
  30
0.0
  11
 1334.4906926747
  21
 310.33735241653
  31
0.0
   0
LINE
   5
31B
 100
AcDbEntity
   8
LEVEL004
 370
15
 100
AcDbLine
   6
DASHDOT
  62
8
  10
 644.49069267477
  20
 1877.1211049477
  30
0.0
  11
 1424.4906926747
  21
 1877.1211049477
  31
0.0
   0
LINE
   5
31C
 100
AcDbEntity
   8
LEVEL004
 370
15
 100
AcDbLine
   6
DASHDOT
  62
8
  10
 667.49069267477
  20
 1577.1211049477
  30
0.0
  11
 801.49069267475
  21
 1577.1211049477
  31
0.0
   0
LINE
   5
31D
 100
AcDbEntity
   8
LEVEL004
 370
15
 100
AcDbLine
   6
DASHDOT
  62
8
  10
 1267.4906926747
  20
 1577.1211049477
  30
0.0
  11
 1401.4906926747
  21
 1577.1211049477
  31
0.0
   0
LINE
   5
31E
 100
AcDbEntity
   8
LEVEL004
 370
15
 100
AcDbLine
   6
DASHDOT
  62
8
  10
 1244.4906926747
  20
 1004.1075289610
  30
0.0
  11
 1424.4906926747
  21
 1004.1075289610
  31
0.0
   0
LINE
   5
31F
 100
AcDbEntity
   8
LEVEL004
 370
15
 100
AcDbLine
   6
DASHDOT
  62
8
  10
 644.49069267477
  20
 1004.1075289610
  30
0.0
  11
 824.49069267475
  21
 1004.1075289610
  31
0.0
   0
LINE
   5
320
 100
AcDbEntity
   8
LEVEL004
 370
15
 100
AcDbLine
   6
DASHDOT
  62
8
  10
 2159.8726799054
  20
 1004.1075289610
  30
0.0
  11
 2909.8726799054
  21
 1004.1075289610
  31
0.0
   0
LINE
   5
321
 100
AcDbEntity
   8
LEVEL004
 370
15
 100
AcDbLine
   6
DASHDOT
  62
8
  10
 2159.8726799054
  20
 1204.1075289610
  30
0.0
  11
 2909.8726799054
  21
 1204.1075289610
  31
0.0
   0
LINE
   5
322
 100
AcDbEntity
   8
LEVEL004
 370
15
 100
AcDbLine
   6
DASHDOT
  62
8
  10
 2359.8726799054
  20
 1271.1075289610
  30
0.0
  11
 2359.8726799054
  21
 1137.1075289610
  31
0.0
   0
ARC
   5
323
 100
AcDbEntity
   8
LEVEL004
 370
15
   6
DASHDOT
  62
8
 100
AcDbCircle
  10
 2159.8726799054
  20
 1104.1075289610
  30
0.0
  40
 100.00000000000
 100
AcDbArc
  50
 90.000000000000
  51
 270.00000000000
   0
LINE
   5
324
 100
AcDbEntity
   8
LEVEL004
 370
15
 100
AcDbLine
   6
DASHDOT
  62
8
  10
 2359.8726799054
  20
 1071.1075289610
  30
0.0
  11
 2359.8726799054
  21
 304.10752896093
  31
0.0
   0
DIMENSION
   5
325
 100
AcDbEntity
   8
LEVEL001
 370
15
   6
CONTINUOUS
  62
8
 100
AcDbDimension
   2
*D1
  10
 404.40339441695
  20
 1004.1075289610
  30
0.0
  11
 404.40339441695
  21
 679.10752896096
  31
0.0
  70
0
   3
GMM001
 100
AcDbAlignedDimension
  13
 401.07832173839
  23
 354.10752896093
  33
0.0
  14
 644.49069267477
  24
 1004.1075289610
  34
0.0
  50
 90.000000000000
 100
AcDbRotatedDimension
   0
DIMENSION
   5
326
 100
AcDbEntity
   8
LEVEL001
 370
15
   6
CONTINUOUS
  62
8
 100
AcDbDimension
   2
*D2
  10
 404.40339441695
  20
 1204.1075289610
  30
0.0
  11
 404.40339441695
  21
 1104.1075289610
  31
0.0
  70
0
   3
GMM002
 100
AcDbAlignedDimension
  13
 644.49069267477
  23
 1004.1075289610
  33
0.0
  14
 644.49069267477
  24
 1204.1075289610
  34
0.0
  50
 90.000000000000
 100
AcDbRotatedDimension
   0
DIMENSION
   5
327
 100
AcDbEntity
   8
LEVEL001
 370
15
   6
CONTINUOUS
  62
8
 100
AcDbDimension
   2
*D3
  10
 292.02872843402
  20
 1204.1075289610
  30
0.0
  11
 292.02872843402
  21
 779.10752896096
  31
0.0
  70
0
   3
GMM002
 100
AcDbAlignedDimension
  13
 292.02872843402
  23
 354.10752896093
  33
0.0
  14
 404.40339441695
  24
 1204.1075289610
  34
0.0
  50
 90.000000000000
 100
AcDbRotatedDimension
   0
DIMENSION
   5
328
 100
AcDbEntity
   8
LEVEL001
 370
15
   6
CONTINUOUS
  62
8
 100
AcDbDimension
   2
*D4
  10
 1334.4906926747
  20
 1359.0049131541
  30
0.0
  11
 1034.4906926747
  21
 1359.0049131541
  31
0.0
  70
0
   3
GMM002
 100
AcDbAlignedDimension
  13
 734.49069267475
  23
 1294.1075289610
  33
0.0
  14
 1334.4906926747
  24
 1294.1075289610
  34
0.0
 100
AcDbRotatedDimension
   0
DIMENSION
   5
329
 100
AcDbEntity
   8
LEVEL001
 370
15
   6
CONTINUOUS
  62
8
 100
AcDbDimension
   2
*D5
  10
 751.49069267475
  20
 756.70980846895
  30
0.0
  11
 775.26047298773
  21
 756.70980846895
  31
0.0
  70
128
   3
GMM003
 100
AcDbAlignedDimension
  13
 717.49069267476
  23
 756.70980846895
  33
0.0
  14
 751.49069267475
  24
 756.70980846895
  34
0.0
 100
AcDbRotatedDimension
   0
DIMENSION
   5
32A
 100
AcDbEntity
   8
LEVEL001
 370
15
   6
CONTINUOUS
  62
8
 100
AcDbDimension
   2
*D6
  10
 1351.4906926747
  20
 756.70980846895
  30
0.0
  11
 1375.3520061701
  21
 756.70980846895
  31
0.0
  70
128
   3
GMM003
 100
AcDbAlignedDimension
  13
 1317.4906926747
  23
 756.70980846895
  33
0.0
  14
 1351.4906926747
  24
 756.70980846895
  34
0.0
 100
AcDbRotatedDimension
   0
DIMENSION
   5
32B
 100
AcDbEntity
   8
LEVEL001
 370
15
   6
CONTINUOUS
  62
8
 100
AcDbDimension
   2
*D7
  10
 1935.2068258603
  20
 1204.1075289610
  30
0.0
  11
 1935.2068258603
  21
 1104.1075289610
  31
0.0
  70
0
   3
GMM002
 100
AcDbAlignedDimension
  13
 2149.8726799054
  23
 1004.1075289610
  33
0.0
  14
 2139.8726799054
  24
 1204.1075289610
  34
0.0
  50
 90.000000000000
 100
AcDbRotatedDimension
   0
DIMENSION
   5
32C
 100
AcDbEntity
   8
LEVEL001
 370
15
   6
CONTINUOUS
  62
8
 100
AcDbDimension
   2
*D8
  10
 2359.8726799054
  20
 1359.0049131541
  30
0.0
  11
 2209.8726799054
  21
 1359.0049131541
  31
0.0
  70
0
   3
GMM001
 100
AcDbAlignedDimension
  13
 2059.8726799054
  23
 1113.0891162755
  33
0.0
  14
 2359.8726799054
  24
 1271.1075289610
  34
0.0
 100
AcDbRotatedDimension
   0
DIMENSION
   5
32D
 100
AcDbEntity
   8
LEVEL001
 370
15
   6
CONTINUOUS
  62
8
 100
AcDbDimension
   2
*D9
  10
 2859.8726799054
  20
 1359.0049131541
  30
0.0
  11
 2609.8726799054
  21
 1359.0049131541
  31
0.0
  70
0
   3
GMM002
 100
AcDbAlignedDimension
  13
 2359.8726799054
  23
 1271.1075289610
  33
0.0
  14
 2859.8726799054
  24
 1359.0049131541
  34
0.0
 100
AcDbRotatedDimension
   0
DIMENSION
   5
32E
 100
AcDbEntity
   8
LEVEL001
 370
15
   6
CONTINUOUS
  62
8
 100
AcDbDimension
   2
*D10
  10
 2859.8726799054
  20
 1460.6459377660
  30
0.0
  11
 2459.8726799054
  21
 1460.6459377660
  31
0.0
  70
0
   3
GMM002
 100
AcDbAlignedDimension
  13
 2059.8726799054
  23
 1359.0049131541
  33
0.0
  14
 2859.8726799054
  24
 1460.6459377660
  34
0.0
 100
AcDbRotatedDimension
   0
DIMENSION
   5
32F
 100
AcDbEntity
   8
LEVEL001
 370
15
   6
CONTINUOUS
  62
8
 100
AcDbDimension
   2
*D11
  10
 2159.8726799054
  20
 1104.1075289610
  30
0.0
  11
 2020.5846530062
  21
 1236.1333093688
  31
0.0
  70
132
   3
GMM004
 100
AcDbRadialDimension
  15
 2087.2952868381
  25
 1172.9008572390
  35
0.0
  40
 92.458918815858
   0
LEADER
   5
330
 100
AcDbEntity
   8
LEVEL001
 370
15
   6
CONTINUOUS
  62
8
 100
AcDbLeader
   3
GMM005
  73
0
  74
0
  75
0
  40
 30.000000000000
  41
 477.50000000000
  76
2
  10
 1337.2302169544
  20
 2025.0307114666
  30
0.0
  10
 1432.6519037014
  20
 2139.8217196326
  30
0.0
  77
8
 340
331
 213
0.0
 223
-10.000000000000
 233
0.0
   0
MTEXT
   5
331
 102
{ACAD_REACTORS
 330
330
 102
}
 100
AcDbEntity
   8
LEVEL001
 370
15
  62
8
 100
AcDbMText
  10
 1432.6519037014
  20
 2149.8217196326
  30
0.0
  40
 30.000000000000
  41
0.0
  71
7
  72
1
   1
\A1;芯材：ステンレスパイプ   %%c27.2×1.5t\P表面材：軟質塩ビ被膜（抗菌材入り）%%c34
   7
GMM002
   0
DIMENSION
   5
332
 100
AcDbEntity
   8
LEVEL001
 370
15
   6
CONTINUOUS
  62
8
 100
AcDbDimension
   2
*D13
  10
 404.40339441695
  20
 1877.1211049477
  30
0.0
  11
 404.40339441695
  21
 1727.1211049477
  31
0.0
  70
0
   3
GMM001
 100
AcDbAlignedDimension
  13
 667.49069267477
  23
 1577.1211049477
  33
0.0
  14
 644.49069267477
  24
 1877.1211049477
  34
0.0
  50
 90.000000000000
 100
AcDbRotatedDimension
   0
DIMENSION
   5
333
 100
AcDbEntity
   8
LEVEL001
 370
15
   6
CONTINUOUS
  62
8
 100
AcDbDimension
   2
*D14
  10
 404.40339441695
  20
 2377.1211049477
  30
0.0
  11
 404.40339441695
  21
 2127.1211049477
  31
0.0
  70
0
   3
GMM002
 100
AcDbAlignedDimension
  13
 644.49069267477
  23
 1877.1211049477
  33
0.0
  14
 537.71432299582
  24
 2377.1211049477
  34
0.0
  50
 90.000000000000
 100
AcDbRotatedDimension
   0
DIMENSION
   5
334
 100
AcDbEntity
   8
LEVEL001
 370
15
   6
CONTINUOUS
  62
8
 100
AcDbDimension
   2
*D15
  10
 292.02872843402
  20
 2377.1211049477
  30
0.0
  11
 292.02872843402
  21
 1977.1211049477
  31
0.0
  70
0
   3
GMM002
 100
AcDbAlignedDimension
  13
 404.40339441695
  23
 1577.1211049477
  33
0.0
  14
 404.40339441695
  24
 2377.1211049477
  34
0.0
  50
 90.000000000000
 100
AcDbRotatedDimension
   0
DIMENSION
   5
335
 100
AcDbEntity
   8
LEVEL001
 370
15
   6
CONTINUOUS
  62
8
 100
AcDbDimension
   2
*D16
  10
 1334.4906926747
  20
 2492.0184891408
  30
0.0
  11
 1034.4906926747
  21
 2492.0184891408
  31
0.0
  70
0
   3
GMM002
 100
AcDbAlignedDimension
  13
 734.49069267475
  23
 2427.1211049477
  33
0.0
  14
 1334.4906926747
  24
 2427.1211049477
  34
0.0
 100
AcDbRotatedDimension
   0
LINE
   5
336
 100
AcDbEntity
   8
LEVEL004
 370
40
 100
AcDbLine
   6
CONTINUOUS
  62
3
  10
 241.20250197184
  20
 354.10752896093
  30
0.0
  11
 1690.1237325463
  21
 354.10752896093
  31
0.0
   0
ENDSEC
  0
SECTION
  2
OBJECTS
  0
DICTIONARY
  5
C
100
AcDbDictionary
  3
ACAD_GROUP
350
D
  3
ACAD_MLINESTYLE
350
1B
  3
DWGPROPS
350
1C
  0
DICTIONARY
  5
D
102
{ACAD_REACTORS
330
C
102
}
100
AcDbDictionary
  0
DICTIONARY
  5
1B
102
{ACAD_REACTORS
330
C
102
}
100
AcDbDictionary
  3
STANDARD
350
1D
  0
MLINESTYLE
  5
1D
102
{ACAD_REACTORS
330
1B
102
}
100
AcDbMlineStyle
  2
STANDARD
 70
     0
  3

 62
   256
 51
90.0
 52
90.0
 71
     2
 49
0.5
 62
   256
  6
BYLAYER
 49
-0.5
 62
   256
  6
BYLAYER
   0
XRECORD
   5
1C
 102
{ACAD_REACTORS
 330
C
 102
}
 330
C
 100
AcDbXrecord
 280
1
   1
DWGPROPS COOKIE
   2
 
   3
 
   4
 
   6
 
   7
00000000.DRW
   8
 
   9

 300
 = 
 301
 = 
 302
 = 
 303
 = 
 304
 = 
 305
 = 
 306
 = 
 307
 = 
 308
 = 
 309
 = 
  40
0.0
  41
 2460200.5000000
  42
 2460200.5000000
   1

  90
10
   0
ENDSEC
   0
EOF
