   0
SECTION
   2
HEADER
   9
$ACADVER
   1
AC1015
   9
$DWGCODEPAGE
   3
ANSI_932
   9
$LIMMIN
  10
0.0
  20
0.0
   9
$LIMMAX
  10
 210.00000000000
  20
 148.50000000000
   9
$EXTMIN
  10
0.0
  20
0.0
  30
0.0
   9
$EXTMAX
  10
 210.00000000000
  20
 148.50000000000
  30
0.0
   9
$LTSCALE
  40
 4.2000000000000
   9
$HANDSEED
   5
596
   0
ENDSEC
   0
SECTION
   2
TABLES
  0
TABLE
  2
VPORT
  5
8
100
AcDbSymbolTable
 70
     1
  0
VPORT
  5
595
100
AcDbSymbolTableRecord
100
AcDbViewportTableRecord
  2
*ACTIVE
 70
     0
 10
0.0
 20
0.0
 11
1.0
 21
1.0
  12
 105.00000000000
  22
 74.250000000000
 13
0.0
 23
0.0
 14
1.0
 24
1.0
 15
0.0
 25
0.0
 16
0.0
 26
0.0
 36
1.0
 17
0.0
 27
0.0
 37
0.0
  40
 210.00000000000
  41
 1.4787878787879
 42
50.0
 43
0.0
 44
0.0
 50
0.0
 51
0.0
 71
     0
 72
   100
 73
     1
 74
     1
 75
     0
 76
     0
 77
     0
 78
     0
  0
ENDTAB
  0
TABLE
  2
LTYPE
  5
5
100
AcDbSymbolTable
 70
    25
  0
LTYPE
  5
12
100
AcDbSymbolTableRecord
100
AcDbLinetypeTableRecord
  2
BYBLOCK
 70
     0
  3

 72
    65
 73
     0
 40
0.0
  0
LTYPE
  5
13
100
AcDbSymbolTableRecord
100
AcDbLinetypeTableRecord
  2
BYLAYER
 70
     0
  3

 72
    65
 73
     0
 40
0.0
  0
LTYPE
  5
14
100
AcDbSymbolTableRecord
100
AcDbLinetypeTableRecord
  2
CONTINUOUS
 70
     0
  3
Solid line
 72
    65
 73
     0
 40
0.0
  0
LTYPE
  5
20
100
AcDbSymbolTableRecord
100
AcDbLinetypeTableRecord
  2
BORDER
 70
     0
  3
__ __ . __ __ . __ __ . __ __ . __ __ . __ __ .
 72
    65
 73
     6
 40
1.75
 49
0.5
 74
     0
 49
-0.25
 74
     0
 49
0.5
 74
     0
 49
-0.25
 74
     0
 49
0.0
 74
     0
 49
-0.25
 74
     0
  0
LTYPE
  5
21
100
AcDbSymbolTableRecord
100
AcDbLinetypeTableRecord
  2
BORDER2
 70
     0
  3
__.__.__.__.__.__.__.__.__.__.__.__.__.__.__.__
 72
    65
 73
     6
 40
0.875
 49
0.25
 74
     0
 49
-0.125
 74
     0
 49
0.25
 74
     0
 49
-0.125
 74
     0
 49
0.0
 74
     0
 49
-0.125
 74
     0
  0
LTYPE
  5
22
100
AcDbSymbolTableRecord
100
AcDbLinetypeTableRecord
  2
BORDERX2
 70
     0
  3
____  ____  .  ____  ____  .  ____  ____  .  __
 72
    65
 73
     6
 40
3.5
 49
1.0
 74
     0
 49
-0.5
 74
     0
 49
1.0
 74
     0
 49
-0.5
 74
     0
 49
0.0
 74
     0
 49
-0.5
 74
     0
  0
LTYPE
  5
23
100
AcDbSymbolTableRecord
100
AcDbLinetypeTableRecord
  2
CENTER
 70
     0
  3
____ _ ____ _ ____ _ ____ _ ____ _ ____ _ ____ 
 72
    65
 73
     4
 40
2.0
 49
1.25
 74
     0
 49
-0.25
 74
     0
 49
0.25
 74
     0
 49
-0.25
 74
     0
  0
LTYPE
  5
24
100
AcDbSymbolTableRecord
100
AcDbLinetypeTableRecord
  2
CENTER2
 70
     0
  3
___ _ ___ _ ___ _ ___ _ ___ _ ___ _ ___ _ ___ _
 72
    65
 73
     4
 40
1.125
 49
0.75
 74
     0
 49
-0.125
 74
     0
 49
0.125
 74
     0
 49
-0.125
 74
     0
  0
LTYPE
  5
25
100
AcDbSymbolTableRecord
100
AcDbLinetypeTableRecord
  2
CENTERX2
 70
     0
  3
________  __  ________  __  ________  __  _____
 72
    65
 73
     4
 40
4.0
 49
2.5
 74
     0
 49
-0.5
 74
     0
 49
0.5
 74
     0
 49
-0.5
 74
     0
  0
LTYPE
  5
26
100
AcDbSymbolTableRecord
100
AcDbLinetypeTableRecord
  2
DASHDOT
 70
     0
  3
__ . __ . __ . __ . __ . __ . __ . __ . __ . __
 72
    65
 73
     4
 40
1.0
 49
0.5
 74
     0
 49
-0.25
 74
     0
 49
0.0
 74
     0
 49
-0.25
 74
     0
  0
LTYPE
  5
27
100
AcDbSymbolTableRecord
100
AcDbLinetypeTableRecord
  2
DASHDOT2
 70
     0
  3
_._._._._._._._._._._._._._._._._._._._._._._._
 72
    65
 73
     4
 40
0.5
 49
0.25
 74
     0
 49
-0.125
 74
     0
 49
0.0
 74
     0
 49
-0.125
 74
     0
  0
LTYPE
  5
28
100
AcDbSymbolTableRecord
100
AcDbLinetypeTableRecord
  2
DASHDOTX2
 70
     0
  3
____  .  ____  .  ____  .  ____  .  ____  .  __
 72
    65
 73
     4
 40
2.0
 49
1.0
 74
     0
 49
-0.5
 74
     0
 49
0.0
 74
     0
 49
-0.5
 74
     0
  0
LTYPE
  5
29
100
AcDbSymbolTableRecord
100
AcDbLinetypeTableRecord
  2
DASHED
 70
     0
  3
__ __ __ __ __ __ __ __ __ __ __ __ __ __ __ __
 72
    65
 73
     2
 40
0.75
 49
0.5
 74
     0
 49
-0.25
 74
     0
  0
LTYPE
  5
2A
100
AcDbSymbolTableRecord
100
AcDbLinetypeTableRecord
  2
DASHED2
 70
     0
  3
_ _ _ _ _ _ _ _ _ _ _ _ _ _ _ _ _ _ _ _ _ _ _ _
 72
    65
 73
     2
 40
0.375
 49
0.25
 74
     0
 49
-0.125
 74
     0
  0
LTYPE
  5
2B
100
AcDbSymbolTableRecord
100
AcDbLinetypeTableRecord
  2
DASHEDX2
 70
     0
  3
____  ____  ____  ____  ____  ____  ____  ____ 
 72
    65
 73
     2
 40
1.5
 49
1.0
 74
     0
 49
-0.5
 74
     0
  0
LTYPE
  5
2C
100
AcDbSymbolTableRecord
100
AcDbLinetypeTableRecord
  2
DIVIDE
 70
     0
  3
____ . . ____ . . ____ . . ____ . . ____ . . __
 72
    65
 73
     6
 40
1.25
 49
0.5
 74
     0
 49
-0.25
 74
     0
 49
0.0
 74
     0
 49
-0.25
 74
     0
 49
0.0
 74
     0
 49
-0.25
 74
     0
  0
LTYPE
  5
2D
100
AcDbSymbolTableRecord
100
AcDbLinetypeTableRecord
  2
DIVIDE2
 70
     0
  3
__..__..__..__..__..__..__..__..__..__..__..__.
 72
    65
 73
     6
 40
0.625
 49
0.25
 74
     0
 49
-0.125
 74
     0
 49
0.0
 74
     0
 49
-0.125
 74
     0
 49
0.0
 74
     0
 49
-0.125
 74
     0
  0
LTYPE
  5
2E
100
AcDbSymbolTableRecord
100
AcDbLinetypeTableRecord
  2
DIVIDEX2
 70
     0
  3
________  .  .  ________  .  .  ________  .  . 
 72
    65
 73
     6
 40
2.5
 49
1.0
 74
     0
 49
-0.5
 74
     0
 49
0.0
 74
     0
 49
-0.5
 74
     0
 49
0.0
 74
     0
 49
-0.5
 74
     0
  0
LTYPE
  5
2F
100
AcDbSymbolTableRecord
100
AcDbLinetypeTableRecord
  2
DOT
 70
     0
  3
. . . . . . . . . . . . . . . . . . . . . . . .
 72
    65
 73
     2
 40
0.25
 49
0.0
 74
     0
 49
-0.25
 74
     0
  0
LTYPE
  5
30
100
AcDbSymbolTableRecord
100
AcDbLinetypeTableRecord
  2
DOT2
 70
     0
  3
...............................................
 72
    65
 73
     2
 40
0.125
 49
0.0
 74
     0
 49
-0.125
 74
     0
  0
LTYPE
  5
31
100
AcDbSymbolTableRecord
100
AcDbLinetypeTableRecord
  2
DOTX2
 70
     0
  3
.  .  .  .  .  .  .  .  .  .  .  .  .  .  .  . 
 72
    65
 73
     2
 40
0.5
 49
0.0
 74
     0
 49
-0.5
 74
     0
  0
LTYPE
  5
32
100
AcDbSymbolTableRecord
100
AcDbLinetypeTableRecord
  2
HIDDEN
 70
     0
  3
__ __ __ __ __ __ __ __ __ __ __ __ __ __ __ __
 72
    65
 73
     2
 40
0.375
 49
0.25
 74
     0
 49
-0.125
 74
     0
  0
LTYPE
  5
33
100
AcDbSymbolTableRecord
100
AcDbLinetypeTableRecord
  2
HIDDEN2
 70
     0
  3
_ _ _ _ _ _ _ _ _ _ _ _ _ _ _ _ _ _ _ _ _ _ _ _
 72
    65
 73
     2
 40
0.1875
 49
0.125
 74
     0
 49
-0.0625
 74
     0
  0
LTYPE
  5
34
100
AcDbSymbolTableRecord
100
AcDbLinetypeTableRecord
  2
HIDDENX2
 70
     0
  3
____ ____ ____ ____ ____ ____ ____ ____ ____ __
 72
    65
 73
     2
 40
0.75
 49
0.5
 74
     0
 49
-0.25
 74
     0
  0
LTYPE
  5
35
100
AcDbSymbolTableRecord
100
AcDbLinetypeTableRecord
  2
PHANTOM
 70
     0
  3
______  __  __  ______  __  __  ______  __  __ 
 72
    65
 73
     6
 40
2.5
 49
1.25
 74
     0
 49
-0.25
 74
     0
 49
0.25
 74
     0
 49
-0.25
 74
     0
 49
0.25
 74
     0
 49
-0.25
 74
     0
  0
LTYPE
  5
36
100
AcDbSymbolTableRecord
100
AcDbLinetypeTableRecord
  2
PHANTOM2
 70
     0
  3
___ _ _ ___ _ _ ___ _ _ ___ _ _ ___ _ _ ___ _ _
 72
    65
 73
     6
 40
1.25
 49
0.625
 74
     0
 49
-0.125
 74
     0
 49
0.125
 74
     0
 49
-0.125
 74
     0
 49
0.125
 74
     0
 49
-0.125
 74
     0
  0
LTYPE
  5
37
100
AcDbSymbolTableRecord
100
AcDbLinetypeTableRecord
  2
PHANTOMX2
 70
     0
  3
____________    ____    ____    ____________   
 72
    65
 73
     6
 40
5.0
 49
2.5
 74
     0
 49
-0.5
 74
     0
 49
0.5
 74
     0
 49
-0.5
 74
     0
 49
0.5
 74
     0
 49
-0.5
 74
     0
  0
ENDTAB
   0
TABLE
   2
LAYER
   5
2
 100
AcDbSymbolTable
  70
3
   0
LAYER
   5
E
 100
AcDbSymbolTableRecord
 100
AcDbLayerTableRecord
   2
0
  70
0
  62
7
   6
CONTINUOUS
 390
30
   0
LAYER
   5
39
 100
AcDbSymbolTableRecord
 100
AcDbLayerTableRecord
   2
LEVEL001
  70
0
  62
7
   6
CONTINUOUS
 390
30
   0
LAYER
   5
3A
 100
AcDbSymbolTableRecord
 100
AcDbLayerTableRecord
   2
LEVEL002
  70
0
  62
7
   6
CONTINUOUS
 390
30
   0
ENDTAB
  0
TABLE
  2
STYLE
  5
3
100
AcDbSymbolTable
  70
6
  0
STYLE
  5
F
100
AcDbSymbolTableRecord
100
AcDbTextStyleTableRecord
  2
STANDARD
 70
     0
 40
0.0
 41
1.0
 50
0.0
 71
     0
 42
0.2
  3
TXT
  4
BIGFONT
  0
STYLE
  5
38
100
AcDbSymbolTableRecord
100
AcDbTextStyleTableRecord
  2
STANDARD1
 70
     4
 40
0.0
 41
1.0
 50
0.0
 71
     0
 42
0.2
  3
TXT
  4
BIGFONT
   0
STYLE
   5
3B
 100
AcDbSymbolTableRecord
 100
AcDbTextStyleTableRecord
   2
GMM001
  70
0
  40
0.0
  41
 0.80000000000000
  50
0.0
  71
     0
  42
1.0
   3
txt.shx
   4
bigfont.shx
   0
STYLE
   5
3C
 100
AcDbSymbolTableRecord
 100
AcDbTextStyleTableRecord
   2
GMM002
  70
0
  40
0.0
  41
 1.0000000000000
  50
0.0
  71
     0
  42
1.0
   3
txt.shx
   4
bigfont.shx
   0
STYLE
   5
3D
 100
AcDbSymbolTableRecord
 100
AcDbTextStyleTableRecord
   2
GMM003
  70
0
  40
0.0
  41
 1.0714285714286
  50
0.0
  71
     0
  42
1.0
   3
txt.shx
   4
bigfont.shx
   0
STYLE
   5
3E
 100
AcDbSymbolTableRecord
 100
AcDbTextStyleTableRecord
   2
GMM004
  70
0
  40
0.0
  41
 0.88888888888889
  50
0.0
  71
     0
  42
1.0
   3
txt.shx
   4
bigfont.shx
   0
ENDTAB
  0
TABLE
  2
VIEW
  5
6
100
AcDbSymbolTable
 70
     0
  0
ENDTAB
  0
TABLE
  2
UCS
  5
7
100
AcDbSymbolTable
 70
     0
  0
ENDTAB
  0
TABLE
  2
APPID
  5
9
100
AcDbSymbolTable
 70
     1
  0
APPID
  5
10
100
AcDbSymbolTableRecord
100
AcDbRegAppTableRecord
  2
ACAD
 70
     0
  0
ENDTAB
   0
TABLE
   2
DIMSTYLE
   5
A
 100
AcDbSymbolTable
  70
10
 100
AcDbDimStyleTable
  0
DIMSTYLE
105
1D
100
AcDbSymbolTableRecord
100
AcDbDimStyleTableRecord
  2
STANDARD
 70
     0
  3

  4

  5

  6

  7

 40
1.0
 41
0.18
 42
0.0625
 43
0.38
 44
0.18
 45
0.0
 46
0.0
 47
0.0
 48
0.0
140
0.18
141
0.09
142
0.0
143
25.4
144
1.0
145
0.0
146
1.0
147
0.09
 71
     0
 72
     0
 73
     1
 74
     1
 75
     0
 76
     0
 77
     0
 78
     0
170
     0
171
     2
172
     0
173
     0
174
     0
175
     0
176
     0
177
     0
178
     0
270
     2
271
     4
272
     4
273
     2
274
     2
340
F
275
     0
280
     0
281
     0
282
     0
283
     1
284
     0
285
     0
286
     0
287
     3
288
     0
   0
DIMSTYLE
 105
3F
 100
AcDbSymbolTableRecord
 100
AcDbDimStyleTableRecord
   2
GMM001
  70
0
   3

   4

   5

   6

   7

  40
 1.0000000000000
  41
 1.0000000000000
  42
 0.50000000000000
  43
 4.0000000000000
  44
 0.50000000000000
  45
0.0
  46
0.0
  47
0.0
  48
0.0
 140
 1.5000000000000
 141
 0.50000000000000
 142
0.0
 143
 0.39400000000000E-1
 144
 1.0000000000000
 145
0.0
 146
 0.83333333333333
 147
 0.50000000000000
  71
0
  72
0
  73
0
  74
0
  75
0
  76
0
  77
3
  78
8
 170
0
 171
2
 172
1
 173
1
 174
0
 175
0
 176
8
 177
8
 178
8
 270
2
 271
6
 272
0
 273
2
 274
2
 340
3C
 275
1
 280
0
 281
0
 282
0
 283
1
 284
0
 285
0
 286
0
 287
3
 288
0
   0
DIMSTYLE
 105
40
 100
AcDbSymbolTableRecord
 100
AcDbDimStyleTableRecord
   2
GMM002
  70
0
   3

   4

   5

   6

   7

  40
 1.0000000000000
  41
 1.0000000000000
  42
 0.50000000000000
  43
 4.0000000000000
  44
 0.50000000000000
  45
0.0
  46
0.0
  47
0.0
  48
0.0
 140
 1.2500000000000
 141
 0.50000000000000
 142
0.0
 143
 0.39400000000000E-1
 144
 1.0000000000000
 145
0.0
 146
 1.0000000000000
 147
 0.50000000000000
  71
0
  72
0
  73
0
  74
0
  75
0
  76
0
  77
3
  78
8
 170
0
 171
2
 172
1
 173
1
 174
0
 175
0
 176
8
 177
8
 178
8
 270
2
 271
6
 272
0
 273
2
 274
2
 340
3C
 275
0
 280
0
 281
0
 282
0
 283
1
 284
0
 285
0
 286
0
 287
3
 288
0
   0
DIMSTYLE
 105
41
 100
AcDbSymbolTableRecord
 100
AcDbDimStyleTableRecord
   2
GMM003
  70
0
   3

   4

   5

   6
_NONE
   7

  40
 1.0000000000000
  41
 1.0000000000000
  42
 0.50000000000000
  43
 4.0000000000000
  44
 0.50000000000000
  45
0.0
  46
0.0
  47
0.0
  48
0.0
 140
 1.2500000000000
 141
 0.50000000000000
 142
0.0
 143
 0.39400000000000E-1
 144
 1.0000000000000
 145
0.0
 146
 1.0000000000000
 147
 0.54782926519152
  71
0
  72
0
  73
0
  74
0
  75
0
  76
0
  77
3
  78
8
 170
0
 171
2
 172
1
 173
1
 174
0
 175
0
 176
8
 177
8
 178
8
 270
2
 271
6
 272
0
 273
2
 274
2
 340
3C
 275
0
 280
0
 281
0
 282
0
 283
1
 284
0
 285
0
 286
0
 287
3
 288
1
   0
DIMSTYLE
 105
42
 100
AcDbSymbolTableRecord
 100
AcDbDimStyleTableRecord
   2
GMM004
  70
0
   3

   4

   5

   6

   7

  40
 1.0000000000000
  41
 1.0000000000000
  42
 0.50000000000000
  43
 4.0000000000000
  44
 0.50000000000000
  45
0.0
  46
0.0
  47
0.0
  48
0.0
 140
 1.5000000000000
 141
 0.50000000000000
 142
0.0
 143
 0.39400000000000E-1
 144
 1.0000000000000
 145
0.0
 146
 0.83333333333333
 147
 0.50000000000000
  71
0
  72
0
  73
0
  74
0
  75
0
  76
0
  77
3
  78
0
 170
0
 171
2
 172
1
 173
1
 174
0
 175
0
 176
8
 177
8
 178
8
 270
2
 271
0
 272
0
 273
2
 274
2
 340
3C
 275
1
 280
0
 281
0
 282
0
 283
1
 284
0
 285
0
 286
0
 287
3
 288
0
   0
DIMSTYLE
 105
43
 100
AcDbSymbolTableRecord
 100
AcDbDimStyleTableRecord
   2
GMM005
  70
0
   3

   4

   5

   6
_NONE
   7

  40
 1.0000000000000
  41
 1.0000000000000
  42
 0.50000000000000
  43
 4.0000000000000
  44
 0.50000000000000
  45
0.0
  46
0.0
  47
0.0
  48
0.0
 140
 1.2500000000000
 141
 0.50000000000000
 142
0.0
 143
 0.39400000000000E-1
 144
 1.0000000000000
 145
0.0
 146
 1.0000000000000
 147
 0.49507903212144
  71
0
  72
0
  73
0
  74
0
  75
0
  76
0
  77
3
  78
8
 170
0
 171
2
 172
1
 173
1
 174
0
 175
0
 176
8
 177
8
 178
8
 270
2
 271
6
 272
0
 273
2
 274
2
 340
3C
 275
0
 280
0
 281
0
 282
0
 283
1
 284
0
 285
0
 286
0
 287
3
 288
1
   0
DIMSTYLE
 105
44
 100
AcDbSymbolTableRecord
 100
AcDbDimStyleTableRecord
   2
GMM006
  70
0
   3

   4

   5

   6
_NONE
   7

  40
 1.0000000000000
  41
 1.0000000000000
  42
 0.50000000000000
  43
 4.0000000000000
  44
 0.50000000000000
  45
0.0
  46
0.0
  47
0.0
  48
0.0
 140
 1.2500000000000
 141
 0.50000000000000
 142
0.0
 143
 0.39400000000000E-1
 144
 1.0000000000000
 145
0.0
 146
 1.0000000000000
 147
 0.46122023052813
  71
0
  72
0
  73
0
  74
0
  75
0
  76
0
  77
3
  78
8
 170
0
 171
2
 172
1
 173
1
 174
0
 175
0
 176
8
 177
8
 178
8
 270
2
 271
6
 272
0
 273
2
 274
2
 340
3C
 275
0
 280
0
 281
0
 282
0
 283
1
 284
0
 285
0
 286
0
 287
3
 288
1
   0
DIMSTYLE
 105
45
 100
AcDbSymbolTableRecord
 100
AcDbDimStyleTableRecord
   2
GMM007
  70
0
   3

   4

   5

   6
_NONE
   7

  40
 1.0000000000000
  41
 1.0000000000000
  42
 0.50000000000000
  43
 4.0000000000000
  44
 0.50000000000000
  45
0.0
  46
0.0
  47
0.0
  48
0.0
 140
 1.2500000000000
 141
 0.50000000000000
 142
0.0
 143
 0.39400000000000E-1
 144
 1.0000000000000
 145
0.0
 146
 1.0000000000000
 147
 0.55881324688347
  71
0
  72
0
  73
0
  74
0
  75
0
  76
0
  77
3
  78
8
 170
0
 171
2
 172
1
 173
1
 174
0
 175
0
 176
8
 177
8
 178
8
 270
2
 271
6
 272
0
 273
2
 274
2
 340
3C
 275
0
 280
0
 281
0
 282
0
 283
1
 284
0
 285
0
 286
0
 287
3
 288
1
   0
DIMSTYLE
 105
46
 100
AcDbSymbolTableRecord
 100
AcDbDimStyleTableRecord
   2
GMM008
  70
0
   3

   4

   5

   6
_NONE
   7

  40
 1.0000000000000
  41
 1.0000000000000
  42
 0.50000000000000
  43
 4.0000000000000
  44
 0.50000000000000
  45
0.0
  46
0.0
  47
0.0
  48
0.0
 140
 1.2500000000000
 141
 0.50000000000000
 142
0.0
 143
 0.39400000000000E-1
 144
 1.0000000000000
 145
0.0
 146
 1.0000000000000
 147
 0.53041253496071
  71
0
  72
0
  73
0
  74
0
  75
0
  76
0
  77
3
  78
8
 170
0
 171
2
 172
1
 173
1
 174
0
 175
0
 176
8
 177
8
 178
8
 270
2
 271
6
 272
0
 273
2
 274
2
 340
3C
 275
0
 280
0
 281
0
 282
0
 283
1
 284
0
 285
0
 286
0
 287
3
 288
1
   0
ENDTAB
  0
TABLE
  2
BLOCK_RECORD
  5
1
100
AcDbSymbolTable
 70
     0
  0
BLOCK_RECORD
  5
18
100
AcDbSymbolTableRecord
100
AcDbBlockTableRecord
  2
*MODEL_SPACE
  0
BLOCK_RECORD
  5
15
100
AcDbSymbolTableRecord
100
AcDbBlockTableRecord
  2
*PAPER_SPACE
   0
BLOCK_RECORD
   5
47
 100
AcDbSymbolTableRecord
 100
AcDbBlockTableRecord
   2
*D1
   0
BLOCK_RECORD
   5
48
 100
AcDbSymbolTableRecord
 100
AcDbBlockTableRecord
   2
*D2
   0
BLOCK_RECORD
   5
49
 100
AcDbSymbolTableRecord
 100
AcDbBlockTableRecord
   2
*D3
   0
BLOCK_RECORD
   5
4A
 100
AcDbSymbolTableRecord
 100
AcDbBlockTableRecord
   2
*D4
   0
BLOCK_RECORD
   5
4B
 100
AcDbSymbolTableRecord
 100
AcDbBlockTableRecord
   2
*D5
   0
BLOCK_RECORD
   5
4C
 100
AcDbSymbolTableRecord
 100
AcDbBlockTableRecord
   2
*D6
   0
BLOCK_RECORD
   5
4D
 100
AcDbSymbolTableRecord
 100
AcDbBlockTableRecord
   2
*D7
   0
BLOCK_RECORD
   5
4E
 100
AcDbSymbolTableRecord
 100
AcDbBlockTableRecord
   2
*D8
   0
BLOCK_RECORD
   5
4F
 100
AcDbSymbolTableRecord
 100
AcDbBlockTableRecord
   2
*D9
   0
BLOCK_RECORD
   5
50
 100
AcDbSymbolTableRecord
 100
AcDbBlockTableRecord
   2
*D10
   0
BLOCK_RECORD
   5
51
 100
AcDbSymbolTableRecord
 100
AcDbBlockTableRecord
   2
*D11
   0
BLOCK_RECORD
   5
52
 100
AcDbSymbolTableRecord
 100
AcDbBlockTableRecord
   2
*D12
   0
BLOCK_RECORD
   5
53
 100
AcDbSymbolTableRecord
 100
AcDbBlockTableRecord
   2
*D13
   0
BLOCK_RECORD
   5
54
 100
AcDbSymbolTableRecord
 100
AcDbBlockTableRecord
   2
*D14
   0
BLOCK_RECORD
   5
55
 100
AcDbSymbolTableRecord
 100
AcDbBlockTableRecord
   2
*D15
   0
BLOCK_RECORD
   5
56
 100
AcDbSymbolTableRecord
 100
AcDbBlockTableRecord
   2
*D16
   0
BLOCK_RECORD
   5
57
 100
AcDbSymbolTableRecord
 100
AcDbBlockTableRecord
   2
*D17
   0
BLOCK_RECORD
   5
58
 100
AcDbSymbolTableRecord
 100
AcDbBlockTableRecord
   2
*D18
   0
BLOCK_RECORD
   5
59
 100
AcDbSymbolTableRecord
 100
AcDbBlockTableRecord
   2
*D19
   0
BLOCK_RECORD
   5
5A
 100
AcDbSymbolTableRecord
 100
AcDbBlockTableRecord
   2
*D20
   0
BLOCK_RECORD
   5
5B
 100
AcDbSymbolTableRecord
 100
AcDbBlockTableRecord
   2
*D21
   0
BLOCK_RECORD
   5
5C
 100
AcDbSymbolTableRecord
 100
AcDbBlockTableRecord
   2
*D22
   0
BLOCK_RECORD
   5
5D
 100
AcDbSymbolTableRecord
 100
AcDbBlockTableRecord
   2
*D23
   0
BLOCK_RECORD
   5
5E
 100
AcDbSymbolTableRecord
 100
AcDbBlockTableRecord
   2
*D24
   0
BLOCK_RECORD
   5
5F
 100
AcDbSymbolTableRecord
 100
AcDbBlockTableRecord
   2
*D25
   0
BLOCK_RECORD
   5
60
 100
AcDbSymbolTableRecord
 100
AcDbBlockTableRecord
   2
*D26
   0
BLOCK_RECORD
   5
61
 100
AcDbSymbolTableRecord
 100
AcDbBlockTableRecord
   2
*D27
   0
BLOCK_RECORD
   5
62
 100
AcDbSymbolTableRecord
 100
AcDbBlockTableRecord
   2
*D28
   0
BLOCK_RECORD
   5
63
 100
AcDbSymbolTableRecord
 100
AcDbBlockTableRecord
   2
*D29
   0
BLOCK_RECORD
   5
64
 100
AcDbSymbolTableRecord
 100
AcDbBlockTableRecord
   2
*D30
   0
BLOCK_RECORD
   5
65
 100
AcDbSymbolTableRecord
 100
AcDbBlockTableRecord
   2
*D31
   0
BLOCK_RECORD
   5
66
 100
AcDbSymbolTableRecord
 100
AcDbBlockTableRecord
   2
*D32
   0
BLOCK_RECORD
   5
67
 100
AcDbSymbolTableRecord
 100
AcDbBlockTableRecord
   2
*D33
   0
BLOCK_RECORD
   5
68
 100
AcDbSymbolTableRecord
 100
AcDbBlockTableRecord
   2
*D34
   0
BLOCK_RECORD
   5
69
 100
AcDbSymbolTableRecord
 100
AcDbBlockTableRecord
   2
*D35
   0
BLOCK_RECORD
   5
6A
 100
AcDbSymbolTableRecord
 100
AcDbBlockTableRecord
   2
*D36
   0
BLOCK_RECORD
   5
6B
 100
AcDbSymbolTableRecord
 100
AcDbBlockTableRecord
   2
*D37
   0
BLOCK_RECORD
   5
6C
 100
AcDbSymbolTableRecord
 100
AcDbBlockTableRecord
   2
*D38
   0
BLOCK_RECORD
   5
6D
 100
AcDbSymbolTableRecord
 100
AcDbBlockTableRecord
   2
*D39
   0
BLOCK_RECORD
   5
6E
 100
AcDbSymbolTableRecord
 100
AcDbBlockTableRecord
   2
*D40
   0
BLOCK_RECORD
   5
6F
 100
AcDbSymbolTableRecord
 100
AcDbBlockTableRecord
   2
*D41
   0
BLOCK_RECORD
   5
70
 100
AcDbSymbolTableRecord
 100
AcDbBlockTableRecord
   2
*D42
   0
BLOCK_RECORD
   5
71
 100
AcDbSymbolTableRecord
 100
AcDbBlockTableRecord
   2
*D43
   0
BLOCK_RECORD
   5
72
 100
AcDbSymbolTableRecord
 100
AcDbBlockTableRecord
   2
*D44
   0
BLOCK_RECORD
   5
73
 100
AcDbSymbolTableRecord
 100
AcDbBlockTableRecord
   2
*D45
   0
BLOCK_RECORD
   5
74
 100
AcDbSymbolTableRecord
 100
AcDbBlockTableRecord
   2
*D46
   0
BLOCK_RECORD
   5
75
 100
AcDbSymbolTableRecord
 100
AcDbBlockTableRecord
   2
*D47
   0
BLOCK_RECORD
   5
76
 100
AcDbSymbolTableRecord
 100
AcDbBlockTableRecord
   2
*D48
   0
BLOCK_RECORD
   5
77
 100
AcDbSymbolTableRecord
 100
AcDbBlockTableRecord
   2
*D49
   0
BLOCK_RECORD
   5
78
 100
AcDbSymbolTableRecord
 100
AcDbBlockTableRecord
   2
*D50
   0
BLOCK_RECORD
   5
79
 100
AcDbSymbolTableRecord
 100
AcDbBlockTableRecord
   2
*D51
   0
BLOCK_RECORD
   5
7A
 100
AcDbSymbolTableRecord
 100
AcDbBlockTableRecord
   2
_ARCHTICK
   0
BLOCK_RECORD
   5
7B
 100
AcDbSymbolTableRecord
 100
AcDbBlockTableRecord
   2
_BOXBLANK
   0
BLOCK_RECORD
   5
7C
 100
AcDbSymbolTableRecord
 100
AcDbBlockTableRecord
   2
_BOXFILLED
   0
BLOCK_RECORD
   5
7D
 100
AcDbSymbolTableRecord
 100
AcDbBlockTableRecord
   2
_CLOSED
   0
BLOCK_RECORD
   5
7E
 100
AcDbSymbolTableRecord
 100
AcDbBlockTableRecord
   2
_CLOSEDBLANK
   0
BLOCK_RECORD
   5
7F
 100
AcDbSymbolTableRecord
 100
AcDbBlockTableRecord
   2
_DATUMBLANK
   0
BLOCK_RECORD
   5
80
 100
AcDbSymbolTableRecord
 100
AcDbBlockTableRecord
   2
_DATUMFILLED
   0
BLOCK_RECORD
   5
81
 100
AcDbSymbolTableRecord
 100
AcDbBlockTableRecord
   2
_DOT
   0
BLOCK_RECORD
   5
82
 100
AcDbSymbolTableRecord
 100
AcDbBlockTableRecord
   2
_DOTBLANK
   0
BLOCK_RECORD
   5
83
 100
AcDbSymbolTableRecord
 100
AcDbBlockTableRecord
   2
_DOTSMALL
   0
BLOCK_RECORD
   5
84
 100
AcDbSymbolTableRecord
 100
AcDbBlockTableRecord
   2
_INTEGRAL
   0
BLOCK_RECORD
   5
85
 100
AcDbSymbolTableRecord
 100
AcDbBlockTableRecord
   2
_NONE
   0
BLOCK_RECORD
   5
86
 100
AcDbSymbolTableRecord
 100
AcDbBlockTableRecord
   2
_OBLIQUE
   0
BLOCK_RECORD
   5
87
 100
AcDbSymbolTableRecord
 100
AcDbBlockTableRecord
   2
_OPEN
   0
BLOCK_RECORD
   5
88
 100
AcDbSymbolTableRecord
 100
AcDbBlockTableRecord
   2
_OPEN30
   0
BLOCK_RECORD
   5
89
 100
AcDbSymbolTableRecord
 100
AcDbBlockTableRecord
   2
_OPEN90
   0
BLOCK_RECORD
   5
8A
 100
AcDbSymbolTableRecord
 100
AcDbBlockTableRecord
   2
_ORIGIN
   0
ENDTAB
   0
ENDSEC
  0
SECTION
  2
BLOCKS
  0
BLOCK
  5
19
100
AcDbEntity
  8
0
100
AcDbBlockBegin
  2
*MODEL_SPACE
 70
     0
 10
0.0
 20
0.0
 30
0.0
  3
*MODEL_SPACE
  1

  0
ENDBLK
  5
1A
100
AcDbEntity
  8
0
100
AcDbBlockEnd
  0
BLOCK
  5
16
100
AcDbEntity
 67
     1
  8
0
100
AcDbBlockBegin
  2
*PAPER_SPACE
 70
     0
 10
0.0
 20
0.0
 30
0.0
  3
*PAPER_SPACE
  1

  0
ENDBLK
  5
17
100
AcDbEntity
 67
     1
  8
0
100
AcDbBlockEnd
   0
BLOCK
   5
8B
 100
AcDbEntity
   8
0
 100
AcDbBlockBegin
   2
_ARCHTICK
  70
0
  10
0.0
  20
0.0
  30
0.0
   3
_ARCHTICK
   0
POLYLINE
   5
8C
 100
AcDbEntity
   8
0
 370
-2
   6
BYBLOCK
  62
0
 100
AcDb2dPolyline
  66
1
  10
0.0
  20
0.0
  30
0.0
  70
1
  40
 0.15000000000000
  41
 0.15000000000000
   0
VERTEX
   5
8D
 100
AcDbEntity
   8
0
   6
BYBLOCK
  62
0
 100
AcDbVertex
 100
AcDb2dVertex
  10
-0.50000000000000
  20
-0.50000000000000
  30
0.0
  40
 0.15000000000000
  41
 0.15000000000000
   0
VERTEX
   5
8E
 100
AcDbEntity
   8
0
   6
BYBLOCK
  62
0
 100
AcDbVertex
 100
AcDb2dVertex
  10
 0.50000000000000
  20
 0.50000000000000
  30
0.0
  40
 0.15000000000000
  41
 0.15000000000000
   0
SEQEND
   5
8F
 100
AcDbEntity
   8
0
   6
BYBLOCK
  62
0
   0
ENDBLK
   5
90
 100
AcDbEntity
   8
0
 100
AcDbBlockEnd
   0
BLOCK
   5
91
 100
AcDbEntity
   8
0
 100
AcDbBlockBegin
   2
_OBLIQUE
  70
0
  10
0.0
  20
0.0
  30
0.0
   3
_OBLIQUE
   0
LINE
   5
92
 100
AcDbEntity
   8
0
 370
-2
 100
AcDbLine
   6
BYBLOCK
  62
0
  10
-0.50000000000000
  20
-0.50000000000000
  30
0.0
  11
 0.50000000000000
  21
 0.50000000000000
  31
0.0
   0
ENDBLK
   5
93
 100
AcDbEntity
   8
0
 100
AcDbBlockEnd
   0
BLOCK
   5
94
 100
AcDbEntity
   8
0
 100
AcDbBlockBegin
   2
_BOXBLANK
  70
0
  10
0.0
  20
0.0
  30
0.0
   3
_BOXBLANK
   0
LINE
   5
95
 100
AcDbEntity
   8
0
 370
-2
 100
AcDbLine
   6
BYBLOCK
  62
0
  10
-0.50000000000000
  20
-0.50000000000000
  30
0.0
  11
 0.50000000000000
  21
-0.50000000000000
  31
0.0
   0
LINE
   5
96
 100
AcDbEntity
   8
0
 370
-2
 100
AcDbLine
   6
BYBLOCK
  62
0
  10
 0.50000000000000
  20
-0.50000000000000
  30
0.0
  11
 0.50000000000000
  21
 0.50000000000000
  31
0.0
   0
LINE
   5
97
 100
AcDbEntity
   8
0
 370
-2
 100
AcDbLine
   6
BYBLOCK
  62
0
  10
 0.50000000000000
  20
 0.50000000000000
  30
0.0
  11
-0.50000000000000
  21
 0.50000000000000
  31
0.0
   0
LINE
   5
98
 100
AcDbEntity
   8
0
 370
-2
 100
AcDbLine
   6
BYBLOCK
  62
0
  10
-0.50000000000000
  20
 0.50000000000000
  30
0.0
  11
-0.50000000000000
  21
-0.50000000000000
  31
0.0
   0
LINE
   5
99
 100
AcDbEntity
   8
0
 370
-2
 100
AcDbLine
   6
BYBLOCK
  62
0
  10
-0.50000000000000
  20
0.0
  30
0.0
  11
-1.0000000000000
  21
0.0
  31
0.0
   0
ENDBLK
   5
9A
 100
AcDbEntity
   8
0
 100
AcDbBlockEnd
   0
BLOCK
   5
9B
 100
AcDbEntity
   8
0
 100
AcDbBlockBegin
   2
_BOXFILLED
  70
0
  10
0.0
  20
0.0
  30
0.0
   3
_BOXFILLED
   0
SOLID
   5
9C
 100
AcDbEntity
   8
0
 100
AcDbTrace
   6
BYBLOCK
  62
0
  10
-0.50000000000000
  20
 0.50000000000000
  30
0.0
  11
 0.50000000000000
  21
 0.50000000000000
  31
0.0
  12
-0.50000000000000
  22
-0.50000000000000
  32
0.0
  13
 0.50000000000000
  23
-0.50000000000000
  33
0.0
   0
LINE
   5
9D
 100
AcDbEntity
   8
0
 370
-2
 100
AcDbLine
   6
BYBLOCK
  62
0
  10
-0.50000000000000
  20
0.0
  30
0.0
  11
-1.0000000000000
  21
0.0
  31
0.0
   0
ENDBLK
   5
9E
 100
AcDbEntity
   8
0
 100
AcDbBlockEnd
   0
BLOCK
   5
9F
 100
AcDbEntity
   8
0
 100
AcDbBlockBegin
   2
_CLOSED
  70
0
  10
0.0
  20
0.0
  30
0.0
   3
_CLOSED
   0
LINE
   5
A0
 100
AcDbEntity
   8
0
 370
-2
 100
AcDbLine
   6
BYBLOCK
  62
0
  10
-1.0000000000000
  20
 0.16666666666667
  30
0.0
  11
0.0
  21
0.0
  31
0.0
   0
LINE
   5
A1
 100
AcDbEntity
   8
0
 370
-2
 100
AcDbLine
   6
BYBLOCK
  62
0
  10
0.0
  20
0.0
  30
0.0
  11
-1.0000000000000
  21
-0.16666666666667
  31
0.0
   0
LINE
   5
A2
 100
AcDbEntity
   8
0
 370
-2
 100
AcDbLine
   6
BYBLOCK
  62
0
  10
-1.0000000000000
  20
 0.16666666666667
  30
0.0
  11
-1.0000000000000
  21
-0.16666666666667
  31
0.0
   0
LINE
   5
A3
 100
AcDbEntity
   8
0
 370
-2
 100
AcDbLine
   6
BYBLOCK
  62
0
  10
0.0
  20
0.0
  30
0.0
  11
-1.0000000000000
  21
0.0
  31
0.0
   0
ENDBLK
   5
A4
 100
AcDbEntity
   8
0
 100
AcDbBlockEnd
   0
BLOCK
   5
A5
 100
AcDbEntity
   8
0
 100
AcDbBlockBegin
   2
_OPEN
  70
0
  10
0.0
  20
0.0
  30
0.0
   3
_OPEN
   0
LINE
   5
A6
 100
AcDbEntity
   8
0
 370
-2
 100
AcDbLine
   6
BYBLOCK
  62
0
  10
-1.0000000000000
  20
 0.16666666666667
  30
0.0
  11
0.0
  21
0.0
  31
0.0
   0
LINE
   5
A7
 100
AcDbEntity
   8
0
 370
-2
 100
AcDbLine
   6
BYBLOCK
  62
0
  10
0.0
  20
0.0
  30
0.0
  11
-1.0000000000000
  21
-0.16666666666667
  31
0.0
   0
LINE
   5
A8
 100
AcDbEntity
   8
0
 370
-2
 100
AcDbLine
   6
BYBLOCK
  62
0
  10
0.0
  20
0.0
  30
0.0
  11
-1.0000000000000
  21
0.0
  31
0.0
   0
ENDBLK
   5
A9
 100
AcDbEntity
   8
0
 100
AcDbBlockEnd
   0
BLOCK
   5
AA
 100
AcDbEntity
   8
0
 100
AcDbBlockBegin
   2
_OPEN30
  70
0
  10
0.0
  20
0.0
  30
0.0
   3
_OPEN30
   0
LINE
   5
AB
 100
AcDbEntity
   8
0
 370
-2
 100
AcDbLine
   6
BYBLOCK
  62
0
  10
-1.0000000000000
  20
 0.26794919243110
  30
0.0
  11
0.0
  21
0.0
  31
0.0
   0
LINE
   5
AC
 100
AcDbEntity
   8
0
 370
-2
 100
AcDbLine
   6
BYBLOCK
  62
0
  10
0.0
  20
0.0
  30
0.0
  11
-1.0000000000000
  21
-0.26794919243110
  31
0.0
   0
LINE
   5
AD
 100
AcDbEntity
   8
0
 370
-2
 100
AcDbLine
   6
BYBLOCK
  62
0
  10
0.0
  20
0.0
  30
0.0
  11
-1.0000000000000
  21
0.0
  31
0.0
   0
ENDBLK
   5
AE
 100
AcDbEntity
   8
0
 100
AcDbBlockEnd
   0
BLOCK
   5
AF
 100
AcDbEntity
   8
0
 100
AcDbBlockBegin
   2
_OPEN90
  70
0
  10
0.0
  20
0.0
  30
0.0
   3
_OPEN90
   0
LINE
   5
B0
 100
AcDbEntity
   8
0
 370
-2
 100
AcDbLine
   6
BYBLOCK
  62
0
  10
-0.50000000000000
  20
 0.50000000000000
  30
0.0
  11
0.0
  21
0.0
  31
0.0
   0
LINE
   5
B1
 100
AcDbEntity
   8
0
 370
-2
 100
AcDbLine
   6
BYBLOCK
  62
0
  10
0.0
  20
0.0
  30
0.0
  11
-0.50000000000000
  21
-0.50000000000000
  31
0.0
   0
LINE
   5
B2
 100
AcDbEntity
   8
0
 370
-2
 100
AcDbLine
   6
BYBLOCK
  62
0
  10
0.0
  20
0.0
  30
0.0
  11
-1.0000000000000
  21
0.0
  31
0.0
   0
ENDBLK
   5
B3
 100
AcDbEntity
   8
0
 100
AcDbBlockEnd
   0
BLOCK
   5
B4
 100
AcDbEntity
   8
0
 100
AcDbBlockBegin
   2
_CLOSEDBLANK
  70
0
  10
0.0
  20
0.0
  30
0.0
   3
_CLOSEDBLANK
   0
LINE
   5
B5
 100
AcDbEntity
   8
0
 370
-2
 100
AcDbLine
   6
BYBLOCK
  62
0
  10
-1.0000000000000
  20
 0.16666666666667
  30
0.0
  11
0.0
  21
0.0
  31
0.0
   0
LINE
   5
B6
 100
AcDbEntity
   8
0
 370
-2
 100
AcDbLine
   6
BYBLOCK
  62
0
  10
0.0
  20
0.0
  30
0.0
  11
-1.0000000000000
  21
-0.16666666666667
  31
0.0
   0
LINE
   5
B7
 100
AcDbEntity
   8
0
 370
-2
 100
AcDbLine
   6
BYBLOCK
  62
0
  10
-1.0000000000000
  20
 0.16666666666667
  30
0.0
  11
-1.0000000000000
  21
-0.16666666666667
  31
0.0
   0
ENDBLK
   5
B8
 100
AcDbEntity
   8
0
 100
AcDbBlockEnd
   0
BLOCK
   5
B9
 100
AcDbEntity
   8
0
 100
AcDbBlockBegin
   2
_DOT
  70
0
  10
0.0
  20
0.0
  30
0.0
   3
_DOT
   0
POLYLINE
   5
BA
 100
AcDbEntity
   8
0
 370
-2
   6
BYBLOCK
  62
0
 100
AcDb2dPolyline
  66
1
  10
0.0
  20
0.0
  30
0.0
  70
1
  40
 0.50000000000000
  41
 0.50000000000000
   0
VERTEX
   5
BB
 100
AcDbEntity
   8
0
   6
BYBLOCK
  62
0
 100
AcDbVertex
 100
AcDb2dVertex
  10
-0.25000000000000
  20
0.0
  30
0.0
  42
 1.0000000000000
  40
 0.50000000000000
  41
 0.50000000000000
   0
VERTEX
   5
BC
 100
AcDbEntity
   8
0
   6
BYBLOCK
  62
0
 100
AcDbVertex
 100
AcDb2dVertex
  10
 0.25000000000000
  20
0.0
  30
0.0
  42
 1.0000000000000
  40
 0.50000000000000
  41
 0.50000000000000
   0
SEQEND
   5
BD
 100
AcDbEntity
   8
0
   6
BYBLOCK
  62
0
   0
LINE
   5
BE
 100
AcDbEntity
   8
0
 370
-2
 100
AcDbLine
   6
BYBLOCK
  62
0
  10
-0.50000000000000
  20
0.0
  30
0.0
  11
-1.0000000000000
  21
0.0
  31
0.0
   0
ENDBLK
   5
BF
 100
AcDbEntity
   8
0
 100
AcDbBlockEnd
   0
BLOCK
   5
C0
 100
AcDbEntity
   8
0
 100
AcDbBlockBegin
   2
_DOTSMALL
  70
0
  10
0.0
  20
0.0
  30
0.0
   3
_DOTSMALL
   0
POLYLINE
   5
C1
 100
AcDbEntity
   8
0
 370
-2
   6
BYBLOCK
  62
0
 100
AcDb2dPolyline
  66
1
  10
0.0
  20
0.0
  30
0.0
  70
1
  40
 0.50000000000000
  41
 0.50000000000000
   0
VERTEX
   5
C2
 100
AcDbEntity
   8
0
   6
BYBLOCK
  62
0
 100
AcDbVertex
 100
AcDb2dVertex
  10
-0.62500000000000E-1
  20
0.0
  30
0.0
  42
 1.0000000000000
  40
 0.50000000000000
  41
 0.50000000000000
   0
VERTEX
   5
C3
 100
AcDbEntity
   8
0
   6
BYBLOCK
  62
0
 100
AcDbVertex
 100
AcDb2dVertex
  10
 0.62500000000000E-1
  20
0.0
  30
0.0
  42
 1.0000000000000
  40
 0.50000000000000
  41
 0.50000000000000
   0
SEQEND
   5
C4
 100
AcDbEntity
   8
0
   6
BYBLOCK
  62
0
   0
ENDBLK
   5
C5
 100
AcDbEntity
   8
0
 100
AcDbBlockEnd
   0
BLOCK
   5
C6
 100
AcDbEntity
   8
0
 100
AcDbBlockBegin
   2
_DATUMBLANK
  70
0
  10
0.0
  20
0.0
  30
0.0
   3
_DATUMBLANK
   0
LINE
   5
C7
 100
AcDbEntity
   8
0
 370
-2
 100
AcDbLine
   6
BYBLOCK
  62
0
  10
0.0
  20
 0.57735027000000
  30
0.0
  11
-1.0000000000000
  21
0.0
  31
0.0
   0
LINE
   5
C8
 100
AcDbEntity
   8
0
 370
-2
 100
AcDbLine
   6
BYBLOCK
  62
0
  10
-1.0000000000000
  20
0.0
  30
0.0
  11
0.0
  21
-0.57735027000000
  31
0.0
   0
LINE
   5
C9
 100
AcDbEntity
   8
0
 370
-2
 100
AcDbLine
   6
BYBLOCK
  62
0
  10
0.0
  20
-0.57735027000000
  30
0.0
  11
0.0
  21
 0.57735027000000
  31
0.0
   0
ENDBLK
   5
CA
 100
AcDbEntity
   8
0
 100
AcDbBlockEnd
   0
BLOCK
   5
CB
 100
AcDbEntity
   8
0
 100
AcDbBlockBegin
   2
_DATUMFILLED
  70
0
  10
0.0
  20
0.0
  30
0.0
   3
_DATUMFILLED
   0
SOLID
   5
CC
 100
AcDbEntity
   8
0
 100
AcDbTrace
   6
BYBLOCK
  62
0
  10
0.0
  20
 0.57735027000000
  30
0.0
  11
-1.0000000000000
  21
0.0
  31
0.0
  12
0.0
  22
-0.57735027000000
  32
0.0
  13
0.0
  23
-0.57735027000000
  33
0.0
   0
ENDBLK
   5
CD
 100
AcDbEntity
   8
0
 100
AcDbBlockEnd
   0
BLOCK
   5
CE
 100
AcDbEntity
   8
0
 100
AcDbBlockBegin
   2
_ORIGIN
  70
0
  10
0.0
  20
0.0
  30
0.0
   3
_ORIGIN
   0
CIRCLE
   5
CF
 100
AcDbEntity
   8
0
 370
-2
 100
AcDbCircle
   6
BYBLOCK
  62
0
  10
0.0
  20
0.0
  30
0.0
  40
 0.50000000000000
   0
LINE
   5
D0
 100
AcDbEntity
   8
0
 370
-2
 100
AcDbLine
   6
BYBLOCK
  62
0
  10
0.0
  20
0.0
  30
0.0
  11
-1.0000000000000
  21
0.0
  31
0.0
   0
ENDBLK
   5
D1
 100
AcDbEntity
   8
0
 100
AcDbBlockEnd
   0
BLOCK
   5
D2
 100
AcDbEntity
   8
0
 100
AcDbBlockBegin
   2
_NONE
  70
0
  10
0.0
  20
0.0
  30
0.0
   3
_NONE
   0
CIRCLE
   5
D3
 100
AcDbEntity
   8
0
 370
-2
 100
AcDbCircle
   6
BYBLOCK
  62
0
  10
0.0
  20
0.0
  30
0.0
  40
 0.25000000000000
   0
ENDBLK
   5
D4
 100
AcDbEntity
   8
0
 100
AcDbBlockEnd
   0
BLOCK
   5
D5
 100
AcDbEntity
   8
0
 100
AcDbBlockBegin
   2
_DOTBLANK
  70
0
  10
0.0
  20
0.0
  30
0.0
   3
_DOTBLANK
   0
CIRCLE
   5
D6
 100
AcDbEntity
   8
0
 370
-2
 100
AcDbCircle
   6
BYBLOCK
  62
0
  10
0.0
  20
0.0
  30
0.0
  40
 0.50000000000000
   0
LINE
   5
D7
 100
AcDbEntity
   8
0
 370
-2
 100
AcDbLine
   6
BYBLOCK
  62
0
  10
-0.50000000000000
  20
0.0
  30
0.0
  11
-1.0000000000000
  21
0.0
  31
0.0
   0
ENDBLK
   5
D8
 100
AcDbEntity
   8
0
 100
AcDbBlockEnd
   0
BLOCK
   5
D9
 100
AcDbEntity
   8
0
 100
AcDbBlockBegin
   2
_INTEGRAL
  70
0
  10
0.0
  20
0.0
  30
0.0
   3
_INTEGRAL
   0
ARC
   5
DA
 100
AcDbEntity
   8
0
 370
-2
   6
BYBLOCK
  62
0
 100
AcDbCircle
  10
 0.44488800000000
  20
-0.91335000000000E-1
  30
0.0
  40
 0.45416700000000
 100
AcDbArc
  50
 102.00000000000
  51
 168.00000000000
   0
ARC
   5
DB
 100
AcDbEntity
   8
0
 370
-2
   6
BYBLOCK
  62
0
 100
AcDbCircle
  10
-0.44488800000000
  20
 0.91335000000000E-1
  30
0.0
  40
 0.45416700000000
 100
AcDbArc
  50
 282.00000000000
  51
 348.00000000000
   0
ENDBLK
   5
DC
 100
AcDbEntity
   8
0
 100
AcDbBlockEnd
   0
BLOCK
   5
DD
 100
AcDbEntity
   8
0
 100
AcDbBlockBegin
   2
*D1
  70
65
  10
0.0
  20
0.0
  30
0.0
   3
*D1
   0
LINE
   5
DE
 100
AcDbEntity
   8
LEVEL001
 370
15
 100
AcDbLine
   6
CONTINUOUS
  62
8
  10
 22.890287312484
  20
 124.82449682860
  30
0.0
  11
 16.290287312484
  21
 124.82449682860
  31
0.0
   0
LINE
   5
DF
 100
AcDbEntity
   8
LEVEL001
 370
15
 100
AcDbLine
   6
CONTINUOUS
  62
8
  10
 18.790287312484
  20
 127.82449682860
  30
0.0
  11
 16.290287312484
  21
 127.82449682860
  31
0.0
   0
LINE
   5
E0
 100
AcDbEntity
   8
LEVEL001
 370
15
 100
AcDbLine
   6
CONTINUOUS
  62
8
  10
 16.790287312484
  20
 124.82449682860
  30
0.0
  11
 16.790287312484
  21
 126.32449682860
  31
0.0
   0
LINE
   5
E1
 100
AcDbEntity
   8
LEVEL001
 370
15
 100
AcDbLine
   6
CONTINUOUS
  62
8
  10
 16.790287312484
  20
 127.82449682860
  30
0.0
  11
 16.790287312484
  21
 126.32449682860
  31
0.0
   0
SOLID
   5
E2
 100
AcDbEntity
   8
LEVEL001
 100
AcDbTrace
   6
CONTINUOUS
  62
8
  10
 16.790287312484
  20
 124.82449682860
  30
0.0
  11
 16.966614293193
  21
 125.82449682860
  31
0.0
  12
 16.613960331776
  22
 125.82449682860
  32
0.0
  13
 16.613960331776
  23
 125.82449682860
  33
0.0
   0
SOLID
   5
E3
 100
AcDbEntity
   8
LEVEL001
 100
AcDbTrace
   6
CONTINUOUS
  62
8
  10
 16.790287312484
  20
 127.82449682860
  30
0.0
  11
 16.613960331776
  21
 126.82449682860
  31
0.0
  12
 16.966614293193
  22
 126.82449682860
  32
0.0
  13
 16.966614293193
  23
 126.82449682860
  33
0.0
   0
MTEXT
   5
E4
 100
AcDbEntity
   8
LEVEL001
 370
15
  62
8
 100
AcDbMText
  10
 16.290287312484
  20
 126.32449682860
  30
0.0
  40
 1.5000000000000
  41
0.0
  71
8
  72
1
   1
\A1;3
   7
GMM002
  11
0.0
  21
 1.0000000000000
  31
0.0
   0
ENDBLK
   5
E5
 100
AcDbEntity
   8
0
 100
AcDbBlockEnd
   0
BLOCK
   5
E6
 100
AcDbEntity
   8
0
 100
AcDbBlockBegin
   2
*D2
  70
65
  10
0.0
  20
0.0
  30
0.0
   3
*D2
   0
LINE
   5
E7
 100
AcDbEntity
   8
LEVEL001
 370
15
 100
AcDbLine
   6
CONTINUOUS
  62
8
  10
 23.390287312484
  20
 127.41457124287
  30
0.0
  11
 23.390287312484
  21
 131.32449682858
  31
0.0
   0
LINE
   5
E8
 100
AcDbEntity
   8
LEVEL001
 370
15
 100
AcDbLine
   6
CONTINUOUS
  62
8
  10
 27.390287312484
  20
 127.41457124287
  30
0.0
  11
 27.390287312484
  21
 131.32449682858
  31
0.0
   0
LINE
   5
E9
 100
AcDbEntity
   8
LEVEL001
 370
15
 100
AcDbLine
   6
CONTINUOUS
  62
8
  10
 23.390287312484
  20
 130.82449682858
  30
0.0
  11
 25.390287312484
  21
 130.82449682858
  31
0.0
   0
LINE
   5
EA
 100
AcDbEntity
   8
LEVEL001
 370
15
 100
AcDbLine
   6
CONTINUOUS
  62
8
  10
 27.390287312484
  20
 130.82449682858
  30
0.0
  11
 25.390287312484
  21
 130.82449682858
  31
0.0
   0
SOLID
   5
EB
 100
AcDbEntity
   8
LEVEL001
 100
AcDbTrace
   6
CONTINUOUS
  62
8
  10
 23.390287312484
  20
 130.82449682858
  30
0.0
  11
 24.390287312484
  21
 130.64816984787
  31
0.0
  12
 24.390287312484
  22
 131.00082380929
  32
0.0
  13
 24.390287312484
  23
 131.00082380929
  33
0.0
   0
SOLID
   5
EC
 100
AcDbEntity
   8
LEVEL001
 100
AcDbTrace
   6
CONTINUOUS
  62
8
  10
 27.390287312484
  20
 130.82449682858
  30
0.0
  11
 26.390287312484
  21
 131.00082380929
  31
0.0
  12
 26.390287312484
  22
 130.64816984787
  32
0.0
  13
 26.390287312484
  23
 130.64816984787
  33
0.0
   0
MTEXT
   5
ED
 100
AcDbEntity
   8
LEVEL001
 370
15
  62
8
 100
AcDbMText
  10
 25.390287312484
  20
 131.32449682858
  30
0.0
  40
 1.5000000000000
  41
0.0
  71
8
  72
1
   1
\A1;4
   7
GMM002
   0
ENDBLK
   5
EE
 100
AcDbEntity
   8
0
 100
AcDbBlockEnd
   0
BLOCK
   5
EF
 100
AcDbEntity
   8
0
 100
AcDbBlockBegin
   2
*D3
  70
65
  10
0.0
  20
0.0
  30
0.0
   3
*D3
   0
LINE
   5
F0
 100
AcDbEntity
   8
LEVEL001
 370
15
 100
AcDbLine
   6
CONTINUOUS
  62
8
  10
 19.290287312484
  20
 128.32449682860
  30
0.0
  11
 19.290287312484
  21
 134.32449682858
  31
0.0
   0
LINE
   5
F1
 100
AcDbEntity
   8
LEVEL001
 370
15
 100
AcDbLine
   6
CONTINUOUS
  62
8
  10
 31.490287312484
  20
 128.32449682862
  30
0.0
  11
 31.490287312484
  21
 134.32449682858
  31
0.0
   0
LINE
   5
F2
 100
AcDbEntity
   8
LEVEL001
 370
15
 100
AcDbLine
   6
CONTINUOUS
  62
8
  10
 19.290287312484
  20
 133.82449682858
  30
0.0
  11
 25.390287312484
  21
 133.82449682858
  31
0.0
   0
LINE
   5
F3
 100
AcDbEntity
   8
LEVEL001
 370
15
 100
AcDbLine
   6
CONTINUOUS
  62
8
  10
 31.490287312484
  20
 133.82449682858
  30
0.0
  11
 25.390287312484
  21
 133.82449682858
  31
0.0
   0
SOLID
   5
F4
 100
AcDbEntity
   8
LEVEL001
 100
AcDbTrace
   6
CONTINUOUS
  62
8
  10
 19.290287312484
  20
 133.82449682858
  30
0.0
  11
 20.290287312484
  21
 133.64816984787
  31
0.0
  12
 20.290287312484
  22
 134.00082380929
  32
0.0
  13
 20.290287312484
  23
 134.00082380929
  33
0.0
   0
SOLID
   5
F5
 100
AcDbEntity
   8
LEVEL001
 100
AcDbTrace
   6
CONTINUOUS
  62
8
  10
 31.490287312484
  20
 133.82449682858
  30
0.0
  11
 30.490287312484
  21
 134.00082380929
  31
0.0
  12
 30.490287312484
  22
 133.64816984787
  32
0.0
  13
 30.490287312484
  23
 133.64816984787
  33
0.0
   0
MTEXT
   5
F6
 100
AcDbEntity
   8
LEVEL001
 370
15
  62
8
 100
AcDbMText
  10
 25.390287312484
  20
 134.32449682858
  30
0.0
  40
 1.5000000000000
  41
0.0
  71
8
  72
1
   1
\A1;12.2
   7
GMM002
   0
ENDBLK
   5
F7
 100
AcDbEntity
   8
0
 100
AcDbBlockEnd
   0
BLOCK
   5
F8
 100
AcDbEntity
   8
0
 100
AcDbBlockBegin
   2
*D4
  70
65
  10
0.0
  20
0.0
  30
0.0
   3
*D4
   0
LINE
   5
F9
 100
AcDbEntity
   8
LEVEL001
 370
15
 100
AcDbLine
   6
CONTINUOUS
  62
8
  10
 31.340287312484
  20
 115.82449682853
  30
0.0
  11
 34.490287312484
  21
 115.82449682853
  31
0.0
   0
LINE
   5
FA
 100
AcDbEntity
   8
LEVEL001
 370
15
 100
AcDbLine
   6
CONTINUOUS
  62
8
  10
 31.990287312484
  20
 127.82449682862
  30
0.0
  11
 34.490287312484
  21
 127.82449682862
  31
0.0
   0
LINE
   5
FB
 100
AcDbEntity
   8
LEVEL001
 370
15
 100
AcDbLine
   6
CONTINUOUS
  62
8
  10
 33.990287312484
  20
 115.82449682853
  30
0.0
  11
 33.990287312484
  21
 121.82449682857
  31
0.0
   0
LINE
   5
FC
 100
AcDbEntity
   8
LEVEL001
 370
15
 100
AcDbLine
   6
CONTINUOUS
  62
8
  10
 33.990287312484
  20
 127.82449682862
  30
0.0
  11
 33.990287312484
  21
 121.82449682857
  31
0.0
   0
SOLID
   5
FD
 100
AcDbEntity
   8
LEVEL001
 100
AcDbTrace
   6
CONTINUOUS
  62
8
  10
 33.990287312484
  20
 115.82449682853
  30
0.0
  11
 34.166614293193
  21
 116.82449682853
  31
0.0
  12
 33.813960331776
  22
 116.82449682853
  32
0.0
  13
 33.813960331776
  23
 116.82449682853
  33
0.0
   0
SOLID
   5
FE
 100
AcDbEntity
   8
LEVEL001
 100
AcDbTrace
   6
CONTINUOUS
  62
8
  10
 33.990287312484
  20
 127.82449682862
  30
0.0
  11
 33.813960331776
  21
 126.82449682862
  31
0.0
  12
 34.166614293193
  22
 126.82449682862
  32
0.0
  13
 34.166614293193
  23
 126.82449682862
  33
0.0
   0
MTEXT
   5
FF
 100
AcDbEntity
   8
LEVEL001
 370
15
  62
8
 100
AcDbMText
  10
 33.490287312484
  20
 121.82449682857
  30
0.0
  40
 1.5000000000000
  41
0.0
  71
8
  72
1
   1
\A1;12
   7
GMM002
  11
0.0
  21
 1.0000000000000
  31
0.0
   0
ENDBLK
   5
100
 100
AcDbEntity
   8
0
 100
AcDbBlockEnd
   0
BLOCK
   5
101
 100
AcDbEntity
   8
0
 100
AcDbBlockBegin
   2
*D5
  70
65
  10
0.0
  20
0.0
  30
0.0
   3
*D5
   0
LINE
   5
102
 100
AcDbEntity
   8
LEVEL001
 370
15
 100
AcDbLine
   6
CONTINUOUS
  62
8
  10
 131.06929188914
  20
 122.32449682853
  30
0.0
  11
 131.06929188914
  21
 125.82449682853
  31
0.0
   0
LINE
   5
103
 100
AcDbEntity
   8
LEVEL001
 370
15
 100
AcDbLine
   6
CONTINUOUS
  62
8
  10
 136.26929188914
  20
 122.32449682853
  30
0.0
  11
 136.26929188914
  21
 125.82449682853
  31
0.0
   0
LINE
   5
104
 100
AcDbEntity
   8
LEVEL001
 370
15
 100
AcDbLine
   6
CONTINUOUS
  62
8
  10
 131.06929188914
  20
 125.32449682853
  30
0.0
  11
 133.66929188914
  21
 125.32449682853
  31
0.0
   0
LINE
   5
105
 100
AcDbEntity
   8
LEVEL001
 370
15
 100
AcDbLine
   6
CONTINUOUS
  62
8
  10
 136.26929188914
  20
 125.32449682853
  30
0.0
  11
 133.66929188914
  21
 125.32449682853
  31
0.0
   0
SOLID
   5
106
 100
AcDbEntity
   8
LEVEL001
 100
AcDbTrace
   6
CONTINUOUS
  62
8
  10
 131.06929188914
  20
 125.32449682853
  30
0.0
  11
 132.06929188914
  21
 125.14816984782
  31
0.0
  12
 132.06929188914
  22
 125.50082380924
  32
0.0
  13
 132.06929188914
  23
 125.50082380924
  33
0.0
   0
SOLID
   5
107
 100
AcDbEntity
   8
LEVEL001
 100
AcDbTrace
   6
CONTINUOUS
  62
8
  10
 136.26929188914
  20
 125.32449682853
  30
0.0
  11
 135.26929188914
  21
 125.50082380924
  31
0.0
  12
 135.26929188914
  22
 125.14816984782
  32
0.0
  13
 135.26929188914
  23
 125.14816984782
  33
0.0
   0
MTEXT
   5
108
 100
AcDbEntity
   8
LEVEL001
 370
15
  62
8
 100
AcDbMText
  10
 133.66929188914
  20
 125.82449682853
  30
0.0
  40
 1.2500000000000
  41
0.0
  71
8
  72
1
   1
\A1;5.2
   7
GMM002
   0
ENDBLK
   5
109
 100
AcDbEntity
   8
0
 100
AcDbBlockEnd
   0
BLOCK
   5
10A
 100
AcDbEntity
   8
0
 100
AcDbBlockBegin
   2
*D6
  70
65
  10
0.0
  20
0.0
  30
0.0
   3
*D6
   0
LINE
   5
10B
 100
AcDbEntity
   8
LEVEL001
 370
15
 100
AcDbLine
   6
CONTINUOUS
  62
8
  10
 129.16929188914
  20
 122.62449682853
  30
0.0
  11
 129.16929188914
  21
 128.82449682853
  31
0.0
   0
LINE
   5
10C
 100
AcDbEntity
   8
LEVEL001
 370
15
 100
AcDbLine
   6
CONTINUOUS
  62
8
  10
 138.16929188914
  20
 122.62449682853
  30
0.0
  11
 138.16929188914
  21
 128.82449682853
  31
0.0
   0
LINE
   5
10D
 100
AcDbEntity
   8
LEVEL001
 370
15
 100
AcDbLine
   6
CONTINUOUS
  62
8
  10
 129.16929188914
  20
 128.32449682853
  30
0.0
  11
 133.66929188914
  21
 128.32449682853
  31
0.0
   0
LINE
   5
10E
 100
AcDbEntity
   8
LEVEL001
 370
15
 100
AcDbLine
   6
CONTINUOUS
  62
8
  10
 138.16929188914
  20
 128.32449682853
  30
0.0
  11
 133.66929188914
  21
 128.32449682853
  31
0.0
   0
SOLID
   5
10F
 100
AcDbEntity
   8
LEVEL001
 100
AcDbTrace
   6
CONTINUOUS
  62
8
  10
 129.16929188914
  20
 128.32449682853
  30
0.0
  11
 130.16929188914
  21
 128.14816984782
  31
0.0
  12
 130.16929188914
  22
 128.50082380924
  32
0.0
  13
 130.16929188914
  23
 128.50082380924
  33
0.0
   0
SOLID
   5
110
 100
AcDbEntity
   8
LEVEL001
 100
AcDbTrace
   6
CONTINUOUS
  62
8
  10
 138.16929188914
  20
 128.32449682853
  30
0.0
  11
 137.16929188914
  21
 128.50082380924
  31
0.0
  12
 137.16929188914
  22
 128.14816984782
  32
0.0
  13
 137.16929188914
  23
 128.14816984782
  33
0.0
   0
MTEXT
   5
111
 100
AcDbEntity
   8
LEVEL001
 370
15
  62
8
 100
AcDbMText
  10
 133.66929188914
  20
 128.82449682853
  30
0.0
  40
 1.2500000000000
  41
0.0
  71
8
  72
1
   1
\A1;9
   7
GMM002
   0
ENDBLK
   5
112
 100
AcDbEntity
   8
0
 100
AcDbBlockEnd
   0
BLOCK
   5
113
 100
AcDbEntity
   8
0
 100
AcDbBlockBegin
   2
*D7
  70
65
  10
0.0
  20
0.0
  30
0.0
   3
*D7
   0
LINE
   5
114
 100
AcDbEntity
   8
LEVEL001
 370
15
 100
AcDbLine
   6
CONTINUOUS
  62
8
  10
 138.16929188914
  20
 115.82449682853
  30
0.0
  11
 141.66929188914
  21
 115.82449682853
  31
0.0
   0
LINE
   5
115
 100
AcDbEntity
   8
LEVEL001
 370
15
 100
AcDbLine
   6
CONTINUOUS
  62
8
  10
 138.46929188914
  20
 122.32449682853
  30
0.0
  11
 141.66929188914
  21
 122.32449682853
  31
0.0
   0
LINE
   5
116
 100
AcDbEntity
   8
LEVEL001
 370
15
 100
AcDbLine
   6
CONTINUOUS
  62
8
  10
 141.16929188914
  20
 115.82449682853
  30
0.0
  11
 141.16929188914
  21
 119.07449682853
  31
0.0
   0
LINE
   5
117
 100
AcDbEntity
   8
LEVEL001
 370
15
 100
AcDbLine
   6
CONTINUOUS
  62
8
  10
 141.16929188914
  20
 122.32449682853
  30
0.0
  11
 141.16929188914
  21
 119.07449682853
  31
0.0
   0
SOLID
   5
118
 100
AcDbEntity
   8
LEVEL001
 100
AcDbTrace
   6
CONTINUOUS
  62
8
  10
 141.16929188914
  20
 115.82449682853
  30
0.0
  11
 141.34561886985
  21
 116.82449682853
  31
0.0
  12
 140.99296490844
  22
 116.82449682853
  32
0.0
  13
 140.99296490844
  23
 116.82449682853
  33
0.0
   0
SOLID
   5
119
 100
AcDbEntity
   8
LEVEL001
 100
AcDbTrace
   6
CONTINUOUS
  62
8
  10
 141.16929188914
  20
 122.32449682853
  30
0.0
  11
 140.99296490844
  21
 121.32449682853
  31
0.0
  12
 141.34561886985
  22
 121.32449682853
  32
0.0
  13
 141.34561886985
  23
 121.32449682853
  33
0.0
   0
MTEXT
   5
11A
 100
AcDbEntity
   8
LEVEL001
 370
15
  62
8
 100
AcDbMText
  10
 140.66929188914
  20
 119.07449682853
  30
0.0
  40
 1.2500000000000
  41
0.0
  71
8
  72
1
   1
\A1;6.5
   7
GMM002
  11
0.0
  21
 1.0000000000000
  31
0.0
   0
ENDBLK
   5
11B
 100
AcDbEntity
   8
0
 100
AcDbBlockEnd
   0
BLOCK
   5
11C
 100
AcDbEntity
   8
0
 100
AcDbBlockBegin
   2
*D8
  70
65
  10
0.0
  20
0.0
  30
0.0
   3
*D8
   0
LINE
   5
11D
 100
AcDbEntity
   8
LEVEL001
 370
15
 100
AcDbLine
   6
CONTINUOUS
  62
8
  10
 131.66929188911
  20
 117.32449682853
  30
0.0
  11
 127.32821637427
  21
 117.32449682853
  31
0.0
   0
LINE
   5
11E
 100
AcDbEntity
   8
LEVEL001
 370
15
 100
AcDbLine
   6
CONTINUOUS
  62
8
  10
 128.86929188914
  20
 122.32449682853
  30
0.0
  11
 127.32821637427
  21
 122.32449682853
  31
0.0
   0
LINE
   5
11F
 100
AcDbEntity
   8
LEVEL001
 370
15
 100
AcDbLine
   6
CONTINUOUS
  62
8
  10
 127.82821637427
  20
 117.32449682853
  30
0.0
  11
 127.82821637427
  21
 119.82449682853
  31
0.0
   0
LINE
   5
120
 100
AcDbEntity
   8
LEVEL001
 370
15
 100
AcDbLine
   6
CONTINUOUS
  62
8
  10
 127.82821637427
  20
 122.32449682853
  30
0.0
  11
 127.82821637427
  21
 119.82449682853
  31
0.0
   0
SOLID
   5
121
 100
AcDbEntity
   8
LEVEL001
 100
AcDbTrace
   6
CONTINUOUS
  62
8
  10
 127.82821637427
  20
 117.32449682853
  30
0.0
  11
 128.00454335498
  21
 118.32449682853
  31
0.0
  12
 127.65188939356
  22
 118.32449682853
  32
0.0
  13
 127.65188939356
  23
 118.32449682853
  33
0.0
   0
SOLID
   5
122
 100
AcDbEntity
   8
LEVEL001
 100
AcDbTrace
   6
CONTINUOUS
  62
8
  10
 127.82821637427
  20
 122.32449682853
  30
0.0
  11
 127.65188939356
  21
 121.32449682853
  31
0.0
  12
 128.00454335498
  22
 121.32449682853
  32
0.0
  13
 128.00454335498
  23
 121.32449682853
  33
0.0
   0
MTEXT
   5
123
 100
AcDbEntity
   8
LEVEL001
 370
15
  62
8
 100
AcDbMText
  10
 127.32821637427
  20
 119.82449682853
  30
0.0
  40
 1.2500000000000
  41
0.0
  71
8
  72
1
   1
\A1;5
   7
GMM002
  11
0.0
  21
 1.0000000000000
  31
0.0
   0
ENDBLK
   5
124
 100
AcDbEntity
   8
0
 100
AcDbBlockEnd
   0
BLOCK
   5
125
 100
AcDbEntity
   8
0
 100
AcDbBlockBegin
   2
*D9
  70
65
  10
0.0
  20
0.0
  30
0.0
   3
*D9
   0
LINE
   5
126
 100
AcDbEntity
   8
LEVEL001
 370
15
 100
AcDbLine
   6
CONTINUOUS
  62
8
  10
 23.390287312484
  20
 94.516625393242
  30
0.0
  11
 23.390287312484
  21
 98.426550978897
  31
0.0
   0
LINE
   5
127
 100
AcDbEntity
   8
LEVEL001
 370
15
 100
AcDbLine
   6
CONTINUOUS
  62
8
  10
 27.390287312485
  20
 94.516625393242
  30
0.0
  11
 27.390287312485
  21
 98.426550978897
  31
0.0
   0
LINE
   5
128
 100
AcDbEntity
   8
LEVEL001
 370
15
 100
AcDbLine
   6
CONTINUOUS
  62
8
  10
 23.390287312484
  20
 97.926550978897
  30
0.0
  11
 25.390287312484
  21
 97.926550978897
  31
0.0
   0
LINE
   5
129
 100
AcDbEntity
   8
LEVEL001
 370
15
 100
AcDbLine
   6
CONTINUOUS
  62
8
  10
 27.390287312485
  20
 97.926550978897
  30
0.0
  11
 25.390287312484
  21
 97.926550978897
  31
0.0
   0
SOLID
   5
12A
 100
AcDbEntity
   8
LEVEL001
 100
AcDbTrace
   6
CONTINUOUS
  62
8
  10
 23.390287312484
  20
 97.926550978897
  30
0.0
  11
 24.390287312484
  21
 97.750223998189
  31
0.0
  12
 24.390287312484
  22
 98.102877959605
  32
0.0
  13
 24.390287312484
  23
 98.102877959605
  33
0.0
   0
SOLID
   5
12B
 100
AcDbEntity
   8
LEVEL001
 100
AcDbTrace
   6
CONTINUOUS
  62
8
  10
 27.390287312485
  20
 97.926550978897
  30
0.0
  11
 26.390287312485
  21
 98.102877959605
  31
0.0
  12
 26.390287312485
  22
 97.750223998189
  32
0.0
  13
 26.390287312485
  23
 97.750223998189
  33
0.0
   0
MTEXT
   5
12C
 100
AcDbEntity
   8
LEVEL001
 370
15
  62
8
 100
AcDbMText
  10
 25.390287312484
  20
 98.426550978897
  30
0.0
  40
 1.5000000000000
  41
0.0
  71
8
  72
1
   1
\A1;4
   7
GMM002
   0
ENDBLK
   5
12D
 100
AcDbEntity
   8
0
 100
AcDbBlockEnd
   0
BLOCK
   5
12E
 100
AcDbEntity
   8
0
 100
AcDbBlockBegin
   2
*D10
  70
65
  10
0.0
  20
0.0
  30
0.0
   3
*D10
   0
LINE
   5
12F
 100
AcDbEntity
   8
LEVEL001
 370
15
 100
AcDbLine
   6
CONTINUOUS
  62
8
  10
 17.290287312484
  20
 94.926550978897
  30
0.0
  11
 17.290287312484
  21
 101.42655097890
  31
0.0
   0
LINE
   5
130
 100
AcDbEntity
   8
LEVEL001
 370
15
 100
AcDbLine
   6
CONTINUOUS
  62
8
  10
 33.490287312484
  20
 94.926550978897
  30
0.0
  11
 33.490287312484
  21
 101.42655097890
  31
0.0
   0
LINE
   5
131
 100
AcDbEntity
   8
LEVEL001
 370
15
 100
AcDbLine
   6
CONTINUOUS
  62
8
  10
 17.290287312484
  20
 100.92655097890
  30
0.0
  11
 25.390287312484
  21
 100.92655097890
  31
0.0
   0
LINE
   5
132
 100
AcDbEntity
   8
LEVEL001
 370
15
 100
AcDbLine
   6
CONTINUOUS
  62
8
  10
 33.490287312484
  20
 100.92655097890
  30
0.0
  11
 25.390287312484
  21
 100.92655097890
  31
0.0
   0
SOLID
   5
133
 100
AcDbEntity
   8
LEVEL001
 100
AcDbTrace
   6
CONTINUOUS
  62
8
  10
 17.290287312484
  20
 100.92655097890
  30
0.0
  11
 18.290287312484
  21
 100.75022399819
  31
0.0
  12
 18.290287312484
  22
 101.10287795961
  32
0.0
  13
 18.290287312484
  23
 101.10287795961
  33
0.0
   0
SOLID
   5
134
 100
AcDbEntity
   8
LEVEL001
 100
AcDbTrace
   6
CONTINUOUS
  62
8
  10
 33.490287312484
  20
 100.92655097890
  30
0.0
  11
 32.490287312484
  21
 101.10287795961
  31
0.0
  12
 32.490287312484
  22
 100.75022399819
  32
0.0
  13
 32.490287312484
  23
 100.75022399819
  33
0.0
   0
MTEXT
   5
135
 100
AcDbEntity
   8
LEVEL001
 370
15
  62
8
 100
AcDbMText
  10
 25.390287312484
  20
 101.42655097890
  30
0.0
  40
 1.5000000000000
  41
0.0
  71
8
  72
1
   1
\A1;16.2
   7
GMM002
   0
ENDBLK
   5
136
 100
AcDbEntity
   8
0
 100
AcDbBlockEnd
   0
BLOCK
   5
137
 100
AcDbEntity
   8
0
 100
AcDbBlockBegin
   2
*D11
  70
65
  10
0.0
  20
0.0
  30
0.0
   3
*D11
   0
LINE
   5
138
 100
AcDbEntity
   8
LEVEL001
 370
15
 100
AcDbLine
   6
CONTINUOUS
  62
8
  10
 36.490287312484
  20
 81.926550978897
  30
0.0
  11
 38.990287312484
  21
 81.926550978897
  31
0.0
   0
LINE
   5
139
 100
AcDbEntity
   8
LEVEL001
 370
15
 100
AcDbLine
   6
CONTINUOUS
  62
8
  10
 36.490287312484
  20
 94.926550978897
  30
0.0
  11
 38.990287312484
  21
 94.926550978897
  31
0.0
   0
LINE
   5
13A
 100
AcDbEntity
   8
LEVEL001
 370
15
 100
AcDbLine
   6
CONTINUOUS
  62
8
  10
 38.490287312484
  20
 81.926550978897
  30
0.0
  11
 38.490287312484
  21
 88.426550978897
  31
0.0
   0
LINE
   5
13B
 100
AcDbEntity
   8
LEVEL001
 370
15
 100
AcDbLine
   6
CONTINUOUS
  62
8
  10
 38.490287312484
  20
 94.926550978897
  30
0.0
  11
 38.490287312484
  21
 88.426550978897
  31
0.0
   0
SOLID
   5
13C
 100
AcDbEntity
   8
LEVEL001
 100
AcDbTrace
   6
CONTINUOUS
  62
8
  10
 38.490287312484
  20
 81.926550978897
  30
0.0
  11
 38.666614293192
  21
 82.926550978897
  31
0.0
  12
 38.313960331775
  22
 82.926550978897
  32
0.0
  13
 38.313960331775
  23
 82.926550978897
  33
0.0
   0
SOLID
   5
13D
 100
AcDbEntity
   8
LEVEL001
 100
AcDbTrace
   6
CONTINUOUS
  62
8
  10
 38.490287312484
  20
 94.926550978897
  30
0.0
  11
 38.313960331775
  21
 93.926550978897
  31
0.0
  12
 38.666614293192
  22
 93.926550978897
  32
0.0
  13
 38.666614293192
  23
 93.926550978897
  33
0.0
   0
MTEXT
   5
13E
 100
AcDbEntity
   8
LEVEL001
 370
15
  62
8
 100
AcDbMText
  10
 37.990287312484
  20
 88.426550978897
  30
0.0
  40
 1.2500000000000
  41
0.0
  71
8
  72
1
   1
\A1;13
   7
GMM002
  11
0.0
  21
 1.0000000000000
  31
0.0
   0
ENDBLK
   5
13F
 100
AcDbEntity
   8
0
 100
AcDbBlockEnd
   0
BLOCK
   5
140
 100
AcDbEntity
   8
0
 100
AcDbBlockBegin
   2
*D12
  70
65
  10
0.0
  20
0.0
  30
0.0
   3
*D12
   0
LINE
   5
141
 100
AcDbEntity
   8
LEVEL001
 370
15
 100
AcDbLine
   6
CONTINUOUS
  62
8
  10
 31.340287312485
  20
 81.926550978897
  30
0.0
  11
 36.490287312484
  21
 81.926550978897
  31
0.0
   0
LINE
   5
142
 100
AcDbEntity
   8
LEVEL001
 370
15
 100
AcDbLine
   6
CONTINUOUS
  62
8
  10
 35.990287312484
  20
 81.926550978897
  30
0.0
  11
 35.990287312484
  21
 87.926550978897
  31
0.0
   0
LINE
   5
143
 100
AcDbEntity
   8
LEVEL001
 370
15
 100
AcDbLine
   6
CONTINUOUS
  62
8
  10
 35.990287312484
  20
 93.926550978897
  30
0.0
  11
 35.990287312484
  21
 87.926550978897
  31
0.0
   0
SOLID
   5
144
 100
AcDbEntity
   8
LEVEL001
 100
AcDbTrace
   6
CONTINUOUS
  62
8
  10
 35.990287312484
  20
 81.926550978897
  30
0.0
  11
 36.166614293192
  21
 82.926550978897
  31
0.0
  12
 35.813960331775
  22
 82.926550978897
  32
0.0
  13
 35.813960331775
  23
 82.926550978897
  33
0.0
   0
SOLID
   5
145
 100
AcDbEntity
   8
LEVEL001
 100
AcDbTrace
   6
CONTINUOUS
  62
8
  10
 35.990287312484
  20
 93.926550978897
  30
0.0
  11
 35.813960331775
  21
 92.926550978897
  31
0.0
  12
 36.166614293192
  22
 92.926550978897
  32
0.0
  13
 36.166614293192
  23
 92.926550978897
  33
0.0
   0
MTEXT
   5
146
 100
AcDbEntity
   8
LEVEL001
 370
15
  62
8
 100
AcDbMText
  10
 35.490287312484
  20
 87.926550978897
  30
0.0
  40
 1.2500000000000
  41
0.0
  71
8
  72
1
   1
\A1;12
   7
GMM002
  11
0.0
  21
 1.0000000000000
  31
0.0
   0
ENDBLK
   5
147
 100
AcDbEntity
   8
0
 100
AcDbBlockEnd
   0
BLOCK
   5
148
 100
AcDbEntity
   8
0
 100
AcDbBlockBegin
   2
*D13
  70
65
  10
0.0
  20
0.0
  30
0.0
   3
*D13
   0
LINE
   5
149
 100
AcDbEntity
   8
LEVEL001
 370
15
 100
AcDbLine
   6
CONTINUOUS
  62
8
  10
 33.690287312485
  20
 93.926550978897
  30
0.0
  11
 36.490287312484
  21
 93.926550978897
  31
0.0
   0
LINE
   5
14A
 100
AcDbEntity
   8
LEVEL001
 370
15
 100
AcDbLine
   6
CONTINUOUS
  62
8
  10
 30.933477562067
  20
 94.926550978897
  30
0.0
  11
 36.490287312484
  21
 94.926550978897
  31
0.0
   0
LINE
   5
14B
 100
AcDbEntity
   8
LEVEL001
 370
15
 100
AcDbLine
   6
CONTINUOUS
  62
8
  10
 35.990287312484
  20
 93.926550978897
  30
0.0
  11
 35.990287312484
  21
 94.426550978897
  31
0.0
   0
LINE
   5
14C
 100
AcDbEntity
   8
LEVEL001
 370
15
 100
AcDbLine
   6
CONTINUOUS
  62
8
  10
 35.990287312484
  20
 97.094711416227
  30
0.0
  11
 35.990287312484
  21
 94.426550978897
  31
0.0
   0
SOLID
   5
14D
 100
AcDbEntity
   8
LEVEL001
 100
AcDbTrace
   6
CONTINUOUS
  62
8
  10
 35.990287312484
  20
 94.926550978897
  30
0.0
  11
 36.166614293192
  21
 95.926550978897
  31
0.0
  12
 35.813960331775
  22
 95.926550978897
  32
0.0
  13
 35.813960331775
  23
 95.926550978897
  33
0.0
   0
MTEXT
   5
14E
 100
AcDbEntity
   8
LEVEL001
 370
15
  62
8
 100
AcDbMText
  10
 35.442458047292
  20
 95.844711416227
  30
0.0
  40
 1.2500000000000
  41
0.0
  71
7
  72
1
   1
\A1;1
   7
GMM002
  11
0.0
  21
 1.0000000000000
  31
0.0
   0
ENDBLK
   5
14F
 100
AcDbEntity
   8
0
 100
AcDbBlockEnd
   0
BLOCK
   5
150
 100
AcDbEntity
   8
0
 100
AcDbBlockBegin
   2
*D14
  70
65
  10
0.0
  20
0.0
  30
0.0
   3
*D14
   0
LINE
   5
151
 100
AcDbEntity
   8
LEVEL001
 370
15
 100
AcDbLine
   6
CONTINUOUS
  62
8
  10
 22.890287312484
  20
 91.926550978897
  30
0.0
  11
 14.290287312484
  21
 91.926550978897
  31
0.0
   0
LINE
   5
152
 100
AcDbEntity
   8
LEVEL001
 370
15
 100
AcDbLine
   6
CONTINUOUS
  62
8
  10
 19.647097062829
  20
 94.926550978904
  30
0.0
  11
 14.290287312484
  21
 94.926550978904
  31
0.0
   0
LINE
   5
153
 100
AcDbEntity
   8
LEVEL001
 370
15
 100
AcDbLine
   6
CONTINUOUS
  62
8
  10
 14.790287312484
  20
 91.926550978897
  30
0.0
  11
 14.790287312484
  21
 93.426550978901
  31
0.0
   0
LINE
   5
154
 100
AcDbEntity
   8
LEVEL001
 370
15
 100
AcDbLine
   6
CONTINUOUS
  62
8
  10
 14.790287312484
  20
 94.926550978904
  30
0.0
  11
 14.790287312484
  21
 93.426550978901
  31
0.0
   0
SOLID
   5
155
 100
AcDbEntity
   8
LEVEL001
 100
AcDbTrace
   6
CONTINUOUS
  62
8
  10
 14.790287312484
  20
 91.926550978897
  30
0.0
  11
 14.966614293193
  21
 92.926550978897
  31
0.0
  12
 14.613960331776
  22
 92.926550978897
  32
0.0
  13
 14.613960331776
  23
 92.926550978897
  33
0.0
   0
SOLID
   5
156
 100
AcDbEntity
   8
LEVEL001
 100
AcDbTrace
   6
CONTINUOUS
  62
8
  10
 14.790287312484
  20
 94.926550978904
  30
0.0
  11
 14.613960331776
  21
 93.926550978904
  31
0.0
  12
 14.966614293193
  22
 93.926550978904
  32
0.0
  13
 14.966614293193
  23
 93.926550978904
  33
0.0
   0
MTEXT
   5
157
 100
AcDbEntity
   8
LEVEL001
 370
15
  62
8
 100
AcDbMText
  10
 14.290287312484
  20
 93.426550978901
  30
0.0
  40
 1.2500000000000
  41
0.0
  71
8
  72
1
   1
\A1;3
   7
GMM002
  11
0.0
  21
 1.0000000000000
  31
0.0
   0
ENDBLK
   5
158
 100
AcDbEntity
   8
0
 100
AcDbBlockEnd
   0
BLOCK
   5
159
 100
AcDbEntity
   8
0
 100
AcDbBlockBegin
   2
*D15
  70
65
  10
0.0
  20
0.0
  30
0.0
   3
*D15
   0
LINE
   5
15A
 100
AcDbEntity
   8
LEVEL001
 370
15
 100
AcDbLine
   6
CONTINUOUS
  62
8
  10
 19.290287312485
  20
 91.926550978897
  30
0.0
  11
 19.290287312485
  21
 77.426550978897
  31
0.0
   0
LINE
   5
15B
 100
AcDbEntity
   8
LEVEL001
 370
15
 100
AcDbLine
   6
CONTINUOUS
  62
8
  10
 31.490287312484
  20
 91.926550978897
  30
0.0
  11
 31.490287312484
  21
 77.426550978897
  31
0.0
   0
LINE
   5
15C
 100
AcDbEntity
   8
LEVEL001
 370
15
 100
AcDbLine
   6
CONTINUOUS
  62
8
  10
 19.290287312485
  20
 77.926550978897
  30
0.0
  11
 25.390287312484
  21
 77.926550978897
  31
0.0
   0
LINE
   5
15D
 100
AcDbEntity
   8
LEVEL001
 370
15
 100
AcDbLine
   6
CONTINUOUS
  62
8
  10
 31.490287312484
  20
 77.926550978897
  30
0.0
  11
 25.390287312484
  21
 77.926550978897
  31
0.0
   0
SOLID
   5
15E
 100
AcDbEntity
   8
LEVEL001
 100
AcDbTrace
   6
CONTINUOUS
  62
8
  10
 19.290287312485
  20
 77.926550978897
  30
0.0
  11
 20.290287312485
  21
 77.750223998188
  31
0.0
  12
 20.290287312485
  22
 78.102877959605
  32
0.0
  13
 20.290287312485
  23
 78.102877959605
  33
0.0
   0
SOLID
   5
15F
 100
AcDbEntity
   8
LEVEL001
 100
AcDbTrace
   6
CONTINUOUS
  62
8
  10
 31.490287312484
  20
 77.926550978897
  30
0.0
  11
 30.490287312484
  21
 78.102877959605
  31
0.0
  12
 30.490287312484
  22
 77.750223998188
  32
0.0
  13
 30.490287312484
  23
 77.750223998188
  33
0.0
   0
MTEXT
   5
160
 100
AcDbEntity
   8
LEVEL001
 370
15
  62
8
 100
AcDbMText
  10
 25.390287312484
  20
 78.426550978897
  30
0.0
  40
 1.5000000000000
  41
0.0
  71
8
  72
1
   1
\A1;12
   7
GMM002
   0
ENDBLK
   5
161
 100
AcDbEntity
   8
0
 100
AcDbBlockEnd
   0
BLOCK
   5
162
 100
AcDbEntity
   8
0
 100
AcDbBlockBegin
   2
*D16
  70
65
  10
0.0
  20
0.0
  30
0.0
   3
*D16
   0
LINE
   5
163
 100
AcDbEntity
   8
LEVEL001
 370
15
 100
AcDbLine
   6
CONTINUOUS
  62
8
  10
 23.140287312484
  20
 55.816998942958
  30
0.0
  11
 23.140287312484
  21
 58.808358759217
  31
0.0
   0
LINE
   5
164
 100
AcDbEntity
   8
LEVEL001
 370
15
 100
AcDbLine
   6
CONTINUOUS
  62
8
  10
 27.640287312484
  20
 55.816998942958
  30
0.0
  11
 27.640287312484
  21
 58.808358759217
  31
0.0
   0
LINE
   5
165
 100
AcDbEntity
   8
LEVEL001
 370
15
 100
AcDbLine
   6
CONTINUOUS
  62
8
  10
 23.140287312484
  20
 58.308358759217
  30
0.0
  11
 25.390287312484
  21
 58.308358759217
  31
0.0
   0
LINE
   5
166
 100
AcDbEntity
   8
LEVEL001
 370
15
 100
AcDbLine
   6
CONTINUOUS
  62
8
  10
 27.640287312484
  20
 58.308358759217
  30
0.0
  11
 25.390287312484
  21
 58.308358759217
  31
0.0
   0
SOLID
   5
167
 100
AcDbEntity
   8
LEVEL001
 100
AcDbTrace
   6
CONTINUOUS
  62
8
  10
 23.140287312484
  20
 58.308358759217
  30
0.0
  11
 24.140287312484
  21
 58.132031778508
  31
0.0
  12
 24.140287312484
  22
 58.484685739925
  32
0.0
  13
 24.140287312484
  23
 58.484685739925
  33
0.0
   0
SOLID
   5
168
 100
AcDbEntity
   8
LEVEL001
 100
AcDbTrace
   6
CONTINUOUS
  62
8
  10
 27.640287312484
  20
 58.308358759217
  30
0.0
  11
 26.640287312484
  21
 58.484685739925
  31
0.0
  12
 26.640287312484
  22
 58.132031778508
  32
0.0
  13
 26.640287312484
  23
 58.132031778508
  33
0.0
   0
MTEXT
   5
169
 100
AcDbEntity
   8
LEVEL001
 370
15
  62
8
 100
AcDbMText
  10
 25.390287312484
  20
 58.808358759217
  30
0.0
  40
 1.2500000000000
  41
0.0
  71
8
  72
1
   1
\A1;4.5
   7
GMM002
   0
ENDBLK
   5
16A
 100
AcDbEntity
   8
0
 100
AcDbBlockEnd
   0
BLOCK
   5
16B
 100
AcDbEntity
   8
0
 100
AcDbBlockBegin
   2
*D17
  70
65
  10
0.0
  20
0.0
  30
0.0
   3
*D17
   0
LINE
   5
16C
 100
AcDbEntity
   8
LEVEL001
 370
15
 100
AcDbLine
   6
CONTINUOUS
  62
8
  10
 18.390287312484
  20
 55.916412185034
  30
0.0
  11
 18.390287312484
  21
 61.308358759217
  31
0.0
   0
LINE
   5
16D
 100
AcDbEntity
   8
LEVEL001
 370
15
 100
AcDbLine
   6
CONTINUOUS
  62
8
  10
 32.390287312484
  20
 55.872991132402
  30
0.0
  11
 32.390287312484
  21
 61.308358759217
  31
0.0
   0
LINE
   5
16E
 100
AcDbEntity
   8
LEVEL001
 370
15
 100
AcDbLine
   6
CONTINUOUS
  62
8
  10
 18.390287312484
  20
 60.808358759217
  30
0.0
  11
 25.390287312484
  21
 60.808358759217
  31
0.0
   0
LINE
   5
16F
 100
AcDbEntity
   8
LEVEL001
 370
15
 100
AcDbLine
   6
CONTINUOUS
  62
8
  10
 32.390287312484
  20
 60.808358759217
  30
0.0
  11
 25.390287312484
  21
 60.808358759217
  31
0.0
   0
SOLID
   5
170
 100
AcDbEntity
   8
LEVEL001
 100
AcDbTrace
   6
CONTINUOUS
  62
8
  10
 18.390287312484
  20
 60.808358759217
  30
0.0
  11
 19.390287312484
  21
 60.632031778508
  31
0.0
  12
 19.390287312484
  22
 60.984685739925
  32
0.0
  13
 19.390287312484
  23
 60.984685739925
  33
0.0
   0
SOLID
   5
171
 100
AcDbEntity
   8
LEVEL001
 100
AcDbTrace
   6
CONTINUOUS
  62
8
  10
 32.390287312484
  20
 60.808358759217
  30
0.0
  11
 31.390287312484
  21
 60.984685739925
  31
0.0
  12
 31.390287312484
  22
 60.632031778508
  32
0.0
  13
 31.390287312484
  23
 60.632031778508
  33
0.0
   0
MTEXT
   5
172
 100
AcDbEntity
   8
LEVEL001
 370
15
  62
8
 100
AcDbMText
  10
 25.390287312484
  20
 61.308358759217
  30
0.0
  40
 1.2500000000000
  41
0.0
  71
8
  72
1
   1
\A1;14
   7
GMM002
   0
ENDBLK
   5
173
 100
AcDbEntity
   8
0
 100
AcDbBlockEnd
   0
BLOCK
   5
174
 100
AcDbEntity
   8
0
 100
AcDbBlockBegin
   2
*D18
  70
65
  10
0.0
  20
0.0
  30
0.0
   3
*D18
   0
LINE
   5
175
 100
AcDbEntity
   8
LEVEL001
 370
15
 100
AcDbLine
   6
CONTINUOUS
  62
8
  10
 29.990287312484
  20
 50.808358759217
  30
0.0
  11
 35.890287312484
  21
 50.808358759217
  31
0.0
   0
LINE
   5
176
 100
AcDbEntity
   8
LEVEL001
 370
15
 100
AcDbLine
   6
CONTINUOUS
  62
8
  10
 35.390287312484
  20
 50.808358759217
  30
0.0
  11
 35.390287312484
  21
 52.808358759217
  31
0.0
   0
LINE
   5
177
 100
AcDbEntity
   8
LEVEL001
 370
15
 100
AcDbLine
   6
CONTINUOUS
  62
8
  10
 35.390287312484
  20
 54.808358759217
  30
0.0
  11
 35.390287312484
  21
 52.808358759217
  31
0.0
   0
SOLID
   5
178
 100
AcDbEntity
   8
LEVEL001
 100
AcDbTrace
   6
CONTINUOUS
  62
8
  10
 35.390287312484
  20
 50.808358759217
  30
0.0
  11
 35.566614293193
  21
 51.808358759217
  31
0.0
  12
 35.213960331776
  22
 51.808358759217
  32
0.0
  13
 35.213960331776
  23
 51.808358759217
  33
0.0
   0
SOLID
   5
179
 100
AcDbEntity
   8
LEVEL001
 100
AcDbTrace
   6
CONTINUOUS
  62
8
  10
 35.390287312484
  20
 54.808358759217
  30
0.0
  11
 35.213960331776
  21
 53.808358759217
  31
0.0
  12
 35.566614293193
  22
 53.808358759217
  32
0.0
  13
 35.566614293193
  23
 53.808358759217
  33
0.0
   0
MTEXT
   5
17A
 100
AcDbEntity
   8
LEVEL001
 370
15
  62
8
 100
AcDbMText
  10
 34.890287312484
  20
 52.808358759217
  30
0.0
  40
 1.2500000000000
  41
0.0
  71
8
  72
1
   1
\A1;4
   7
GMM002
  11
0.0
  21
 1.0000000000000
  31
0.0
   0
ENDBLK
   5
17B
 100
AcDbEntity
   8
0
 100
AcDbBlockEnd
   0
BLOCK
   5
17C
 100
AcDbEntity
   8
0
 100
AcDbBlockBegin
   2
*D19
  70
65
  10
0.0
  20
0.0
  30
0.0
   3
*D19
   0
LINE
   5
17D
 100
AcDbEntity
   8
LEVEL001
 370
15
 100
AcDbLine
   6
CONTINUOUS
  62
8
  10
 32.690287312484
  20
 54.808358759217
  30
0.0
  11
 35.890287312484
  21
 54.808358759217
  31
0.0
   0
LINE
   5
17E
 100
AcDbEntity
   8
LEVEL001
 370
15
 100
AcDbLine
   6
CONTINUOUS
  62
8
  10
 29.890287312484
  20
 55.808358759217
  30
0.0
  11
 35.890287312484
  21
 55.808358759217
  31
0.0
   0
LINE
   5
17F
 100
AcDbEntity
   8
LEVEL001
 370
15
 100
AcDbLine
   6
CONTINUOUS
  62
8
  10
 35.390287312484
  20
 54.808358759217
  30
0.0
  11
 35.390287312484
  21
 55.308358759217
  31
0.0
   0
LINE
   5
180
 100
AcDbEntity
   8
LEVEL001
 370
15
 100
AcDbLine
   6
CONTINUOUS
  62
8
  10
 35.390287312484
  20
 58.083681577131
  30
0.0
  11
 35.390287312484
  21
 55.308358759217
  31
0.0
   0
SOLID
   5
181
 100
AcDbEntity
   8
LEVEL001
 100
AcDbTrace
   6
CONTINUOUS
  62
8
  10
 35.390287312484
  20
 55.808358759217
  30
0.0
  11
 35.566614293193
  21
 56.808358759217
  31
0.0
  12
 35.213960331776
  22
 56.808358759217
  32
0.0
  13
 35.213960331776
  23
 56.808358759217
  33
0.0
   0
MTEXT
   5
182
 100
AcDbEntity
   8
LEVEL001
 370
15
  62
8
 100
AcDbMText
  10
 34.895208280363
  20
 56.833681577131
  30
0.0
  40
 1.2500000000000
  41
0.0
  71
7
  72
1
   1
\A1;1
   7
GMM002
  11
0.0
  21
 1.0000000000000
  31
0.0
   0
ENDBLK
   5
183
 100
AcDbEntity
   8
0
 100
AcDbBlockEnd
   0
BLOCK
   5
184
 100
AcDbEntity
   8
0
 100
AcDbBlockBegin
   2
*D20
  70
65
  10
0.0
  20
0.0
  30
0.0
   3
*D20
   0
LINE
   5
185
 100
AcDbEntity
   8
LEVEL001
 370
15
 100
AcDbLine
   6
CONTINUOUS
  62
8
  10
 35.890287312484
  20
 50.808358759217
  30
0.0
  11
 38.890287312484
  21
 50.808358759217
  31
0.0
   0
LINE
   5
186
 100
AcDbEntity
   8
LEVEL001
 370
15
 100
AcDbLine
   6
CONTINUOUS
  62
8
  10
 35.890287312484
  20
 55.808358759217
  30
0.0
  11
 38.890287312484
  21
 55.808358759217
  31
0.0
   0
LINE
   5
187
 100
AcDbEntity
   8
LEVEL001
 370
15
 100
AcDbLine
   6
CONTINUOUS
  62
8
  10
 38.390287312484
  20
 50.808358759217
  30
0.0
  11
 38.390287312484
  21
 53.308358759217
  31
0.0
   0
LINE
   5
188
 100
AcDbEntity
   8
LEVEL001
 370
15
 100
AcDbLine
   6
CONTINUOUS
  62
8
  10
 38.390287312484
  20
 55.808358759217
  30
0.0
  11
 38.390287312484
  21
 53.308358759217
  31
0.0
   0
SOLID
   5
189
 100
AcDbEntity
   8
LEVEL001
 100
AcDbTrace
   6
CONTINUOUS
  62
8
  10
 38.390287312484
  20
 50.808358759217
  30
0.0
  11
 38.566614293193
  21
 51.808358759217
  31
0.0
  12
 38.213960331776
  22
 51.808358759217
  32
0.0
  13
 38.213960331776
  23
 51.808358759217
  33
0.0
   0
SOLID
   5
18A
 100
AcDbEntity
   8
LEVEL001
 100
AcDbTrace
   6
CONTINUOUS
  62
8
  10
 38.390287312484
  20
 55.808358759217
  30
0.0
  11
 38.213960331776
  21
 54.808358759217
  31
0.0
  12
 38.566614293193
  22
 54.808358759217
  32
0.0
  13
 38.566614293193
  23
 54.808358759217
  33
0.0
   0
MTEXT
   5
18B
 100
AcDbEntity
   8
LEVEL001
 370
15
  62
8
 100
AcDbMText
  10
 37.890287312484
  20
 53.308358759217
  30
0.0
  40
 1.2500000000000
  41
0.0
  71
8
  72
1
   1
\A1;5
   7
GMM002
  11
0.0
  21
 1.0000000000000
  31
0.0
   0
ENDBLK
   5
18C
 100
AcDbEntity
   8
0
 100
AcDbBlockEnd
   0
BLOCK
   5
18D
 100
AcDbEntity
   8
0
 100
AcDbBlockBegin
   2
*D21
  70
65
  10
0.0
  20
0.0
  30
0.0
   3
*D21
   0
LINE
   5
18E
 100
AcDbEntity
   8
LEVEL001
 370
15
 100
AcDbLine
   6
CONTINUOUS
  62
8
  10
 22.640287312484
  20
 52.508358759217
  30
0.0
  11
 15.390287312484
  21
 52.508358759217
  31
0.0
   0
LINE
   5
18F
 100
AcDbEntity
   8
LEVEL001
 370
15
 100
AcDbLine
   6
CONTINUOUS
  62
8
  10
 20.890287312484
  20
 55.808358759217
  30
0.0
  11
 15.390287312484
  21
 55.808358759217
  31
0.0
   0
LINE
   5
190
 100
AcDbEntity
   8
LEVEL001
 370
15
 100
AcDbLine
   6
CONTINUOUS
  62
8
  10
 15.890287312484
  20
 52.508358759217
  30
0.0
  11
 15.890287312484
  21
 54.158358759217
  31
0.0
   0
LINE
   5
191
 100
AcDbEntity
   8
LEVEL001
 370
15
 100
AcDbLine
   6
CONTINUOUS
  62
8
  10
 15.890287312484
  20
 55.808358759217
  30
0.0
  11
 15.890287312484
  21
 54.158358759217
  31
0.0
   0
SOLID
   5
192
 100
AcDbEntity
   8
LEVEL001
 100
AcDbTrace
   6
CONTINUOUS
  62
8
  10
 15.890287312484
  20
 52.508358759217
  30
0.0
  11
 16.066614293193
  21
 53.508358759217
  31
0.0
  12
 15.713960331776
  22
 53.508358759217
  32
0.0
  13
 15.713960331776
  23
 53.508358759217
  33
0.0
   0
SOLID
   5
193
 100
AcDbEntity
   8
LEVEL001
 100
AcDbTrace
   6
CONTINUOUS
  62
8
  10
 15.890287312484
  20
 55.808358759217
  30
0.0
  11
 15.713960331776
  21
 54.808358759217
  31
0.0
  12
 16.066614293193
  22
 54.808358759217
  32
0.0
  13
 16.066614293193
  23
 54.808358759217
  33
0.0
   0
MTEXT
   5
194
 100
AcDbEntity
   8
LEVEL001
 370
15
  62
8
 100
AcDbMText
  10
 15.390287312484
  20
 54.158358759217
  30
0.0
  40
 1.2500000000000
  41
0.0
  71
8
  72
1
   1
\A1;3.3
   7
GMM002
  11
0.0
  21
 1.0000000000000
  31
0.0
   0
ENDBLK
   5
195
 100
AcDbEntity
   8
0
 100
AcDbBlockEnd
   0
BLOCK
   5
196
 100
AcDbEntity
   8
0
 100
AcDbBlockBegin
   2
*D22
  70
65
  10
0.0
  20
0.0
  30
0.0
   3
*D22
   0
LINE
   5
197
 100
AcDbEntity
   8
LEVEL001
 370
15
 100
AcDbLine
   6
CONTINUOUS
  62
8
  10
 20.790287312484
  20
 52.708358759217
  30
0.0
  11
 20.790287312484
  21
 46.308358759217
  31
0.0
   0
LINE
   5
198
 100
AcDbEntity
   8
LEVEL001
 370
15
 100
AcDbLine
   6
CONTINUOUS
  62
8
  10
 29.990287312484
  20
 52.708358759217
  30
0.0
  11
 29.990287312484
  21
 46.308358759217
  31
0.0
   0
LINE
   5
199
 100
AcDbEntity
   8
LEVEL001
 370
15
 100
AcDbLine
   6
CONTINUOUS
  62
8
  10
 20.790287312484
  20
 46.808358759217
  30
0.0
  11
 25.390287312484
  21
 46.808358759217
  31
0.0
   0
LINE
   5
19A
 100
AcDbEntity
   8
LEVEL001
 370
15
 100
AcDbLine
   6
CONTINUOUS
  62
8
  10
 29.990287312484
  20
 46.808358759217
  30
0.0
  11
 25.390287312484
  21
 46.808358759217
  31
0.0
   0
SOLID
   5
19B
 100
AcDbEntity
   8
LEVEL001
 100
AcDbTrace
   6
CONTINUOUS
  62
8
  10
 20.790287312484
  20
 46.808358759217
  30
0.0
  11
 21.790287312484
  21
 46.632031778508
  31
0.0
  12
 21.790287312484
  22
 46.984685739925
  32
0.0
  13
 21.790287312484
  23
 46.984685739925
  33
0.0
   0
SOLID
   5
19C
 100
AcDbEntity
   8
LEVEL001
 100
AcDbTrace
   6
CONTINUOUS
  62
8
  10
 29.990287312484
  20
 46.808358759217
  30
0.0
  11
 28.990287312484
  21
 46.984685739925
  31
0.0
  12
 28.990287312484
  22
 46.632031778508
  32
0.0
  13
 28.990287312484
  23
 46.632031778508
  33
0.0
   0
MTEXT
   5
19D
 100
AcDbEntity
   8
LEVEL001
 370
15
  62
8
 100
AcDbMText
  10
 25.390287312484
  20
 47.308358759217
  30
0.0
  40
 1.2500000000000
  41
0.0
  71
8
  72
1
   1
\A1;9.2
   7
GMM002
   0
ENDBLK
   5
19E
 100
AcDbEntity
   8
0
 100
AcDbBlockEnd
   0
BLOCK
   5
19F
 100
AcDbEntity
   8
0
 100
AcDbBlockBegin
   2
*D23
  70
65
  10
0.0
  20
0.0
  30
0.0
   3
*D23
   0
LINE
   5
1A0
 100
AcDbEntity
   8
LEVEL001
 370
15
 100
AcDbLine
   6
CONTINUOUS
  62
8
  10
 129.16929188898
  20
 84.926550978897
  30
0.0
  11
 129.16929188898
  21
 77.426550978897
  31
0.0
   0
LINE
   5
1A1
 100
AcDbEntity
   8
LEVEL001
 370
15
 100
AcDbLine
   6
CONTINUOUS
  62
8
  10
 138.16929188898
  20
 84.926550978897
  30
0.0
  11
 138.16929188898
  21
 77.426550978897
  31
0.0
   0
LINE
   5
1A2
 100
AcDbEntity
   8
LEVEL001
 370
15
 100
AcDbLine
   6
CONTINUOUS
  62
8
  10
 129.16929188898
  20
 77.926550978897
  30
0.0
  11
 133.66929188898
  21
 77.926550978897
  31
0.0
   0
LINE
   5
1A3
 100
AcDbEntity
   8
LEVEL001
 370
15
 100
AcDbLine
   6
CONTINUOUS
  62
8
  10
 138.16929188898
  20
 77.926550978897
  30
0.0
  11
 133.66929188898
  21
 77.926550978897
  31
0.0
   0
SOLID
   5
1A4
 100
AcDbEntity
   8
LEVEL001
 100
AcDbTrace
   6
CONTINUOUS
  62
8
  10
 129.16929188898
  20
 77.926550978897
  30
0.0
  11
 130.16929188898
  21
 77.750223998188
  31
0.0
  12
 130.16929188898
  22
 78.102877959605
  32
0.0
  13
 130.16929188898
  23
 78.102877959605
  33
0.0
   0
SOLID
   5
1A5
 100
AcDbEntity
   8
LEVEL001
 100
AcDbTrace
   6
CONTINUOUS
  62
8
  10
 138.16929188898
  20
 77.926550978897
  30
0.0
  11
 137.16929188898
  21
 78.102877959605
  31
0.0
  12
 137.16929188898
  22
 77.750223998188
  32
0.0
  13
 137.16929188898
  23
 77.750223998188
  33
0.0
   0
MTEXT
   5
1A6
 100
AcDbEntity
   8
LEVEL001
 370
15
  62
8
 100
AcDbMText
  10
 133.66929188898
  20
 78.426550978897
  30
0.0
  40
 1.5000000000000
  41
0.0
  71
8
  72
1
   1
\A1;9
   7
GMM002
   0
ENDBLK
   5
1A7
 100
AcDbEntity
   8
0
 100
AcDbBlockEnd
   0
BLOCK
   5
1A8
 100
AcDbEntity
   8
0
 100
AcDbBlockBegin
   2
*D24
  70
65
  10
0.0
  20
0.0
  30
0.0
   3
*D24
   0
LINE
   5
1A9
 100
AcDbEntity
   8
LEVEL001
 370
15
 100
AcDbLine
   6
CONTINUOUS
  62
8
  10
 131.66929188898
  20
 89.289419440104
  30
0.0
  11
 131.66929188898
  21
 92.626550978916
  31
0.0
   0
LINE
   5
1AA
 100
AcDbEntity
   8
LEVEL001
 370
15
 100
AcDbLine
   6
CONTINUOUS
  62
8
  10
 135.66929188898
  20
 89.289419440104
  30
0.0
  11
 135.66929188898
  21
 92.626550978916
  31
0.0
   0
LINE
   5
1AB
 100
AcDbEntity
   8
LEVEL001
 370
15
 100
AcDbLine
   6
CONTINUOUS
  62
8
  10
 131.66929188898
  20
 92.126550978916
  30
0.0
  11
 133.66929188898
  21
 92.126550978916
  31
0.0
   0
LINE
   5
1AC
 100
AcDbEntity
   8
LEVEL001
 370
15
 100
AcDbLine
   6
CONTINUOUS
  62
8
  10
 135.66929188898
  20
 92.126550978916
  30
0.0
  11
 133.66929188898
  21
 92.126550978916
  31
0.0
   0
SOLID
   5
1AD
 100
AcDbEntity
   8
LEVEL001
 100
AcDbTrace
   6
CONTINUOUS
  62
8
  10
 131.66929188898
  20
 92.126550978916
  30
0.0
  11
 132.66929188898
  21
 91.950223998207
  31
0.0
  12
 132.66929188898
  22
 92.302877959624
  32
0.0
  13
 132.66929188898
  23
 92.302877959624
  33
0.0
   0
SOLID
   5
1AE
 100
AcDbEntity
   8
LEVEL001
 100
AcDbTrace
   6
CONTINUOUS
  62
8
  10
 135.66929188898
  20
 92.126550978916
  30
0.0
  11
 134.66929188898
  21
 92.302877959624
  31
0.0
  12
 134.66929188898
  22
 91.950223998207
  32
0.0
  13
 134.66929188898
  23
 91.950223998207
  33
0.0
   0
MTEXT
   5
1AF
 100
AcDbEntity
   8
LEVEL001
 370
15
  62
8
 100
AcDbMText
  10
 133.66929188898
  20
 92.626550978916
  30
0.0
  40
 1.5000000000000
  41
0.0
  71
8
  72
1
   1
\A1;4
   7
GMM002
   0
ENDBLK
   5
1B0
 100
AcDbEntity
   8
0
 100
AcDbBlockEnd
   0
BLOCK
   5
1B1
 100
AcDbEntity
   8
0
 100
AcDbBlockBegin
   2
*D25
  70
65
  10
0.0
  20
0.0
  30
0.0
   3
*D25
   0
LINE
   5
1B2
 100
AcDbEntity
   8
LEVEL001
 370
15
 100
AcDbLine
   6
CONTINUOUS
  62
8
  10
 127.16929188898
  20
 89.426550978897
  30
0.0
  11
 127.16929188898
  21
 95.126550978916
  31
0.0
   0
LINE
   5
1B3
 100
AcDbEntity
   8
LEVEL001
 370
15
 100
AcDbLine
   6
CONTINUOUS
  62
8
  10
 140.16929188898
  20
 89.426550978897
  30
0.0
  11
 140.16929188898
  21
 95.126550978916
  31
0.0
   0
LINE
   5
1B4
 100
AcDbEntity
   8
LEVEL001
 370
15
 100
AcDbLine
   6
CONTINUOUS
  62
8
  10
 127.16929188898
  20
 94.626550978916
  30
0.0
  11
 133.66929188898
  21
 94.626550978916
  31
0.0
   0
LINE
   5
1B5
 100
AcDbEntity
   8
LEVEL001
 370
15
 100
AcDbLine
   6
CONTINUOUS
  62
8
  10
 140.16929188898
  20
 94.626550978916
  30
0.0
  11
 133.66929188898
  21
 94.626550978916
  31
0.0
   0
SOLID
   5
1B6
 100
AcDbEntity
   8
LEVEL001
 100
AcDbTrace
   6
CONTINUOUS
  62
8
  10
 127.16929188898
  20
 94.626550978916
  30
0.0
  11
 128.16929188898
  21
 94.450223998207
  31
0.0
  12
 128.16929188898
  22
 94.802877959624
  32
0.0
  13
 128.16929188898
  23
 94.802877959624
  33
0.0
   0
SOLID
   5
1B7
 100
AcDbEntity
   8
LEVEL001
 100
AcDbTrace
   6
CONTINUOUS
  62
8
  10
 140.16929188898
  20
 94.626550978916
  30
0.0
  11
 139.16929188898
  21
 94.802877959624
  31
0.0
  12
 139.16929188898
  22
 94.450223998207
  32
0.0
  13
 139.16929188898
  23
 94.450223998207
  33
0.0
   0
MTEXT
   5
1B8
 100
AcDbEntity
   8
LEVEL001
 370
15
  62
8
 100
AcDbMText
  10
 133.66929188898
  20
 95.126550978916
  30
0.0
  40
 1.5000000000000
  41
0.0
  71
8
  72
1
   1
\A1;13
   7
GMM002
   0
ENDBLK
   5
1B9
 100
AcDbEntity
   8
0
 100
AcDbBlockEnd
   0
BLOCK
   5
1BA
 100
AcDbEntity
   8
0
 100
AcDbBlockBegin
   2
*D26
  70
65
  10
0.0
  20
0.0
  30
0.0
   3
*D26
   0
LINE
   5
1BB
 100
AcDbEntity
   8
LEVEL001
 370
15
 100
AcDbLine
   6
CONTINUOUS
  62
8
  10
 138.16929188898
  20
 81.926550978897
  30
0.0
  11
 143.66929188898
  21
 81.926550978897
  31
0.0
   0
LINE
   5
1BC
 100
AcDbEntity
   8
LEVEL001
 370
15
 100
AcDbLine
   6
CONTINUOUS
  62
8
  10
 143.16929188898
  20
 81.926550978897
  30
0.0
  11
 143.16929188898
  21
 85.176550978897
  31
0.0
   0
LINE
   5
1BD
 100
AcDbEntity
   8
LEVEL001
 370
15
 100
AcDbLine
   6
CONTINUOUS
  62
8
  10
 143.16929188898
  20
 88.426550978897
  30
0.0
  11
 143.16929188898
  21
 85.176550978897
  31
0.0
   0
SOLID
   5
1BE
 100
AcDbEntity
   8
LEVEL001
 100
AcDbTrace
   6
CONTINUOUS
  62
8
  10
 143.16929188898
  20
 81.926550978897
  30
0.0
  11
 143.34561886968
  21
 82.926550978897
  31
0.0
  12
 142.99296490827
  22
 82.926550978897
  32
0.0
  13
 142.99296490827
  23
 82.926550978897
  33
0.0
   0
SOLID
   5
1BF
 100
AcDbEntity
   8
LEVEL001
 100
AcDbTrace
   6
CONTINUOUS
  62
8
  10
 143.16929188898
  20
 88.426550978897
  30
0.0
  11
 142.99296490827
  21
 87.426550978897
  31
0.0
  12
 143.34561886968
  22
 87.426550978897
  32
0.0
  13
 143.34561886968
  23
 87.426550978897
  33
0.0
   0
MTEXT
   5
1C0
 100
AcDbEntity
   8
LEVEL001
 370
15
  62
8
 100
AcDbMText
  10
 142.66929188898
  20
 85.176550978897
  30
0.0
  40
 1.2500000000000
  41
0.0
  71
8
  72
1
   1
\A1;6.5
   7
GMM002
  11
0.0
  21
 1.0000000000000
  31
0.0
   0
ENDBLK
   5
1C1
 100
AcDbEntity
   8
0
 100
AcDbBlockEnd
   0
BLOCK
   5
1C2
 100
AcDbEntity
   8
0
 100
AcDbBlockBegin
   2
*D27
  70
65
  10
0.0
  20
0.0
  30
0.0
   3
*D27
   0
LINE
   5
1C3
 100
AcDbEntity
   8
LEVEL001
 370
15
 100
AcDbLine
   6
CONTINUOUS
  62
8
  10
 140.36929188898
  20
 88.426550978897
  30
0.0
  11
 143.66929188898
  21
 88.426550978897
  31
0.0
   0
LINE
   5
1C4
 100
AcDbEntity
   8
LEVEL001
 370
15
 100
AcDbLine
   6
CONTINUOUS
  62
8
  10
 138.46929188898
  20
 89.626550978916
  30
0.0
  11
 143.66929188898
  21
 89.626550978916
  31
0.0
   0
LINE
   5
1C5
 100
AcDbEntity
   8
LEVEL001
 370
15
 100
AcDbLine
   6
CONTINUOUS
  62
8
  10
 143.16929188898
  20
 88.426550978897
  30
0.0
  11
 143.16929188898
  21
 89.026550978906
  31
0.0
   0
LINE
   5
1C6
 100
AcDbEntity
   8
LEVEL001
 370
15
 100
AcDbLine
   6
CONTINUOUS
  62
8
  10
 143.16929188898
  20
 93.026523023543
  30
0.0
  11
 143.16929188898
  21
 89.026550978906
  31
0.0
   0
SOLID
   5
1C7
 100
AcDbEntity
   8
LEVEL001
 100
AcDbTrace
   6
CONTINUOUS
  62
8
  10
 143.16929188898
  20
 89.626550978916
  30
0.0
  11
 143.34561886968
  21
 90.626550978916
  31
0.0
  12
 142.99296490827
  22
 90.626550978916
  32
0.0
  13
 142.99296490827
  23
 90.626550978916
  33
0.0
   0
MTEXT
   5
1C8
 100
AcDbEntity
   8
LEVEL001
 370
15
  62
8
 100
AcDbMText
  10
 142.70807165845
  20
 90.276523023543
  30
0.0
  40
 1.2500000000000
  41
0.0
  71
7
  72
1
   1
\A1;1.2
   7
GMM002
  11
0.0
  21
 1.0000000000000
  31
0.0
   0
ENDBLK
   5
1C9
 100
AcDbEntity
   8
0
 100
AcDbBlockEnd
   0
BLOCK
   5
1CA
 100
AcDbEntity
   8
0
 100
AcDbBlockBegin
   2
*D28
  70
65
  10
0.0
  20
0.0
  30
0.0
   3
*D28
   0
LINE
   5
1CB
 100
AcDbEntity
   8
LEVEL001
 370
15
 100
AcDbLine
   6
CONTINUOUS
  62
8
  10
 143.66929188898
  20
 81.926550978897
  30
0.0
  11
 146.66929188898
  21
 81.926550978897
  31
0.0
   0
LINE
   5
1CC
 100
AcDbEntity
   8
LEVEL001
 370
15
 100
AcDbLine
   6
CONTINUOUS
  62
8
  10
 143.66929188898
  20
 89.626550978916
  30
0.0
  11
 146.66929188898
  21
 89.626550978916
  31
0.0
   0
LINE
   5
1CD
 100
AcDbEntity
   8
LEVEL001
 370
15
 100
AcDbLine
   6
CONTINUOUS
  62
8
  10
 146.16929188898
  20
 81.926550978897
  30
0.0
  11
 146.16929188898
  21
 85.776550978906
  31
0.0
   0
LINE
   5
1CE
 100
AcDbEntity
   8
LEVEL001
 370
15
 100
AcDbLine
   6
CONTINUOUS
  62
8
  10
 146.16929188898
  20
 89.626550978916
  30
0.0
  11
 146.16929188898
  21
 85.776550978906
  31
0.0
   0
SOLID
   5
1CF
 100
AcDbEntity
   8
LEVEL001
 100
AcDbTrace
   6
CONTINUOUS
  62
8
  10
 146.16929188898
  20
 81.926550978897
  30
0.0
  11
 146.34561886968
  21
 82.926550978897
  31
0.0
  12
 145.99296490827
  22
 82.926550978897
  32
0.0
  13
 145.99296490827
  23
 82.926550978897
  33
0.0
   0
SOLID
   5
1D0
 100
AcDbEntity
   8
LEVEL001
 100
AcDbTrace
   6
CONTINUOUS
  62
8
  10
 146.16929188898
  20
 89.626550978916
  30
0.0
  11
 145.99296490827
  21
 88.626550978916
  31
0.0
  12
 146.34561886968
  22
 88.626550978916
  32
0.0
  13
 146.34561886968
  23
 88.626550978916
  33
0.0
   0
MTEXT
   5
1D1
 100
AcDbEntity
   8
LEVEL001
 370
15
  62
8
 100
AcDbMText
  10
 145.66929188898
  20
 85.776550978906
  30
0.0
  40
 1.2500000000000
  41
0.0
  71
8
  72
1
   1
\A1;7.7
   7
GMM002
  11
0.0
  21
 1.0000000000000
  31
0.0
   0
ENDBLK
   5
1D2
 100
AcDbEntity
   8
0
 100
AcDbBlockEnd
   0
BLOCK
   5
1D3
 100
AcDbEntity
   8
0
 100
AcDbBlockBegin
   2
*D29
  70
65
  10
0.0
  20
0.0
  30
0.0
   3
*D29
   0
LINE
   5
1D4
 100
AcDbEntity
   8
LEVEL001
 370
15
 100
AcDbLine
   6
CONTINUOUS
  62
8
  10
 131.16929188898
  20
 86.826550978897
  30
0.0
  11
 124.16929188898
  21
 86.826550978897
  31
0.0
   0
LINE
   5
1D5
 100
AcDbEntity
   8
LEVEL001
 370
15
 100
AcDbLine
   6
CONTINUOUS
  62
8
  10
 128.66929188898
  20
 89.626550978916
  30
0.0
  11
 124.16929188898
  21
 89.626550978916
  31
0.0
   0
LINE
   5
1D6
 100
AcDbEntity
   8
LEVEL001
 370
15
 100
AcDbLine
   6
CONTINUOUS
  62
8
  10
 124.66929188898
  20
 86.826550978897
  30
0.0
  11
 124.66929188898
  21
 88.226550978906
  31
0.0
   0
LINE
   5
1D7
 100
AcDbEntity
   8
LEVEL001
 370
15
 100
AcDbLine
   6
CONTINUOUS
  62
8
  10
 124.66929188898
  20
 89.626550978916
  30
0.0
  11
 124.66929188898
  21
 88.226550978906
  31
0.0
   0
SOLID
   5
1D8
 100
AcDbEntity
   8
LEVEL001
 100
AcDbTrace
   6
CONTINUOUS
  62
8
  10
 124.66929188898
  20
 86.826550978897
  30
0.0
  11
 124.84561886968
  21
 87.826550978897
  31
0.0
  12
 124.49296490827
  22
 87.826550978897
  32
0.0
  13
 124.49296490827
  23
 87.826550978897
  33
0.0
   0
SOLID
   5
1D9
 100
AcDbEntity
   8
LEVEL001
 100
AcDbTrace
   6
CONTINUOUS
  62
8
  10
 124.66929188898
  20
 89.626550978916
  30
0.0
  11
 124.49296490827
  21
 88.626550978916
  31
0.0
  12
 124.84561886968
  22
 88.626550978916
  32
0.0
  13
 124.84561886968
  23
 88.626550978916
  33
0.0
   0
MTEXT
   5
1DA
 100
AcDbEntity
   8
LEVEL001
 370
15
  62
8
 100
AcDbMText
  10
 124.16929188898
  20
 88.226550978906
  30
0.0
  40
 1.5000000000000
  41
0.0
  71
8
  72
1
   1
\A1;2.8
   7
GMM002
  11
0.0
  21
 1.0000000000000
  31
0.0
   0
ENDBLK
   5
1DB
 100
AcDbEntity
   8
0
 100
AcDbBlockEnd
   0
BLOCK
   5
1DC
 100
AcDbEntity
   8
0
 100
AcDbBlockBegin
   2
*D30
  70
65
  10
0.0
  20
0.0
  30
0.0
   3
*D30
   0
LINE
   5
1DD
 100
AcDbEntity
   8
LEVEL001
 370
15
 100
AcDbLine
   6
CONTINUOUS
  62
8
  10
 59.540751534944
  20
 119.72449682853
  30
0.0
  11
 53.256527895517
  21
 119.72449682853
  31
0.0
   0
LINE
   5
1DE
 100
AcDbEntity
   8
LEVEL001
 370
15
 100
AcDbLine
   6
CONTINUOUS
  62
8
  10
 55.440751534944
  20
 122.82449682853
  30
0.0
  11
 53.256527895517
  21
 122.82449682853
  31
0.0
   0
LINE
   5
1DF
 100
AcDbEntity
   8
LEVEL001
 370
15
 100
AcDbLine
   6
CONTINUOUS
  62
8
  10
 53.756527895517
  20
 119.72449682853
  30
0.0
  11
 53.756527895517
  21
 121.27449682853
  31
0.0
   0
LINE
   5
1E0
 100
AcDbEntity
   8
LEVEL001
 370
15
 100
AcDbLine
   6
CONTINUOUS
  62
8
  10
 53.756527895517
  20
 122.82449682853
  30
0.0
  11
 53.756527895517
  21
 121.27449682853
  31
0.0
   0
SOLID
   5
1E1
 100
AcDbEntity
   8
LEVEL001
 100
AcDbTrace
   6
CONTINUOUS
  62
8
  10
 53.756527895517
  20
 119.72449682853
  30
0.0
  11
 53.932854876226
  21
 120.72449682853
  31
0.0
  12
 53.580200914809
  22
 120.72449682853
  32
0.0
  13
 53.580200914809
  23
 120.72449682853
  33
0.0
   0
SOLID
   5
1E2
 100
AcDbEntity
   8
LEVEL001
 100
AcDbTrace
   6
CONTINUOUS
  62
8
  10
 53.756527895517
  20
 122.82449682853
  30
0.0
  11
 53.580200914809
  21
 121.82449682853
  31
0.0
  12
 53.932854876226
  22
 121.82449682853
  32
0.0
  13
 53.932854876226
  23
 121.82449682853
  33
0.0
   0
MTEXT
   5
1E3
 100
AcDbEntity
   8
LEVEL001
 370
15
  62
8
 100
AcDbMText
  10
 53.256527895517
  20
 121.27449682853
  30
0.0
  40
 1.5000000000000
  41
0.0
  71
8
  72
1
   1
\A1;3.1
   7
GMM002
  11
0.0
  21
 1.0000000000000
  31
0.0
   0
ENDBLK
   5
1E4
 100
AcDbEntity
   8
0
 100
AcDbBlockEnd
   0
BLOCK
   5
1E5
 100
AcDbEntity
   8
0
 100
AcDbBlockBegin
   2
*D31
  70
65
  10
0.0
  20
0.0
  30
0.0
   3
*D31
   0
LINE
   5
1E6
 100
AcDbEntity
   8
LEVEL001
 370
15
 100
AcDbLine
   6
CONTINUOUS
  62
8
  10
 60.040751534944
  20
 122.41457124287
  30
0.0
  11
 60.040751534944
  21
 126.32449682850
  31
0.0
   0
LINE
   5
1E7
 100
AcDbEntity
   8
LEVEL001
 370
15
 100
AcDbLine
   6
CONTINUOUS
  62
8
  10
 64.040751534944
  20
 122.41457124283
  30
0.0
  11
 64.040751534944
  21
 126.32449682850
  31
0.0
   0
LINE
   5
1E8
 100
AcDbEntity
   8
LEVEL001
 370
15
 100
AcDbLine
   6
CONTINUOUS
  62
8
  10
 60.040751534944
  20
 125.82449682850
  30
0.0
  11
 62.040751534944
  21
 125.82449682850
  31
0.0
   0
LINE
   5
1E9
 100
AcDbEntity
   8
LEVEL001
 370
15
 100
AcDbLine
   6
CONTINUOUS
  62
8
  10
 64.040751534944
  20
 125.82449682850
  30
0.0
  11
 62.040751534944
  21
 125.82449682850
  31
0.0
   0
SOLID
   5
1EA
 100
AcDbEntity
   8
LEVEL001
 100
AcDbTrace
   6
CONTINUOUS
  62
8
  10
 60.040751534944
  20
 125.82449682850
  30
0.0
  11
 61.040751534944
  21
 125.64816984779
  31
0.0
  12
 61.040751534944
  22
 126.00082380921
  32
0.0
  13
 61.040751534944
  23
 126.00082380921
  33
0.0
   0
SOLID
   5
1EB
 100
AcDbEntity
   8
LEVEL001
 100
AcDbTrace
   6
CONTINUOUS
  62
8
  10
 64.040751534944
  20
 125.82449682850
  30
0.0
  11
 63.040751534944
  21
 126.00082380921
  31
0.0
  12
 63.040751534944
  22
 125.64816984779
  32
0.0
  13
 63.040751534944
  23
 125.64816984779
  33
0.0
   0
MTEXT
   5
1EC
 100
AcDbEntity
   8
LEVEL001
 370
15
  62
8
 100
AcDbMText
  10
 62.040751534944
  20
 126.32449682850
  30
0.0
  40
 1.5000000000000
  41
0.0
  71
8
  72
1
   1
\A1;4
   7
GMM002
   0
ENDBLK
   5
1ED
 100
AcDbEntity
   8
0
 100
AcDbBlockEnd
   0
BLOCK
   5
1EE
 100
AcDbEntity
   8
0
 100
AcDbBlockBegin
   2
*D32
  70
65
  10
0.0
  20
0.0
  30
0.0
   3
*D32
   0
LINE
   5
1EF
 100
AcDbEntity
   8
LEVEL001
 370
15
 100
AcDbLine
   6
CONTINUOUS
  62
8
  10
 55.940751534944
  20
 123.32449682853
  30
0.0
  11
 55.940751534944
  21
 129.32449682850
  31
0.0
   0
LINE
   5
1F0
 100
AcDbEntity
   8
LEVEL001
 370
15
 100
AcDbLine
   6
CONTINUOUS
  62
8
  10
 68.140751534944
  20
 123.32449682853
  30
0.0
  11
 68.140751534944
  21
 129.32449682850
  31
0.0
   0
LINE
   5
1F1
 100
AcDbEntity
   8
LEVEL001
 370
15
 100
AcDbLine
   6
CONTINUOUS
  62
8
  10
 55.940751534944
  20
 128.82449682850
  30
0.0
  11
 62.040751534944
  21
 128.82449682850
  31
0.0
   0
LINE
   5
1F2
 100
AcDbEntity
   8
LEVEL001
 370
15
 100
AcDbLine
   6
CONTINUOUS
  62
8
  10
 68.140751534944
  20
 128.82449682850
  30
0.0
  11
 62.040751534944
  21
 128.82449682850
  31
0.0
   0
SOLID
   5
1F3
 100
AcDbEntity
   8
LEVEL001
 100
AcDbTrace
   6
CONTINUOUS
  62
8
  10
 55.940751534944
  20
 128.82449682850
  30
0.0
  11
 56.940751534944
  21
 128.64816984779
  31
0.0
  12
 56.940751534944
  22
 129.00082380921
  32
0.0
  13
 56.940751534944
  23
 129.00082380921
  33
0.0
   0
SOLID
   5
1F4
 100
AcDbEntity
   8
LEVEL001
 100
AcDbTrace
   6
CONTINUOUS
  62
8
  10
 68.140751534944
  20
 128.82449682850
  30
0.0
  11
 67.140751534944
  21
 129.00082380921
  31
0.0
  12
 67.140751534944
  22
 128.64816984779
  32
0.0
  13
 67.140751534944
  23
 128.64816984779
  33
0.0
   0
MTEXT
   5
1F5
 100
AcDbEntity
   8
LEVEL001
 370
15
  62
8
 100
AcDbMText
  10
 62.040751534944
  20
 129.32449682850
  30
0.0
  40
 1.5000000000000
  41
0.0
  71
8
  72
1
   1
\A1;12.2
   7
GMM002
   0
ENDBLK
   5
1F6
 100
AcDbEntity
   8
0
 100
AcDbBlockEnd
   0
BLOCK
   5
1F7
 100
AcDbEntity
   8
0
 100
AcDbBlockBegin
   2
*D33
  70
65
  10
0.0
  20
0.0
  30
0.0
   3
*D33
   0
LINE
   5
1F8
 100
AcDbEntity
   8
LEVEL001
 370
15
 100
AcDbLine
   6
CONTINUOUS
  62
8
  10
 67.990751534944
  20
 115.82449682853
  30
0.0
  11
 71.640751534944
  21
 115.82449682853
  31
0.0
   0
LINE
   5
1F9
 100
AcDbEntity
   8
LEVEL001
 370
15
 100
AcDbLine
   6
CONTINUOUS
  62
8
  10
 68.640751534944
  20
 122.82449682853
  30
0.0
  11
 71.640751534944
  21
 122.82449682853
  31
0.0
   0
LINE
   5
1FA
 100
AcDbEntity
   8
LEVEL001
 370
15
 100
AcDbLine
   6
CONTINUOUS
  62
8
  10
 71.140751534944
  20
 115.82449682853
  30
0.0
  11
 71.140751534944
  21
 119.32449682853
  31
0.0
   0
LINE
   5
1FB
 100
AcDbEntity
   8
LEVEL001
 370
15
 100
AcDbLine
   6
CONTINUOUS
  62
8
  10
 71.140751534944
  20
 122.82449682853
  30
0.0
  11
 71.140751534944
  21
 119.32449682853
  31
0.0
   0
SOLID
   5
1FC
 100
AcDbEntity
   8
LEVEL001
 100
AcDbTrace
   6
CONTINUOUS
  62
8
  10
 71.140751534944
  20
 115.82449682853
  30
0.0
  11
 71.317078515652
  21
 116.82449682853
  31
0.0
  12
 70.964424554235
  22
 116.82449682853
  32
0.0
  13
 70.964424554235
  23
 116.82449682853
  33
0.0
   0
SOLID
   5
1FD
 100
AcDbEntity
   8
LEVEL001
 100
AcDbTrace
   6
CONTINUOUS
  62
8
  10
 71.140751534944
  20
 122.82449682853
  30
0.0
  11
 70.964424554235
  21
 121.82449682853
  31
0.0
  12
 71.317078515652
  22
 121.82449682853
  32
0.0
  13
 71.317078515652
  23
 121.82449682853
  33
0.0
   0
MTEXT
   5
1FE
 100
AcDbEntity
   8
LEVEL001
 370
15
  62
8
 100
AcDbMText
  10
 70.640751534944
  20
 119.32449682853
  30
0.0
  40
 1.5000000000000
  41
0.0
  71
8
  72
1
   1
\A1;7
   7
GMM002
  11
0.0
  21
 1.0000000000000
  31
0.0
   0
ENDBLK
   5
1FF
 100
AcDbEntity
   8
0
 100
AcDbBlockEnd
   0
BLOCK
   5
200
 100
AcDbEntity
   8
0
 100
AcDbBlockBegin
   2
*D34
  70
65
  10
0.0
  20
0.0
  30
0.0
   3
*D34
   0
LINE
   5
201
 100
AcDbEntity
   8
LEVEL001
 370
15
 100
AcDbLine
   6
CONTINUOUS
  62
8
  10
 94.588971523011
  20
 120.82449682853
  30
0.0
  11
 90.488971523011
  21
 120.82449682853
  31
0.0
   0
LINE
   5
202
 100
AcDbEntity
   8
LEVEL001
 370
15
 100
AcDbLine
   6
CONTINUOUS
  62
8
  10
 92.988971523011
  20
 124.82449682853
  30
0.0
  11
 90.488971523011
  21
 124.82449682853
  31
0.0
   0
LINE
   5
203
 100
AcDbEntity
   8
LEVEL001
 370
15
 100
AcDbLine
   6
CONTINUOUS
  62
8
  10
 90.988971523011
  20
 120.82449682853
  30
0.0
  11
 90.988971523011
  21
 122.82449682853
  31
0.0
   0
LINE
   5
204
 100
AcDbEntity
   8
LEVEL001
 370
15
 100
AcDbLine
   6
CONTINUOUS
  62
8
  10
 90.988971523011
  20
 124.82449682853
  30
0.0
  11
 90.988971523011
  21
 122.82449682853
  31
0.0
   0
SOLID
   5
205
 100
AcDbEntity
   8
LEVEL001
 100
AcDbTrace
   6
CONTINUOUS
  62
8
  10
 90.988971523011
  20
 120.82449682853
  30
0.0
  11
 91.165298503719
  21
 121.82449682853
  31
0.0
  12
 90.812644542302
  22
 121.82449682853
  32
0.0
  13
 90.812644542302
  23
 121.82449682853
  33
0.0
   0
SOLID
   5
206
 100
AcDbEntity
   8
LEVEL001
 100
AcDbTrace
   6
CONTINUOUS
  62
8
  10
 90.988971523011
  20
 124.82449682853
  30
0.0
  11
 90.812644542302
  21
 123.82449682853
  31
0.0
  12
 91.165298503719
  22
 123.82449682853
  32
0.0
  13
 91.165298503719
  23
 123.82449682853
  33
0.0
   0
MTEXT
   5
207
 100
AcDbEntity
   8
LEVEL001
 370
15
  62
8
 100
AcDbMText
  10
 90.488971523011
  20
 122.82449682853
  30
0.0
  40
 1.5000000000000
  41
0.0
  71
8
  72
1
   1
\A1;4
   7
GMM002
  11
0.0
  21
 1.0000000000000
  31
0.0
   0
ENDBLK
   5
208
 100
AcDbEntity
   8
0
 100
AcDbBlockEnd
   0
BLOCK
   5
209
 100
AcDbEntity
   8
0
 100
AcDbBlockBegin
   2
*D35
  70
65
  10
0.0
  20
0.0
  30
0.0
   3
*D35
   0
LINE
   5
20A
 100
AcDbEntity
   8
LEVEL001
 370
15
 100
AcDbLine
   6
CONTINUOUS
  62
8
  10
 95.988971523011
  20
 124.34732378209
  30
0.0
  11
 95.988971523011
  21
 128.32449682853
  31
0.0
   0
LINE
   5
20B
 100
AcDbEntity
   8
LEVEL001
 370
15
 100
AcDbLine
   6
CONTINUOUS
  62
8
  10
 99.988971523011
  20
 124.34732378209
  30
0.0
  11
 99.988971523011
  21
 128.32449682853
  31
0.0
   0
LINE
   5
20C
 100
AcDbEntity
   8
LEVEL001
 370
15
 100
AcDbLine
   6
CONTINUOUS
  62
8
  10
 95.988971523011
  20
 127.82449682853
  30
0.0
  11
 97.988971523011
  21
 127.82449682853
  31
0.0
   0
LINE
   5
20D
 100
AcDbEntity
   8
LEVEL001
 370
15
 100
AcDbLine
   6
CONTINUOUS
  62
8
  10
 99.988971523011
  20
 127.82449682853
  30
0.0
  11
 97.988971523011
  21
 127.82449682853
  31
0.0
   0
SOLID
   5
20E
 100
AcDbEntity
   8
LEVEL001
 100
AcDbTrace
   6
CONTINUOUS
  62
8
  10
 95.988971523011
  20
 127.82449682853
  30
0.0
  11
 96.988971523011
  21
 127.64816984782
  31
0.0
  12
 96.988971523011
  22
 128.00082380924
  32
0.0
  13
 96.988971523011
  23
 128.00082380924
  33
0.0
   0
SOLID
   5
20F
 100
AcDbEntity
   8
LEVEL001
 100
AcDbTrace
   6
CONTINUOUS
  62
8
  10
 99.988971523011
  20
 127.82449682853
  30
0.0
  11
 98.988971523011
  21
 128.00082380924
  31
0.0
  12
 98.988971523011
  22
 127.64816984782
  32
0.0
  13
 98.988971523011
  23
 127.64816984782
  33
0.0
   0
MTEXT
   5
210
 100
AcDbEntity
   8
LEVEL001
 370
15
  62
8
 100
AcDbMText
  10
 97.988971523011
  20
 128.32449682853
  30
0.0
  40
 1.5000000000000
  41
0.0
  71
8
  72
1
   1
\A1;4
   7
GMM002
   0
ENDBLK
   5
211
 100
AcDbEntity
   8
0
 100
AcDbBlockEnd
   0
BLOCK
   5
212
 100
AcDbEntity
   8
0
 100
AcDbBlockBegin
   2
*D36
  70
65
  10
0.0
  20
0.0
  30
0.0
   3
*D36
   0
LINE
   5
213
 100
AcDbEntity
   8
LEVEL001
 370
15
 100
AcDbLine
   6
CONTINUOUS
  62
8
  10
 93.488971523011
  20
 125.32449682853
  30
0.0
  11
 93.488971523011
  21
 131.32449682853
  31
0.0
   0
LINE
   5
214
 100
AcDbEntity
   8
LEVEL001
 370
15
 100
AcDbLine
   6
CONTINUOUS
  62
8
  10
 102.48897152301
  20
 125.32449682853
  30
0.0
  11
 102.48897152301
  21
 131.32449682853
  31
0.0
   0
LINE
   5
215
 100
AcDbEntity
   8
LEVEL001
 370
15
 100
AcDbLine
   6
CONTINUOUS
  62
8
  10
 93.488971523011
  20
 130.82449682853
  30
0.0
  11
 97.988971523011
  21
 130.82449682853
  31
0.0
   0
LINE
   5
216
 100
AcDbEntity
   8
LEVEL001
 370
15
 100
AcDbLine
   6
CONTINUOUS
  62
8
  10
 102.48897152301
  20
 130.82449682853
  30
0.0
  11
 97.988971523011
  21
 130.82449682853
  31
0.0
   0
SOLID
   5
217
 100
AcDbEntity
   8
LEVEL001
 100
AcDbTrace
   6
CONTINUOUS
  62
8
  10
 93.488971523011
  20
 130.82449682853
  30
0.0
  11
 94.488971523011
  21
 130.64816984782
  31
0.0
  12
 94.488971523011
  22
 131.00082380924
  32
0.0
  13
 94.488971523011
  23
 131.00082380924
  33
0.0
   0
SOLID
   5
218
 100
AcDbEntity
   8
LEVEL001
 100
AcDbTrace
   6
CONTINUOUS
  62
8
  10
 102.48897152301
  20
 130.82449682853
  30
0.0
  11
 101.48897152301
  21
 131.00082380924
  31
0.0
  12
 101.48897152301
  22
 130.64816984782
  32
0.0
  13
 101.48897152301
  23
 130.64816984782
  33
0.0
   0
MTEXT
   5
219
 100
AcDbEntity
   8
LEVEL001
 370
15
  62
8
 100
AcDbMText
  10
 97.988971523011
  20
 131.32449682853
  30
0.0
  40
 1.5000000000000
  41
0.0
  71
8
  72
1
   1
\A1;9
   7
GMM002
   0
ENDBLK
   5
21A
 100
AcDbEntity
   8
0
 100
AcDbBlockEnd
   0
BLOCK
   5
21B
 100
AcDbEntity
   8
0
 100
AcDbBlockBegin
   2
*D37
  70
65
  10
0.0
  20
0.0
  30
0.0
   3
*D37
   0
LINE
   5
21C
 100
AcDbEntity
   8
LEVEL001
 370
15
 100
AcDbLine
   6
CONTINUOUS
  62
8
  10
 102.38897152301
  20
 115.82449682853
  30
0.0
  11
 105.48897152301
  21
 115.82449682853
  31
0.0
   0
LINE
   5
21D
 100
AcDbEntity
   8
LEVEL001
 370
15
 100
AcDbLine
   6
CONTINUOUS
  62
8
  10
 102.98897152301
  20
 124.82449682853
  30
0.0
  11
 105.48897152301
  21
 124.82449682853
  31
0.0
   0
LINE
   5
21E
 100
AcDbEntity
   8
LEVEL001
 370
15
 100
AcDbLine
   6
CONTINUOUS
  62
8
  10
 104.98897152301
  20
 115.82449682853
  30
0.0
  11
 104.98897152301
  21
 120.32449682853
  31
0.0
   0
LINE
   5
21F
 100
AcDbEntity
   8
LEVEL001
 370
15
 100
AcDbLine
   6
CONTINUOUS
  62
8
  10
 104.98897152301
  20
 124.82449682853
  30
0.0
  11
 104.98897152301
  21
 120.32449682853
  31
0.0
   0
SOLID
   5
220
 100
AcDbEntity
   8
LEVEL001
 100
AcDbTrace
   6
CONTINUOUS
  62
8
  10
 104.98897152301
  20
 115.82449682853
  30
0.0
  11
 105.16529850372
  21
 116.82449682853
  31
0.0
  12
 104.81264454230
  22
 116.82449682853
  32
0.0
  13
 104.81264454230
  23
 116.82449682853
  33
0.0
   0
SOLID
   5
221
 100
AcDbEntity
   8
LEVEL001
 100
AcDbTrace
   6
CONTINUOUS
  62
8
  10
 104.98897152301
  20
 124.82449682853
  30
0.0
  11
 104.81264454230
  21
 123.82449682853
  31
0.0
  12
 105.16529850372
  22
 123.82449682853
  32
0.0
  13
 105.16529850372
  23
 123.82449682853
  33
0.0
   0
MTEXT
   5
222
 100
AcDbEntity
   8
LEVEL001
 370
15
  62
8
 100
AcDbMText
  10
 104.48897152301
  20
 120.32449682853
  30
0.0
  40
 1.5000000000000
  41
0.0
  71
8
  72
1
   1
\A1;9
   7
GMM002
  11
0.0
  21
 1.0000000000000
  31
0.0
   0
ENDBLK
   5
223
 100
AcDbEntity
   8
0
 100
AcDbBlockEnd
   0
BLOCK
   5
224
 100
AcDbEntity
   8
0
 100
AcDbBlockBegin
   2
*D38
  70
65
  10
0.0
  20
0.0
  30
0.0
   3
*D38
   0
LINE
   5
225
 100
AcDbEntity
   8
LEVEL001
 370
15
 100
AcDbLine
   6
CONTINUOUS
  62
8
  10
 95.988971523012
  20
 91.589419440057
  30
0.0
  11
 95.988971523012
  21
 95.426550978897
  31
0.0
   0
LINE
   5
226
 100
AcDbEntity
   8
LEVEL001
 370
15
 100
AcDbLine
   6
CONTINUOUS
  62
8
  10
 99.988971522895
  20
 91.589419440057
  30
0.0
  11
 99.988971522895
  21
 95.426550978897
  31
0.0
   0
LINE
   5
227
 100
AcDbEntity
   8
LEVEL001
 370
15
 100
AcDbLine
   6
CONTINUOUS
  62
8
  10
 95.988971523012
  20
 94.926550978897
  30
0.0
  11
 97.988971522953
  21
 94.926550978897
  31
0.0
   0
LINE
   5
228
 100
AcDbEntity
   8
LEVEL001
 370
15
 100
AcDbLine
   6
CONTINUOUS
  62
8
  10
 99.988971522895
  20
 94.926550978897
  30
0.0
  11
 97.988971522953
  21
 94.926550978897
  31
0.0
   0
SOLID
   5
229
 100
AcDbEntity
   8
LEVEL001
 100
AcDbTrace
   6
CONTINUOUS
  62
8
  10
 95.988971523012
  20
 94.926550978897
  30
0.0
  11
 96.988971523012
  21
 94.750223998188
  31
0.0
  12
 96.988971523012
  22
 95.102877959605
  32
0.0
  13
 96.988971523012
  23
 95.102877959605
  33
0.0
   0
SOLID
   5
22A
 100
AcDbEntity
   8
LEVEL001
 100
AcDbTrace
   6
CONTINUOUS
  62
8
  10
 99.988971522895
  20
 94.926550978897
  30
0.0
  11
 98.988971522895
  21
 95.102877959605
  31
0.0
  12
 98.988971522895
  22
 94.750223998188
  32
0.0
  13
 98.988971522895
  23
 94.750223998188
  33
0.0
   0
MTEXT
   5
22B
 100
AcDbEntity
   8
LEVEL001
 370
15
  62
8
 100
AcDbMText
  10
 97.988971522953
  20
 95.426550978897
  30
0.0
  40
 1.5000000000000
  41
0.0
  71
8
  72
1
   1
\A1;4
   7
GMM002
   0
ENDBLK
   5
22C
 100
AcDbEntity
   8
0
 100
AcDbBlockEnd
   0
BLOCK
   5
22D
 100
AcDbEntity
   8
0
 100
AcDbBlockBegin
   2
*D39
  70
65
  10
0.0
  20
0.0
  30
0.0
   3
*D39
   0
LINE
   5
22E
 100
AcDbEntity
   8
LEVEL001
 370
15
 100
AcDbLine
   6
CONTINUOUS
  62
8
  10
 91.488971522897
  20
 91.926550978898
  30
0.0
  11
 91.488971522897
  21
 98.426550978897
  31
0.0
   0
LINE
   5
22F
 100
AcDbEntity
   8
LEVEL001
 370
15
 100
AcDbLine
   6
CONTINUOUS
  62
8
  10
 104.48897152289
  20
 91.926550978898
  30
0.0
  11
 104.48897152289
  21
 98.426550978897
  31
0.0
   0
LINE
   5
230
 100
AcDbEntity
   8
LEVEL001
 370
15
 100
AcDbLine
   6
CONTINUOUS
  62
8
  10
 91.488971522897
  20
 97.926550978897
  30
0.0
  11
 97.988971522895
  21
 97.926550978897
  31
0.0
   0
LINE
   5
231
 100
AcDbEntity
   8
LEVEL001
 370
15
 100
AcDbLine
   6
CONTINUOUS
  62
8
  10
 104.48897152289
  20
 97.926550978897
  30
0.0
  11
 97.988971522895
  21
 97.926550978897
  31
0.0
   0
SOLID
   5
232
 100
AcDbEntity
   8
LEVEL001
 100
AcDbTrace
   6
CONTINUOUS
  62
8
  10
 91.488971522897
  20
 97.926550978897
  30
0.0
  11
 92.488971522897
  21
 97.750223998188
  31
0.0
  12
 92.488971522897
  22
 98.102877959605
  32
0.0
  13
 92.488971522897
  23
 98.102877959605
  33
0.0
   0
SOLID
   5
233
 100
AcDbEntity
   8
LEVEL001
 100
AcDbTrace
   6
CONTINUOUS
  62
8
  10
 104.48897152289
  20
 97.926550978897
  30
0.0
  11
 103.48897152289
  21
 98.102877959605
  31
0.0
  12
 103.48897152289
  22
 97.750223998188
  32
0.0
  13
 103.48897152289
  23
 97.750223998188
  33
0.0
   0
MTEXT
   5
234
 100
AcDbEntity
   8
LEVEL001
 370
15
  62
8
 100
AcDbMText
  10
 97.988971522895
  20
 98.426550978897
  30
0.0
  40
 1.5000000000000
  41
0.0
  71
8
  72
1
   1
\A1;13
   7
GMM002
   0
ENDBLK
   5
235
 100
AcDbEntity
   8
0
 100
AcDbBlockEnd
   0
BLOCK
   5
236
 100
AcDbEntity
   8
0
 100
AcDbBlockBegin
   2
*D40
  70
65
  10
0.0
  20
0.0
  30
0.0
   3
*D40
   0
LINE
   5
237
 100
AcDbEntity
   8
LEVEL001
 370
15
 100
AcDbLine
   6
CONTINUOUS
  62
8
  10
 93.488971523012
  20
 88.926550978897
  30
0.0
  11
 93.488971523012
  21
 77.426550978897
  31
0.0
   0
LINE
   5
238
 100
AcDbEntity
   8
LEVEL001
 370
15
 100
AcDbLine
   6
CONTINUOUS
  62
8
  10
 102.48897152289
  20
 88.829083355219
  30
0.0
  11
 102.48897152289
  21
 77.426550978897
  31
0.0
   0
LINE
   5
239
 100
AcDbEntity
   8
LEVEL001
 370
15
 100
AcDbLine
   6
CONTINUOUS
  62
8
  10
 93.488971523012
  20
 77.926550978897
  30
0.0
  11
 97.988971522953
  21
 77.926550978897
  31
0.0
   0
LINE
   5
23A
 100
AcDbEntity
   8
LEVEL001
 370
15
 100
AcDbLine
   6
CONTINUOUS
  62
8
  10
 102.48897152289
  20
 77.926550978897
  30
0.0
  11
 97.988971522953
  21
 77.926550978897
  31
0.0
   0
SOLID
   5
23B
 100
AcDbEntity
   8
LEVEL001
 100
AcDbTrace
   6
CONTINUOUS
  62
8
  10
 93.488971523012
  20
 77.926550978897
  30
0.0
  11
 94.488971523012
  21
 77.750223998188
  31
0.0
  12
 94.488971523012
  22
 78.102877959605
  32
0.0
  13
 94.488971523012
  23
 78.102877959605
  33
0.0
   0
SOLID
   5
23C
 100
AcDbEntity
   8
LEVEL001
 100
AcDbTrace
   6
CONTINUOUS
  62
8
  10
 102.48897152289
  20
 77.926550978897
  30
0.0
  11
 101.48897152289
  21
 78.102877959605
  31
0.0
  12
 101.48897152289
  22
 77.750223998188
  32
0.0
  13
 101.48897152289
  23
 77.750223998188
  33
0.0
   0
MTEXT
   5
23D
 100
AcDbEntity
   8
LEVEL001
 370
15
  62
8
 100
AcDbMText
  10
 97.988971522953
  20
 78.426550978897
  30
0.0
  40
 1.5000000000000
  41
0.0
  71
8
  72
1
   1
\A1;9
   7
GMM002
   0
ENDBLK
   5
23E
 100
AcDbEntity
   8
0
 100
AcDbBlockEnd
   0
BLOCK
   5
23F
 100
AcDbEntity
   8
0
 100
AcDbBlockBegin
   2
*D41
  70
65
  10
0.0
  20
0.0
  30
0.0
   3
*D41
   0
LINE
   5
240
 100
AcDbEntity
   8
LEVEL001
 370
15
 100
AcDbLine
   6
CONTINUOUS
  62
8
  10
 107.48897152289
  20
 81.926550978897
  30
0.0
  11
 109.98897152289
  21
 81.926550978897
  31
0.0
   0
LINE
   5
241
 100
AcDbEntity
   8
LEVEL001
 370
15
 100
AcDbLine
   6
CONTINUOUS
  62
8
  10
 107.48897152289
  20
 91.926550978897
  30
0.0
  11
 109.98897152289
  21
 91.926550978897
  31
0.0
   0
LINE
   5
242
 100
AcDbEntity
   8
LEVEL001
 370
15
 100
AcDbLine
   6
CONTINUOUS
  62
8
  10
 109.48897152289
  20
 81.926550978897
  30
0.0
  11
 109.48897152289
  21
 86.926550978897
  31
0.0
   0
LINE
   5
243
 100
AcDbEntity
   8
LEVEL001
 370
15
 100
AcDbLine
   6
CONTINUOUS
  62
8
  10
 109.48897152289
  20
 91.926550978897
  30
0.0
  11
 109.48897152289
  21
 86.926550978897
  31
0.0
   0
SOLID
   5
244
 100
AcDbEntity
   8
LEVEL001
 100
AcDbTrace
   6
CONTINUOUS
  62
8
  10
 109.48897152289
  20
 81.926550978897
  30
0.0
  11
 109.66529850360
  21
 82.926550978897
  31
0.0
  12
 109.31264454219
  22
 82.926550978897
  32
0.0
  13
 109.31264454219
  23
 82.926550978897
  33
0.0
   0
SOLID
   5
245
 100
AcDbEntity
   8
LEVEL001
 100
AcDbTrace
   6
CONTINUOUS
  62
8
  10
 109.48897152289
  20
 91.926550978897
  30
0.0
  11
 109.31264454219
  21
 90.926550978897
  31
0.0
  12
 109.66529850360
  22
 90.926550978897
  32
0.0
  13
 109.66529850360
  23
 90.926550978897
  33
0.0
   0
MTEXT
   5
246
 100
AcDbEntity
   8
LEVEL001
 370
15
  62
8
 100
AcDbMText
  10
 108.98897152289
  20
 86.926550978897
  30
0.0
  40
 1.2500000000000
  41
0.0
  71
8
  72
1
   1
\A1;10
   7
GMM002
  11
0.0
  21
 1.0000000000000
  31
0.0
   0
ENDBLK
   5
247
 100
AcDbEntity
   8
0
 100
AcDbBlockEnd
   0
BLOCK
   5
248
 100
AcDbEntity
   8
0
 100
AcDbBlockBegin
   2
*D42
  70
65
  10
0.0
  20
0.0
  30
0.0
   3
*D42
   0
LINE
   5
249
 100
AcDbEntity
   8
LEVEL001
 370
15
 100
AcDbLine
   6
CONTINUOUS
  62
8
  10
 102.38897152289
  20
 81.926550978897
  30
0.0
  11
 107.48897152289
  21
 81.926550978897
  31
0.0
   0
LINE
   5
24A
 100
AcDbEntity
   8
LEVEL001
 370
15
 100
AcDbLine
   6
CONTINUOUS
  62
8
  10
 106.98897152289
  20
 81.926550978897
  30
0.0
  11
 106.98897152289
  21
 86.426550978897
  31
0.0
   0
LINE
   5
24B
 100
AcDbEntity
   8
LEVEL001
 370
15
 100
AcDbLine
   6
CONTINUOUS
  62
8
  10
 106.98897152289
  20
 90.926550978897
  30
0.0
  11
 106.98897152289
  21
 86.426550978897
  31
0.0
   0
SOLID
   5
24C
 100
AcDbEntity
   8
LEVEL001
 100
AcDbTrace
   6
CONTINUOUS
  62
8
  10
 106.98897152289
  20
 81.926550978897
  30
0.0
  11
 107.16529850360
  21
 82.926550978897
  31
0.0
  12
 106.81264454219
  22
 82.926550978897
  32
0.0
  13
 106.81264454219
  23
 82.926550978897
  33
0.0
   0
SOLID
   5
24D
 100
AcDbEntity
   8
LEVEL001
 100
AcDbTrace
   6
CONTINUOUS
  62
8
  10
 106.98897152289
  20
 90.926550978897
  30
0.0
  11
 106.81264454219
  21
 89.926550978897
  31
0.0
  12
 107.16529850360
  22
 89.926550978897
  32
0.0
  13
 107.16529850360
  23
 89.926550978897
  33
0.0
   0
MTEXT
   5
24E
 100
AcDbEntity
   8
LEVEL001
 370
15
  62
8
 100
AcDbMText
  10
 106.48897152289
  20
 86.426550978897
  30
0.0
  40
 1.2500000000000
  41
0.0
  71
8
  72
1
   1
\A1;9
   7
GMM002
  11
0.0
  21
 1.0000000000000
  31
0.0
   0
ENDBLK
   5
24F
 100
AcDbEntity
   8
0
 100
AcDbBlockEnd
   0
BLOCK
   5
250
 100
AcDbEntity
   8
0
 100
AcDbBlockBegin
   2
*D43
  70
65
  10
0.0
  20
0.0
  30
0.0
   3
*D43
   0
LINE
   5
251
 100
AcDbEntity
   8
LEVEL001
 370
15
 100
AcDbLine
   6
CONTINUOUS
  62
8
  10
 104.68897152289
  20
 90.926550978897
  30
0.0
  11
 107.48897152289
  21
 90.926550978897
  31
0.0
   0
LINE
   5
252
 100
AcDbEntity
   8
LEVEL001
 370
15
 100
AcDbLine
   6
CONTINUOUS
  62
8
  10
 102.90011714089
  20
 91.926550978897
  30
0.0
  11
 107.48897152289
  21
 91.926550978897
  31
0.0
   0
LINE
   5
253
 100
AcDbEntity
   8
LEVEL001
 370
15
 100
AcDbLine
   6
CONTINUOUS
  62
8
  10
 106.98897152289
  20
 90.926550978897
  30
0.0
  11
 106.98897152289
  21
 91.426550978897
  31
0.0
   0
LINE
   5
254
 100
AcDbEntity
   8
LEVEL001
 370
15
 100
AcDbLine
   6
CONTINUOUS
  62
8
  10
 106.98897152289
  20
 94.180396643789
  30
0.0
  11
 106.98897152289
  21
 91.426550978897
  31
0.0
   0
SOLID
   5
255
 100
AcDbEntity
   8
LEVEL001
 100
AcDbTrace
   6
CONTINUOUS
  62
8
  10
 106.98897152289
  20
 91.926550978897
  30
0.0
  11
 107.16529850360
  21
 92.926550978897
  31
0.0
  12
 106.81264454219
  22
 92.926550978897
  32
0.0
  13
 106.81264454219
  23
 92.926550978897
  33
0.0
   0
MTEXT
   5
256
 100
AcDbEntity
   8
LEVEL001
 370
15
  62
8
 100
AcDbMText
  10
 106.43015827601
  20
 92.930396643789
  30
0.0
  40
 1.2500000000000
  41
0.0
  71
7
  72
1
   1
\A1;1
   7
GMM002
  11
0.0
  21
 1.0000000000000
  31
0.0
   0
ENDBLK
   5
257
 100
AcDbEntity
   8
0
 100
AcDbBlockEnd
   0
BLOCK
   5
258
 100
AcDbEntity
   8
0
 100
AcDbBlockBegin
   2
*D44
  70
65
  10
0.0
  20
0.0
  30
0.0
   3
*D44
   0
LINE
   5
259
 100
AcDbEntity
   8
LEVEL001
 370
15
 100
AcDbLine
   6
CONTINUOUS
  62
8
  10
 94.588971523012
  20
 86.926550978897
  30
0.0
  11
 88.488971522897
  21
 86.926550978897
  31
0.0
   0
LINE
   5
25A
 100
AcDbEntity
   8
LEVEL001
 370
15
 100
AcDbLine
   6
CONTINUOUS
  62
8
  10
 92.888971522896
  20
 91.926550978897
  30
0.0
  11
 88.488971522897
  21
 91.926550978897
  31
0.0
   0
LINE
   5
25B
 100
AcDbEntity
   8
LEVEL001
 370
15
 100
AcDbLine
   6
CONTINUOUS
  62
8
  10
 88.988971522897
  20
 86.926550978897
  30
0.0
  11
 88.988971522897
  21
 89.426550978897
  31
0.0
   0
LINE
   5
25C
 100
AcDbEntity
   8
LEVEL001
 370
15
 100
AcDbLine
   6
CONTINUOUS
  62
8
  10
 88.988971522897
  20
 91.926550978897
  30
0.0
  11
 88.988971522897
  21
 89.426550978897
  31
0.0
   0
SOLID
   5
25D
 100
AcDbEntity
   8
LEVEL001
 100
AcDbTrace
   6
CONTINUOUS
  62
8
  10
 88.988971522897
  20
 86.926550978897
  30
0.0
  11
 89.165298503605
  21
 87.926550978897
  31
0.0
  12
 88.812644542188
  22
 87.926550978897
  32
0.0
  13
 88.812644542188
  23
 87.926550978897
  33
0.0
   0
SOLID
   5
25E
 100
AcDbEntity
   8
LEVEL001
 100
AcDbTrace
   6
CONTINUOUS
  62
8
  10
 88.988971522897
  20
 91.926550978897
  30
0.0
  11
 88.812644542188
  21
 90.926550978897
  31
0.0
  12
 89.165298503605
  22
 90.926550978897
  32
0.0
  13
 89.165298503605
  23
 90.926550978897
  33
0.0
   0
MTEXT
   5
25F
 100
AcDbEntity
   8
LEVEL001
 370
15
  62
8
 100
AcDbMText
  10
 88.488971522897
  20
 89.426550978897
  30
0.0
  40
 1.2500000000000
  41
0.0
  71
8
  72
1
   1
\A1;5
   7
GMM002
  11
0.0
  21
 1.0000000000000
  31
0.0
   0
ENDBLK
   5
260
 100
AcDbEntity
   8
0
 100
AcDbBlockEnd
   0
BLOCK
   5
261
 100
AcDbEntity
   8
0
 100
AcDbBlockBegin
   2
*D45
  70
65
  10
0.0
  20
0.0
  30
0.0
   3
*D45
   0
LINE
   5
262
 100
AcDbEntity
   8
LEVEL001
 370
15
 100
AcDbLine
   6
CONTINUOUS
  62
8
  10
 60.040751534931
  20
 89.516625393209
  30
0.0
  11
 60.040751534931
  21
 93.426550978868
  31
0.0
   0
LINE
   5
263
 100
AcDbEntity
   8
LEVEL001
 370
15
 100
AcDbLine
   6
CONTINUOUS
  62
8
  10
 64.040751534931
  20
 89.516625393202
  30
0.0
  11
 64.040751534931
  21
 93.426550978868
  31
0.0
   0
LINE
   5
264
 100
AcDbEntity
   8
LEVEL001
 370
15
 100
AcDbLine
   6
CONTINUOUS
  62
8
  10
 60.040751534931
  20
 92.926550978868
  30
0.0
  11
 62.040751534931
  21
 92.926550978868
  31
0.0
   0
LINE
   5
265
 100
AcDbEntity
   8
LEVEL001
 370
15
 100
AcDbLine
   6
CONTINUOUS
  62
8
  10
 64.040751534931
  20
 92.926550978868
  30
0.0
  11
 62.040751534931
  21
 92.926550978868
  31
0.0
   0
SOLID
   5
266
 100
AcDbEntity
   8
LEVEL001
 100
AcDbTrace
   6
CONTINUOUS
  62
8
  10
 60.040751534931
  20
 92.926550978868
  30
0.0
  11
 61.040751534931
  21
 92.750223998159
  31
0.0
  12
 61.040751534931
  22
 93.102877959576
  32
0.0
  13
 61.040751534931
  23
 93.102877959576
  33
0.0
   0
SOLID
   5
267
 100
AcDbEntity
   8
LEVEL001
 100
AcDbTrace
   6
CONTINUOUS
  62
8
  10
 64.040751534931
  20
 92.926550978868
  30
0.0
  11
 63.040751534931
  21
 93.102877959576
  31
0.0
  12
 63.040751534931
  22
 92.750223998159
  32
0.0
  13
 63.040751534931
  23
 92.750223998159
  33
0.0
   0
MTEXT
   5
268
 100
AcDbEntity
   8
LEVEL001
 370
15
  62
8
 100
AcDbMText
  10
 62.040751534931
  20
 93.426550978868
  30
0.0
  40
 1.5000000000000
  41
0.0
  71
8
  72
1
   1
\A1;4
   7
GMM002
   0
ENDBLK
   5
269
 100
AcDbEntity
   8
0
 100
AcDbBlockEnd
   0
BLOCK
   5
26A
 100
AcDbEntity
   8
0
 100
AcDbBlockBegin
   2
*D46
  70
65
  10
0.0
  20
0.0
  30
0.0
   3
*D46
   0
LINE
   5
26B
 100
AcDbEntity
   8
LEVEL001
 370
15
 100
AcDbLine
   6
CONTINUOUS
  62
8
  10
 53.940751534931
  20
 90.626550978897
  30
0.0
  11
 53.940751534931
  21
 96.426550978868
  31
0.0
   0
LINE
   5
26C
 100
AcDbEntity
   8
LEVEL001
 370
15
 100
AcDbLine
   6
CONTINUOUS
  62
8
  10
 70.140751534931
  20
 90.626550978897
  30
0.0
  11
 70.140751534931
  21
 96.426550978868
  31
0.0
   0
LINE
   5
26D
 100
AcDbEntity
   8
LEVEL001
 370
15
 100
AcDbLine
   6
CONTINUOUS
  62
8
  10
 53.940751534931
  20
 95.926550978868
  30
0.0
  11
 62.040751534931
  21
 95.926550978868
  31
0.0
   0
LINE
   5
26E
 100
AcDbEntity
   8
LEVEL001
 370
15
 100
AcDbLine
   6
CONTINUOUS
  62
8
  10
 70.140751534931
  20
 95.926550978868
  30
0.0
  11
 62.040751534931
  21
 95.926550978868
  31
0.0
   0
SOLID
   5
26F
 100
AcDbEntity
   8
LEVEL001
 100
AcDbTrace
   6
CONTINUOUS
  62
8
  10
 53.940751534931
  20
 95.926550978868
  30
0.0
  11
 54.940751534931
  21
 95.750223998159
  31
0.0
  12
 54.940751534931
  22
 96.102877959576
  32
0.0
  13
 54.940751534931
  23
 96.102877959576
  33
0.0
   0
SOLID
   5
270
 100
AcDbEntity
   8
LEVEL001
 100
AcDbTrace
   6
CONTINUOUS
  62
8
  10
 70.140751534931
  20
 95.926550978868
  30
0.0
  11
 69.140751534931
  21
 96.102877959576
  31
0.0
  12
 69.140751534931
  22
 95.750223998159
  32
0.0
  13
 69.140751534931
  23
 95.750223998159
  33
0.0
   0
MTEXT
   5
271
 100
AcDbEntity
   8
LEVEL001
 370
15
  62
8
 100
AcDbMText
  10
 62.040751534931
  20
 96.426550978868
  30
0.0
  40
 1.5000000000000
  41
0.0
  71
8
  72
1
   1
\A1;16
   7
GMM002
   0
ENDBLK
   5
272
 100
AcDbEntity
   8
0
 100
AcDbBlockEnd
   0
BLOCK
   5
273
 100
AcDbEntity
   8
0
 100
AcDbBlockBegin
   2
*D47
  70
65
  10
0.0
  20
0.0
  30
0.0
   3
*D47
   0
LINE
   5
274
 100
AcDbEntity
   8
LEVEL001
 370
15
 100
AcDbLine
   6
CONTINUOUS
  62
8
  10
 73.640751534931
  20
 81.926550978897
  30
0.0
  11
 76.640751534931
  21
 81.926550978897
  31
0.0
   0
LINE
   5
275
 100
AcDbEntity
   8
LEVEL001
 370
15
 100
AcDbLine
   6
CONTINUOUS
  62
8
  10
 73.640751534931
  20
 89.926550978897
  30
0.0
  11
 76.640751534931
  21
 89.926550978897
  31
0.0
   0
LINE
   5
276
 100
AcDbEntity
   8
LEVEL001
 370
15
 100
AcDbLine
   6
CONTINUOUS
  62
8
  10
 76.140751534931
  20
 81.926550978897
  30
0.0
  11
 76.140751534931
  21
 85.926550978897
  31
0.0
   0
LINE
   5
277
 100
AcDbEntity
   8
LEVEL001
 370
15
 100
AcDbLine
   6
CONTINUOUS
  62
8
  10
 76.140751534931
  20
 89.926550978897
  30
0.0
  11
 76.140751534931
  21
 85.926550978897
  31
0.0
   0
SOLID
   5
278
 100
AcDbEntity
   8
LEVEL001
 100
AcDbTrace
   6
CONTINUOUS
  62
8
  10
 76.140751534931
  20
 81.926550978897
  30
0.0
  11
 76.317078515639
  21
 82.926550978897
  31
0.0
  12
 75.964424554222
  22
 82.926550978897
  32
0.0
  13
 75.964424554222
  23
 82.926550978897
  33
0.0
   0
SOLID
   5
279
 100
AcDbEntity
   8
LEVEL001
 100
AcDbTrace
   6
CONTINUOUS
  62
8
  10
 76.140751534931
  20
 89.926550978897
  30
0.0
  11
 75.964424554222
  21
 88.926550978897
  31
0.0
  12
 76.317078515639
  22
 88.926550978897
  32
0.0
  13
 76.317078515639
  23
 88.926550978897
  33
0.0
   0
MTEXT
   5
27A
 100
AcDbEntity
   8
LEVEL001
 370
15
  62
8
 100
AcDbMText
  10
 75.640751534931
  20
 85.926550978897
  30
0.0
  40
 1.2500000000000
  41
0.0
  71
8
  72
1
   1
\A1;8
   7
GMM002
  11
0.0
  21
 1.0000000000000
  31
0.0
   0
ENDBLK
   5
27B
 100
AcDbEntity
   8
0
 100
AcDbBlockEnd
   0
BLOCK
   5
27C
 100
AcDbEntity
   8
0
 100
AcDbBlockBegin
   2
*D48
  70
65
  10
0.0
  20
0.0
  30
0.0
   3
*D48
   0
LINE
   5
27D
 100
AcDbEntity
   8
LEVEL001
 370
15
 100
AcDbLine
   6
CONTINUOUS
  62
8
  10
 67.990751534931
  20
 81.926550978897
  30
0.0
  11
 73.640751534931
  21
 81.926550978897
  31
0.0
   0
LINE
   5
27E
 100
AcDbEntity
   8
LEVEL001
 370
15
 100
AcDbLine
   6
CONTINUOUS
  62
8
  10
 73.140751534931
  20
 81.926550978897
  30
0.0
  11
 73.140751534931
  21
 85.426550978897
  31
0.0
   0
LINE
   5
27F
 100
AcDbEntity
   8
LEVEL001
 370
15
 100
AcDbLine
   6
CONTINUOUS
  62
8
  10
 73.140751534931
  20
 88.926550978897
  30
0.0
  11
 73.140751534931
  21
 85.426550978897
  31
0.0
   0
SOLID
   5
280
 100
AcDbEntity
   8
LEVEL001
 100
AcDbTrace
   6
CONTINUOUS
  62
8
  10
 73.140751534931
  20
 81.926550978897
  30
0.0
  11
 73.317078515639
  21
 82.926550978897
  31
0.0
  12
 72.964424554222
  22
 82.926550978897
  32
0.0
  13
 72.964424554222
  23
 82.926550978897
  33
0.0
   0
SOLID
   5
281
 100
AcDbEntity
   8
LEVEL001
 100
AcDbTrace
   6
CONTINUOUS
  62
8
  10
 73.140751534931
  20
 88.926550978897
  30
0.0
  11
 72.964424554222
  21
 87.926550978897
  31
0.0
  12
 73.317078515639
  22
 87.926550978897
  32
0.0
  13
 73.317078515639
  23
 87.926550978897
  33
0.0
   0
MTEXT
   5
282
 100
AcDbEntity
   8
LEVEL001
 370
15
  62
8
 100
AcDbMText
  10
 72.640751534931
  20
 85.426550978897
  30
0.0
  40
 1.2500000000000
  41
0.0
  71
8
  72
1
   1
\A1;7
   7
GMM002
  11
0.0
  21
 1.0000000000000
  31
0.0
   0
ENDBLK
   5
283
 100
AcDbEntity
   8
0
 100
AcDbBlockEnd
   0
BLOCK
   5
284
 100
AcDbEntity
   8
0
 100
AcDbBlockBegin
   2
*D49
  70
65
  10
0.0
  20
0.0
  30
0.0
   3
*D49
   0
LINE
   5
285
 100
AcDbEntity
   8
LEVEL001
 370
15
 100
AcDbLine
   6
CONTINUOUS
  62
8
  10
 70.340751534931
  20
 88.926550978897
  30
0.0
  11
 73.640751534931
  21
 88.926550978897
  31
0.0
   0
LINE
   5
286
 100
AcDbEntity
   8
LEVEL001
 370
15
 100
AcDbLine
   6
CONTINUOUS
  62
8
  10
 68.083941784513
  20
 89.926550978897
  30
0.0
  11
 73.640751534931
  21
 89.926550978897
  31
0.0
   0
LINE
   5
287
 100
AcDbEntity
   8
LEVEL001
 370
15
 100
AcDbLine
   6
CONTINUOUS
  62
8
  10
 73.140751534931
  20
 88.926550978897
  30
0.0
  11
 73.140751534931
  21
 89.426550978897
  31
0.0
   0
LINE
   5
288
 100
AcDbEntity
   8
LEVEL001
 370
15
 100
AcDbLine
   6
CONTINUOUS
  62
8
  10
 73.140751534931
  20
 92.412942901298
  30
0.0
  11
 73.140751534931
  21
 89.426550978897
  31
0.0
   0
SOLID
   5
289
 100
AcDbEntity
   8
LEVEL001
 100
AcDbTrace
   6
CONTINUOUS
  62
8
  10
 73.140751534931
  20
 89.926550978897
  30
0.0
  11
 73.317078515639
  21
 90.926550978897
  31
0.0
  12
 72.964424554222
  22
 90.926550978897
  32
0.0
  13
 72.964424554222
  23
 90.926550978897
  33
0.0
   0
MTEXT
   5
28A
 100
AcDbEntity
   8
LEVEL001
 370
15
  62
8
 100
AcDbMText
  10
 72.610338999970
  20
 91.162942901298
  30
0.0
  40
 1.2500000000000
  41
0.0
  71
7
  72
1
   1
\A1;1
   7
GMM002
  11
0.0
  21
 1.0000000000000
  31
0.0
   0
ENDBLK
   5
28B
 100
AcDbEntity
   8
0
 100
AcDbBlockEnd
   0
BLOCK
   5
28C
 100
AcDbEntity
   8
0
 100
AcDbBlockBegin
   2
*D50
  70
65
  10
0.0
  20
0.0
  30
0.0
   3
*D50
   0
LINE
   5
28D
 100
AcDbEntity
   8
LEVEL001
 370
15
 100
AcDbLine
   6
CONTINUOUS
  62
8
  10
 55.940751534931
  20
 86.926550978897
  30
0.0
  11
 55.940751534931
  21
 77.426550978897
  31
0.0
   0
LINE
   5
28E
 100
AcDbEntity
   8
LEVEL001
 370
15
 100
AcDbLine
   6
CONTINUOUS
  62
8
  10
 68.140751534931
  20
 86.926550978897
  30
0.0
  11
 68.140751534931
  21
 77.426550978897
  31
0.0
   0
LINE
   5
28F
 100
AcDbEntity
   8
LEVEL001
 370
15
 100
AcDbLine
   6
CONTINUOUS
  62
8
  10
 55.940751534931
  20
 77.926550978897
  30
0.0
  11
 62.040751534931
  21
 77.926550978897
  31
0.0
   0
LINE
   5
290
 100
AcDbEntity
   8
LEVEL001
 370
15
 100
AcDbLine
   6
CONTINUOUS
  62
8
  10
 68.140751534931
  20
 77.926550978897
  30
0.0
  11
 62.040751534931
  21
 77.926550978897
  31
0.0
   0
SOLID
   5
291
 100
AcDbEntity
   8
LEVEL001
 100
AcDbTrace
   6
CONTINUOUS
  62
8
  10
 55.940751534931
  20
 77.926550978897
  30
0.0
  11
 56.940751534931
  21
 77.750223998188
  31
0.0
  12
 56.940751534931
  22
 78.102877959605
  32
0.0
  13
 56.940751534931
  23
 78.102877959605
  33
0.0
   0
SOLID
   5
292
 100
AcDbEntity
   8
LEVEL001
 100
AcDbTrace
   6
CONTINUOUS
  62
8
  10
 68.140751534931
  20
 77.926550978897
  30
0.0
  11
 67.140751534931
  21
 78.102877959605
  31
0.0
  12
 67.140751534931
  22
 77.750223998188
  32
0.0
  13
 67.140751534931
  23
 77.750223998188
  33
0.0
   0
MTEXT
   5
293
 100
AcDbEntity
   8
LEVEL001
 370
15
  62
8
 100
AcDbMText
  10
 62.040751534931
  20
 78.426550978897
  30
0.0
  40
 1.5000000000000
  41
0.0
  71
8
  72
1
   1
\A1;12
   7
GMM002
   0
ENDBLK
   5
294
 100
AcDbEntity
   8
0
 100
AcDbBlockEnd
   0
BLOCK
   5
295
 100
AcDbEntity
   8
0
 100
AcDbBlockBegin
   2
*D51
  70
65
  10
0.0
  20
0.0
  30
0.0
   3
*D51
   0
LINE
   5
296
 100
AcDbEntity
   8
LEVEL001
 370
15
 100
AcDbLine
   6
CONTINUOUS
  62
8
  10
 59.540751534931
  20
 86.826550978897
  30
0.0
  11
 50.940751534931
  21
 86.826550978897
  31
0.0
   0
LINE
   5
297
 100
AcDbEntity
   8
LEVEL001
 370
15
 100
AcDbLine
   6
CONTINUOUS
  62
8
  10
 56.497561285349
  20
 89.926550978897
  30
0.0
  11
 50.940751534931
  21
 89.926550978897
  31
0.0
   0
LINE
   5
298
 100
AcDbEntity
   8
LEVEL001
 370
15
 100
AcDbLine
   6
CONTINUOUS
  62
8
  10
 51.440751534931
  20
 86.826550978897
  30
0.0
  11
 51.440751534931
  21
 88.376550978897
  31
0.0
   0
LINE
   5
299
 100
AcDbEntity
   8
LEVEL001
 370
15
 100
AcDbLine
   6
CONTINUOUS
  62
8
  10
 51.440751534931
  20
 89.926550978897
  30
0.0
  11
 51.440751534931
  21
 88.376550978897
  31
0.0
   0
SOLID
   5
29A
 100
AcDbEntity
   8
LEVEL001
 100
AcDbTrace
   6
CONTINUOUS
  62
8
  10
 51.440751534931
  20
 86.826550978897
  30
0.0
  11
 51.617078515640
  21
 87.826550978897
  31
0.0
  12
 51.264424554223
  22
 87.826550978897
  32
0.0
  13
 51.264424554223
  23
 87.826550978897
  33
0.0
   0
SOLID
   5
29B
 100
AcDbEntity
   8
LEVEL001
 100
AcDbTrace
   6
CONTINUOUS
  62
8
  10
 51.440751534931
  20
 89.926550978897
  30
0.0
  11
 51.264424554223
  21
 88.926550978897
  31
0.0
  12
 51.617078515640
  22
 88.926550978897
  32
0.0
  13
 51.617078515640
  23
 88.926550978897
  33
0.0
   0
MTEXT
   5
29C
 100
AcDbEntity
   8
LEVEL001
 370
15
  62
8
 100
AcDbMText
  10
 50.940751534931
  20
 88.376550978897
  30
0.0
  40
 1.5000000000000
  41
0.0
  71
8
  72
1
   1
\A1;3
   7
GMM002
  11
0.0
  21
 1.0000000000000
  31
0.0
   0
ENDBLK
   5
29D
 100
AcDbEntity
   8
0
 100
AcDbBlockEnd
   0
ENDSEC
   0
SECTION
   2
ENTITIES
   0
LINE
   5
29E
 100
AcDbEntity
   8
LEVEL002
 370
15
 100
AcDbLine
   6
CONTINUOUS
  62
7
  10
 172.07500000000
  20
 136.03750000000
  30
0.0
  11
 168.47500000000
  21
 136.03750000000
  31
0.0
   0
LINE
   5
29F
 100
AcDbEntity
   8
LEVEL002
 370
15
 100
AcDbLine
   6
CONTINUOUS
  62
7
  10
 168.47500000000
  20
 136.03750000000
  30
0.0
  11
 168.47500000000
  21
 130.63750000000
  31
0.0
   0
LINE
   5
2A0
 100
AcDbEntity
   8
LEVEL002
 370
15
 100
AcDbLine
   6
CONTINUOUS
  62
7
  10
 168.47500000000
  20
 130.63750000000
  30
0.0
  11
 170.27500000000
  21
 130.63750000000
  31
0.0
   0
LINE
   5
2A1
 100
AcDbEntity
   8
LEVEL002
 370
15
 100
AcDbLine
   6
CONTINUOUS
  62
7
  10
 170.27500000000
  20
 130.63750000000
  30
0.0
  11
 170.27500000000
  21
 131.53750000000
  31
0.0
   0
LINE
   5
2A2
 100
AcDbEntity
   8
LEVEL002
 370
15
 100
AcDbLine
   6
CONTINUOUS
  62
7
  10
 170.27500000000
  20
 131.53750000000
  30
0.0
  11
 172.07500000000
  21
 131.53750000000
  31
0.0
   0
ARC
   5
2A3
 100
AcDbEntity
   8
LEVEL002
 370
15
   6
CONTINUOUS
  62
7
 100
AcDbCircle
  10
 172.07500000000
  20
 133.78750000000
  30
0.0
  40
 2.2500000000000
 100
AcDbArc
  50
 270.00000000000
  51
 90.000000000000
   0
LINE
   5
2A4
 100
AcDbEntity
   8
LEVEL002
 370
15
 100
AcDbLine
   6
CONTINUOUS
  62
7
  10
 170.27500000000
  20
 133.33750000000
  30
0.0
  11
 172.07500000000
  21
 133.33750000000
  31
0.0
   0
ARC
   5
2A5
 100
AcDbEntity
   8
LEVEL002
 370
15
   6
CONTINUOUS
  62
7
 100
AcDbCircle
  10
 172.07500000000
  20
 133.78750000000
  30
0.0
  40
 0.45000000000000
 100
AcDbArc
  50
 270.00000000000
  51
 90.000000000000
   0
LINE
   5
2A6
 100
AcDbEntity
   8
LEVEL002
 370
15
 100
AcDbLine
   6
CONTINUOUS
  62
7
  10
 172.07500000000
  20
 134.23750000000
  30
0.0
  11
 170.27500000000
  21
 134.23750000000
  31
0.0
   0
LINE
   5
2A7
 100
AcDbEntity
   8
LEVEL002
 370
15
 100
AcDbLine
   6
CONTINUOUS
  62
7
  10
 170.27500000000
  20
 134.23750000000
  30
0.0
  11
 170.27500000000
  21
 133.33750000000
  31
0.0
   0
LINE
   5
2A8
 100
AcDbEntity
   8
LEVEL002
 370
15
 100
AcDbLine
   6
CONTINUOUS
  62
7
  10
 172.97500000000
  20
 130.63750000000
  30
0.0
  11
 176.57500000000
  21
 136.03750000000
  31
0.0
   0
LINE
   5
2A9
 100
AcDbEntity
   8
LEVEL002
 370
15
 100
AcDbLine
   6
CONTINUOUS
  62
7
  10
 176.57500000000
  20
 136.03750000000
  30
0.0
  11
 181.07500000000
  21
 136.03750000000
  31
0.0
   0
LINE
   5
2AA
 100
AcDbEntity
   8
LEVEL002
 370
15
 100
AcDbLine
   6
CONTINUOUS
  62
7
  10
 181.07500000000
  20
 136.03750000000
  30
0.0
  11
 181.07500000000
  21
 132.43750000000
  31
0.0
   0
LINE
   5
2AB
 100
AcDbEntity
   8
LEVEL002
 370
15
 100
AcDbLine
   6
CONTINUOUS
  62
7
  10
 181.07500000000
  20
 132.43750000000
  30
0.0
  11
 183.77500000000
  21
 132.43750000000
  31
0.0
   0
LINE
   5
2AC
 100
AcDbEntity
   8
LEVEL002
 370
15
 100
AcDbLine
   6
CONTINUOUS
  62
7
  10
 183.77500000000
  20
 132.43750000000
  30
0.0
  11
 183.77500000000
  21
 134.23750000000
  31
0.0
   0
LINE
   5
2AD
 100
AcDbEntity
   8
LEVEL002
 370
15
 100
AcDbLine
   6
CONTINUOUS
  62
7
  10
 183.77500000000
  20
 134.23750000000
  30
0.0
  11
 181.97500000000
  21
 134.23750000000
  31
0.0
   0
LINE
   5
2AE
 100
AcDbEntity
   8
LEVEL002
 370
15
 100
AcDbLine
   6
CONTINUOUS
  62
7
  10
 181.97500000000
  20
 134.23750000000
  30
0.0
  11
 181.97500000000
  21
 136.03750000000
  31
0.0
   0
LINE
   5
2AF
 100
AcDbEntity
   8
LEVEL002
 370
15
 100
AcDbLine
   6
CONTINUOUS
  62
7
  10
 181.97500000000
  20
 136.03750000000
  30
0.0
  11
 192.77500000000
  21
 136.03750000000
  31
0.0
   0
LINE
   5
2B0
 100
AcDbEntity
   8
LEVEL002
 370
15
 100
AcDbLine
   6
CONTINUOUS
  62
7
  10
 192.77500000000
  20
 136.03750000000
  30
0.0
  11
 192.77500000000
  21
 134.23750000000
  31
0.0
   0
LINE
   5
2B1
 100
AcDbEntity
   8
LEVEL002
 370
15
 100
AcDbLine
   6
CONTINUOUS
  62
7
  10
 192.77500000000
  20
 134.23750000000
  30
0.0
  11
 189.17500000000
  21
 134.23750000000
  31
0.0
   0
LINE
   5
2B2
 100
AcDbEntity
   8
LEVEL002
 370
15
 100
AcDbLine
   6
CONTINUOUS
  62
7
  10
 189.17500000000
  20
 134.23750000000
  30
0.0
  11
 189.17500000000
  21
 133.78750000000
  31
0.0
   0
LINE
   5
2B3
 100
AcDbEntity
   8
LEVEL002
 370
15
 100
AcDbLine
   6
CONTINUOUS
  62
7
  10
 189.17500000000
  20
 133.78750000000
  30
0.0
  11
 192.32500000000
  21
 133.78750000000
  31
0.0
   0
LINE
   5
2B4
 100
AcDbEntity
   8
LEVEL002
 370
15
 100
AcDbLine
   6
CONTINUOUS
  62
7
  10
 192.32500000000
  20
 133.78750000000
  30
0.0
  11
 192.32500000000
  21
 132.88750000000
  31
0.0
   0
LINE
   5
2B5
 100
AcDbEntity
   8
LEVEL002
 370
15
 100
AcDbLine
   6
CONTINUOUS
  62
7
  10
 192.32500000000
  20
 132.88750000000
  30
0.0
  11
 189.17500000000
  21
 132.88750000000
  31
0.0
   0
LINE
   5
2B6
 100
AcDbEntity
   8
LEVEL002
 370
15
 100
AcDbLine
   6
CONTINUOUS
  62
7
  10
 189.17500000000
  20
 132.88750000000
  30
0.0
  11
 189.17500000000
  21
 132.43750000000
  31
0.0
   0
LINE
   5
2B7
 100
AcDbEntity
   8
LEVEL002
 370
15
 100
AcDbLine
   6
CONTINUOUS
  62
7
  10
 189.17500000000
  20
 132.43750000000
  30
0.0
  11
 192.77500000000
  21
 132.43750000000
  31
0.0
   0
LINE
   5
2B8
 100
AcDbEntity
   8
LEVEL002
 370
15
 100
AcDbLine
   6
CONTINUOUS
  62
7
  10
 192.77500000000
  20
 132.43750000000
  30
0.0
  11
 192.77500000000
  21
 130.63750000000
  31
0.0
   0
LINE
   5
2B9
 100
AcDbEntity
   8
LEVEL002
 370
15
 100
AcDbLine
   6
CONTINUOUS
  62
7
  10
 192.77500000000
  20
 130.63750000000
  30
0.0
  11
 187.37500000000
  21
 130.63750000000
  31
0.0
   0
LINE
   5
2BA
 100
AcDbEntity
   8
LEVEL002
 370
15
 100
AcDbLine
   6
CONTINUOUS
  62
7
  10
 187.37500000000
  20
 130.63750000000
  30
0.0
  11
 187.37500000000
  21
 134.23750000000
  31
0.0
   0
LINE
   5
2BB
 100
AcDbEntity
   8
LEVEL002
 370
15
 100
AcDbLine
   6
CONTINUOUS
  62
7
  10
 187.37500000000
  20
 134.23750000000
  30
0.0
  11
 185.57500000000
  21
 134.23750000000
  31
0.0
   0
LINE
   5
2BC
 100
AcDbEntity
   8
LEVEL002
 370
15
 100
AcDbLine
   6
CONTINUOUS
  62
7
  10
 185.57500000000
  20
 134.23750000000
  30
0.0
  11
 185.57500000000
  21
 130.63750000000
  31
0.0
   0
LINE
   5
2BD
 100
AcDbEntity
   8
LEVEL002
 370
15
 100
AcDbLine
   6
CONTINUOUS
  62
7
  10
 185.57500000000
  20
 130.63750000000
  30
0.0
  11
 179.27500000000
  21
 130.63750000000
  31
0.0
   0
LINE
   5
2BE
 100
AcDbEntity
   8
LEVEL002
 370
15
 100
AcDbLine
   6
CONTINUOUS
  62
7
  10
 179.27500000000
  20
 130.63750000000
  30
0.0
  11
 179.27500000000
  21
 136.03750000000
  31
0.0
   0
LINE
   5
2BF
 100
AcDbEntity
   8
LEVEL002
 370
15
 100
AcDbLine
   6
CONTINUOUS
  62
7
  10
 179.27500000000
  20
 136.03750000000
  30
0.0
  11
 175.67500000000
  21
 130.63750000000
  31
0.0
   0
LINE
   5
2C0
 100
AcDbEntity
   8
LEVEL002
 370
15
 100
AcDbLine
   6
CONTINUOUS
  62
7
  10
 175.67500000000
  20
 130.63750000000
  30
0.0
  11
 172.97500000000
  21
 130.63750000000
  31
0.0
   0
LINE
   5
2C1
 100
AcDbEntity
   8
LEVEL002
 370
15
 100
AcDbLine
   6
CONTINUOUS
  62
7
  10
 178.67500000000
  20
 134.05583461735
  30
0.0
  11
 176.39611025510
  21
 130.63750000000
  31
0.0
   0
LINE
   5
2C2
 100
AcDbEntity
   8
LEVEL002
 370
15
 100
AcDbLine
   6
CONTINUOUS
  62
7
  10
 176.39611025510
  20
 130.63750000000
  30
0.0
  11
 178.67500000000
  21
 130.63750000000
  31
0.0
   0
LINE
   5
2C3
 100
AcDbEntity
   8
LEVEL002
 370
15
 100
AcDbLine
   6
CONTINUOUS
  62
7
  10
 178.67500000000
  20
 130.63750000000
  30
0.0
  11
 178.67500000000
  21
 134.05583461735
  31
0.0
   0
ARC
   5
2C4
 100
AcDbEntity
   8
LEVEL002
 370
15
   6
CONTINUOUS
  62
7
 100
AcDbCircle
  10
 195.47500000000
  20
 133.33750000000
  30
0.0
  40
 2.7000000000000
 100
AcDbArc
  50
 90.000000000000
  51
 270.00000000000
   0
ARC
   5
2C5
 100
AcDbEntity
   8
LEVEL002
 370
15
   6
CONTINUOUS
  62
7
 100
AcDbCircle
  10
 195.47500000000
  20
 133.33750000000
  30
0.0
  40
 0.90000000000000
 100
AcDbArc
  50
 90.000000000000
  51
 270.00000000000
   0
LINE
   5
2C6
 100
AcDbEntity
   8
LEVEL002
 370
15
 100
AcDbLine
   6
CONTINUOUS
  62
7
  10
 195.47500000000
  20
 136.03750000000
  30
0.0
  11
 198.17500000000
  21
 136.03750000000
  31
0.0
   0
LINE
   5
2C7
 100
AcDbEntity
   8
LEVEL002
 370
15
 100
AcDbLine
   6
CONTINUOUS
  62
7
  10
 198.17500000000
  20
 136.03750000000
  30
0.0
  11
 198.17500000000
  21
 134.23750000000
  31
0.0
   0
LINE
   5
2C8
 100
AcDbEntity
   8
LEVEL002
 370
15
 100
AcDbLine
   6
CONTINUOUS
  62
7
  10
 198.17500000000
  20
 134.23750000000
  30
0.0
  11
 195.47500000000
  21
 134.23750000000
  31
0.0
   0
LINE
   5
2C9
 100
AcDbEntity
   8
LEVEL002
 370
15
 100
AcDbLine
   6
CONTINUOUS
  62
7
  10
 168.47500000000
  20
 136.03750000000
  30
0.0
  11
 168.47500000000
  21
 130.63750000000
  31
0.0
   0
LINE
   5
2CA
 100
AcDbEntity
   8
LEVEL002
 370
15
 100
AcDbLine
   6
CONTINUOUS
  62
7
  10
 168.47500000000
  20
 130.63750000000
  30
0.0
  11
 170.27500000000
  21
 130.63750000000
  31
0.0
   0
LINE
   5
2CB
 100
AcDbEntity
   8
LEVEL002
 370
15
 100
AcDbLine
   6
CONTINUOUS
  62
7
  10
 170.27500000000
  20
 130.63750000000
  30
0.0
  11
 170.27500000000
  21
 131.53750000000
  31
0.0
   0
LINE
   5
2CC
 100
AcDbEntity
   8
LEVEL002
 370
15
 100
AcDbLine
   6
CONTINUOUS
  62
7
  10
 170.27500000000
  20
 131.53750000000
  30
0.0
  11
 172.07500000000
  21
 131.53750000000
  31
0.0
   0
ARC
   5
2CD
 100
AcDbEntity
   8
LEVEL002
 370
15
   6
CONTINUOUS
  62
7
 100
AcDbCircle
  10
 172.07500000000
  20
 133.78750000000
  30
0.0
  40
 2.2500000000000
 100
AcDbArc
  50
 270.00000000000
  51
 90.000000000000
   0
LINE
   5
2CE
 100
AcDbEntity
   8
LEVEL002
 370
15
 100
AcDbLine
   6
CONTINUOUS
  62
7
  10
 172.07500000000
  20
 136.03750000000
  30
0.0
  11
 168.47500000000
  21
 136.03750000000
  31
0.0
   0
LINE
   5
2CF
 100
AcDbEntity
   8
LEVEL002
 370
15
 100
AcDbLine
   6
CONTINUOUS
  62
7
  10
 170.27500000000
  20
 134.23750000000
  30
0.0
  11
 170.27500000000
  21
 133.33750000000
  31
0.0
   0
LINE
   5
2D0
 100
AcDbEntity
   8
LEVEL002
 370
15
 100
AcDbLine
   6
CONTINUOUS
  62
7
  10
 170.27500000000
  20
 133.33750000000
  30
0.0
  11
 172.07500000000
  21
 133.33750000000
  31
0.0
   0
ARC
   5
2D1
 100
AcDbEntity
   8
LEVEL002
 370
15
   6
CONTINUOUS
  62
7
 100
AcDbCircle
  10
 172.07500000000
  20
 133.78750000000
  30
0.0
  40
 0.45000000000000
 100
AcDbArc
  50
 270.00000000000
  51
 90.000000000000
   0
LINE
   5
2D2
 100
AcDbEntity
   8
LEVEL002
 370
15
 100
AcDbLine
   6
CONTINUOUS
  62
7
  10
 172.07500000000
  20
 134.23750000000
  30
0.0
  11
 170.27500000000
  21
 134.23750000000
  31
0.0
   0
LINE
   5
2D3
 100
AcDbEntity
   8
LEVEL002
 370
15
 100
AcDbLine
   6
CONTINUOUS
  62
7
  10
 176.57500000000
  20
 136.03750000000
  30
0.0
  11
 172.97500000000
  21
 130.63750000000
  31
0.0
   0
LINE
   5
2D4
 100
AcDbEntity
   8
LEVEL002
 370
15
 100
AcDbLine
   6
CONTINUOUS
  62
7
  10
 172.97500000000
  20
 130.63750000000
  30
0.0
  11
 175.67500000000
  21
 130.63750000000
  31
0.0
   0
LINE
   5
2D5
 100
AcDbEntity
   8
LEVEL002
 370
15
 100
AcDbLine
   6
CONTINUOUS
  62
7
  10
 175.67500000000
  20
 130.63750000000
  30
0.0
  11
 179.27500000000
  21
 136.03750000000
  31
0.0
   0
LINE
   5
2D6
 100
AcDbEntity
   8
LEVEL002
 370
15
 100
AcDbLine
   6
CONTINUOUS
  62
7
  10
 179.27500000000
  20
 136.03750000000
  30
0.0
  11
 176.57500000000
  21
 136.03750000000
  31
0.0
   0
LINE
   5
2D7
 100
AcDbEntity
   8
LEVEL002
 370
15
 100
AcDbLine
   6
CONTINUOUS
  62
7
  10
 178.67500000000
  20
 130.63750000000
  30
0.0
  11
 178.67500000000
  21
 134.05583461735
  31
0.0
   0
LINE
   5
2D8
 100
AcDbEntity
   8
LEVEL002
 370
15
 100
AcDbLine
   6
CONTINUOUS
  62
7
  10
 178.67500000000
  20
 134.05583461735
  30
0.0
  11
 176.39611025510
  21
 130.63750000000
  31
0.0
   0
LINE
   5
2D9
 100
AcDbEntity
   8
LEVEL002
 370
15
 100
AcDbLine
   6
CONTINUOUS
  62
7
  10
 176.39611025510
  20
 130.63750000000
  30
0.0
  11
 178.67500000000
  21
 130.63750000000
  31
0.0
   0
LINE
   5
2DA
 100
AcDbEntity
   8
LEVEL002
 370
15
 100
AcDbLine
   6
CONTINUOUS
  62
7
  10
 179.27500000000
  20
 130.63750000000
  30
0.0
  11
 185.57500000000
  21
 130.63750000000
  31
0.0
   0
LINE
   5
2DB
 100
AcDbEntity
   8
LEVEL002
 370
15
 100
AcDbLine
   6
CONTINUOUS
  62
7
  10
 185.57500000000
  20
 130.63750000000
  30
0.0
  11
 185.57500000000
  21
 134.23750000000
  31
0.0
   0
LINE
   5
2DC
 100
AcDbEntity
   8
LEVEL002
 370
15
 100
AcDbLine
   6
CONTINUOUS
  62
7
  10
 185.57500000000
  20
 134.23750000000
  30
0.0
  11
 187.37500000000
  21
 134.23750000000
  31
0.0
   0
LINE
   5
2DD
 100
AcDbEntity
   8
LEVEL002
 370
15
 100
AcDbLine
   6
CONTINUOUS
  62
7
  10
 187.37500000000
  20
 134.23750000000
  30
0.0
  11
 187.37500000000
  21
 130.63750000000
  31
0.0
   0
LINE
   5
2DE
 100
AcDbEntity
   8
LEVEL002
 370
15
 100
AcDbLine
   6
CONTINUOUS
  62
7
  10
 187.37500000000
  20
 130.63750000000
  30
0.0
  11
 192.77500000000
  21
 130.63750000000
  31
0.0
   0
LINE
   5
2DF
 100
AcDbEntity
   8
LEVEL002
 370
15
 100
AcDbLine
   6
CONTINUOUS
  62
7
  10
 192.77500000000
  20
 130.63750000000
  30
0.0
  11
 192.77500000000
  21
 132.43750000000
  31
0.0
   0
LINE
   5
2E0
 100
AcDbEntity
   8
LEVEL002
 370
15
 100
AcDbLine
   6
CONTINUOUS
  62
7
  10
 192.77500000000
  20
 132.43750000000
  30
0.0
  11
 189.17500000000
  21
 132.43750000000
  31
0.0
   0
LINE
   5
2E1
 100
AcDbEntity
   8
LEVEL002
 370
15
 100
AcDbLine
   6
CONTINUOUS
  62
7
  10
 189.17500000000
  20
 132.43750000000
  30
0.0
  11
 189.17500000000
  21
 132.88750000000
  31
0.0
   0
LINE
   5
2E2
 100
AcDbEntity
   8
LEVEL002
 370
15
 100
AcDbLine
   6
CONTINUOUS
  62
7
  10
 189.17500000000
  20
 132.88750000000
  30
0.0
  11
 192.32500000000
  21
 132.88750000000
  31
0.0
   0
LINE
   5
2E3
 100
AcDbEntity
   8
LEVEL002
 370
15
 100
AcDbLine
   6
CONTINUOUS
  62
7
  10
 192.32500000000
  20
 132.88750000000
  30
0.0
  11
 192.32500000000
  21
 133.78750000000
  31
0.0
   0
LINE
   5
2E4
 100
AcDbEntity
   8
LEVEL002
 370
15
 100
AcDbLine
   6
CONTINUOUS
  62
7
  10
 192.32500000000
  20
 133.78750000000
  30
0.0
  11
 189.17500000000
  21
 133.78750000000
  31
0.0
   0
LINE
   5
2E5
 100
AcDbEntity
   8
LEVEL002
 370
15
 100
AcDbLine
   6
CONTINUOUS
  62
7
  10
 189.17500000000
  20
 133.78750000000
  30
0.0
  11
 189.17500000000
  21
 134.23750000000
  31
0.0
   0
LINE
   5
2E6
 100
AcDbEntity
   8
LEVEL002
 370
15
 100
AcDbLine
   6
CONTINUOUS
  62
7
  10
 189.17500000000
  20
 134.23750000000
  30
0.0
  11
 192.77500000000
  21
 134.23750000000
  31
0.0
   0
LINE
   5
2E7
 100
AcDbEntity
   8
LEVEL002
 370
15
 100
AcDbLine
   6
CONTINUOUS
  62
7
  10
 192.77500000000
  20
 134.23750000000
  30
0.0
  11
 192.77500000000
  21
 136.03750000000
  31
0.0
   0
LINE
   5
2E8
 100
AcDbEntity
   8
LEVEL002
 370
15
 100
AcDbLine
   6
CONTINUOUS
  62
7
  10
 192.77500000000
  20
 136.03750000000
  30
0.0
  11
 181.97500000000
  21
 136.03750000000
  31
0.0
   0
LINE
   5
2E9
 100
AcDbEntity
   8
LEVEL002
 370
15
 100
AcDbLine
   6
CONTINUOUS
  62
7
  10
 181.97500000000
  20
 136.03750000000
  30
0.0
  11
 181.97500000000
  21
 134.23750000000
  31
0.0
   0
LINE
   5
2EA
 100
AcDbEntity
   8
LEVEL002
 370
15
 100
AcDbLine
   6
CONTINUOUS
  62
7
  10
 181.97500000000
  20
 134.23750000000
  30
0.0
  11
 183.77500000000
  21
 134.23750000000
  31
0.0
   0
LINE
   5
2EB
 100
AcDbEntity
   8
LEVEL002
 370
15
 100
AcDbLine
   6
CONTINUOUS
  62
7
  10
 183.77500000000
  20
 134.23750000000
  30
0.0
  11
 183.77500000000
  21
 132.43750000000
  31
0.0
   0
LINE
   5
2EC
 100
AcDbEntity
   8
LEVEL002
 370
15
 100
AcDbLine
   6
CONTINUOUS
  62
7
  10
 183.77500000000
  20
 132.43750000000
  30
0.0
  11
 181.07500000000
  21
 132.43750000000
  31
0.0
   0
LINE
   5
2ED
 100
AcDbEntity
   8
LEVEL002
 370
15
 100
AcDbLine
   6
CONTINUOUS
  62
7
  10
 181.07500000000
  20
 132.43750000000
  30
0.0
  11
 181.07500000000
  21
 136.03750000000
  31
0.0
   0
LINE
   5
2EE
 100
AcDbEntity
   8
LEVEL002
 370
15
 100
AcDbLine
   6
CONTINUOUS
  62
7
  10
 181.07500000000
  20
 136.03750000000
  30
0.0
  11
 179.27500000000
  21
 136.03750000000
  31
0.0
   0
LINE
   5
2EF
 100
AcDbEntity
   8
LEVEL002
 370
15
 100
AcDbLine
   6
CONTINUOUS
  62
7
  10
 179.27500000000
  20
 136.03750000000
  30
0.0
  11
 179.27500000000
  21
 130.63750000000
  31
0.0
   0
LINE
   5
2F0
 100
AcDbEntity
   8
LEVEL002
 370
15
 100
AcDbLine
   6
CONTINUOUS
  62
7
  10
 195.47500000000
  20
 130.63750000000
  30
0.0
  11
 198.17500000000
  21
 130.63750000000
  31
0.0
   0
LINE
   5
2F1
 100
AcDbEntity
   8
LEVEL002
 370
15
 100
AcDbLine
   6
CONTINUOUS
  62
7
  10
 198.17500000000
  20
 130.63750000000
  30
0.0
  11
 198.17500000000
  21
 132.43750000000
  31
0.0
   0
LINE
   5
2F2
 100
AcDbEntity
   8
LEVEL002
 370
15
 100
AcDbLine
   6
CONTINUOUS
  62
7
  10
 198.17500000000
  20
 132.43750000000
  30
0.0
  11
 195.47500000000
  21
 132.43750000000
  31
0.0
   0
ARC
   5
2F3
 100
AcDbEntity
   8
LEVEL002
 370
15
   6
CONTINUOUS
  62
7
 100
AcDbCircle
  10
 195.47500000000
  20
 133.33750000000
  30
0.0
  40
 0.90000000000000
 100
AcDbArc
  50
 90.000000000000
  51
 270.00000000000
   0
LINE
   5
2F4
 100
AcDbEntity
   8
LEVEL002
 370
15
 100
AcDbLine
   6
CONTINUOUS
  62
7
  10
 195.47500000000
  20
 134.23750000000
  30
0.0
  11
 198.17500000000
  21
 134.23750000000
  31
0.0
   0
LINE
   5
2F5
 100
AcDbEntity
   8
LEVEL002
 370
15
 100
AcDbLine
   6
CONTINUOUS
  62
7
  10
 198.17500000000
  20
 134.23750000000
  30
0.0
  11
 198.17500000000
  21
 136.03750000000
  31
0.0
   0
LINE
   5
2F6
 100
AcDbEntity
   8
LEVEL002
 370
15
 100
AcDbLine
   6
CONTINUOUS
  62
7
  10
 198.17500000000
  20
 136.03750000000
  30
0.0
  11
 195.47500000000
  21
 136.03750000000
  31
0.0
   0
ARC
   5
2F7
 100
AcDbEntity
   8
LEVEL002
 370
15
   6
CONTINUOUS
  62
7
 100
AcDbCircle
  10
 195.47500000000
  20
 133.33750000000
  30
0.0
  40
 2.7000000000000
 100
AcDbArc
  50
 90.000000000000
  51
 270.00000000000
   0
MTEXT
   5
2F9
 100
AcDbEntity
   8
LEVEL002
 370
15
  62
7
 100
AcDbMText
  10
 168.47500000000
  20
 136.93750000000
  30
0.0
  40
 1.8750000000000
  41
0.0
  71
7
  72
1
   1
\T1.000000;ケージーパルテック株式会社
   7
GMM001
  44
 0.79999984000003
   0
LINE
   5
2FA
 100
AcDbEntity
   8
LEVEL002
 370
15
 100
AcDbLine
   6
CONTINUOUS
  62
7
  10
 166.67500000000
  20
 131.83750000000
  30
0.0
  11
 164.42500000000
  21
 135.43750000000
  31
0.0
   0
LINE
   5
2FB
 100
AcDbEntity
   8
LEVEL002
 370
15
 100
AcDbLine
   6
CONTINUOUS
  62
7
  10
 164.42500000000
  20
 135.43750000000
  30
0.0
  11
 166.67500000000
  21
 135.43750000000
  31
0.0
   0
LINE
   5
2FC
 100
AcDbEntity
   8
LEVEL002
 370
15
 100
AcDbLine
   6
CONTINUOUS
  62
7
  10
 166.67500000000
  20
 135.43750000000
  30
0.0
  11
 166.67500000000
  21
 131.83750000000
  31
0.0
   0
LINE
   5
2FD
 100
AcDbEntity
   8
LEVEL002
 370
15
 100
AcDbLine
   6
CONTINUOUS
  62
7
  10
 164.42500000000
  20
 135.43750000000
  30
0.0
  11
 166.67500000000
  21
 131.83750000000
  31
0.0
   0
LINE
   5
2FE
 100
AcDbEntity
   8
LEVEL002
 370
15
 100
AcDbLine
   6
CONTINUOUS
  62
7
  10
 166.67500000000
  20
 131.83750000000
  30
0.0
  11
 166.67500000000
  21
 135.43750000000
  31
0.0
   0
LINE
   5
2FF
 100
AcDbEntity
   8
LEVEL002
 370
15
 100
AcDbLine
   6
CONTINUOUS
  62
7
  10
 166.67500000000
  20
 135.43750000000
  30
0.0
  11
 164.42500000000
  21
 135.43750000000
  31
0.0
   0
LINE
   5
300
 100
AcDbEntity
   8
LEVEL002
 370
15
 100
AcDbLine
   6
CONTINUOUS
  62
7
  10
 159.52500000000
  20
 140.23750000000
  30
0.0
  11
 156.32500000000
  21
 135.43750000000
  31
0.0
   0
LINE
   5
301
 100
AcDbEntity
   8
LEVEL002
 370
15
 100
AcDbLine
   6
CONTINUOUS
  62
7
  10
 156.32500000000
  20
 135.43750000000
  30
0.0
  11
 159.52500000000
  21
 130.63750000000
  31
0.0
   0
LINE
   5
302
 100
AcDbEntity
   8
LEVEL002
 370
15
 100
AcDbLine
   6
CONTINUOUS
  62
7
  10
 162.22500000000
  20
 130.63750000000
  30
0.0
  11
 159.02500000000
  21
 135.43750000000
  31
0.0
   0
LINE
   5
303
 100
AcDbEntity
   8
LEVEL002
 370
15
 100
AcDbLine
   6
CONTINUOUS
  62
7
  10
 159.02500000000
  20
 135.43750000000
  30
0.0
  11
 162.22500000000
  21
 140.23750000000
  31
0.0
   0
LINE
   5
304
 100
AcDbEntity
   8
LEVEL002
 370
15
 100
AcDbLine
   6
CONTINUOUS
  62
7
  10
 163.57500000000
  20
 140.23750000000
  30
0.0
  11
 160.37500000000
  21
 135.43750000000
  31
0.0
   0
LINE
   5
305
 100
AcDbEntity
   8
LEVEL002
 370
15
 100
AcDbLine
   6
CONTINUOUS
  62
7
  10
 160.37500000000
  20
 135.43750000000
  30
0.0
  11
 163.57500000000
  21
 130.63750000000
  31
0.0
   0
LINE
   5
306
 100
AcDbEntity
   8
LEVEL002
 370
15
 100
AcDbLine
   6
CONTINUOUS
  62
7
  10
 166.27500000000
  20
 130.63750000000
  30
0.0
  11
 163.07500000000
  21
 135.43750000000
  31
0.0
   0
LINE
   5
307
 100
AcDbEntity
   8
LEVEL002
 370
15
 100
AcDbLine
   6
CONTINUOUS
  62
7
  10
 163.07500000000
  20
 135.43750000000
  30
0.0
  11
 166.27500000000
  21
 140.23750000000
  31
0.0
   0
LINE
   5
308
 100
AcDbEntity
   8
LEVEL002
 370
15
 100
AcDbLine
   6
CONTINUOUS
  62
7
  10
 159.52500000000
  20
 130.63750000000
  30
0.0
  11
 156.32500000000
  21
 135.43750000000
  31
0.0
   0
LINE
   5
309
 100
AcDbEntity
   8
LEVEL002
 370
15
 100
AcDbLine
   6
CONTINUOUS
  62
7
  10
 156.32500000000
  20
 135.43750000000
  30
0.0
  11
 159.52500000000
  21
 140.23750000000
  31
0.0
   0
LINE
   5
30A
 100
AcDbEntity
   8
LEVEL002
 370
15
 100
AcDbLine
   6
CONTINUOUS
  62
7
  10
 159.52500000000
  20
 140.23750000000
  30
0.0
  11
 162.22500000000
  21
 140.23750000000
  31
0.0
   0
LINE
   5
30B
 100
AcDbEntity
   8
LEVEL002
 370
15
 100
AcDbLine
   6
CONTINUOUS
  62
7
  10
 162.22500000000
  20
 140.23750000000
  30
0.0
  11
 159.02500000000
  21
 135.43750000000
  31
0.0
   0
LINE
   5
30C
 100
AcDbEntity
   8
LEVEL002
 370
15
 100
AcDbLine
   6
CONTINUOUS
  62
7
  10
 159.02500000000
  20
 135.43750000000
  30
0.0
  11
 162.22500000000
  21
 130.63750000000
  31
0.0
   0
LINE
   5
30D
 100
AcDbEntity
   8
LEVEL002
 370
15
 100
AcDbLine
   6
CONTINUOUS
  62
7
  10
 162.22500000000
  20
 130.63750000000
  30
0.0
  11
 159.52500000000
  21
 130.63750000000
  31
0.0
   0
LINE
   5
30E
 100
AcDbEntity
   8
LEVEL002
 370
15
 100
AcDbLine
   6
CONTINUOUS
  62
7
  10
 163.57500000000
  20
 130.63750000000
  30
0.0
  11
 160.37500000000
  21
 135.43750000000
  31
0.0
   0
LINE
   5
30F
 100
AcDbEntity
   8
LEVEL002
 370
15
 100
AcDbLine
   6
CONTINUOUS
  62
7
  10
 160.37500000000
  20
 135.43750000000
  30
0.0
  11
 163.57500000000
  21
 140.23750000000
  31
0.0
   0
LINE
   5
310
 100
AcDbEntity
   8
LEVEL002
 370
15
 100
AcDbLine
   6
CONTINUOUS
  62
7
  10
 163.57500000000
  20
 140.23750000000
  30
0.0
  11
 166.27500000000
  21
 140.23750000000
  31
0.0
   0
LINE
   5
311
 100
AcDbEntity
   8
LEVEL002
 370
15
 100
AcDbLine
   6
CONTINUOUS
  62
7
  10
 166.27500000000
  20
 140.23750000000
  30
0.0
  11
 163.07500000000
  21
 135.43750000000
  31
0.0
   0
LINE
   5
312
 100
AcDbEntity
   8
LEVEL002
 370
15
 100
AcDbLine
   6
CONTINUOUS
  62
7
  10
 163.07500000000
  20
 135.43750000000
  30
0.0
  11
 166.27500000000
  21
 130.63750000000
  31
0.0
   0
LINE
   5
313
 100
AcDbEntity
   8
LEVEL002
 370
15
 100
AcDbLine
   6
CONTINUOUS
  62
7
  10
 166.27500000000
  20
 130.63750000000
  30
0.0
  11
 163.57500000000
  21
 130.63750000000
  31
0.0
   0
LINE
   5
314
 100
AcDbEntity
   8
LEVEL001
 370
15
 100
AcDbLine
   6
DOT
  62
7
  10
0.0
  20
0.0
  30
0.0
  11
 210.00000000000
  21
0.0
  31
0.0
   0
LINE
   5
315
 100
AcDbEntity
   8
LEVEL001
 370
15
 100
AcDbLine
   6
DOT
  62
7
  10
 210.00000000000
  20
 148.50000000000
  30
0.0
  11
0.0
  21
 148.50000000000
  31
0.0
   0
LINE
   5
316
 100
AcDbEntity
   8
LEVEL001
 370
15
 100
AcDbLine
   6
DOT
  62
7
  10
0.0
  20
 148.50000000000
  30
0.0
  11
0.0
  21
0.0
  31
0.0
   0
LINE
   5
317
 100
AcDbEntity
   8
LEVEL002
 370
15
 100
AcDbLine
   6
CONTINUOUS
  62
3
  10
 7.7499999999750
  20
 137.50000000000
  30
0.0
  11
 152.24999999997
  21
 137.50000000000
  31
0.0
   0
LINE
   5
318
 100
AcDbEntity
   8
LEVEL002
 370
15
 100
AcDbLine
   6
CONTINUOUS
  62
3
  10
 152.24999999997
  20
 128.37500000000
  30
0.0
  11
 202.24999999997
  21
 128.37500000000
  31
0.0
   0
LINE
   5
319
 100
AcDbEntity
   8
LEVEL002
 370
15
 100
AcDbLine
   6
CONTINUOUS
  62
3
  10
 152.24999999997
  20
 118.37500000000
  30
0.0
  11
 202.24999999997
  21
 118.37500000000
  31
0.0
   0
LINE
   5
31A
 100
AcDbEntity
   8
LEVEL002
 370
15
 100
AcDbLine
   6
CONTINUOUS
  62
3
  10
 152.24999999997
  20
 108.37500000000
  30
0.0
  11
 202.24999999997
  21
 108.37500000000
  31
0.0
   0
LINE
   5
31B
 100
AcDbEntity
   8
LEVEL002
 370
15
 100
AcDbLine
   6
CONTINUOUS
  62
3
  10
 152.24999999997
  20
 36.000000000005
  30
0.0
  11
 202.24999999997
  21
 36.000000000005
  31
0.0
   0
LINE
   5
31C
 100
AcDbEntity
   8
LEVEL002
 370
15
 100
AcDbLine
   6
CONTINUOUS
  62
3
  10
 152.24999999997
  20
 26.000000000005
  30
0.0
  11
 202.24999999997
  21
 26.000000000005
  31
0.0
   0
LINE
   5
31D
 100
AcDbEntity
   8
LEVEL002
 370
15
 100
AcDbLine
   6
CONTINUOUS
  62
3
  10
 152.24999999997
  20
 16.000000000005
  30
0.0
  11
 202.24999999997
  21
 16.000000000005
  31
0.0
   0
LINE
   5
31E
 100
AcDbEntity
   8
LEVEL002
 370
15
 100
AcDbLine
   6
CONTINUOUS
  62
3
  10
 177.24999999997
  20
 26.000000000005
  30
0.0
  11
 177.24999999997
  21
 6.0000000000050
  31
0.0
   0
LINE
   5
31F
 100
AcDbEntity
   8
LEVEL002
 370
15
 100
AcDbLine
   6
CONTINUOUS
  62
3
  10
 177.24999999997
  20
 19.333333333340
  30
0.0
  11
 202.24999999997
  21
 19.333333333340
  31
0.0
   0
LINE
   5
320
 100
AcDbEntity
   8
LEVEL002
 370
15
 100
AcDbLine
   6
CONTINUOUS
  62
3
  10
 177.24999999997
  20
 22.666666666673
  30
0.0
  11
 202.24999999997
  21
 22.666666666673
  31
0.0
   0
LINE
   5
321
 100
AcDbEntity
   8
LEVEL002
 370
50
 100
AcDbLine
   6
CONTINUOUS
  62
4
  10
 202.24999999997
  20
 142.50000000000
  30
0.0
  11
 7.7499999999750
  21
 142.50000000000
  31
0.0
   0
LINE
   5
322
 100
AcDbEntity
   8
LEVEL002
 370
50
 100
AcDbLine
   6
CONTINUOUS
  62
4
  10
 152.24999999997
  20
 142.50000000000
  30
0.0
  11
 152.24999999997
  21
 6.0000000000050
  31
0.0
   0
LINE
   5
323
 100
AcDbEntity
   8
LEVEL002
 370
50
 100
AcDbLine
   6
CONTINUOUS
  62
4
  10
 202.24999999997
  20
 6.0000000000050
  30
0.0
  11
 202.24999999997
  21
 142.50000000000
  31
0.0
   0
LINE
   5
324
 100
AcDbEntity
   8
LEVEL002
 370
50
 100
AcDbLine
   6
CONTINUOUS
  62
4
  10
 7.7499999999750
  20
 142.50000000000
  30
0.0
  11
 7.7499999999750
  21
 6.0000000000050
  31
0.0
   0
LINE
   5
325
 100
AcDbEntity
   8
LEVEL002
 370
50
 100
AcDbLine
   6
CONTINUOUS
  62
4
  10
 7.7499999999750
  20
 6.0000000000050
  30
0.0
  11
 202.24999999997
  21
 6.0000000000050
  31
0.0
   0
HATCH
   5
326
 100
AcDbEntity
   8
LEVEL001
  62
1
 100
AcDbHatch
  10
0.0
  20
0.0
  30
0.0
 210
0.0
 220
0.0
 230
 1.0000000000000
   2
SOLID
  70
1
  71
1
  91
7
  92
1
  93
6
  72
1
  10
 162.22500000000
  20
 140.23750000000
  11
 159.02500000000
  21
 135.43750000000
  72
1
  10
 159.02500000000
  20
 135.43750000000
  11
 162.22500000000
  21
 130.63750000000
  72
1
  10
 162.22500000000
  20
 130.63750000000
  11
 159.52500000000
  21
 130.63750000000
  72
1
  10
 159.52500000000
  20
 130.63750000000
  11
 156.32500000000
  21
 135.43750000000
  72
1
  10
 156.32500000000
  20
 135.43750000000
  11
 159.52500000000
  21
 140.23750000000
  72
1
  10
 159.52500000000
  20
 140.23750000000
  11
 162.22500000000
  21
 140.23750000000
  97
1
 330

  92
16
  93
6
  72
1
  10
 163.57500000000
  20
 140.23750000000
  11
 166.27500000000
  21
 140.23750000000
  72
1
  10
 166.27500000000
  20
 140.23750000000
  11
 163.07500000000
  21
 135.43750000000
  72
1
  10
 163.07500000000
  20
 135.43750000000
  11
 166.27500000000
  21
 130.63750000000
  72
1
  10
 166.27500000000
  20
 130.63750000000
  11
 163.57500000000
  21
 130.63750000000
  72
1
  10
 163.57500000000
  20
 130.63750000000
  11
 160.37500000000
  21
 135.43750000000
  72
1
  10
 160.37500000000
  20
 135.43750000000
  11
 163.57500000000
  21
 140.23750000000
  97
1
 330

  92
16
  93
3
  72
1
  10
 166.67500000000
  20
 135.43750000000
  11
 164.42500000000
  21
 135.43750000000
  72
1
  10
 164.42500000000
  20
 135.43750000000
  11
 166.67500000000
  21
 131.83750000000
  72
1
  10
 166.67500000000
  20
 131.83750000000
  11
 166.67500000000
  21
 135.43750000000
  97
1
 330

  92
16
  93
6
  72
1
  10
 168.47500000000
  20
 136.03750000000
  11
 172.07500000000
  21
 136.03750000000
  72
2
  10
 172.07500000000
  20
 133.78750000000
  40
 2.2500000000000
  50
 270.00000000000
  51
 90.000000000000
  73
0
  72
1
  10
 172.07500000000
  20
 131.53750000000
  11
 170.27500000000
  21
 131.53750000000
  72
1
  10
 170.27500000000
  20
 131.53750000000
  11
 170.27500000000
  21
 130.63750000000
  72
1
  10
 170.27500000000
  20
 130.63750000000
  11
 168.47500000000
  21
 130.63750000000
  72
1
  10
 168.47500000000
  20
 130.63750000000
  11
 168.47500000000
  21
 136.03750000000
  97
1
 330

  92
16
  93
4
  72
1
  10
 172.07500000000
  20
 134.23750000000
  11
 170.27500000000
  21
 134.23750000000
  72
1
  10
 170.27500000000
  20
 134.23750000000
  11
 170.27500000000
  21
 133.33750000000
  72
1
  10
 170.27500000000
  20
 133.33750000000
  11
 172.07500000000
  21
 133.33750000000
  72
2
  10
 172.07500000000
  20
 133.78750000000
  40
 0.45000000000000
  50
 270.00000000000
  51
 90.000000000000
  73
1
  97
1
 330

  92
16
  93
4
  72
1
  10
 172.97500000000
  20
 130.63750000000
  11
 176.57500000000
  21
 136.03750000000
  72
1
  10
 176.57500000000
  20
 136.03750000000
  11
 179.27500000000
  21
 136.03750000000
  72
1
  10
 179.27500000000
  20
 136.03750000000
  11
 175.67500000000
  21
 130.63750000000
  72
1
  10
 175.67500000000
  20
 130.63750000000
  11
 172.97500000000
  21
 130.63750000000
  97
1
 330

  92
16
  93
3
  72
1
  10
 178.67500000000
  20
 134.05583461735
  11
 176.39611025510
  21
 130.63750000000
  72
1
  10
 176.39611025510
  20
 130.63750000000
  11
 178.67500000000
  21
 130.63750000000
  72
1
  10
 178.67500000000
  20
 130.63750000000
  11
 178.67500000000
  21
 134.05583461735
  97
1
 330

  75
0
  76
1
  98
1
  10
0.0
  20
0.0
   0
HATCH
   5
327
 100
AcDbEntity
   8
LEVEL001
  62
1
 100
AcDbHatch
  10
0.0
  20
0.0
  30
0.0
 210
0.0
 220
0.0
 230
 1.0000000000000
   2
SOLID
  70
1
  71
1
  91
1
  92
1
  93
22
  72
1
  10
 179.27500000000
  20
 136.03750000000
  11
 181.07500000000
  21
 136.03750000000
  72
1
  10
 181.07500000000
  20
 136.03750000000
  11
 181.07500000000
  21
 132.43750000000
  72
1
  10
 181.07500000000
  20
 132.43750000000
  11
 183.77500000000
  21
 132.43750000000
  72
1
  10
 183.77500000000
  20
 132.43750000000
  11
 183.77500000000
  21
 134.23750000000
  72
1
  10
 183.77500000000
  20
 134.23750000000
  11
 181.97500000000
  21
 134.23750000000
  72
1
  10
 181.97500000000
  20
 134.23750000000
  11
 181.97500000000
  21
 136.03750000000
  72
1
  10
 181.97500000000
  20
 136.03750000000
  11
 192.77500000000
  21
 136.03750000000
  72
1
  10
 192.77500000000
  20
 136.03750000000
  11
 192.77500000000
  21
 134.23750000000
  72
1
  10
 192.77500000000
  20
 134.23750000000
  11
 189.17500000000
  21
 134.23750000000
  72
1
  10
 189.17500000000
  20
 134.23750000000
  11
 189.17500000000
  21
 133.78750000000
  72
1
  10
 189.17500000000
  20
 133.78750000000
  11
 192.32500000000
  21
 133.78750000000
  72
1
  10
 192.32500000000
  20
 133.78750000000
  11
 192.32500000000
  21
 132.88750000000
  72
1
  10
 192.32500000000
  20
 132.88750000000
  11
 189.17500000000
  21
 132.88750000000
  72
1
  10
 189.17500000000
  20
 132.88750000000
  11
 189.17500000000
  21
 132.43750000000
  72
1
  10
 189.17500000000
  20
 132.43750000000
  11
 192.77500000000
  21
 132.43750000000
  72
1
  10
 192.77500000000
  20
 132.43750000000
  11
 192.77500000000
  21
 130.63750000000
  72
1
  10
 192.77500000000
  20
 130.63750000000
  11
 187.37500000000
  21
 130.63750000000
  72
1
  10
 187.37500000000
  20
 130.63750000000
  11
 187.37500000000
  21
 134.23750000000
  72
1
  10
 187.37500000000
  20
 134.23750000000
  11
 185.57500000000
  21
 134.23750000000
  72
1
  10
 185.57500000000
  20
 134.23750000000
  11
 185.57500000000
  21
 130.63750000000
  72
1
  10
 185.57500000000
  20
 130.63750000000
  11
 179.27500000000
  21
 130.63750000000
  72
1
  10
 179.27500000000
  20
 130.63750000000
  11
 179.27500000000
  21
 136.03750000000
  97
1
 330

  75
0
  76
1
  98
1
  10
0.0
  20
0.0
   0
HATCH
   5
328
 100
AcDbEntity
   8
LEVEL001
  62
1
 100
AcDbHatch
  10
0.0
  20
0.0
  30
0.0
 210
0.0
 220
0.0
 230
 1.0000000000000
   2
SOLID
  70
1
  71
1
  91
1
  92
1
  93
8
  72
1
  10
 198.17500000000
  20
 136.03750000000
  11
 195.47500000000
  21
 136.03750000000
  72
2
  10
 195.47500000000
  20
 133.33750000000
  40
 2.7000000000000
  50
 90.000000000000
  51
 270.00000000000
  73
1
  72
1
  10
 195.47500000000
  20
 130.63750000000
  11
 198.17500000000
  21
 130.63750000000
  72
1
  10
 198.17500000000
  20
 130.63750000000
  11
 198.17500000000
  21
 132.43750000000
  72
1
  10
 198.17500000000
  20
 132.43750000000
  11
 195.47500000000
  21
 132.43750000000
  72
2
  10
 195.47500000000
  20
 133.33750000000
  40
 0.90000000000000
  50
 90.000000000000
  51
 270.00000000000
  73
0
  72
1
  10
 195.47500000000
  20
 134.23750000000
  11
 198.17500000000
  21
 134.23750000000
  72
1
  10
 198.17500000000
  20
 134.23750000000
  11
 198.17500000000
  21
 136.03750000000
  97
1
 330

  75
0
  76
1
  98
1
  10
0.0
  20
0.0
   0
MTEXT
   5
32A
 100
AcDbEntity
   8
LEVEL002
 370
15
  62
8
 100
AcDbMText
  10
 155.39999999997
  20
 14.125000000005
  30
0.0
  40
 1.5000000000000
  41
0.0
  71
5
  72
1
   1
\T1.000000;サイズ：
   7
GMM002
  44
 0.79999984000003
   0
MTEXT
   5
32C
 100
AcDbEntity
   8
LEVEL002
 370
15
  62
8
 100
AcDbMText
  10
 154.64999999997
  20
 24.125000000005
  30
0.0
  40
 1.5000000000000
  41
0.0
  71
5
  72
1
   1
\T1.000000;縮尺：
   7
GMM002
  44
 0.79999984000003
   0
MTEXT
   5
32E
 100
AcDbEntity
   8
LEVEL002
 370
15
  62
8
 100
AcDbMText
  10
 156.14999999997
  20
 34.125000000005
  30
0.0
  40
 1.5000000000000
  41
0.0
  71
5
  72
1
   1
\T1.000000;図面名称：
   7
GMM002
  44
 0.79999984000003
   0
MTEXT
   5
330
 100
AcDbEntity
   8
LEVEL002
 370
15
  62
8
 100
AcDbMText
  10
 181.89999999997
  20
 14.125000000005
  30
0.0
  40
 1.5000000000000
  41
0.0
  71
5
  72
1
   1
\T1.000000;ファイル名：
   7
GMM002
  44
 0.79999984000003
   0
MTEXT
   5
332
 100
AcDbEntity
   8
LEVEL002
 370
15
  62
8
 100
AcDbMText
  10
 181.14999999997
  20
 21.000000000005
  30
0.0
  40
 1.4000000000000
  41
0.0
  71
5
  72
1
   1
\T1.000000;変更日付：
   7
GMM003
  44
 0.79999984000003
   0
MTEXT
   5
334
 100
AcDbEntity
   8
LEVEL002
 370
15
  62
8
 100
AcDbMText
  10
 164.74999999997
  20
 9.1250000000050
  30
0.0
  40
 1.8750000000000
  41
0.0
  71
5
  72
1
   1
\T1.000000;Ａ３
   7
GMM002
  44
 0.79999984000003
   0
MTEXT
   5
336
 100
AcDbEntity
   8
LEVEL002
 370
15
  62
8
 100
AcDbMText
  10
 154.64999999997
  20
 106.50000000000
  30
0.0
  40
 1.5000000000000
  41
0.0
  71
5
  72
1
   1
\T1.000000;仕様：
   7
GMM002
  44
 0.79999984000003
   0
MTEXT
   5
338
 100
AcDbEntity
   8
LEVEL002
 370
15
  62
8
 100
AcDbMText
  10
 154.64999999997
  20
 116.50000000000
  30
0.0
  40
 1.5000000000000
  41
0.0
  71
5
  72
1
   1
\T1.000000;形式：
   7
GMM002
  44
 0.79999984000003
   0
MTEXT
   5
33A
 100
AcDbEntity
   8
LEVEL002
 370
15
  62
8
 100
AcDbMText
  10
 155.39999999997
  20
 126.50000000000
  30
0.0
  40
 1.5000000000000
  41
0.0
  71
5
  72
1
   1
\T1.000000;商品名：
   7
GMM002
  44
 0.79999984000003
   0
MTEXT
   5
33C
 100
AcDbEntity
   8
LEVEL002
 370
15
  62
8
 100
AcDbMText
  10
 173.44999999998
  20
 38.435401729506
  30
0.0
  40
 2.0000000000000
  41
0.0
  71
5
  72
1
   1
\T1.000000;　※本製品は予告無しに変更する事があります。
   7
GMM002
  44
 0.79999984000003
   0
LINE
   5
33D
 100
AcDbEntity
   8
LEVEL001
 370
15
 100
AcDbLine
   6
CONTINUOUS
  62
3
  10
 79.999999999975
  20
 142.50000000000
  30
0.0
  11
 79.999999999975
  21
 6.0000000000050
  31
0.0
   0
LINE
   5
33E
 100
AcDbEntity
   8
LEVEL001
 370
15
 100
AcDbLine
   6
CONTINUOUS
  62
3
  10
 116.12499999997
  20
 142.50000000000
  30
0.0
  11
 116.12499999997
  21
 6.0000000000050
  31
0.0
   0
MTEXT
   5
340
 100
AcDbEntity
   8
LEVEL002
 370
15
  62
8
 100
AcDbMText
  10
 181.14999999997
  20
 24.333333333340
  30
0.0
  40
 1.4000000000000
  41
0.0
  71
5
  72
1
   1
\T1.000000;作成日付：
   7
GMM003
  44
 0.79999984000003
   0
MTEXT
   5
342
 100
AcDbEntity
   8
LEVEL002
 370
15
  62
8
 100
AcDbMText
  10
 193.60754228038
  20
 21.000000000005
  30
0.0
  40
 1.5000000000000
  41
0.0
  71
5
  72
1
   1
\T1.000000;令和　　年　　月　　日
   7
GMM002
  44
 0.79999984000003
   0
MTEXT
   5
344
 100
AcDbEntity
   8
LEVEL002
 370
15
  62
8
 100
AcDbMText
  10
 193.60754228038
  20
 17.666666666673
  30
0.0
  40
 1.5000000000000
  41
0.0
  71
5
  72
1
   1
\T1.000000;令和　　年　　月　　日
   7
GMM002
  44
 0.79999984000003
   0
LINE
   5
345
 100
AcDbEntity
   8
LEVEL002
 370
15
 100
AcDbLine
   6
CONTINUOUS
  62
3
  10
 7.7499999999750
  20
 35.125000000004
  30
0.0
  11
 152.24999999997
  21
 35.125000000004
  31
0.0
   0
LINE
   5
346
 100
AcDbEntity
   8
LEVEL002
 370
15
 100
AcDbLine
   6
CONTINUOUS
  62
3
  10
 7.7499999999750
  20
 40.125000000004
  30
0.0
  11
 152.24999999997
  21
 40.125000000004
  31
0.0
   0
LINE
   5
347
 100
AcDbEntity
   8
LEVEL002
 370
15
 100
AcDbLine
   6
CONTINUOUS
  62
3
  10
 7.7499999999750
  20
 69.250000000003
  30
0.0
  11
 152.24999999997
  21
 69.250000000003
  31
0.0
   0
LINE
   5
348
 100
AcDbEntity
   8
LEVEL002
 370
15
 100
AcDbLine
   6
CONTINUOUS
  62
3
  10
 7.7499999999750
  20
 74.250000000003
  30
0.0
  11
 152.24999999997
  21
 74.250000000003
  31
0.0
   0
LINE
   5
349
 100
AcDbEntity
   8
LEVEL002
 370
15
 100
AcDbLine
   6
CONTINUOUS
  62
3
  10
 7.7499999999750
  20
 103.37500000000
  30
0.0
  11
 152.24999999997
  21
 103.37500000000
  31
0.0
   0
LINE
   5
34A
 100
AcDbEntity
   8
LEVEL002
 370
15
 100
AcDbLine
   6
CONTINUOUS
  62
3
  10
 7.7499999999750
  20
 108.37500000000
  30
0.0
  11
 152.24999999997
  21
 108.37500000000
  31
0.0
   0
MTEXT
   5
34C
 100
AcDbEntity
   8
LEVEL002
 370
15
  62
8
 100
AcDbMText
  10
 164.74999999997
  20
 19.125000000005
  30
0.0
  40
 1.8750000000000
  41
0.0
  71
5
  72
1
   1
\T1.000000;Ｓ＝２：１
   7
GMM002
  44
 0.79999984000003
   0
MTEXT
   5
34E
 100
AcDbEntity
   8
LEVEL002
 370
15
  62
8
 100
AcDbMText
  10
 167.24999999997
  20
 122.25000000000
  30
0.0
  40
 2.2500000000000
  41
0.0
  71
7
  72
1
   1
\T1.000000;　パルフラットレール
   7
GMM004
  44
 0.79999984000003
   0
MTEXT
   5
350
 100
AcDbEntity
   8
LEVEL002
 370
15
  62
8
 100
AcDbMText
  10
 177.24999999997
  20
 29.125000000005
  30
0.0
  40
 1.8750000000000
  41
0.0
  71
5
  72
1
   1
\T1.000000;断面図
   7
GMM002
  44
 0.79999984000003
   0
LINE
   5
351
 100
AcDbEntity
   8
LEVEL001
 370
15
 100
AcDbLine
   6
CONTINUOUS
  62
3
  10
 43.874999999975
  20
 142.50000000000
  30
0.0
  11
 43.874999999975
  21
 6.0000000000050
  31
0.0
   0
LINE
   5
352
 100
AcDbEntity
   8
LEVEL002
 370
15
 100
AcDbLine
   6
CONTINUOUS
  62
7
  10
 30.840287312484
  20
 115.82449682853
  30
0.0
  11
 31.337133725268
  21
 118.58912042716
  31
0.0
   0
LINE
   5
353
 100
AcDbEntity
   8
LEVEL002
 370
15
 100
AcDbLine
   6
CONTINUOUS
  62
7
  10
 30.840287312484
  20
 118.82449682853
  30
0.0
  11
 31.332774056418
  21
 120.57019348232
  31
0.0
   0
LINE
   5
354
 100
AcDbEntity
   8
LEVEL002
 370
15
 100
AcDbLine
   6
CONTINUOUS
  62
7
  10
 30.840287312484
  20
 120.82449682853
  30
0.0
  11
 31.332774056418
  21
 122.57019348232
  31
0.0
   0
LINE
   5
355
 100
AcDbEntity
   8
LEVEL002
 370
15
 100
AcDbLine
   6
CONTINUOUS
  62
7
  10
 30.840287312484
  20
 118.82449682853
  30
0.0
  11
 31.140287312484
  21
 118.82449682853
  31
0.0
   0
LINE
   5
356
 100
AcDbEntity
   8
LEVEL002
 370
15
 100
AcDbLine
   6
CONTINUOUS
  62
7
  10
 30.840287312484
  20
 120.82449682853
  30
0.0
  11
 31.140287312484
  21
 120.82449682853
  31
0.0
   0
ARC
   5
357
 100
AcDbEntity
   8
LEVEL002
 370
15
   6
CONTINUOUS
  62
7
 100
AcDbCircle
  10
 31.140287312484
  20
 122.62449682853
  30
0.0
  40
 0.20000000000000
 100
AcDbArc
  50
 344.24545886500
  51
 90.000000000057
   0
ARC
   5
358
 100
AcDbEntity
   8
LEVEL002
 370
15
   6
CONTINUOUS
  62
7
 100
AcDbCircle
  10
 31.140287312484
  20
 120.62449682853
  30
0.0
  40
 0.20000000000000
 100
AcDbArc
  50
 344.24545886500
  51
 90.000000000057
   0
ARC
   5
359
 100
AcDbEntity
   8
LEVEL002
 370
15
   6
CONTINUOUS
  62
7
 100
AcDbCircle
  10
 31.140287312484
  20
 118.62449682853
  30
0.0
  40
 0.20000000000000
 100
AcDbArc
  50
 349.81180208178
  51
 90.000000000104
   0
LINE
   5
35A
 100
AcDbEntity
   8
LEVEL002
 370
15
 100
AcDbLine
   6
CONTINUOUS
  62
7
  10
 19.940287312484
  20
 115.82449682853
  30
0.0
  11
 19.443440899700
  21
 118.58912042716
  31
0.0
   0
LINE
   5
35B
 100
AcDbEntity
   8
LEVEL002
 370
15
 100
AcDbLine
   6
CONTINUOUS
  62
7
  10
 19.940287312484
  20
 118.82449682853
  30
0.0
  11
 19.447800568550
  21
 120.57019348232
  31
0.0
   0
LINE
   5
35C
 100
AcDbEntity
   8
LEVEL002
 370
15
 100
AcDbLine
   6
CONTINUOUS
  62
7
  10
 19.940287312484
  20
 120.82449682853
  30
0.0
  11
 19.447800568550
  21
 122.57019348232
  31
0.0
   0
LINE
   5
35D
 100
AcDbEntity
   8
LEVEL002
 370
15
 100
AcDbLine
   6
CONTINUOUS
  62
7
  10
 19.940287312484
  20
 118.82449682853
  30
0.0
  11
 19.640287312484
  21
 118.82449682853
  31
0.0
   0
LINE
   5
35E
 100
AcDbEntity
   8
LEVEL002
 370
15
 100
AcDbLine
   6
CONTINUOUS
  62
7
  10
 19.940287312484
  20
 120.82449682853
  30
0.0
  11
 19.640287312484
  21
 120.82449682853
  31
0.0
   0
ARC
   5
35F
 100
AcDbEntity
   8
LEVEL002
 370
15
   6
CONTINUOUS
  62
7
 100
AcDbCircle
  10
 19.640287312484
  20
 122.62449682853
  30
0.0
  40
 0.20000000000000
 100
AcDbArc
  50
 90.000000000010
  51
 195.75454113499
   0
ARC
   5
360
 100
AcDbEntity
   8
LEVEL002
 370
15
   6
CONTINUOUS
  62
7
 100
AcDbCircle
  10
 19.640287312484
  20
 120.62449682853
  30
0.0
  40
 0.20000000000000
 100
AcDbArc
  50
 89.999999999925
  51
 195.75454113501
   0
ARC
   5
361
 100
AcDbEntity
   8
LEVEL002
 370
15
   6
CONTINUOUS
  62
7
 100
AcDbCircle
  10
 19.640287312484
  20
 118.62449682853
  30
0.0
  40
 0.20000000000000
 100
AcDbArc
  50
 89.999999999955
  51
 190.18819791821
   0
ARC
   5
362
 100
AcDbEntity
   8
LEVEL002
 370
15
   6
CONTINUOUS
  62
7
 100
AcDbCircle
  10
 21.890287312484
  20
 125.86425993556
  30
0.0
  40
 0.50000000000000
 100
AcDbArc
  50
 0.16284439969093E-11
  51
 70.000000000004
   0
LINE
   5
363
 100
AcDbEntity
   8
LEVEL002
 370
15
 100
AcDbLine
   6
CONTINUOUS
  62
7
  10
 22.061297384147
  20
 126.33410624595
  30
0.0
  11
 21.611297384147
  21
 126.49789285137
  31
0.0
   0
ARC
   5
364
 100
AcDbEntity
   8
LEVEL002
 370
15
   6
CONTINUOUS
  62
7
 100
AcDbCircle
  10
 21.440287312484
  20
 126.02804654098
  30
0.0
  40
 0.50000000000000
 100
AcDbArc
  50
 70.000000000000
  51
 180.00000000001
   0
LINE
   5
365
 100
AcDbEntity
   8
LEVEL002
 370
15
 100
AcDbLine
   6
CONTINUOUS
  62
7
  10
 23.390287312484
  20
 126.77452973526
  30
0.0
  11
 23.390287312484
  21
 125.70020084422
  31
0.0
   0
LINE
   5
366
 100
AcDbEntity
   8
LEVEL002
 370
15
 100
AcDbLine
   6
CONTINUOUS
  62
7
  10
 22.390287312484
  20
 124.72449682856
  30
0.0
  11
 22.390287312484
  21
 125.86425993556
  31
0.0
   0
LINE
   5
367
 100
AcDbEntity
   8
LEVEL002
 370
15
 100
AcDbLine
   6
CONTINUOUS
  62
7
  10
 27.390287312484
  20
 126.77452973526
  30
0.0
  11
 27.390287312484
  21
 125.70020084422
  31
0.0
   0
LINE
   5
368
 100
AcDbEntity
   8
LEVEL002
 370
15
 100
AcDbLine
   6
CONTINUOUS
  62
7
  10
 28.390287312484
  20
 125.86425993555
  30
0.0
  11
 28.390287312484
  21
 124.72449682856
  31
0.0
   0
ARC
   5
369
 100
AcDbEntity
   8
LEVEL002
 370
15
   6
CONTINUOUS
  62
7
 100
AcDbCircle
  10
 28.890287312484
  20
 125.86425993555
  30
0.0
  40
 0.50000000000000
 100
AcDbArc
  50
 110.00000000000
  51
 180.00000000001
   0
LINE
   5
36A
 100
AcDbEntity
   8
LEVEL002
 370
15
 100
AcDbLine
   6
CONTINUOUS
  62
7
  10
 29.219277240821
  20
 126.51609136308
  30
0.0
  11
 28.719277240821
  21
 126.33410624594
  31
0.0
   0
ARC
   5
36B
 100
AcDbEntity
   8
LEVEL002
 370
15
   6
CONTINUOUS
  62
7
 100
AcDbCircle
  10
 29.340287312484
  20
 126.02804654097
  30
0.0
  40
 0.50000000000000
 100
AcDbArc
  50
0.0
  51
 109.99999999998
   0
LINE
   5
36C
 100
AcDbEntity
   8
LEVEL002
 370
15
 100
AcDbLine
   6
CONTINUOUS
  62
7
  10
 31.490287312484
  20
 127.82449682853
  30
0.0
  11
 31.490287312484
  21
 126.32449682853
  31
0.0
   0
LINE
   5
36D
 100
AcDbEntity
   8
LEVEL002
 370
15
 100
AcDbLine
   6
CONTINUOUS
  62
7
  10
 31.490287312484
  20
 126.32449682853
  30
0.0
  11
 30.840287312484
  21
 125.57449682853
  31
0.0
   0
LINE
   5
36E
 100
AcDbEntity
   8
LEVEL002
 370
15
 100
AcDbLine
   6
CONTINUOUS
  62
7
  10
 30.840287312484
  20
 125.57449682853
  30
0.0
  11
 31.340287312484
  21
 124.82449682853
  31
0.0
   0
LINE
   5
36F
 100
AcDbEntity
   8
LEVEL002
 370
15
 100
AcDbLine
   6
CONTINUOUS
  62
7
  10
 31.340287312484
  20
 124.82449682853
  30
0.0
  11
 30.840287312484
  21
 122.82449682853
  31
0.0
   0
LINE
   5
370
 100
AcDbEntity
   8
LEVEL002
 370
15
 100
AcDbLine
   6
CONTINUOUS
  62
7
  10
 31.490287312484
  20
 127.82449682853
  30
0.0
  11
 31.490287312484
  21
 126.32449682853
  31
0.0
   0
LINE
   5
371
 100
AcDbEntity
   8
LEVEL002
 370
15
 100
AcDbLine
   6
CONTINUOUS
  62
7
  10
 31.490287312484
  20
 126.32449682853
  30
0.0
  11
 30.840287312484
  21
 125.57449682853
  31
0.0
   0
LINE
   5
372
 100
AcDbEntity
   8
LEVEL002
 370
15
 100
AcDbLine
   6
CONTINUOUS
  62
7
  10
 30.840287312484
  20
 125.57449682853
  30
0.0
  11
 31.340287312484
  21
 124.82449682853
  31
0.0
   0
LINE
   5
373
 100
AcDbEntity
   8
LEVEL002
 370
15
 100
AcDbLine
   6
CONTINUOUS
  62
7
  10
 31.340287312484
  20
 124.82449682853
  30
0.0
  11
 30.840287312484
  21
 122.82449682853
  31
0.0
   0
LINE
   5
374
 100
AcDbEntity
   8
LEVEL002
 370
15
 100
AcDbLine
   6
CONTINUOUS
  62
7
  10
 30.840287312484
  20
 122.82449682853
  30
0.0
  11
 31.140287312484
  21
 122.82449682853
  31
0.0
   0
LINE
   5
375
 100
AcDbEntity
   8
LEVEL002
 370
15
 100
AcDbLine
   6
CONTINUOUS
  62
7
  10
 19.290287312484
  20
 127.82449682853
  30
0.0
  11
 19.290287312484
  21
 126.32449682853
  31
0.0
   0
LINE
   5
376
 100
AcDbEntity
   8
LEVEL002
 370
15
 100
AcDbLine
   6
CONTINUOUS
  62
7
  10
 19.290287312484
  20
 126.32449682853
  30
0.0
  11
 19.940287312484
  21
 125.57449682853
  31
0.0
   0
LINE
   5
377
 100
AcDbEntity
   8
LEVEL002
 370
15
 100
AcDbLine
   6
CONTINUOUS
  62
7
  10
 19.940287312484
  20
 125.57449682853
  30
0.0
  11
 19.440287312484
  21
 124.82449682853
  31
0.0
   0
LINE
   5
378
 100
AcDbEntity
   8
LEVEL002
 370
15
 100
AcDbLine
   6
CONTINUOUS
  62
7
  10
 19.440287312484
  20
 124.82449682853
  30
0.0
  11
 19.940287312484
  21
 122.82449682853
  31
0.0
   0
LINE
   5
379
 100
AcDbEntity
   8
LEVEL002
 370
15
 100
AcDbLine
   6
CONTINUOUS
  62
7
  10
 19.290287312484
  20
 127.82449682853
  30
0.0
  11
 19.290287312484
  21
 126.32449682853
  31
0.0
   0
LINE
   5
37A
 100
AcDbEntity
   8
LEVEL002
 370
15
 100
AcDbLine
   6
CONTINUOUS
  62
7
  10
 19.290287312484
  20
 126.32449682853
  30
0.0
  11
 19.940287312484
  21
 125.57449682853
  31
0.0
   0
LINE
   5
37B
 100
AcDbEntity
   8
LEVEL002
 370
15
 100
AcDbLine
   6
CONTINUOUS
  62
7
  10
 19.940287312484
  20
 125.57449682853
  30
0.0
  11
 19.440287312484
  21
 124.82449682853
  31
0.0
   0
LINE
   5
37C
 100
AcDbEntity
   8
LEVEL002
 370
15
 100
AcDbLine
   6
CONTINUOUS
  62
7
  10
 19.440287312484
  20
 124.82449682853
  30
0.0
  11
 19.940287312484
  21
 122.82449682853
  31
0.0
   0
LINE
   5
37D
 100
AcDbEntity
   8
LEVEL002
 370
15
 100
AcDbLine
   6
CONTINUOUS
  62
7
  10
 19.940287312484
  20
 122.82449682853
  30
0.0
  11
 19.640287312484
  21
 122.82449682853
  31
0.0
   0
LINE
   5
37E
 100
AcDbEntity
   8
LEVEL002
 370
15
 100
AcDbLine
   6
CONTINUOUS
  62
7
  10
 20.940287312484
  20
 126.02804654098
  30
0.0
  11
 20.940287312484
  21
 116.82449682853
  31
0.0
   0
LINE
   5
37F
 100
AcDbEntity
   8
LEVEL002
 370
15
 100
AcDbLine
   6
CONTINUOUS
  62
7
  10
 20.940287312484
  20
 116.82449682853
  30
0.0
  11
 21.440287312484
  21
 116.82449682853
  31
0.0
   0
LINE
   5
380
 100
AcDbEntity
   8
LEVEL002
 370
15
 100
AcDbLine
   6
CONTINUOUS
  62
7
  10
 29.340287312484
  20
 116.82449682853
  30
0.0
  11
 29.840287312484
  21
 116.82449682853
  31
0.0
   0
LINE
   5
381
 100
AcDbEntity
   8
LEVEL002
 370
15
 100
AcDbLine
   6
CONTINUOUS
  62
7
  10
 29.840287312484
  20
 116.82449682853
  30
0.0
  11
 29.840287312484
  21
 126.02804654097
  31
0.0
   0
ARC
   5
382
 100
AcDbEntity
   8
LEVEL002
 370
15
   6
CONTINUOUS
  62
7
 100
AcDbCircle
  10
 21.440287312469
  20
 115.82449682853
  30
0.0
  40
 1.0000000000000
 100
AcDbArc
  50
 89.272228610938
  51
 89.999999999095
   0
ARC
   5
383
 100
AcDbEntity
   8
LEVEL002
 370
15
   6
CONTINUOUS
  62
7
 100
AcDbCircle
  10
 22.240287312479
  20
 116.02449682853
  30
0.0
  40
 0.20000000000000
 100
AcDbArc
  50
 270.00000000001
  51
 14.477512185908
   0
LINE
   5
384
 100
AcDbEntity
   8
LEVEL002
 370
15
 100
AcDbLine
   6
CONTINUOUS
  62
7
  10
 22.240287312479
  20
 115.82449682853
  30
0.0
  11
 19.940287312484
  21
 115.82449682853
  31
0.0
   0
ARC
   5
385
 100
AcDbEntity
   8
LEVEL002
 370
15
   6
CONTINUOUS
  62
7
 100
AcDbCircle
  10
 21.465690643238
  20
 115.82449682853
  30
0.0
  40
 1.0000000000000
 100
AcDbArc
  50
 14.477512185930
  51
 90.727771389077
   0
ARC
   5
386
 100
AcDbEntity
   8
LEVEL002
 370
15
   6
CONTINUOUS
  62
7
 100
AcDbCircle
  10
 29.314883981721
  20
 115.82449682853
  30
0.0
  40
 1.0000000000000
 100
AcDbArc
  50
 89.272228610923
  51
 165.52248781407
   0
ARC
   5
387
 100
AcDbEntity
   8
LEVEL002
 370
15
   6
CONTINUOUS
  62
7
 100
AcDbCircle
  10
 28.540287312479
  20
 116.02449682853
  30
0.0
  40
 0.20000000000000
 100
AcDbArc
  50
 165.52248781415
  51
 269.99999999998
   0
LINE
   5
388
 100
AcDbEntity
   8
LEVEL002
 370
15
 100
AcDbLine
   6
CONTINUOUS
  62
7
  10
 28.540287312479
  20
 115.82449682853
  30
0.0
  11
 30.840287312484
  21
 115.82449682853
  31
0.0
   0
ARC
   5
389
 100
AcDbEntity
   8
LEVEL002
 370
15
   6
CONTINUOUS
  62
7
 100
AcDbCircle
  10
 29.340287312502
  20
 115.82449682853
  30
0.0
  40
 1.0000000000000
 100
AcDbArc
  50
 90.000000001048
  51
 90.727771389447
   0
LINE
   5
38A
 100
AcDbEntity
   8
LEVEL002
 370
15
 100
AcDbLine
   6
CONTINUOUS
  62
7
  10
 31.490287312484
  20
 127.82449682862
  30
0.0
  11
 29.890287312484
  21
 127.82449682853
  31
0.0
   0
LINE
   5
38B
 100
AcDbEntity
   8
LEVEL002
 370
15
 100
AcDbLine
   6
CONTINUOUS
  62
7
  10
 29.890287312484
  20
 127.82449682853
  30
0.0
  11
 27.390287312484
  21
 126.91457124287
  31
0.0
   0
LINE
   5
38C
 100
AcDbEntity
   8
LEVEL002
 370
15
 100
AcDbLine
   6
CONTINUOUS
  62
7
  10
 27.390287312484
  20
 126.91457124287
  30
0.0
  11
 27.390287312484
  21
 124.82449682860
  31
0.0
   0
LINE
   5
38D
 100
AcDbEntity
   8
LEVEL002
 370
15
 100
AcDbLine
   6
CONTINUOUS
  62
7
  10
 23.390287312484
  20
 124.82449682860
  30
0.0
  11
 23.390287312484
  21
 126.91457124287
  31
0.0
   0
LINE
   5
38E
 100
AcDbEntity
   8
LEVEL002
 370
15
 100
AcDbLine
   6
CONTINUOUS
  62
7
  10
 23.390287312484
  20
 126.91457124287
  30
0.0
  11
 20.890287312484
  21
 127.82449682854
  31
0.0
   0
LINE
   5
38F
 100
AcDbEntity
   8
LEVEL002
 370
15
 100
AcDbLine
   6
CONTINUOUS
  62
7
  10
 20.890287312484
  20
 127.82449682854
  30
0.0
  11
 19.290287312484
  21
 127.82449682860
  31
0.0
   0
LINE
   5
390
 100
AcDbEntity
   8
LEVEL002
 370
15
 100
AcDbLine
   6
CONTINUOUS
  62
7
  10
 27.390287312484
  20
 123.82449682860
  30
0.0
  11
 23.390287312484
  21
 123.82449682860
  31
0.0
   0
ARC
   5
391
 100
AcDbEntity
   8
LEVEL002
 370
15
   6
CONTINUOUS
  62
7
 100
AcDbCircle
  10
 23.390287312484
  20
 124.82449682860
  30
0.0
  40
 1.0000000000000
 100
AcDbArc
  50
 180.00000000000
  51
 270.00000000000
   0
ARC
   5
392
 100
AcDbEntity
   8
LEVEL002
 370
15
   6
CONTINUOUS
  62
7
 100
AcDbCircle
  10
 27.390287312484
  20
 124.82449682860
  30
0.0
  40
 1.0000000000000
 100
AcDbArc
  50
 270.00000000000
  51
0.0
   0
LINE
   5
393
 100
AcDbEntity
   8
LEVEL002
 370
15
 100
AcDbLine
   6
CONTINUOUS
  62
7
  10
 27.390287312484
  20
 124.92449682863
  30
0.0
  11
 27.390287312484
  21
 124.82449682860
  31
0.0
   0
LINE
   5
394
 100
AcDbEntity
   8
LEVEL002
 370
15
 100
AcDbLine
   6
CONTINUOUS
  62
7
  10
 27.390287312484
  20
 124.82449682860
  30
0.0
  11
 23.390287312484
  21
 124.82449682860
  31
0.0
   0
LINE
   5
395
 100
AcDbEntity
   8
LEVEL002
 370
15
 100
AcDbLine
   6
CONTINUOUS
  62
7
  10
 23.390287312484
  20
 124.82449682860
  30
0.0
  11
 23.390287312484
  21
 124.92449682863
  31
0.0
   0
LINE
   5
396
 100
AcDbEntity
   8
LEVEL002
 370
15
 100
AcDbLine
   6
CONTINUOUS
  62
7
  10
 129.96929188914
  20
 118.82449682853
  30
0.0
  11
 129.20118768483
  21
 120.01614104192
  31
0.0
   0
LINE
   5
397
 100
AcDbEntity
   8
LEVEL002
 370
15
 100
AcDbLine
   6
CONTINUOUS
  62
7
  10
 129.96929188914
  20
 118.82449682853
  30
0.0
  11
 129.36929188914
  21
 118.82449682853
  31
0.0
   0
LINE
   5
398
 100
AcDbEntity
   8
LEVEL002
 370
15
 100
AcDbLine
   6
CONTINUOUS
  62
7
  10
 129.96929188914
  20
 117.32449682853
  30
0.0
  11
 129.20118768483
  21
 118.51614104192
  31
0.0
   0
LINE
   5
399
 100
AcDbEntity
   8
LEVEL002
 370
15
 100
AcDbLine
   6
CONTINUOUS
  62
7
  10
 129.96929188914
  20
 117.32449682853
  30
0.0
  11
 129.36929188914
  21
 117.32449682853
  31
0.0
   0
LINE
   5
39A
 100
AcDbEntity
   8
LEVEL002
 370
15
 100
AcDbLine
   6
CONTINUOUS
  62
7
  10
 129.96929188914
  20
 120.32449682853
  30
0.0
  11
 129.36929188914
  21
 120.32449682853
  31
0.0
   0
LINE
   5
39B
 100
AcDbEntity
   8
LEVEL002
 370
15
 100
AcDbLine
   6
CONTINUOUS
  62
7
  10
 129.96929188914
  20
 120.32449682853
  30
0.0
  11
 129.22811541856
  21
 121.71420271088
  31
0.0
   0
ARC
   5
39C
 100
AcDbEntity
   8
LEVEL002
 370
15
   6
CONTINUOUS
  62
7
 100
AcDbCircle
  10
 129.66929188914
  20
 121.94949682853
  30
0.0
  40
 0.50000000000000
 100
AcDbArc
  50
 180.00000000000
  51
 208.07248693585
   0
LINE
   5
39D
 100
AcDbEntity
   8
LEVEL002
 370
15
 100
AcDbLine
   6
CONTINUOUS
  62
7
  10
 129.16929188914
  20
 121.94949682853
  30
0.0
  11
 129.16929188914
  21
 122.12449682853
  31
0.0
   0
ARC
   5
39E
 100
AcDbEntity
   8
LEVEL002
 370
15
   6
CONTINUOUS
  62
7
 100
AcDbCircle
  10
 129.36929188914
  20
 122.12449682853
  30
0.0
  40
 0.20000000000000
 100
AcDbArc
  50
 89.999999999984
  51
 180.00000000000
   0
LINE
   5
39F
 100
AcDbEntity
   8
LEVEL002
 370
15
 100
AcDbLine
   6
CONTINUOUS
  62
7
  10
 131.66929188914
  20
 116.32543045238
  30
0.0
  11
 132.46929188914
  21
 116.32449682853
  31
0.0
   0
LINE
   5
3A0
 100
AcDbEntity
   8
LEVEL002
 370
15
 100
AcDbLine
   6
CONTINUOUS
  62
7
  10
 132.46929188914
  20
 116.32449682853
  30
0.0
  11
 133.16929188914
  21
 115.82449682853
  31
0.0
   0
LINE
   5
3A1
 100
AcDbEntity
   8
LEVEL002
 370
15
 100
AcDbLine
   6
CONTINUOUS
  62
7
  10
 133.16929188914
  20
 115.82449682853
  30
0.0
  11
 133.66929188914
  21
 115.82449682853
  31
0.0
   0
LINE
   5
3A2
 100
AcDbEntity
   8
LEVEL002
 370
15
 100
AcDbLine
   6
CONTINUOUS
  62
7
  10
 130.16929188914
  20
 115.82449682853
  30
0.0
  11
 130.39007207172
  21
 117.15718438425
  31
0.0
   0
LINE
   5
3A3
 100
AcDbEntity
   8
LEVEL002
 370
15
 100
AcDbLine
   6
CONTINUOUS
  62
7
  10
 130.16929188914
  20
 115.82449682853
  30
0.0
  11
 129.66929188914
  21
 115.82449682853
  31
0.0
   0
LINE
   5
3A4
 100
AcDbEntity
   8
LEVEL002
 370
15
 100
AcDbLine
   6
CONTINUOUS
  62
7
  10
 129.66929188914
  20
 115.82449682853
  30
0.0
  11
 129.18335730773
  21
 117.05081961744
  31
0.0
   0
LINE
   5
3A5
 100
AcDbEntity
   8
LEVEL002
 370
15
 100
AcDbLine
   6
CONTINUOUS
  62
7
  10
 129.96929188914
  20
 117.32449682853
  30
0.0
  11
 129.36929188914
  21
 117.32449682853
  31
0.0
   0
ARC
   5
3A6
 100
AcDbEntity
   8
LEVEL002
 370
15
   6
CONTINUOUS
  62
7
 100
AcDbCircle
  10
 129.36929188914
  20
 120.12449682853
  30
0.0
  40
 0.20000000000000
 100
AcDbArc
  50
 89.999999999992
  51
 212.80482082583
   0
ARC
   5
3A7
 100
AcDbEntity
   8
LEVEL002
 370
15
   6
CONTINUOUS
  62
7
 100
AcDbCircle
  10
 129.36929188914
  20
 118.62449682853
  30
0.0
  40
 0.20000000000000
 100
AcDbArc
  50
 89.999999999992
  51
 212.80482082583
   0
LINE
   5
3A8
 100
AcDbEntity
   8
LEVEL002
 370
15
 100
AcDbLine
   6
CONTINUOUS
  62
7
  10
 131.67022551300
  20
 116.32449682853
  30
0.0
  11
 130.72880415676
  21
 117.26591818477
  31
0.0
   0
ARC
   5
3A9
 100
AcDbEntity
   8
LEVEL002
 370
15
   6
CONTINUOUS
  62
7
 100
AcDbCircle
  10
 130.58738280052
  20
 117.12449682853
  30
0.0
  40
 0.20000000000000
 100
AcDbArc
  50
 44.999999999997
  51
 170.59350613713
   0
ARC
   5
3AA
 100
AcDbEntity
   8
LEVEL002
 370
15
   6
CONTINUOUS
  62
7
 100
AcDbCircle
  10
 129.36929188914
  20
 117.12449682853
  30
0.0
  40
 0.20000000000000
 100
AcDbArc
  50
 90.000000000000
  51
 201.61611552995
   0
LINE
   5
3AB
 100
AcDbEntity
   8
LEVEL002
 370
15
 100
AcDbLine
   6
CONTINUOUS
  62
7
  10
 137.36929188914
  20
 118.82449682853
  30
0.0
  11
 138.13739609346
  21
 120.01614104192
  31
0.0
   0
LINE
   5
3AC
 100
AcDbEntity
   8
LEVEL002
 370
15
 100
AcDbLine
   6
CONTINUOUS
  62
7
  10
 137.36929188914
  20
 118.82449682853
  30
0.0
  11
 137.96929188914
  21
 118.82449682853
  31
0.0
   0
LINE
   5
3AD
 100
AcDbEntity
   8
LEVEL002
 370
15
 100
AcDbLine
   6
CONTINUOUS
  62
7
  10
 137.36929188914
  20
 117.32449682853
  30
0.0
  11
 138.13739609346
  21
 118.51614104192
  31
0.0
   0
LINE
   5
3AE
 100
AcDbEntity
   8
LEVEL002
 370
15
 100
AcDbLine
   6
CONTINUOUS
  62
7
  10
 137.36929188914
  20
 117.32449682853
  30
0.0
  11
 137.96929188914
  21
 117.32449682853
  31
0.0
   0
LINE
   5
3AF
 100
AcDbEntity
   8
LEVEL002
 370
15
 100
AcDbLine
   6
CONTINUOUS
  62
7
  10
 137.36929188914
  20
 120.32449682853
  30
0.0
  11
 137.96929188914
  21
 120.32449682853
  31
0.0
   0
LINE
   5
3B0
 100
AcDbEntity
   8
LEVEL002
 370
15
 100
AcDbLine
   6
CONTINUOUS
  62
7
  10
 137.36929188914
  20
 120.32449682853
  30
0.0
  11
 138.11046835973
  21
 121.71420271088
  31
0.0
   0
ARC
   5
3B1
 100
AcDbEntity
   8
LEVEL002
 370
15
   6
CONTINUOUS
  62
7
 100
AcDbCircle
  10
 137.66929188914
  20
 121.94949682853
  30
0.0
  40
 0.50000000000000
 100
AcDbArc
  50
 331.92751306416
  51
 0.97706639814559E-11
   0
LINE
   5
3B2
 100
AcDbEntity
   8
LEVEL002
 370
15
 100
AcDbLine
   6
CONTINUOUS
  62
7
  10
 138.16929188914
  20
 121.94949682853
  30
0.0
  11
 138.16929188914
  21
 122.12449682853
  31
0.0
   0
ARC
   5
3B3
 100
AcDbEntity
   8
LEVEL002
 370
15
   6
CONTINUOUS
  62
7
 100
AcDbCircle
  10
 137.96929188914
  20
 122.12449682853
  30
0.0
  40
 0.20000000000000
 100
AcDbArc
  50
 0.40711099922735E-11
  51
 90.000000000000
   0
LINE
   5
3B4
 100
AcDbEntity
   8
LEVEL002
 370
15
 100
AcDbLine
   6
CONTINUOUS
  62
7
  10
 135.66929188914
  20
 116.32543045238
  30
0.0
  11
 134.86929188914
  21
 116.32449682853
  31
0.0
   0
LINE
   5
3B5
 100
AcDbEntity
   8
LEVEL002
 370
15
 100
AcDbLine
   6
CONTINUOUS
  62
7
  10
 134.86929188914
  20
 116.32449682853
  30
0.0
  11
 134.16929188914
  21
 115.82449682853
  31
0.0
   0
LINE
   5
3B6
 100
AcDbEntity
   8
LEVEL002
 370
15
 100
AcDbLine
   6
CONTINUOUS
  62
7
  10
 134.16929188914
  20
 115.82449682853
  30
0.0
  11
 133.66929188914
  21
 115.82449682853
  31
0.0
   0
LINE
   5
3B7
 100
AcDbEntity
   8
LEVEL002
 370
15
 100
AcDbLine
   6
CONTINUOUS
  62
7
  10
 137.16929188914
  20
 115.82449682853
  30
0.0
  11
 136.94851170657
  21
 117.15718438425
  31
0.0
   0
LINE
   5
3B8
 100
AcDbEntity
   8
LEVEL002
 370
15
 100
AcDbLine
   6
CONTINUOUS
  62
7
  10
 137.16929188914
  20
 115.82449682853
  30
0.0
  11
 137.66929188914
  21
 115.82449682853
  31
0.0
   0
LINE
   5
3B9
 100
AcDbEntity
   8
LEVEL002
 370
15
 100
AcDbLine
   6
CONTINUOUS
  62
7
  10
 137.66929188914
  20
 115.82449682853
  30
0.0
  11
 138.15522647056
  21
 117.05081961744
  31
0.0
   0
LINE
   5
3BA
 100
AcDbEntity
   8
LEVEL002
 370
15
 100
AcDbLine
   6
CONTINUOUS
  62
7
  10
 137.36929188914
  20
 117.32449682853
  30
0.0
  11
 137.96929188914
  21
 117.32449682853
  31
0.0
   0
ARC
   5
3BB
 100
AcDbEntity
   8
LEVEL002
 370
15
   6
CONTINUOUS
  62
7
 100
AcDbCircle
  10
 137.96929188914
  20
 120.12449682853
  30
0.0
  40
 0.20000000000000
 100
AcDbArc
  50
 327.19517917417
  51
 90.000000000008
   0
ARC
   5
3BC
 100
AcDbEntity
   8
LEVEL002
 370
15
   6
CONTINUOUS
  62
7
 100
AcDbCircle
  10
 137.96929188914
  20
 118.62449682853
  30
0.0
  40
 0.20000000000000
 100
AcDbArc
  50
 327.19517917417
  51
 90.000000000008
   0
LINE
   5
3BD
 100
AcDbEntity
   8
LEVEL002
 370
15
 100
AcDbLine
   6
CONTINUOUS
  62
7
  10
 135.66835826529
  20
 116.32449682853
  30
0.0
  11
 136.60977962153
  21
 117.26591818477
  31
0.0
   0
ARC
   5
3BE
 100
AcDbEntity
   8
LEVEL002
 370
15
   6
CONTINUOUS
  62
7
 100
AcDbCircle
  10
 136.75120097777
  20
 117.12449682853
  30
0.0
  40
 0.20000000000000
 100
AcDbArc
  50
 9.4064938628547
  51
 135.00000000002
   0
ARC
   5
3BF
 100
AcDbEntity
   8
LEVEL002
 370
15
   6
CONTINUOUS
  62
7
 100
AcDbCircle
  10
 137.96929188914
  20
 117.12449682853
  30
0.0
  40
 0.20000000000000
 100
AcDbArc
  50
 338.38388447005
  51
 90.000000000000
   0
LINE
   5
3C0
 100
AcDbEntity
   8
LEVEL002
 370
15
 100
AcDbLine
   6
CONTINUOUS
  62
7
  10
 133.66929188931
  20
 116.92449682853
  30
0.0
  11
 133.09803268662
  21
 117.32449682853
  31
0.0
   0
LINE
   5
3C1
 100
AcDbEntity
   8
LEVEL002
 370
15
 100
AcDbLine
   6
CONTINUOUS
  62
7
  10
 133.09803268662
  20
 117.32449682853
  30
0.0
  11
 132.16929188911
  21
 117.32449682853
  31
0.0
   0
LINE
   5
3C2
 100
AcDbEntity
   8
LEVEL002
 370
15
 100
AcDbLine
   6
CONTINUOUS
  62
7
  10
 132.16929188911
  20
 117.32449682853
  30
0.0
  11
 131.06929188914
  21
 118.42449682850
  31
0.0
   0
LINE
   5
3C3
 100
AcDbEntity
   8
LEVEL002
 370
15
 100
AcDbLine
   6
CONTINUOUS
  62
7
  10
 131.06929188914
  20
 118.42449682850
  30
0.0
  11
 131.06929188914
  21
 121.82449682853
  31
0.0
   0
ARC
   5
3C4
 100
AcDbEntity
   8
LEVEL002
 370
15
   6
CONTINUOUS
  62
7
 100
AcDbCircle
  10
 130.56929188914
  20
 121.82449682853
  30
0.0
  40
 0.50000000000000
 100
AcDbArc
  50
0.0
  51
 90.000000000000
   0
LINE
   5
3C5
 100
AcDbEntity
   8
LEVEL002
 370
15
 100
AcDbLine
   6
CONTINUOUS
  62
7
  10
 129.36929188914
  20
 122.32449682853
  30
0.0
  11
 130.56929188914
  21
 122.32449682853
  31
0.0
   0
LINE
   5
3C6
 100
AcDbEntity
   8
LEVEL002
 370
15
 100
AcDbLine
   6
CONTINUOUS
  62
7
  10
 133.66929188898
  20
 116.92449682853
  30
0.0
  11
 134.24055109167
  21
 117.32449682853
  31
0.0
   0
LINE
   5
3C7
 100
AcDbEntity
   8
LEVEL002
 370
15
 100
AcDbLine
   6
CONTINUOUS
  62
7
  10
 134.24055109167
  20
 117.32449682853
  30
0.0
  11
 135.16929188918
  21
 117.32449682853
  31
0.0
   0
LINE
   5
3C8
 100
AcDbEntity
   8
LEVEL002
 370
15
 100
AcDbLine
   6
CONTINUOUS
  62
7
  10
 135.16929188918
  20
 117.32449682853
  30
0.0
  11
 136.26929188914
  21
 118.42449682850
  31
0.0
   0
LINE
   5
3C9
 100
AcDbEntity
   8
LEVEL002
 370
15
 100
AcDbLine
   6
CONTINUOUS
  62
7
  10
 136.26929188914
  20
 118.42449682850
  30
0.0
  11
 136.26929188914
  21
 121.82449682853
  31
0.0
   0
ARC
   5
3CA
 100
AcDbEntity
   8
LEVEL002
 370
15
   6
CONTINUOUS
  62
7
 100
AcDbCircle
  10
 136.76929188914
  20
 121.82449682853
  30
0.0
  40
 0.50000000000000
 100
AcDbArc
  50
 90.000000000000
  51
 180.00000000000
   0
LINE
   5
3CB
 100
AcDbEntity
   8
LEVEL002
 370
15
 100
AcDbLine
   6
CONTINUOUS
  62
7
  10
 137.96929188914
  20
 122.32449682853
  30
0.0
  11
 136.76929188914
  21
 122.32449682853
  31
0.0
   0
DIMENSION
   5
3CC
 100
AcDbEntity
   8
LEVEL001
 370
15
   6
CONTINUOUS
  62
8
 100
AcDbDimension
   2
*D1
  10
 16.790287312484
  20
 127.82449682860
  30
0.0
  11
 16.790287312484
  21
 126.32449682860
  31
0.0
  70
0
   3
GMM001
 100
AcDbAlignedDimension
  13
 23.390287312484
  23
 124.82449682860
  33
0.0
  14
 19.290287312484
  24
 127.82449682860
  34
0.0
  50
 90.000000000000
 100
AcDbRotatedDimension
   0
DIMENSION
   5
3CD
 100
AcDbEntity
   8
LEVEL001
 370
15
   6
CONTINUOUS
  62
8
 100
AcDbDimension
   2
*D2
  10
 27.390287312484
  20
 130.82449682858
  30
0.0
  11
 25.390287312484
  21
 130.82449682858
  31
0.0
  70
0
   3
GMM001
 100
AcDbAlignedDimension
  13
 23.390287312484
  23
 126.91457124287
  33
0.0
  14
 27.390287312484
  24
 126.91457124287
  34
0.0
 100
AcDbRotatedDimension
   0
DIMENSION
   5
3CE
 100
AcDbEntity
   8
LEVEL001
 370
15
   6
CONTINUOUS
  62
8
 100
AcDbDimension
   2
*D3
  10
 31.490287312484
  20
 133.82449682858
  30
0.0
  11
 25.390287312484
  21
 133.82449682858
  31
0.0
  70
0
   3
GMM001
 100
AcDbAlignedDimension
  13
 19.290287312484
  23
 127.82449682860
  33
0.0
  14
 31.490287312484
  24
 127.82449682862
  34
0.0
 100
AcDbRotatedDimension
   0
DIMENSION
   5
3CF
 100
AcDbEntity
   8
LEVEL001
 370
15
   6
CONTINUOUS
  62
8
 100
AcDbDimension
   2
*D4
  10
 33.990287312484
  20
 127.82449682862
  30
0.0
  11
 33.990287312484
  21
 121.82449682857
  31
0.0
  70
0
   3
GMM001
 100
AcDbAlignedDimension
  13
 30.840287312484
  23
 115.82449682853
  33
0.0
  14
 31.490287312484
  24
 127.82449682862
  34
0.0
  50
 90.000000000000
 100
AcDbRotatedDimension
   0
DIMENSION
   5
3D0
 100
AcDbEntity
   8
LEVEL001
 370
15
   6
CONTINUOUS
  62
8
 100
AcDbDimension
   2
*D5
  10
 136.26929188914
  20
 125.32449682853
  30
0.0
  11
 133.66929188914
  21
 125.32449682853
  31
0.0
  70
0
   3
GMM002
 100
AcDbAlignedDimension
  13
 131.06929188914
  23
 121.82449682853
  33
0.0
  14
 136.26929188914
  24
 121.82449682853
  34
0.0
 100
AcDbRotatedDimension
   0
DIMENSION
   5
3D1
 100
AcDbEntity
   8
LEVEL001
 370
15
   6
CONTINUOUS
  62
8
 100
AcDbDimension
   2
*D6
  10
 138.16929188914
  20
 128.32449682853
  30
0.0
  11
 133.66929188914
  21
 128.32449682853
  31
0.0
  70
0
   3
GMM002
 100
AcDbAlignedDimension
  13
 129.16929188914
  23
 122.12449682853
  33
0.0
  14
 138.16929188914
  24
 122.12449682853
  34
0.0
 100
AcDbRotatedDimension
   0
DIMENSION
   5
3D2
 100
AcDbEntity
   8
LEVEL001
 370
15
   6
CONTINUOUS
  62
8
 100
AcDbDimension
   2
*D7
  10
 141.16929188914
  20
 122.32449682853
  30
0.0
  11
 141.16929188914
  21
 119.07449682853
  31
0.0
  70
0
   3
GMM002
 100
AcDbAlignedDimension
  13
 137.66929188914
  23
 115.82449682853
  33
0.0
  14
 137.96929188914
  24
 122.32449682853
  34
0.0
  50
 90.000000000000
 100
AcDbRotatedDimension
   0
DIMENSION
   5
3D3
 100
AcDbEntity
   8
LEVEL001
 370
15
   6
CONTINUOUS
  62
8
 100
AcDbDimension
   2
*D8
  10
 127.82821637427
  20
 122.32449682853
  30
0.0
  11
 127.82821637427
  21
 119.82449682853
  31
0.0
  70
0
   3
GMM002
 100
AcDbAlignedDimension
  13
 132.16929188911
  23
 117.32449682853
  33
0.0
  14
 129.36929188914
  24
 122.32449682853
  34
0.0
  50
 90.000000000000
 100
AcDbRotatedDimension
   0
MTEXT
   5
3D5
 100
AcDbEntity
   8
LEVEL001
 370
15
  62
8
 100
AcDbMText
  10
 7.8999999999750
  20
 140.00000000000
  30
0.0
  40
 1.5000000000000
  41
0.0
  71
4
  72
1
   1
\W0.500000;\T1.000000; \W1.000000;\T1.000000;　ＹＡ１２
   7
GMM002
  44
 0.79999984000003
   0
MTEXT
   5
3D7
 100
AcDbEntity
   8
LEVEL001
 370
15
  62
8
 100
AcDbMText
  10
 7.8999999999750
  20
 110.87500000000
  30
0.0
  40
 1.5000000000000
  41
0.0
  71
4
  72
1
   1
\W0.500000;\T1.000000; \W1.000000;\T1.000000;　堀込寸法：１２×１２
   7
GMM002
  44
 0.79999984000003
   0
LINE
   5
3D8
 100
AcDbEntity
   8
LEVEL002
 370
15
 100
AcDbLine
   6
DASHDOT
  62
8
  10
 25.390287312484
  20
 114.56318433084
  30
0.0
  11
 25.390287312484
  21
 127.81918929312
  31
0.0
   0
LINE
   5
3D9
 100
AcDbEntity
   8
LEVEL001
 370
15
 100
AcDbLine
   6
DASHDOT
  62
8
  10
 133.66929188898
  20
 114.94059565047
  30
0.0
  11
 133.66929188898
  21
 123.48776066445
  31
0.0
   0
MTEXT
   5
3DB
 100
AcDbEntity
   8
LEVEL001
 370
15
  62
8
 100
AcDbMText
  10
 116.27499999997
  20
 140.00000000000
  30
0.0
  40
 1.5000000000000
  41
0.0
  71
4
  72
1
   1
\W0.500000;\T1.000000; \W1.000000;\T1.000000;　ＹＡ６５
   7
GMM002
  44
 0.79999984000003
   0
MTEXT
   5
3DD
 100
AcDbEntity
   8
LEVEL001
 370
15
  62
8
 100
AcDbMText
  10
 116.27499999997
  20
 110.87500000000
  30
0.0
  40
 1.5000000000000
  41
0.0
  71
4
  72
1
   1
\W0.500000;\T1.000000; \W1.000000;\T1.000000;　堀込寸法：９×６\W0.500000;\T1.000000;.\W1.000000;\T1.000000;５
   7
GMM002
  44
 0.79999984000003
   0
MTEXT
   5
3DF
 100
AcDbEntity
   8
LEVEL002
 370
15
  62
8
 100
AcDbMText
  10
 177.24999999997
  20
 114.70833333333
  30
0.0
  40
 2.0000000000000
  41
0.0
  71
2
  72
1
   1
{\W1.000000;\T1.000000;アルミＹ溝レール（Ｙタイプ②）}\P{\W0.500000;\T1.000000;(\W1.000000;\T1.000000;Ｙ型・ＤＹ型）}
   7
GMM002
  44
 0.79999984000003
   0
LINE
   5
3E0
 100
AcDbEntity
   8
LEVEL001
 370
15
 100
AcDbLine
   6
DOT
  62
7
  10
 210.00000000000
  20
0.0
  30
0.0
  11
 210.00000000000
  21
 148.50000000000
  31
0.0
   0
MTEXT
   5
3E2
 100
AcDbEntity
   8
LEVEL002
 370
15
  62
8
 100
AcDbMText
  10
 193.60754228038
  20
 24.333333333340
  30
0.0
  40
 1.5000000000000
  41
0.0
  71
5
  72
1
   1
\T1.000000;令和　４年　８月３１日
   7
GMM002
  44
 0.79999984000003
   0
MTEXT
   5
3E4
 100
AcDbEntity
   8
LEVEL002
 370
15
  62
8
 100
AcDbMText
  10
 189.74999999997
  20
 10.041666666673
  30
0.0
  40
 1.2500000000000
  41
0.0
  71
5
  72
1
   1
\T1.000000;ＰＦ－８
   7
GMM002
  44
 0.79999984000003
   0
MTEXT
   5
3E6
 100
AcDbEntity
   8
LEVEL002
 370
15
  62
8
 100
AcDbMText
  10
 159.74999999997
  20
 103.95833333335
  30
0.0
  40
 1.7500000000000
  41
0.0
  71
1
  72
1
   3
{\W1.000000;\T1.000000;材質：Ａ６０６３Ｓ－Ｔ５}\P\P{\W1.000000;\T1.000000;仕上：アルマイト処理}\P\P{\W1.000000;\T1.000000;　色：Ｂ２　シルバー}\P{\W1.000000;\T1.000000;　　　ＵＢ　アーバンブラウン}\P\P{\W1.000000;\T1.000000;長さ（定尺）：１８３０\W0
   3
.500000;\T1.000000;mm}\P{\W1.000000;\T1.000000;　　　　　　　２７４０\W0.500000;\T1.000000;mm}\P{\W1.000000;\T1.000000;　　　　　　　３６６０\W0.500000;\T1.000000;mm}\P{\W1.000000;\T1.000000;　　　　　　　２０１０\W0.500000;\T1.000000;mm}\P{\W1.00000
   1
0;\T1.000000;　　　　　　　３０１０\W0.500000;\T1.000000;mm}\P{\W1.000000;\T1.000000;　　　　　　　４０２０\W0.500000;\T1.000000;mm}\P
   7
GMM002
  44
 0.79999984000003
   0
MTEXT
   5
3E8
 100
AcDbEntity
   8
LEVEL001
 370
15
  62
8
 100
AcDbMText
  10
 7.8999999999750
  20
 105.87500000000
  30
0.0
  40
 1.5000000000000
  41
0.0
  71
4
  72
1
   1
\W0.500000;\T1.000000; \W1.000000;\T1.000000;　ＤＹＡ１２
   7
GMM002
  44
 0.79999984000003
   0
MTEXT
   5
3EA
 100
AcDbEntity
   8
LEVEL001
 370
15
  62
8
 100
AcDbMText
  10
 116.27499999997
  20
 105.87500000000
  30
0.0
  40
 1.5000000000000
  41
0.0
  71
4
  72
1
   1
\W0.500000;\T1.000000; \W1.000000;\T1.000000;　ＤＹＡ６５
   7
GMM002
  44
 0.79999984000003
   0
MTEXT
   5
3EC
 100
AcDbEntity
   8
LEVEL001
 370
15
  62
8
 100
AcDbMText
  10
 7.8999999999750
  20
 71.750000000003
  30
0.0
  40
 1.5000000000000
  41
0.0
  71
4
  72
1
   1
\W0.500000;\T1.000000; \W1.000000;\T1.000000;　ＤＹＡ４
   7
GMM002
  44
 0.79999984000003
   0
MTEXT
   5
3EE
 100
AcDbEntity
   8
LEVEL001
 370
15
  62
8
 100
AcDbMText
  10
 7.8999999999750
  20
 42.625000000004
  30
0.0
  40
 1.5000000000000
  41
0.0
  71
4
  72
1
   1
\W0.500000;\T1.000000; \W1.000000;\T1.000000;　堀込寸法：９\W0.500000;\T1.000000;.\W1.000000;\T1.000000;２×４
   7
GMM002
  44
 0.79999984000003
   0
LINE
   5
3EF
 100
AcDbEntity
   8
LEVEL002
 370
15
 100
AcDbLine
   6
DASHDOT
  62
8
  10
 25.390287312484
  20
 81.606165855901
  30
0.0
  11
 25.390287312484
  21
 95.246936101899
  31
0.0
   0
DIMENSION
   5
3F0
 100
AcDbEntity
   8
LEVEL001
 370
15
   6
CONTINUOUS
  62
8
 100
AcDbDimension
   2
*D9
  10
 27.390287312485
  20
 97.926550978897
  30
0.0
  11
 25.390287312484
  21
 97.926550978897
  31
0.0
  70
0
   3
GMM001
 100
AcDbAlignedDimension
  13
 23.390287312484
  23
 94.016625393242
  33
0.0
  14
 27.390287312485
  24
 94.016625393242
  34
0.0
 100
AcDbRotatedDimension
   0
DIMENSION
   5
3F1
 100
AcDbEntity
   8
LEVEL001
 370
15
   6
CONTINUOUS
  62
8
 100
AcDbDimension
   2
*D10
  10
 33.490287312484
  20
 100.92655097890
  30
0.0
  11
 25.390287312484
  21
 100.92655097890
  31
0.0
  70
0
   3
GMM001
 100
AcDbAlignedDimension
  13
 17.290287312484
  23
 94.426550978897
  33
0.0
  14
 33.490287312484
  24
 94.426550978897
  34
0.0
 100
AcDbRotatedDimension
   0
DIMENSION
   5
3F2
 100
AcDbEntity
   8
LEVEL001
 370
15
   6
CONTINUOUS
  62
8
 100
AcDbDimension
   2
*D11
  10
 38.490287312484
  20
 94.926550978897
  30
0.0
  11
 38.490287312484
  21
 88.426550978897
  31
0.0
  70
0
   3
GMM002
 100
AcDbAlignedDimension
  13
 35.990287312484
  23
 81.926550978897
  33
0.0
  14
 35.990287312484
  24
 94.926550978897
  34
0.0
  50
 90.000000000000
 100
AcDbRotatedDimension
   0
DIMENSION
   5
3F3
 100
AcDbEntity
   8
LEVEL001
 370
15
   6
CONTINUOUS
  62
8
 100
AcDbDimension
   2
*D12
  10
 35.990287312484
  20
 93.926550978897
  30
0.0
  11
 35.990287312484
  21
 87.926550978897
  31
0.0
  70
0
   3
GMM002
 100
AcDbAlignedDimension
  13
 30.840287312485
  23
 81.926550978897
  33
0.0
  14
 33.190287312485
  24
 93.926550978897
  34
0.0
  50
 90.000000000000
 100
AcDbRotatedDimension
   0
DIMENSION
   5
3F4
 100
AcDbEntity
   8
LEVEL001
 370
15
   6
CONTINUOUS
  62
8
 100
AcDbDimension
   2
*D13
  10
 35.990287312484
  20
 94.926550978897
  30
0.0
  11
 35.990287312484
  21
 95.844711416227
  31
0.0
  70
128
   3
GMM003
 100
AcDbAlignedDimension
  13
 33.190287312485
  23
 93.926550978897
  33
0.0
  14
 30.433477562067
  24
 94.926550978897
  34
0.0
  50
 90.000000000000
 100
AcDbRotatedDimension
   0
DIMENSION
   5
3F5
 100
AcDbEntity
   8
LEVEL001
 370
15
   6
CONTINUOUS
  62
8
 100
AcDbDimension
   2
*D14
  10
 14.790287312484
  20
 94.926550978904
  30
0.0
  11
 14.790287312484
  21
 93.426550978901
  31
0.0
  70
0
   3
GMM002
 100
AcDbAlignedDimension
  13
 23.390287312484
  23
 91.926550978897
  33
0.0
  14
 20.147097062829
  24
 94.926550978904
  34
0.0
  50
 90.000000000000
 100
AcDbRotatedDimension
   0
DIMENSION
   5
3F6
 100
AcDbEntity
   8
LEVEL001
 370
15
   6
CONTINUOUS
  62
8
 100
AcDbDimension
   2
*D15
  10
 31.490287312484
  20
 77.926550978897
  30
0.0
  11
 25.390287312484
  21
 77.926550978897
  31
0.0
  70
0
   3
GMM004
 100
AcDbAlignedDimension
  13
 19.290287312485
  23
 92.426550978897
  33
0.0
  14
 31.490287312484
  24
 92.426550978897
  34
0.0
 100
AcDbRotatedDimension
   0
LINE
   5
3F7
 100
AcDbEntity
   8
LEVEL002
 370
15
 100
AcDbLine
   6
CONTINUOUS
  62
7
  10
 30.840287312485
  20
 81.926550978897
  30
0.0
  11
 31.337133725269
  21
 84.691174577527
  31
0.0
   0
LINE
   5
3F8
 100
AcDbEntity
   8
LEVEL002
 370
15
 100
AcDbLine
   6
CONTINUOUS
  62
7
  10
 30.840287312485
  20
 84.926550978897
  30
0.0
  11
 31.332774056419
  21
 86.672247632685
  31
0.0
   0
LINE
   5
3F9
 100
AcDbEntity
   8
LEVEL002
 370
15
 100
AcDbLine
   6
CONTINUOUS
  62
7
  10
 30.840287312485
  20
 86.926550978897
  30
0.0
  11
 31.332774056419
  21
 88.672247632686
  31
0.0
   0
LINE
   5
3FA
 100
AcDbEntity
   8
LEVEL002
 370
15
 100
AcDbLine
   6
CONTINUOUS
  62
7
  10
 30.840287312485
  20
 84.926550978897
  30
0.0
  11
 31.140287312485
  21
 84.926550978897
  31
0.0
   0
LINE
   5
3FB
 100
AcDbEntity
   8
LEVEL002
 370
15
 100
AcDbLine
   6
CONTINUOUS
  62
7
  10
 30.840287312485
  20
 86.926550978897
  30
0.0
  11
 31.140287312485
  21
 86.926550978897
  31
0.0
   0
ARC
   5
3FC
 100
AcDbEntity
   8
LEVEL002
 370
15
   6
CONTINUOUS
  62
7
 100
AcDbCircle
  10
 31.140287312485
  20
 88.726550978897
  30
0.0
  40
 0.20000000000000
 100
AcDbArc
  50
 344.24545886499
  51
 90.000000000090
   0
ARC
   5
3FD
 100
AcDbEntity
   8
LEVEL002
 370
15
   6
CONTINUOUS
  62
7
 100
AcDbCircle
  10
 31.140287312485
  20
 86.726550978897
  30
0.0
  40
 0.20000000000000
 100
AcDbArc
  50
 344.24545886501
  51
 90.000000000006
   0
ARC
   5
3FE
 100
AcDbEntity
   8
LEVEL002
 370
15
   6
CONTINUOUS
  62
7
 100
AcDbCircle
  10
 31.140287312485
  20
 84.726550978897
  30
0.0
  40
 0.20000000000000
 100
AcDbArc
  50
 349.81180208179
  51
 90.000000000030
   0
LINE
   5
3FF
 100
AcDbEntity
   8
LEVEL002
 370
15
 100
AcDbLine
   6
CONTINUOUS
  62
7
  10
 19.940287312484
  20
 81.926550978897
  30
0.0
  11
 19.443440899700
  21
 84.691174577527
  31
0.0
   0
LINE
   5
400
 100
AcDbEntity
   8
LEVEL002
 370
15
 100
AcDbLine
   6
CONTINUOUS
  62
7
  10
 19.940287312484
  20
 84.926550978897
  30
0.0
  11
 19.447800568551
  21
 86.672247632685
  31
0.0
   0
LINE
   5
401
 100
AcDbEntity
   8
LEVEL002
 370
15
 100
AcDbLine
   6
CONTINUOUS
  62
7
  10
 19.940287312484
  20
 86.926550978897
  30
0.0
  11
 19.447800568551
  21
 88.672247632686
  31
0.0
   0
LINE
   5
402
 100
AcDbEntity
   8
LEVEL002
 370
15
 100
AcDbLine
   6
CONTINUOUS
  62
7
  10
 19.940287312484
  20
 84.926550978897
  30
0.0
  11
 19.640287312484
  21
 84.926550978897
  31
0.0
   0
LINE
   5
403
 100
AcDbEntity
   8
LEVEL002
 370
15
 100
AcDbLine
   6
CONTINUOUS
  62
7
  10
 19.940287312484
  20
 86.926550978897
  30
0.0
  11
 19.640287312484
  21
 86.926550978897
  31
0.0
   0
ARC
   5
404
 100
AcDbEntity
   8
LEVEL002
 370
15
   6
CONTINUOUS
  62
7
 100
AcDbCircle
  10
 19.640287312484
  20
 88.726550978897
  30
0.0
  40
 0.20000000000000
 100
AcDbArc
  50
 89.999999999871
  51
 195.75454113502
   0
ARC
   5
405
 100
AcDbEntity
   8
LEVEL002
 370
15
   6
CONTINUOUS
  62
7
 100
AcDbCircle
  10
 19.640287312484
  20
 86.726550978897
  30
0.0
  40
 0.20000000000000
 100
AcDbArc
  50
 89.999999999952
  51
 195.75454113501
   0
ARC
   5
406
 100
AcDbEntity
   8
LEVEL002
 370
15
   6
CONTINUOUS
  62
7
 100
AcDbCircle
  10
 19.640287312484
  20
 84.726550978897
  30
0.0
  40
 0.20000000000000
 100
AcDbArc
  50
 89.999999999979
  51
 190.18819791821
   0
LINE
   5
407
 100
AcDbEntity
   8
LEVEL002
 370
15
 100
AcDbLine
   6
CONTINUOUS
  62
7
  10
 31.490287312484
  20
 93.926550978897
  30
0.0
  11
 31.490287312484
  21
 92.426550978897
  31
0.0
   0
LINE
   5
408
 100
AcDbEntity
   8
LEVEL002
 370
15
 100
AcDbLine
   6
CONTINUOUS
  62
7
  10
 31.490287312484
  20
 92.426550978897
  30
0.0
  11
 30.840287312485
  21
 91.676550978897
  31
0.0
   0
LINE
   5
409
 100
AcDbEntity
   8
LEVEL002
 370
15
 100
AcDbLine
   6
CONTINUOUS
  62
7
  10
 30.840287312485
  20
 91.676550978897
  30
0.0
  11
 31.340287312484
  21
 90.926550978897
  31
0.0
   0
LINE
   5
40A
 100
AcDbEntity
   8
LEVEL002
 370
15
 100
AcDbLine
   6
CONTINUOUS
  62
7
  10
 31.340287312484
  20
 90.926550978897
  30
0.0
  11
 30.840287312485
  21
 88.926550978897
  31
0.0
   0
LINE
   5
40B
 100
AcDbEntity
   8
LEVEL002
 370
15
 100
AcDbLine
   6
CONTINUOUS
  62
7
  10
 31.490287312484
  20
 93.926550978897
  30
0.0
  11
 31.490287312484
  21
 92.426550978897
  31
0.0
   0
LINE
   5
40C
 100
AcDbEntity
   8
LEVEL002
 370
15
 100
AcDbLine
   6
CONTINUOUS
  62
7
  10
 31.490287312484
  20
 92.426550978897
  30
0.0
  11
 30.840287312485
  21
 91.676550978897
  31
0.0
   0
LINE
   5
40D
 100
AcDbEntity
   8
LEVEL002
 370
15
 100
AcDbLine
   6
CONTINUOUS
  62
7
  10
 30.840287312485
  20
 91.676550978897
  30
0.0
  11
 31.340287312484
  21
 90.926550978897
  31
0.0
   0
LINE
   5
40E
 100
AcDbEntity
   8
LEVEL002
 370
15
 100
AcDbLine
   6
CONTINUOUS
  62
7
  10
 31.340287312484
  20
 90.926550978897
  30
0.0
  11
 30.840287312485
  21
 88.926550978897
  31
0.0
   0
LINE
   5
40F
 100
AcDbEntity
   8
LEVEL002
 370
15
 100
AcDbLine
   6
CONTINUOUS
  62
7
  10
 30.840287312485
  20
 88.926550978897
  30
0.0
  11
 31.140287312485
  21
 88.926550978897
  31
0.0
   0
LINE
   5
410
 100
AcDbEntity
   8
LEVEL002
 370
15
 100
AcDbLine
   6
CONTINUOUS
  62
7
  10
 19.290287312485
  20
 93.926550978897
  30
0.0
  11
 19.290287312485
  21
 92.426550978897
  31
0.0
   0
LINE
   5
411
 100
AcDbEntity
   8
LEVEL002
 370
15
 100
AcDbLine
   6
CONTINUOUS
  62
7
  10
 19.290287312485
  20
 92.426550978897
  30
0.0
  11
 19.940287312484
  21
 91.676550978897
  31
0.0
   0
LINE
   5
412
 100
AcDbEntity
   8
LEVEL002
 370
15
 100
AcDbLine
   6
CONTINUOUS
  62
7
  10
 19.940287312484
  20
 91.676550978897
  30
0.0
  11
 19.440287312485
  21
 90.926550978897
  31
0.0
   0
LINE
   5
413
 100
AcDbEntity
   8
LEVEL002
 370
15
 100
AcDbLine
   6
CONTINUOUS
  62
7
  10
 19.440287312485
  20
 90.926550978897
  30
0.0
  11
 19.940287312484
  21
 88.926550978897
  31
0.0
   0
LINE
   5
414
 100
AcDbEntity
   8
LEVEL002
 370
15
 100
AcDbLine
   6
CONTINUOUS
  62
7
  10
 19.290287312485
  20
 93.926550978897
  30
0.0
  11
 19.290287312485
  21
 92.426550978897
  31
0.0
   0
LINE
   5
415
 100
AcDbEntity
   8
LEVEL002
 370
15
 100
AcDbLine
   6
CONTINUOUS
  62
7
  10
 19.290287312485
  20
 92.426550978897
  30
0.0
  11
 19.940287312484
  21
 91.676550978897
  31
0.0
   0
LINE
   5
416
 100
AcDbEntity
   8
LEVEL002
 370
15
 100
AcDbLine
   6
CONTINUOUS
  62
7
  10
 19.940287312484
  20
 91.676550978897
  30
0.0
  11
 19.440287312485
  21
 90.926550978897
  31
0.0
   0
LINE
   5
417
 100
AcDbEntity
   8
LEVEL002
 370
15
 100
AcDbLine
   6
CONTINUOUS
  62
7
  10
 19.440287312485
  20
 90.926550978897
  30
0.0
  11
 19.940287312484
  21
 88.926550978897
  31
0.0
   0
LINE
   5
418
 100
AcDbEntity
   8
LEVEL002
 370
15
 100
AcDbLine
   6
CONTINUOUS
  62
7
  10
 19.940287312484
  20
 88.926550978897
  30
0.0
  11
 19.640287312484
  21
 88.926550978897
  31
0.0
   0
ARC
   5
419
 100
AcDbEntity
   8
LEVEL002
 370
15
   6
CONTINUOUS
  62
7
 100
AcDbCircle
  10
 17.590287312484
  20
 94.226550978897
  30
0.0
  40
 0.30000000000000
 100
AcDbArc
  50
 115.20876529675
  51
 270.00000000002
   0
ARC
   5
41A
 100
AcDbEntity
   8
LEVEL002
 370
15
   6
CONTINUOUS
  62
7
 100
AcDbCircle
  10
 33.190287312485
  20
 94.226550978897
  30
0.0
  40
 0.30000000000000
 100
AcDbArc
  50
 269.99999999990
  51
 64.791234703349
   0
ARC
   5
41B
 100
AcDbEntity
   8
LEVEL002
 370
15
   6
CONTINUOUS
  62
7
 100
AcDbCircle
  10
 19.379141694482
  20
 90.426550978896
  30
0.0
  40
 4.5000000000000
 100
AcDbArc
  50
 114.91553956702
  51
 115.20876529673
   0
ARC
   5
41C
 100
AcDbEntity
   8
LEVEL002
 370
15
   6
CONTINUOUS
  62
7
 100
AcDbCircle
  10
 31.401432930487
  20
 90.426550978896
  30
0.0
  40
 4.5000000000000
 100
AcDbArc
  50
 64.791234703274
  51
 65.084460432984
   0
LINE
   5
41D
 100
AcDbEntity
   8
LEVEL002
 370
15
 100
AcDbLine
   6
CONTINUOUS
  62
7
  10
 20.940287312485
  20
 93.130100691348
  30
0.0
  11
 20.940287312485
  21
 82.926550978897
  31
0.0
   0
LINE
   5
41E
 100
AcDbEntity
   8
LEVEL002
 370
15
 100
AcDbLine
   6
CONTINUOUS
  62
7
  10
 20.940287312485
  20
 82.926550978897
  30
0.0
  11
 21.440287312484
  21
 82.926550978897
  31
0.0
   0
ARC
   5
41F
 100
AcDbEntity
   8
LEVEL002
 370
15
   6
CONTINUOUS
  62
7
 100
AcDbCircle
  10
 21.440287312484
  20
 93.130100691348
  30
0.0
  40
 0.50000000000000
 100
AcDbArc
  50
 69.999999999970
  51
 180.00000000001
   0
LINE
   5
420
 100
AcDbEntity
   8
LEVEL002
 370
15
 100
AcDbLine
   6
CONTINUOUS
  62
7
  10
 27.390287312485
  20
 90.926550978897
  30
0.0
  11
 23.390287312484
  21
 90.926550978897
  31
0.0
   0
ARC
   5
421
 100
AcDbEntity
   8
LEVEL002
 370
15
   6
CONTINUOUS
  62
7
 100
AcDbCircle
  10
 23.390287312484
  20
 91.926550978897
  30
0.0
  40
 1.0000000000000
 100
AcDbArc
  50
 180.00000000000
  51
 270.00000000000
   0
ARC
   5
422
 100
AcDbEntity
   8
LEVEL002
 370
15
   6
CONTINUOUS
  62
7
 100
AcDbCircle
  10
 27.390287312485
  20
 91.926550978897
  30
0.0
  40
 1.0000000000000
 100
AcDbArc
  50
 270.00000000000
  51
0.0
   0
LINE
   5
423
 100
AcDbEntity
   8
LEVEL002
 370
15
 100
AcDbLine
   6
CONTINUOUS
  62
7
  10
 22.390287312485
  20
 91.926550978897
  30
0.0
  11
 22.390287312485
  21
 92.966314085928
  31
0.0
   0
LINE
   5
424
 100
AcDbEntity
   8
LEVEL002
 370
15
 100
AcDbLine
   6
CONTINUOUS
  62
7
  10
 23.390287312484
  20
 92.876583885630
  30
0.0
  11
 23.390287312484
  21
 91.926550978897
  31
0.0
   0
LINE
   5
425
 100
AcDbEntity
   8
LEVEL002
 370
15
 100
AcDbLine
   6
CONTINUOUS
  62
7
  10
 27.390287312485
  20
 92.876583885630
  30
0.0
  11
 27.390287312485
  21
 91.926550978897
  31
0.0
   0
LINE
   5
426
 100
AcDbEntity
   8
LEVEL002
 370
15
 100
AcDbLine
   6
CONTINUOUS
  62
7
  10
 20.347097062829
  20
 94.926550978904
  30
0.0
  11
 20.890287312485
  21
 94.926550978908
  31
0.0
   0
LINE
   5
427
 100
AcDbEntity
   8
LEVEL002
 370
15
 100
AcDbLine
   6
CONTINUOUS
  62
7
  10
 20.890287312485
  20
 94.926550978908
  30
0.0
  11
 23.390287312484
  21
 94.016625393242
  31
0.0
   0
LINE
   5
428
 100
AcDbEntity
   8
LEVEL002
 370
15
 100
AcDbLine
   6
CONTINUOUS
  62
7
  10
 27.390287312485
  20
 94.016625393242
  30
0.0
  11
 27.390287312485
  21
 91.926550978897
  31
0.0
   0
LINE
   5
429
 100
AcDbEntity
   8
LEVEL002
 370
15
 100
AcDbLine
   6
CONTINUOUS
  62
7
  10
 27.390287312485
  20
 91.926550978897
  30
0.0
  11
 23.390287312484
  21
 91.926550978897
  31
0.0
   0
LINE
   5
42A
 100
AcDbEntity
   8
LEVEL002
 370
15
 100
AcDbLine
   6
CONTINUOUS
  62
7
  10
 23.390287312484
  20
 91.926550978897
  30
0.0
  11
 23.390287312484
  21
 94.016625393242
  31
0.0
   0
LINE
   5
42B
 100
AcDbEntity
   8
LEVEL002
 370
15
 100
AcDbLine
   6
CONTINUOUS
  62
7
  10
 30.433477562140
  20
 94.926550978904
  30
0.0
  11
 29.890287312485
  21
 94.926550978908
  31
0.0
   0
LINE
   5
42C
 100
AcDbEntity
   8
LEVEL002
 370
15
 100
AcDbLine
   6
CONTINUOUS
  62
7
  10
 29.890287312485
  20
 94.926550978908
  30
0.0
  11
 27.390287312485
  21
 94.016625393242
  31
0.0
   0
ARC
   5
42D
 100
AcDbEntity
   8
LEVEL002
 370
15
   6
CONTINUOUS
  62
7
 100
AcDbCircle
  10
 29.340287312485
  20
 93.130100691348
  30
0.0
  40
 0.50000000000000
 100
AcDbArc
  50
0.0
  51
 110.00000000002
   0
LINE
   5
42E
 100
AcDbEntity
   8
LEVEL002
 370
15
 100
AcDbLine
   6
CONTINUOUS
  62
7
  10
 28.390287312485
  20
 91.926550978897
  30
0.0
  11
 28.390287312485
  21
 92.966314085928
  31
0.0
   0
ARC
   5
42F
 100
AcDbEntity
   8
LEVEL002
 370
15
   6
CONTINUOUS
  62
7
 100
AcDbCircle
  10
 30.433477562067
  20
 84.926550978897
  30
0.0
  40
 10.000000000000
 100
AcDbArc
  50
 73.359102087299
  51
 90.000000000000
   0
ARC
   5
430
 100
AcDbEntity
   8
LEVEL002
 370
15
   6
CONTINUOUS
  62
7
 100
AcDbCircle
  10
 20.347097062926
  20
 84.926550978904
  30
0.0
  40
 10.000000000000
 100
AcDbArc
  50
 90.000000000555
  51
 106.64089791284
   0
LINE
   5
431
 100
AcDbEntity
   8
LEVEL002
 370
15
 100
AcDbLine
   6
CONTINUOUS
  62
7
  10
 21.611297384147
  20
 93.599947001741
  30
0.0
  11
 22.061297384147
  21
 93.436160396321
  31
0.0
   0
ARC
   5
432
 100
AcDbEntity
   8
LEVEL002
 370
15
   6
CONTINUOUS
  62
7
 100
AcDbCircle
  10
 21.890287312484
  20
 92.966314085928
  30
0.0
  40
 0.50000000000000
 100
AcDbArc
  50
0.0
  51
 70.000000000005
   0
LINE
   5
433
 100
AcDbEntity
   8
LEVEL002
 370
15
 100
AcDbLine
   6
CONTINUOUS
  62
7
  10
 29.169277240822
  20
 93.599947001741
  30
0.0
  11
 28.719277240822
  21
 93.436160396321
  31
0.0
   0
ARC
   5
434
 100
AcDbEntity
   8
LEVEL002
 370
15
   6
CONTINUOUS
  62
7
 100
AcDbCircle
  10
 28.890287312485
  20
 92.966314085928
  30
0.0
  40
 0.50000000000000
 100
AcDbArc
  50
 110.00000000000
  51
 180.00000000000
   0
LINE
   5
435
 100
AcDbEntity
   8
LEVEL002
 370
15
 100
AcDbLine
   6
CONTINUOUS
  62
7
  10
 17.590287312485
  20
 93.926550978897
  30
0.0
  11
 19.290287312485
  21
 93.926550978897
  31
0.0
   0
LINE
   5
436
 100
AcDbEntity
   8
LEVEL002
 370
15
 100
AcDbLine
   6
CONTINUOUS
  62
7
  10
 33.190287312485
  20
 93.926550978897
  30
0.0
  11
 31.490287312484
  21
 93.926550978897
  31
0.0
   0
LINE
   5
437
 100
AcDbEntity
   8
LEVEL002
 370
15
 100
AcDbLine
   6
CONTINUOUS
  62
7
  10
 29.340287312485
  20
 82.926550978897
  30
0.0
  11
 29.840287312484
  21
 82.926550978897
  31
0.0
   0
LINE
   5
438
 100
AcDbEntity
   8
LEVEL002
 370
15
 100
AcDbLine
   6
CONTINUOUS
  62
7
  10
 29.840287312484
  20
 82.926550978897
  30
0.0
  11
 29.840287312484
  21
 93.130100691348
  31
0.0
   0
ARC
   5
439
 100
AcDbEntity
   8
LEVEL002
 370
15
   6
CONTINUOUS
  62
7
 100
AcDbCircle
  10
 21.440287312470
  20
 81.926550978897
  30
0.0
  40
 1.0000000000000
 100
AcDbArc
  50
 89.272228610810
  51
 89.999999999188
   0
ARC
   5
43A
 100
AcDbEntity
   8
LEVEL002
 370
15
   6
CONTINUOUS
  62
7
 100
AcDbCircle
  10
 22.240287312485
  20
 82.126550978897
  30
0.0
  40
 0.20000000000000
 100
AcDbArc
  50
 270.00000000001
  51
 14.477512185900
   0
LINE
   5
43B
 100
AcDbEntity
   8
LEVEL002
 370
15
 100
AcDbLine
   6
CONTINUOUS
  62
7
  10
 22.240287312485
  20
 81.926550978897
  30
0.0
  11
 19.940287312484
  21
 81.926550978897
  31
0.0
   0
ARC
   5
43C
 100
AcDbEntity
   8
LEVEL002
 370
15
   6
CONTINUOUS
  62
7
 100
AcDbCircle
  10
 21.465690643243
  20
 81.926550978897
  30
0.0
  40
 1.0000000000000
 100
AcDbArc
  50
 14.477512185931
  51
 90.727771389125
   0
ARC
   5
43D
 100
AcDbEntity
   8
LEVEL002
 370
15
   6
CONTINUOUS
  62
7
 100
AcDbCircle
  10
 28.540287312485
  20
 82.126550978897
  30
0.0
  40
 0.20000000000000
 100
AcDbArc
  50
 165.52248781406
  51
 270.00000000000
   0
ARC
   5
43E
 100
AcDbEntity
   8
LEVEL002
 370
15
   6
CONTINUOUS
  62
7
 100
AcDbCircle
  10
 29.314883981726
  20
 81.926550978897
  30
0.0
  40
 1.0000000000000
 100
AcDbArc
  50
 89.272228610876
  51
 165.52248781407
   0
LINE
   5
43F
 100
AcDbEntity
   8
LEVEL002
 370
15
 100
AcDbLine
   6
CONTINUOUS
  62
7
  10
 28.540287312485
  20
 81.926550978897
  30
0.0
  11
 30.840287312485
  21
 81.926550978897
  31
0.0
   0
LINE
   5
440
 100
AcDbEntity
   8
LEVEL002
 370
15
 100
AcDbLine
   6
CONTINUOUS
  62
7
  10
 28.390287312485
  20
 91.966314085917
  30
0.0
  11
 28.390287312485
  21
 91.926550978897
  31
0.0
   0
MTEXT
   5
442
 100
AcDbEntity
   8
LEVEL001
 370
15
  62
8
 100
AcDbMText
  10
 7.8999999999750
  20
 75.843821510300
  30
0.0
  40
 1.5000000000000
  41
0.0
  71
4
  72
1
   1
\W0.500000;\T1.000000; \W1.000000;\T1.000000;　堀込寸法：１２×１２
   7
GMM002
  44
 0.79999984000003
   0
MTEXT
   5
444
 100
AcDbEntity
   8
LEVEL001
 370
15
  62
8
 100
AcDbMText
  10
 116.27499999997
  20
 75.843821510300
  30
0.0
  40
 1.5000000000000
  41
0.0
  71
4
  72
1
   1
\W0.500000;\T1.000000; \W1.000000;\T1.000000;　堀込寸法：９×６\W0.500000;\T1.000000;.\W1.000000;\T1.000000;５
   7
GMM002
  44
 0.79999984000003
   0
LINE
   5
445
 100
AcDbEntity
   8
LEVEL002
 370
15
 100
AcDbLine
   6
DASHDOT
  62
8
  10
 25.390287312484
  20
 49.737425782270
  30
0.0
  11
 25.390287312484
  21
 56.679291736164
  31
0.0
   0
ARC
   5
446
 100
AcDbEntity
   8
LEVEL002
 370
15
   6
CONTINUOUS
  62
7
 100
AcDbCircle
  10
 22.020325276220
  20
 45.828225886141
  30
0.0
  40
 10.000000000000
 100
AcDbArc
  50
 93.612244106234
  51
 110.48755205685
   0
LINE
   5
447
 100
AcDbEntity
   8
LEVEL002
 370
15
 100
AcDbLine
   6
CONTINUOUS
  62
7
  10
 21.940287312484
  20
 54.808358759217
  30
0.0
  11
 18.590287312484
  21
 54.808358759217
  31
0.0
   0
LINE
   5
448
 100
AcDbEntity
   8
LEVEL002
 370
15
 100
AcDbLine
   6
CONTINUOUS
  62
7
  10
 21.940287312484
  20
 54.808358759217
  30
0.0
  11
 21.940287312484
  21
 53.808358759217
  31
0.0
   0
LINE
   5
449
 100
AcDbEntity
   8
LEVEL002
 370
15
 100
AcDbLine
   6
CONTINUOUS
  62
7
  10
 21.940287312484
  20
 53.808358759217
  30
0.0
  11
 20.990287312484
  21
 53.808358759217
  31
0.0
   0
LINE
   5
44A
 100
AcDbEntity
   8
LEVEL002
 370
15
 100
AcDbLine
   6
CONTINUOUS
  62
7
  10
 21.290287312484
  20
 52.808358759217
  30
0.0
  11
 20.824662679872
  21
 53.496249521988
  31
0.0
   0
LINE
   5
44B
 100
AcDbEntity
   8
LEVEL002
 370
15
 100
AcDbLine
   6
CONTINUOUS
  62
7
  10
 21.290287312484
  20
 51.808358759217
  30
0.0
  11
 20.824662679872
  21
 52.496249521988
  31
0.0
   0
LINE
   5
44C
 100
AcDbEntity
   8
LEVEL002
 370
15
 100
AcDbLine
   6
CONTINUOUS
  62
7
  10
 21.290287312484
  20
 50.808358759217
  30
0.0
  11
 20.824662679872
  21
 51.496249521988
  31
0.0
   0
LINE
   5
44D
 100
AcDbEntity
   8
LEVEL002
 370
15
 100
AcDbLine
   6
CONTINUOUS
  62
7
  10
 21.290287312484
  20
 51.808358759217
  30
0.0
  11
 20.990287312484
  21
 51.808358759217
  31
0.0
   0
LINE
   5
44E
 100
AcDbEntity
   8
LEVEL002
 370
15
 100
AcDbLine
   6
CONTINUOUS
  62
7
  10
 21.290287312484
  20
 52.808358759217
  30
0.0
  11
 20.990287312484
  21
 52.808358759217
  31
0.0
   0
LINE
   5
44F
 100
AcDbEntity
   8
LEVEL002
 370
15
 100
AcDbLine
   6
CONTINUOUS
  62
7
  10
 21.290287312484
  20
 50.808358759217
  30
0.0
  11
 22.390287312386
  21
 50.808358759217
  31
0.0
   0
LINE
   5
450
 100
AcDbEntity
   8
LEVEL002
 370
15
 100
AcDbLine
   6
CONTINUOUS
  62
7
  10
 22.390287312386
  20
 50.808358759217
  30
0.0
  11
 22.390287312386
  21
 51.308358759217
  31
0.0
   0
LINE
   5
451
 100
AcDbEntity
   8
LEVEL002
 370
15
 100
AcDbLine
   6
CONTINUOUS
  62
7
  10
 22.390287312386
  20
 51.308358759217
  30
0.0
  11
 25.390287312484
  21
 51.308358759217
  31
0.0
   0
ARC
   5
452
 100
AcDbEntity
   8
LEVEL002
 370
15
   6
CONTINUOUS
  62
7
 100
AcDbCircle
  10
 18.590287312484
  20
 55.008358759217
  30
0.0
  40
 0.20000000000000
 100
AcDbArc
  50
 110.48755205689
  51
 269.99999999996
   0
ARC
   5
453
 100
AcDbEntity
   8
LEVEL002
 370
15
   6
CONTINUOUS
  62
7
 100
AcDbCircle
  10
 20.990287312484
  20
 53.608358759217
  30
0.0
  40
 0.20000000000000
 100
AcDbArc
  50
 90.000000000029
  51
 214.09357857317
   0
ARC
   5
454
 100
AcDbEntity
   8
LEVEL002
 370
15
   6
CONTINUOUS
  62
7
 100
AcDbCircle
  10
 20.990287312484
  20
 52.608358759217
  30
0.0
  40
 0.20000000000000
 100
AcDbArc
  50
 89.999999999996
  51
 214.09357857323
   0
ARC
   5
455
 100
AcDbEntity
   8
LEVEL002
 370
15
   6
CONTINUOUS
  62
7
 100
AcDbCircle
  10
 20.990287312484
  20
 51.608358759217
  30
0.0
  40
 0.20000000000000
 100
AcDbArc
  50
 89.999999999974
  51
 214.09357857327
   0
ARC
   5
456
 100
AcDbEntity
   8
LEVEL002
 370
15
   6
CONTINUOUS
  62
7
 100
AcDbCircle
  10
 28.760249348748
  20
 45.828225886141
  30
0.0
  40
 10.000000000000
 100
AcDbArc
  50
 69.512447943155
  51
 86.387755893766
   0
LINE
   5
457
 100
AcDbEntity
   8
LEVEL002
 370
15
 100
AcDbLine
   6
CONTINUOUS
  62
7
  10
 28.840287312484
  20
 54.808358759217
  30
0.0
  11
 32.190287312484
  21
 54.808358759217
  31
0.0
   0
LINE
   5
458
 100
AcDbEntity
   8
LEVEL002
 370
15
 100
AcDbLine
   6
CONTINUOUS
  62
7
  10
 28.840287312484
  20
 54.808358759217
  30
0.0
  11
 28.840287312484
  21
 53.808358759217
  31
0.0
   0
LINE
   5
459
 100
AcDbEntity
   8
LEVEL002
 370
15
 100
AcDbLine
   6
CONTINUOUS
  62
7
  10
 28.840287312484
  20
 53.808358759217
  30
0.0
  11
 29.790287312484
  21
 53.808358759217
  31
0.0
   0
LINE
   5
45A
 100
AcDbEntity
   8
LEVEL002
 370
15
 100
AcDbLine
   6
CONTINUOUS
  62
7
  10
 29.490287312484
  20
 52.808358759217
  30
0.0
  11
 29.955911945096
  21
 53.496249521988
  31
0.0
   0
LINE
   5
45B
 100
AcDbEntity
   8
LEVEL002
 370
15
 100
AcDbLine
   6
CONTINUOUS
  62
7
  10
 29.490287312484
  20
 51.808358759217
  30
0.0
  11
 29.955911945096
  21
 52.496249521988
  31
0.0
   0
LINE
   5
45C
 100
AcDbEntity
   8
LEVEL002
 370
15
 100
AcDbLine
   6
CONTINUOUS
  62
7
  10
 29.490287312484
  20
 50.808358759217
  30
0.0
  11
 29.955911945096
  21
 51.496249521988
  31
0.0
   0
LINE
   5
45D
 100
AcDbEntity
   8
LEVEL002
 370
15
 100
AcDbLine
   6
CONTINUOUS
  62
7
  10
 29.490287312484
  20
 51.808358759217
  30
0.0
  11
 29.790287312484
  21
 51.808358759217
  31
0.0
   0
LINE
   5
45E
 100
AcDbEntity
   8
LEVEL002
 370
15
 100
AcDbLine
   6
CONTINUOUS
  62
7
  10
 29.490287312484
  20
 52.808358759217
  30
0.0
  11
 29.790287312484
  21
 52.808358759217
  31
0.0
   0
LINE
   5
45F
 100
AcDbEntity
   8
LEVEL002
 370
15
 100
AcDbLine
   6
CONTINUOUS
  62
7
  10
 29.490287312484
  20
 50.808358759217
  30
0.0
  11
 28.390287312583
  21
 50.808358759217
  31
0.0
   0
LINE
   5
460
 100
AcDbEntity
   8
LEVEL002
 370
15
 100
AcDbLine
   6
CONTINUOUS
  62
7
  10
 28.390287312583
  20
 50.808358759217
  30
0.0
  11
 28.390287312583
  21
 51.308358759217
  31
0.0
   0
LINE
   5
461
 100
AcDbEntity
   8
LEVEL002
 370
15
 100
AcDbLine
   6
CONTINUOUS
  62
7
  10
 28.390287312583
  20
 51.308358759217
  30
0.0
  11
 25.390287312484
  21
 51.308358759217
  31
0.0
   0
ARC
   5
462
 100
AcDbEntity
   8
LEVEL002
 370
15
   6
CONTINUOUS
  62
7
 100
AcDbCircle
  10
 32.190287312483
  20
 55.008358759217
  30
0.0
  40
 0.20000000000000
 100
AcDbArc
  50
 270.00000000036
  51
 69.512447942818
   0
ARC
   5
463
 100
AcDbEntity
   8
LEVEL002
 370
15
   6
CONTINUOUS
  62
7
 100
AcDbCircle
  10
 29.790287312484
  20
 53.608358759217
  30
0.0
  40
 0.20000000000000
 100
AcDbArc
  50
 325.90642142675
  51
 90.000000000015
   0
ARC
   5
464
 100
AcDbEntity
   8
LEVEL002
 370
15
   6
CONTINUOUS
  62
7
 100
AcDbCircle
  10
 29.790287312484
  20
 52.608358759217
  30
0.0
  40
 0.20000000000000
 100
AcDbArc
  50
 325.90642142680
  51
 89.999999999984
   0
ARC
   5
465
 100
AcDbEntity
   8
LEVEL002
 370
15
   6
CONTINUOUS
  62
7
 100
AcDbCircle
  10
 29.790287312484
  20
 51.608358759217
  30
0.0
  40
 0.20000000000000
 100
AcDbArc
  50
 325.90642142675
  51
 90.000000000015
   0
LINE
   5
466
 100
AcDbEntity
   8
LEVEL002
 370
15
 100
AcDbLine
   6
CONTINUOUS
  62
7
  10
 23.140287312484
  20
 52.508358759217
  30
0.0
  11
 23.140287312484
  21
 55.316998942958
  31
0.0
   0
LINE
   5
467
 100
AcDbEntity
   8
LEVEL002
 370
15
 100
AcDbLine
   6
CONTINUOUS
  62
7
  10
 23.140287312484
  20
 55.316998942958
  30
0.0
  11
 21.790287312484
  21
 55.808358759217
  31
0.0
   0
LINE
   5
468
 100
AcDbEntity
   8
LEVEL002
 370
15
 100
AcDbLine
   6
CONTINUOUS
  62
7
  10
 21.390287312484
  20
 55.808358759217
  30
0.0
  11
 21.790287312484
  21
 55.808358759217
  31
0.0
   0
LINE
   5
469
 100
AcDbEntity
   8
LEVEL002
 370
15
 100
AcDbLine
   6
CONTINUOUS
  62
7
  10
 23.140287312484
  20
 52.508358759217
  30
0.0
  11
 25.390287312484
  21
 52.508358759217
  31
0.0
   0
LINE
   5
46A
 100
AcDbEntity
   8
LEVEL002
 370
15
 100
AcDbLine
   6
CONTINUOUS
  62
7
  10
 27.640287312484
  20
 52.508358759217
  30
0.0
  11
 27.640287312484
  21
 55.316998942958
  31
0.0
   0
LINE
   5
46B
 100
AcDbEntity
   8
LEVEL002
 370
15
 100
AcDbLine
   6
CONTINUOUS
  62
7
  10
 27.640287312484
  20
 55.316998942958
  30
0.0
  11
 28.990287312484
  21
 55.808358759217
  31
0.0
   0
LINE
   5
46C
 100
AcDbEntity
   8
LEVEL002
 370
15
 100
AcDbLine
   6
CONTINUOUS
  62
7
  10
 27.640287312484
  20
 52.508358759217
  30
0.0
  11
 25.390287312484
  21
 52.508358759217
  31
0.0
   0
LINE
   5
46D
 100
AcDbEntity
   8
LEVEL002
 370
15
 100
AcDbLine
   6
CONTINUOUS
  62
7
  10
 29.390287312484
  20
 55.808358759217
  30
0.0
  11
 28.990287312484
  21
 55.808358759217
  31
0.0
   0
DIMENSION
   5
46E
 100
AcDbEntity
   8
LEVEL001
 370
15
   6
CONTINUOUS
  62
8
 100
AcDbDimension
   2
*D16
  10
 27.640287312484
  20
 58.308358759217
  30
0.0
  11
 25.390287312484
  21
 58.308358759217
  31
0.0
  70
0
   3
GMM002
 100
AcDbAlignedDimension
  13
 23.140287312484
  23
 55.316998942958
  33
0.0
  14
 27.640287312484
  24
 55.316998942958
  34
0.0
 100
AcDbRotatedDimension
   0
DIMENSION
   5
46F
 100
AcDbEntity
   8
LEVEL001
 370
15
   6
CONTINUOUS
  62
8
 100
AcDbDimension
   2
*D17
  10
 32.390287312484
  20
 60.808358759217
  30
0.0
  11
 25.390287312484
  21
 60.808358759217
  31
0.0
  70
0
   3
GMM002
 100
AcDbAlignedDimension
  13
 18.390287312484
  23
 55.416412185034
  33
0.0
  14
 32.390287312484
  24
 55.372991132402
  34
0.0
 100
AcDbRotatedDimension
   0
DIMENSION
   5
470
 100
AcDbEntity
   8
LEVEL001
 370
15
   6
CONTINUOUS
  62
8
 100
AcDbDimension
   2
*D18
  10
 35.390287312484
  20
 54.808358759217
  30
0.0
  11
 35.390287312484
  21
 52.808358759217
  31
0.0
  70
0
   3
GMM002
 100
AcDbAlignedDimension
  13
 29.490287312484
  23
 50.808358759217
  33
0.0
  14
 32.190287312484
  24
 54.808358759217
  34
0.0
  50
 90.000000000000
 100
AcDbRotatedDimension
   0
DIMENSION
   5
471
 100
AcDbEntity
   8
LEVEL001
 370
15
   6
CONTINUOUS
  62
8
 100
AcDbDimension
   2
*D19
  10
 35.390287312484
  20
 55.808358759217
  30
0.0
  11
 35.390287312484
  21
 56.833681577131
  31
0.0
  70
128
   3
GMM005
 100
AcDbAlignedDimension
  13
 32.190287312484
  23
 54.808358759217
  33
0.0
  14
 29.390287312484
  24
 55.808358759217
  34
0.0
  50
 90.000000000000
 100
AcDbRotatedDimension
   0
DIMENSION
   5
472
 100
AcDbEntity
   8
LEVEL001
 370
15
   6
CONTINUOUS
  62
8
 100
AcDbDimension
   2
*D20
  10
 38.390287312484
  20
 55.808358759217
  30
0.0
  11
 38.390287312484
  21
 53.308358759217
  31
0.0
  70
0
   3
GMM002
 100
AcDbAlignedDimension
  13
 35.390287312484
  23
 50.808358759217
  33
0.0
  14
 35.390287312484
  24
 55.808358759217
  34
0.0
  50
 90.000000000000
 100
AcDbRotatedDimension
   0
DIMENSION
   5
473
 100
AcDbEntity
   8
LEVEL001
 370
15
   6
CONTINUOUS
  62
8
 100
AcDbDimension
   2
*D21
  10
 15.890287312484
  20
 55.808358759217
  30
0.0
  11
 15.890287312484
  21
 54.158358759217
  31
0.0
  70
0
   3
GMM002
 100
AcDbAlignedDimension
  13
 23.140287312484
  23
 52.508358759217
  33
0.0
  14
 21.390287312484
  24
 55.808358759217
  34
0.0
  50
 90.000000000000
 100
AcDbRotatedDimension
   0
DIMENSION
   5
474
 100
AcDbEntity
   8
LEVEL001
 370
15
   6
CONTINUOUS
  62
8
 100
AcDbDimension
   2
*D22
  10
 29.990287312484
  20
 46.808358759217
  30
0.0
  11
 25.390287312484
  21
 46.808358759217
  31
0.0
  70
0
   3
GMM002
 100
AcDbAlignedDimension
  13
 20.790287312484
  23
 53.208358759217
  33
0.0
  14
 29.990287312484
  24
 53.208358759217
  34
0.0
 100
AcDbRotatedDimension
   0
LINE
   5
475
 100
AcDbEntity
   8
LEVEL002
 370
15
 100
AcDbLine
   6
DASHDOT
  62
8
  10
 133.66929188898
  20
 81.303615123777
  30
0.0
  11
 133.66929188898
  21
 90.249486834036
  31
0.0
   0
DIMENSION
   5
476
 100
AcDbEntity
   8
LEVEL001
 370
15
   6
CONTINUOUS
  62
8
 100
AcDbDimension
   2
*D23
  10
 138.16929188898
  20
 77.926550978897
  30
0.0
  11
 133.66929188898
  21
 77.926550978897
  31
0.0
  70
0
   3
GMM001
 100
AcDbAlignedDimension
  13
 129.16929188898
  23
 85.426550978897
  33
0.0
  14
 138.16929188898
  24
 85.426550978897
  34
0.0
 100
AcDbRotatedDimension
   0
DIMENSION
   5
477
 100
AcDbEntity
   8
LEVEL001
 370
15
   6
CONTINUOUS
  62
8
 100
AcDbDimension
   2
*D24
  10
 135.66929188898
  20
 92.126550978916
  30
0.0
  11
 133.66929188898
  21
 92.126550978916
  31
0.0
  70
0
   3
GMM001
 100
AcDbAlignedDimension
  13
 131.66929188898
  23
 88.789419440104
  33
0.0
  14
 135.66929188898
  24
 88.789419440104
  34
0.0
 100
AcDbRotatedDimension
   0
DIMENSION
   5
478
 100
AcDbEntity
   8
LEVEL001
 370
15
   6
CONTINUOUS
  62
8
 100
AcDbDimension
   2
*D25
  10
 140.16929188898
  20
 94.626550978916
  30
0.0
  11
 133.66929188898
  21
 94.626550978916
  31
0.0
  70
0
   3
GMM001
 100
AcDbAlignedDimension
  13
 127.16929188898
  23
 88.926550978897
  33
0.0
  14
 140.16929188898
  24
 88.926550978897
  34
0.0
 100
AcDbRotatedDimension
   0
DIMENSION
   5
479
 100
AcDbEntity
   8
LEVEL001
 370
15
   6
CONTINUOUS
  62
8
 100
AcDbDimension
   2
*D26
  10
 143.16929188898
  20
 88.426550978897
  30
0.0
  11
 143.16929188898
  21
 85.176550978897
  31
0.0
  70
0
   3
GMM002
 100
AcDbAlignedDimension
  13
 137.66929188898
  23
 81.926550978897
  33
0.0
  14
 139.86929188898
  24
 88.426550978897
  34
0.0
  50
 90.000000000000
 100
AcDbRotatedDimension
   0
DIMENSION
   5
47A
 100
AcDbEntity
   8
LEVEL001
 370
15
   6
CONTINUOUS
  62
8
 100
AcDbDimension
   2
*D27
  10
 143.16929188898
  20
 89.626550978916
  30
0.0
  11
 143.16929188898
  21
 90.276523023543
  31
0.0
  70
128
   3
GMM006
 100
AcDbAlignedDimension
  13
 139.86929188898
  23
 88.426550978897
  33
0.0
  14
 137.96929188898
  24
 89.626550978916
  34
0.0
  50
 90.000000000000
 100
AcDbRotatedDimension
   0
DIMENSION
   5
47B
 100
AcDbEntity
   8
LEVEL001
 370
15
   6
CONTINUOUS
  62
8
 100
AcDbDimension
   2
*D28
  10
 146.16929188898
  20
 89.626550978916
  30
0.0
  11
 146.16929188898
  21
 85.776550978906
  31
0.0
  70
0
   3
GMM002
 100
AcDbAlignedDimension
  13
 143.16929188898
  23
 81.926550978897
  33
0.0
  14
 143.16929188898
  24
 89.626550978916
  34
0.0
  50
 90.000000000000
 100
AcDbRotatedDimension
   0
DIMENSION
   5
47C
 100
AcDbEntity
   8
LEVEL001
 370
15
   6
CONTINUOUS
  62
8
 100
AcDbDimension
   2
*D29
  10
 124.66929188898
  20
 89.626550978916
  30
0.0
  11
 124.66929188898
  21
 88.226550978906
  31
0.0
  70
0
   3
GMM001
 100
AcDbAlignedDimension
  13
 131.66929188898
  23
 86.826550978897
  33
0.0
  14
 129.16929188898
  24
 89.626550978916
  34
0.0
  50
 90.000000000000
 100
AcDbRotatedDimension
   0
ARC
   5
47D
 100
AcDbEntity
   8
LEVEL002
 370
15
   6
CONTINUOUS
  62
7
 100
AcDbCircle
  10
 129.49208313117
  20
 85.628436134268
  30
0.0
  40
 4.0000000000000
 100
AcDbArc
  50
 91.759131346375
  51
 123.14093538044
   0
LINE
   5
47E
 100
AcDbEntity
   8
LEVEL002
 370
15
 100
AcDbLine
   6
CONTINUOUS
  62
7
  10
 129.16929188898
  20
 88.426550978897
  30
0.0
  11
 127.46929188898
  21
 88.426550978897
  31
0.0
   0
LINE
   5
47F
 100
AcDbEntity
   8
LEVEL002
 370
15
 100
AcDbLine
   6
CONTINUOUS
  62
7
  10
 129.66929188898
  20
 84.126550978897
  30
0.0
  11
 129.46929188898
  21
 84.126550978897
  31
0.0
   0
LINE
   5
480
 100
AcDbEntity
   8
LEVEL002
 370
15
 100
AcDbLine
   6
CONTINUOUS
  62
7
  10
 129.66929188898
  20
 83.126550978897
  30
0.0
  11
 129.29282130074
  21
 83.832433331838
  31
0.0
   0
LINE
   5
481
 100
AcDbEntity
   8
LEVEL002
 370
15
 100
AcDbLine
   6
CONTINUOUS
  62
7
  10
 129.66929188898
  20
 83.126550978897
  30
0.0
  11
 129.46929188898
  21
 83.126550978897
  31
0.0
   0
LINE
   5
482
 100
AcDbEntity
   8
LEVEL002
 370
15
 100
AcDbLine
   6
CONTINUOUS
  62
7
  10
 129.66929188898
  20
 81.926550978897
  30
0.0
  11
 129.28467650436
  21
 82.849627901974
  31
0.0
   0
LINE
   5
483
 100
AcDbEntity
   8
LEVEL002
 370
15
 100
AcDbLine
   6
CONTINUOUS
  62
7
  10
 129.16929188898
  20
 86.376550978897
  30
0.0
  11
 129.16929188898
  21
 85.626550978897
  31
0.0
   0
LINE
   5
484
 100
AcDbEntity
   8
LEVEL002
 370
15
 100
AcDbLine
   6
CONTINUOUS
  62
7
  10
 129.16929188898
  20
 85.626550978897
  30
0.0
  11
 129.66929188898
  21
 84.126550978897
  31
0.0
   0
ARC
   5
485
 100
AcDbEntity
   8
LEVEL002
 370
15
   6
CONTINUOUS
  62
7
 100
AcDbCircle
  10
 129.41929188898
  20
 86.376550978897
  30
0.0
  40
 0.25000000000000
 100
AcDbArc
  50
 89.999999999948
  51
 180.00000000000
   0
LINE
   5
486
 100
AcDbEntity
   8
LEVEL002
 370
15
 100
AcDbLine
   6
CONTINUOUS
  62
7
  10
 129.16929188898
  20
 88.426550978897
  30
0.0
  11
 129.16929188898
  21
 87.876550978897
  31
0.0
   0
ARC
   5
487
 100
AcDbEntity
   8
LEVEL002
 370
15
   6
CONTINUOUS
  62
7
 100
AcDbCircle
  10
 129.41929188898
  20
 87.876550978897
  30
0.0
  40
 0.25000000000000
 100
AcDbArc
  50
 180.00000000000
  51
 269.99999999997
   0
LINE
   5
488
 100
AcDbEntity
   8
LEVEL002
 370
15
 100
AcDbLine
   6
CONTINUOUS
  62
7
  10
 129.41929188898
  20
 87.626550978897
  30
0.0
  11
 129.96929188898
  21
 87.626550978897
  31
0.0
   0
LINE
   5
489
 100
AcDbEntity
   8
LEVEL002
 370
15
 100
AcDbLine
   6
CONTINUOUS
  62
7
  10
 129.96929188898
  20
 86.626550978897
  30
0.0
  11
 129.41929188898
  21
 86.626550978897
  31
0.0
   0
ARC
   5
48A
 100
AcDbEntity
   8
LEVEL002
 370
15
   6
CONTINUOUS
  62
7
 100
AcDbCircle
  10
 129.96929188898
  20
 87.126550978897
  30
0.0
  40
 0.50000000000000
 100
AcDbArc
  50
 270.00000000000
  51
 90.000000000000
   0
ARC
   5
48B
 100
AcDbEntity
   8
LEVEL002
 370
15
   6
CONTINUOUS
  62
7
 100
AcDbCircle
  10
 129.46929188898
  20
 82.926550978897
  30
0.0
  40
 0.20000000000000
 100
AcDbArc
  50
 89.999999999992
  51
 202.61986494807
   0
ARC
   5
48C
 100
AcDbEntity
   8
LEVEL002
 370
15
   6
CONTINUOUS
  62
7
 100
AcDbCircle
  10
 129.46929188898
  20
 83.926550978897
  30
0.0
  40
 0.20000000000000
 100
AcDbArc
  50
 90.000000000008
  51
 208.07248693582
   0
LINE
   5
48D
 100
AcDbEntity
   8
LEVEL002
 370
15
 100
AcDbLine
   6
CONTINUOUS
  62
7
  10
 129.66929188898
  20
 81.926550978897
  30
0.0
  11
 130.36929188898
  21
 81.926550978897
  31
0.0
   0
LINE
   5
48E
 100
AcDbEntity
   8
LEVEL002
 370
15
 100
AcDbLine
   6
CONTINUOUS
  62
7
  10
 130.66929188898
  20
 82.226550978897
  30
0.0
  11
 130.66929188898
  21
 85.626550978897
  31
0.0
   0
LINE
   5
48F
 100
AcDbEntity
   8
LEVEL002
 370
15
 100
AcDbLine
   6
CONTINUOUS
  62
7
  10
 130.66929188898
  20
 85.626550978897
  30
0.0
  11
 133.66929188898
  21
 85.626550978897
  31
0.0
   0
ARC
   5
490
 100
AcDbEntity
   8
LEVEL002
 370
15
   6
CONTINUOUS
  62
7
 100
AcDbCircle
  10
 130.36929188898
  20
 82.226550978897
  30
0.0
  40
 0.30000000000000
 100
AcDbArc
  50
 270.00000000001
  51
 0.27140733281821E-11
   0
LINE
   5
491
 100
AcDbEntity
   8
LEVEL002
 370
15
 100
AcDbLine
   6
CONTINUOUS
  62
7
  10
 129.36929188898
  20
 89.626550978916
  30
0.0
  11
 131.66929188898
  21
 88.789419440104
  31
0.0
   0
LINE
   5
492
 100
AcDbEntity
   8
LEVEL002
 370
15
 100
AcDbLine
   6
CONTINUOUS
  62
7
  10
 131.66929188898
  20
 88.789419440104
  30
0.0
  11
 131.66929188898
  21
 86.826550978897
  31
0.0
   0
LINE
   5
493
 100
AcDbEntity
   8
LEVEL002
 370
15
 100
AcDbLine
   6
CONTINUOUS
  62
7
  10
 131.66929188898
  20
 86.826550978897
  30
0.0
  11
 133.66929188898
  21
 86.826550978897
  31
0.0
   0
ARC
   5
494
 100
AcDbEntity
   8
LEVEL002
 370
15
   6
CONTINUOUS
  62
7
 100
AcDbCircle
  10
 137.84650064678
  20
 85.628436134268
  30
0.0
  40
 4.0000000000000
 100
AcDbArc
  50
 56.859064619565
  51
 88.240868653625
   0
LINE
   5
495
 100
AcDbEntity
   8
LEVEL002
 370
15
 100
AcDbLine
   6
CONTINUOUS
  62
7
  10
 138.16929188898
  20
 88.426550978897
  30
0.0
  11
 139.86929188898
  21
 88.426550978897
  31
0.0
   0
LINE
   5
496
 100
AcDbEntity
   8
LEVEL002
 370
15
 100
AcDbLine
   6
CONTINUOUS
  62
7
  10
 137.66929188898
  20
 84.126550978897
  30
0.0
  11
 137.86929188898
  21
 84.126550978897
  31
0.0
   0
LINE
   5
497
 100
AcDbEntity
   8
LEVEL002
 370
15
 100
AcDbLine
   6
CONTINUOUS
  62
7
  10
 137.66929188898
  20
 83.126550978897
  30
0.0
  11
 138.04576247721
  21
 83.832433331838
  31
0.0
   0
LINE
   5
498
 100
AcDbEntity
   8
LEVEL002
 370
15
 100
AcDbLine
   6
CONTINUOUS
  62
7
  10
 137.66929188898
  20
 83.126550978897
  30
0.0
  11
 137.86929188898
  21
 83.126550978897
  31
0.0
   0
LINE
   5
499
 100
AcDbEntity
   8
LEVEL002
 370
15
 100
AcDbLine
   6
CONTINUOUS
  62
7
  10
 137.66929188898
  20
 81.926550978897
  30
0.0
  11
 138.05390727359
  21
 82.849627901974
  31
0.0
   0
ARC
   5
49A
 100
AcDbEntity
   8
LEVEL002
 370
15
   6
CONTINUOUS
  62
7
 100
AcDbCircle
  10
 139.86929188898
  20
 88.726550978897
  30
0.0
  40
 0.30000000000000
 100
AcDbArc
  50
 270.00000000005
  51
 56.859064619520
   0
LINE
   5
49B
 100
AcDbEntity
   8
LEVEL002
 370
15
 100
AcDbLine
   6
CONTINUOUS
  62
7
  10
 138.16929188898
  20
 86.376550978897
  30
0.0
  11
 138.16929188898
  21
 85.626550978897
  31
0.0
   0
LINE
   5
49C
 100
AcDbEntity
   8
LEVEL002
 370
15
 100
AcDbLine
   6
CONTINUOUS
  62
7
  10
 138.16929188898
  20
 85.626550978897
  30
0.0
  11
 137.66929188898
  21
 84.126550978897
  31
0.0
   0
ARC
   5
49D
 100
AcDbEntity
   8
LEVEL002
 370
15
   6
CONTINUOUS
  62
7
 100
AcDbCircle
  10
 137.91929188898
  20
 86.376550978897
  30
0.0
  40
 0.25000000000000
 100
AcDbArc
  50
0.0
  51
 90.000000000026
   0
LINE
   5
49E
 100
AcDbEntity
   8
LEVEL002
 370
15
 100
AcDbLine
   6
CONTINUOUS
  62
7
  10
 138.16929188898
  20
 88.426550978897
  30
0.0
  11
 138.16929188898
  21
 87.876550978897
  31
0.0
   0
ARC
   5
49F
 100
AcDbEntity
   8
LEVEL002
 370
15
   6
CONTINUOUS
  62
7
 100
AcDbCircle
  10
 137.91929188898
  20
 87.876550978897
  30
0.0
  40
 0.25000000000000
 100
AcDbArc
  50
 270.00000000005
  51
0.0
   0
LINE
   5
4A0
 100
AcDbEntity
   8
LEVEL002
 370
15
 100
AcDbLine
   6
CONTINUOUS
  62
7
  10
 137.91929188898
  20
 87.626550978897
  30
0.0
  11
 137.36929188898
  21
 87.626550978897
  31
0.0
   0
LINE
   5
4A1
 100
AcDbEntity
   8
LEVEL002
 370
15
 100
AcDbLine
   6
CONTINUOUS
  62
7
  10
 137.36929188898
  20
 86.626550978897
  30
0.0
  11
 137.91929188898
  21
 86.626550978897
  31
0.0
   0
ARC
   5
4A2
 100
AcDbEntity
   8
LEVEL002
 370
15
   6
CONTINUOUS
  62
7
 100
AcDbCircle
  10
 137.36929188898
  20
 87.126550978897
  30
0.0
  40
 0.50000000000000
 100
AcDbArc
  50
 90.000000000000
  51
 270.00000000000
   0
ARC
   5
4A3
 100
AcDbEntity
   8
LEVEL002
 370
15
   6
CONTINUOUS
  62
7
 100
AcDbCircle
  10
 137.86929188898
  20
 82.926550978897
  30
0.0
  40
 0.20000000000000
 100
AcDbArc
  50
 337.38013505189
  51
 90.000000000024
   0
ARC
   5
4A4
 100
AcDbEntity
   8
LEVEL002
 370
15
   6
CONTINUOUS
  62
7
 100
AcDbCircle
  10
 137.86929188898
  20
 83.926550978897
  30
0.0
  40
 0.20000000000000
 100
AcDbArc
  50
 331.92751306425
  51
 89.999999999943
   0
LINE
   5
4A5
 100
AcDbEntity
   8
LEVEL002
 370
15
 100
AcDbLine
   6
CONTINUOUS
  62
7
  10
 137.66929188898
  20
 81.926550978897
  30
0.0
  11
 136.96929188898
  21
 81.926550978897
  31
0.0
   0
LINE
   5
4A6
 100
AcDbEntity
   8
LEVEL002
 370
15
 100
AcDbLine
   6
CONTINUOUS
  62
7
  10
 136.66929188898
  20
 82.226550978897
  30
0.0
  11
 136.66929188898
  21
 85.626550978897
  31
0.0
   0
LINE
   5
4A7
 100
AcDbEntity
   8
LEVEL002
 370
15
 100
AcDbLine
   6
CONTINUOUS
  62
7
  10
 136.66929188898
  20
 85.626550978897
  30
0.0
  11
 133.66929188898
  21
 85.626550978897
  31
0.0
   0
ARC
   5
4A8
 100
AcDbEntity
   8
LEVEL002
 370
15
   6
CONTINUOUS
  62
7
 100
AcDbCircle
  10
 136.96929188898
  20
 82.226550978897
  30
0.0
  40
 0.30000000000000
 100
AcDbArc
  50
 180.00000000003
  51
 270.00000000000
   0
LINE
   5
4A9
 100
AcDbEntity
   8
LEVEL002
 370
15
 100
AcDbLine
   6
CONTINUOUS
  62
7
  10
 137.96929188898
  20
 89.626550978916
  30
0.0
  11
 135.66929188898
  21
 88.789419440104
  31
0.0
   0
LINE
   5
4AA
 100
AcDbEntity
   8
LEVEL002
 370
15
 100
AcDbLine
   6
CONTINUOUS
  62
7
  10
 135.66929188898
  20
 88.789419440104
  30
0.0
  11
 135.66929188898
  21
 86.826550978897
  31
0.0
   0
LINE
   5
4AB
 100
AcDbEntity
   8
LEVEL002
 370
15
 100
AcDbLine
   6
CONTINUOUS
  62
7
  10
 135.66929188898
  20
 86.826550978897
  30
0.0
  11
 133.66929188898
  21
 86.826550978897
  31
0.0
   0
ARC
   5
4AC
 100
AcDbEntity
   8
LEVEL002
 370
15
   6
CONTINUOUS
  62
7
 100
AcDbCircle
  10
 127.46929188898
  20
 88.726550978897
  30
0.0
  40
 0.30000000000000
 100
AcDbArc
  50
 123.14093538044
  51
 269.99999999999
   0
MTEXT
   5
4AE
 100
AcDbEntity
   8
LEVEL001
 370
15
  62
8
 100
AcDbMText
  10
 44.024999999975
  20
 140.00000000000
  30
0.0
  40
 1.5000000000000
  41
0.0
  71
4
  72
1
   1
\W0.500000;\T1.000000; \W1.000000;\T1.000000;　ＹＡ７
   7
GMM002
  44
 0.79999984000003
   0
ARC
   5
4AF
 100
AcDbEntity
   8
LEVEL002
 370
15
   6
CONTINUOUS
  62
7
 100
AcDbCircle
  10
 65.640751534943
  20
 120.79423918172
  30
0.0
  40
 0.50000000000000
 100
AcDbArc
  50
 109.99999999998
  51
 179.99999999999
   0
LINE
   5
4B0
 100
AcDbEntity
   8
LEVEL002
 370
15
 100
AcDbLine
   6
CONTINUOUS
  62
7
  10
 65.469741463281
  20
 121.26408549211
  30
0.0
  11
 65.819741463281
  21
 121.39147507410
  31
0.0
   0
ARC
   5
4B1
 100
AcDbEntity
   8
LEVEL002
 370
15
   6
CONTINUOUS
  62
7
 100
AcDbCircle
  10
 65.990751534944
  20
 120.92162876371
  30
0.0
  40
 0.50000000000000
 100
AcDbArc
  50
0.0
  51
 110.00000000000
   0
ARC
   5
4B2
 100
AcDbEntity
   8
LEVEL002
 370
15
   6
CONTINUOUS
  62
7
 100
AcDbCircle
  10
 58.090751534944
  20
 120.92162876370
  30
0.0
  40
 0.50000000000000
 100
AcDbArc
  50
 69.999999999262
  51
 179.99999999998
   0
LINE
   5
4B3
 100
AcDbEntity
   8
LEVEL002
 370
15
 100
AcDbLine
   6
CONTINUOUS
  62
7
  10
 58.261761606613
  20
 121.39147507409
  30
0.0
  11
 58.611761606613
  21
 121.26408549209
  31
0.0
   0
ARC
   5
4B4
 100
AcDbEntity
   8
LEVEL002
 370
15
   6
CONTINUOUS
  62
7
 100
AcDbCircle
  10
 58.440751534944
  20
 120.79423918170
  30
0.0
  40
 0.50000000000000
 100
AcDbArc
  50
0.0
  51
 69.999999999255
   0
ARC
   5
4B5
 100
AcDbEntity
   8
LEVEL002
 370
15
   6
CONTINUOUS
  62
7
 100
AcDbCircle
  10
 58.790751534930
  20
 116.02449682853
  30
0.0
  40
 0.20000000000000
 100
AcDbArc
  50
 269.99999999995
  51
 14.477512186072
   0
ARC
   5
4B6
 100
AcDbEntity
   8
LEVEL002
 370
15
   6
CONTINUOUS
  62
7
 100
AcDbCircle
  10
 65.290751534930
  20
 116.02449682853
  30
0.0
  40
 0.20000000000000
 100
AcDbArc
  50
 165.52248781403
  51
 270.00000000013
   0
ARC
   5
4B7
 100
AcDbEntity
   8
LEVEL002
 370
15
   6
CONTINUOUS
  62
7
 100
AcDbCircle
  10
 66.065348204172
  20
 115.82449682853
  30
0.0
  40
 1.0000000000000
 100
AcDbArc
  50
 89.999999999998
  51
 165.52248781407
   0
ARC
   5
4B8
 100
AcDbEntity
   8
LEVEL002
 370
15
   6
CONTINUOUS
  62
7
 100
AcDbCircle
  10
 58.016154865689
  20
 115.82449682853
  30
0.0
  40
 1.0000000000000
 100
AcDbArc
  50
 14.477512185928
  51
 89.999999999992
   0
LINE
   5
4B9
 100
AcDbEntity
   8
LEVEL002
 370
15
 100
AcDbLine
   6
CONTINUOUS
  62
7
  10
 58.940751534944
  20
 120.79423918170
  30
0.0
  11
 58.940751534944
  21
 119.72449682853
  31
0.0
   0
ARC
   5
4BA
 100
AcDbEntity
   8
LEVEL002
 370
15
   6
CONTINUOUS
  62
7
 100
AcDbCircle
  10
 60.040751534943
  20
 119.72449682853
  30
0.0
  40
 1.1000000000000
 100
AcDbArc
  50
 180.00000000000
  51
 270.00000000001
   0
LINE
   5
4BB
 100
AcDbEntity
   8
LEVEL002
 370
15
 100
AcDbLine
   6
CONTINUOUS
  62
7
  10
 60.040751534944
  20
 118.62449682853
  30
0.0
  11
 64.040751534944
  21
 118.62449682853
  31
0.0
   0
ARC
   5
4BC
 100
AcDbEntity
   8
LEVEL002
 370
15
   6
CONTINUOUS
  62
7
 100
AcDbCircle
  10
 64.040751534944
  20
 119.72449682853
  30
0.0
  40
 1.1000000000000
 100
AcDbArc
  50
 270.00000000000
  51
0.0
   0
LINE
   5
4BD
 100
AcDbEntity
   8
LEVEL002
 370
15
 100
AcDbLine
   6
CONTINUOUS
  62
7
  10
 65.140751534944
  20
 119.72449682853
  30
0.0
  11
 65.140751534944
  21
 120.79423918172
  31
0.0
   0
LINE
   5
4BE
 100
AcDbEntity
   8
LEVEL002
 370
15
 100
AcDbLine
   6
CONTINUOUS
  62
7
  10
 68.140751534944
  20
 122.82449682853
  30
0.0
  11
 68.140751534944
  21
 121.32449682853
  31
0.0
   0
LINE
   5
4BF
 100
AcDbEntity
   8
LEVEL002
 370
15
 100
AcDbLine
   6
CONTINUOUS
  62
7
  10
 68.140751534944
  20
 121.32449682853
  30
0.0
  11
 67.490751534944
  21
 120.57449682853
  31
0.0
   0
LINE
   5
4C0
 100
AcDbEntity
   8
LEVEL002
 370
15
 100
AcDbLine
   6
CONTINUOUS
  62
7
  10
 67.490751534944
  20
 120.57449682853
  30
0.0
  11
 67.990751534944
  21
 119.82449682853
  31
0.0
   0
LINE
   5
4C1
 100
AcDbEntity
   8
LEVEL002
 370
15
 100
AcDbLine
   6
CONTINUOUS
  62
7
  10
 67.990751534944
  20
 119.82449682853
  30
0.0
  11
 67.490751534944
  21
 117.82449682853
  31
0.0
   0
LINE
   5
4C2
 100
AcDbEntity
   8
LEVEL002
 370
15
 100
AcDbLine
   6
CONTINUOUS
  62
7
  10
 67.490751534944
  20
 117.82449682853
  30
0.0
  11
 67.990751534944
  21
 117.82449682853
  31
0.0
   0
LINE
   5
4C3
 100
AcDbEntity
   8
LEVEL002
 370
15
 100
AcDbLine
   6
CONTINUOUS
  62
7
  10
 67.990751534944
  20
 117.82449682853
  30
0.0
  11
 67.490751534944
  21
 115.82449682853
  31
0.0
   0
LINE
   5
4C4
 100
AcDbEntity
   8
LEVEL002
 370
15
 100
AcDbLine
   6
CONTINUOUS
  62
7
  10
 67.490751534944
  20
 115.82449682853
  30
0.0
  11
 65.290751534930
  21
 115.82449682853
  31
0.0
   0
LINE
   5
4C5
 100
AcDbEntity
   8
LEVEL002
 370
15
 100
AcDbLine
   6
CONTINUOUS
  62
7
  10
 66.065348204172
  20
 116.82449682853
  30
0.0
  11
 66.490751534944
  21
 116.82449682853
  31
0.0
   0
LINE
   5
4C6
 100
AcDbEntity
   8
LEVEL002
 370
15
 100
AcDbLine
   6
CONTINUOUS
  62
7
  10
 66.490751534944
  20
 116.82449682853
  30
0.0
  11
 66.490751534944
  21
 120.92162876371
  31
0.0
   0
LINE
   5
4C7
 100
AcDbEntity
   8
LEVEL002
 370
15
 100
AcDbLine
   6
CONTINUOUS
  62
7
  10
 55.940751534944
  20
 122.82449682853
  30
0.0
  11
 55.940751534944
  21
 121.32449682853
  31
0.0
   0
LINE
   5
4C8
 100
AcDbEntity
   8
LEVEL002
 370
15
 100
AcDbLine
   6
CONTINUOUS
  62
7
  10
 55.940751534944
  20
 121.32449682853
  30
0.0
  11
 56.590751534944
  21
 120.57449682853
  31
0.0
   0
LINE
   5
4C9
 100
AcDbEntity
   8
LEVEL002
 370
15
 100
AcDbLine
   6
CONTINUOUS
  62
7
  10
 56.590751534944
  20
 120.57449682853
  30
0.0
  11
 56.090751534944
  21
 119.82449682853
  31
0.0
   0
LINE
   5
4CA
 100
AcDbEntity
   8
LEVEL002
 370
15
 100
AcDbLine
   6
CONTINUOUS
  62
7
  10
 56.090751534944
  20
 119.82449682853
  30
0.0
  11
 56.590751534944
  21
 117.82449682853
  31
0.0
   0
LINE
   5
4CB
 100
AcDbEntity
   8
LEVEL002
 370
15
 100
AcDbLine
   6
CONTINUOUS
  62
7
  10
 56.590751534944
  20
 117.82449682853
  30
0.0
  11
 56.090751534944
  21
 117.82449682853
  31
0.0
   0
LINE
   5
4CC
 100
AcDbEntity
   8
LEVEL002
 370
15
 100
AcDbLine
   6
CONTINUOUS
  62
7
  10
 56.090751534944
  20
 117.82449682853
  30
0.0
  11
 56.590751534944
  21
 115.82449682853
  31
0.0
   0
LINE
   5
4CD
 100
AcDbEntity
   8
LEVEL002
 370
15
 100
AcDbLine
   6
CONTINUOUS
  62
7
  10
 56.590751534944
  20
 115.82449682853
  30
0.0
  11
 58.790751534930
  21
 115.82449682853
  31
0.0
   0
LINE
   5
4CE
 100
AcDbEntity
   8
LEVEL002
 370
15
 100
AcDbLine
   6
CONTINUOUS
  62
7
  10
 58.016154865689
  20
 116.82449682853
  30
0.0
  11
 57.590751534944
  21
 116.82449682853
  31
0.0
   0
LINE
   5
4CF
 100
AcDbEntity
   8
LEVEL002
 370
15
 100
AcDbLine
   6
CONTINUOUS
  62
7
  10
 57.590751534944
  20
 116.82449682853
  30
0.0
  11
 57.590751534944
  21
 120.92162876370
  31
0.0
   0
LINE
   5
4D0
 100
AcDbEntity
   8
LEVEL002
 370
15
 100
AcDbLine
   6
CONTINUOUS
  62
7
  10
 55.940751534944
  20
 122.82449682853
  30
0.0
  11
 57.540751534958
  21
 122.82449682853
  31
0.0
   0
LINE
   5
4D1
 100
AcDbEntity
   8
LEVEL002
 370
15
 100
AcDbLine
   6
CONTINUOUS
  62
7
  10
 57.540751534958
  20
 122.82449682853
  30
0.0
  11
 60.040751534944
  21
 121.91457124287
  31
0.0
   0
LINE
   5
4D2
 100
AcDbEntity
   8
LEVEL002
 370
15
 100
AcDbLine
   6
CONTINUOUS
  62
7
  10
 60.040751534944
  20
 121.91457124287
  30
0.0
  11
 60.040751534944
  21
 119.72449682853
  31
0.0
   0
LINE
   5
4D3
 100
AcDbEntity
   8
LEVEL002
 370
15
 100
AcDbLine
   6
CONTINUOUS
  62
7
  10
 60.040751534944
  20
 119.72449682853
  30
0.0
  11
 64.040751534944
  21
 119.72449682853
  31
0.0
   0
LINE
   5
4D4
 100
AcDbEntity
   8
LEVEL002
 370
15
 100
AcDbLine
   6
CONTINUOUS
  62
7
  10
 64.040751534944
  20
 119.72449682853
  30
0.0
  11
 64.040751534944
  21
 121.91457124283
  31
0.0
   0
LINE
   5
4D5
 100
AcDbEntity
   8
LEVEL002
 370
15
 100
AcDbLine
   6
CONTINUOUS
  62
7
  10
 64.040751534944
  20
 121.91457124283
  30
0.0
  11
 66.540751534944
  21
 122.82449682850
  31
0.0
   0
LINE
   5
4D6
 100
AcDbEntity
   8
LEVEL002
 370
15
 100
AcDbLine
   6
CONTINUOUS
  62
7
  10
 66.540751534944
  20
 122.82449682850
  30
0.0
  11
 68.140751534944
  21
 122.82449682853
  31
0.0
   0
DIMENSION
   5
4D7
 100
AcDbEntity
   8
LEVEL001
 370
15
   6
CONTINUOUS
  62
8
 100
AcDbDimension
   2
*D30
  10
 53.756527895517
  20
 122.82449682853
  30
0.0
  11
 53.756527895517
  21
 121.27449682853
  31
0.0
  70
0
   3
GMM001
 100
AcDbAlignedDimension
  13
 60.040751534944
  23
 119.72449682853
  33
0.0
  14
 55.940751534944
  24
 122.82449682853
  34
0.0
  50
 90.000000000000
 100
AcDbRotatedDimension
   0
DIMENSION
   5
4D8
 100
AcDbEntity
   8
LEVEL001
 370
15
   6
CONTINUOUS
  62
8
 100
AcDbDimension
   2
*D31
  10
 64.040751534944
  20
 125.82449682850
  30
0.0
  11
 62.040751534944
  21
 125.82449682850
  31
0.0
  70
0
   3
GMM001
 100
AcDbAlignedDimension
  13
 60.040751534944
  23
 121.91457124287
  33
0.0
  14
 64.040751534944
  24
 121.91457124283
  34
0.0
 100
AcDbRotatedDimension
   0
DIMENSION
   5
4D9
 100
AcDbEntity
   8
LEVEL001
 370
15
   6
CONTINUOUS
  62
8
 100
AcDbDimension
   2
*D32
  10
 68.140751534944
  20
 128.82449682850
  30
0.0
  11
 62.040751534944
  21
 128.82449682850
  31
0.0
  70
0
   3
GMM001
 100
AcDbAlignedDimension
  13
 55.940751534944
  23
 122.82449682853
  33
0.0
  14
 68.140751534944
  24
 122.82449682853
  34
0.0
 100
AcDbRotatedDimension
   0
DIMENSION
   5
4DA
 100
AcDbEntity
   8
LEVEL001
 370
15
   6
CONTINUOUS
  62
8
 100
AcDbDimension
   2
*D33
  10
 71.140751534944
  20
 122.82449682853
  30
0.0
  11
 71.140751534944
  21
 119.32449682853
  31
0.0
  70
0
   3
GMM001
 100
AcDbAlignedDimension
  13
 67.490751534944
  23
 115.82449682853
  33
0.0
  14
 68.140751534944
  24
 122.82449682853
  34
0.0
  50
 90.000000000000
 100
AcDbRotatedDimension
   0
MTEXT
   5
4DC
 100
AcDbEntity
   8
LEVEL001
 370
15
  62
8
 100
AcDbMText
  10
 44.024999999975
  20
 110.87500000000
  30
0.0
  40
 1.5000000000000
  41
0.0
  71
4
  72
1
   1
\W0.500000;\T1.000000; \W1.000000;\T1.000000;　堀込寸法：１２×７
   7
GMM002
  44
 0.79999984000003
   0
LINE
   5
4DD
 100
AcDbEntity
   8
LEVEL002
 370
15
 100
AcDbLine
   6
DASHDOT
  62
8
  10
 62.040751534931
  20
 114.09754647392
  30
0.0
  11
 62.040751534931
  21
 124.55144718313
  31
0.0
   0
MTEXT
   5
4DF
 100
AcDbEntity
   8
LEVEL001
 370
15
  62
8
 100
AcDbMText
  10
 80.149999999975
  20
 140.00000000000
  30
0.0
  40
 1.5000000000000
  41
0.0
  71
4
  72
1
   1
\W0.500000;\T1.000000; \W1.000000;\T1.000000;　ＹＡ９
   7
GMM002
  44
 0.79999984000003
   0
LINE
   5
4E0
 100
AcDbEntity
   8
LEVEL002
 370
15
 100
AcDbLine
   6
CONTINUOUS
  62
7
  10
 95.088971523011
  20
 116.82449682853
  30
0.0
  11
 96.003165632082
  21
 116.18869093760
  31
0.0
   0
LINE
   5
4E1
 100
AcDbEntity
   8
LEVEL002
 370
15
 100
AcDbLine
   6
CONTINUOUS
  62
7
  10
 93.488971523011
  20
 124.82449682853
  30
0.0
  11
 93.488971523011
  21
 123.32449682853
  31
0.0
   0
LINE
   5
4E2
 100
AcDbEntity
   8
LEVEL002
 370
15
 100
AcDbLine
   6
CONTINUOUS
  62
7
  10
 95.088971523011
  20
 119.62449682853
  30
0.0
  11
 95.088971523011
  21
 116.82449682853
  31
0.0
   0
LINE
   5
4E3
 100
AcDbEntity
   8
LEVEL002
 370
15
 100
AcDbLine
   6
CONTINUOUS
  62
7
  10
 95.988971523011
  20
 122.48736528968
  30
0.0
  11
 95.088971523011
  21
 122.81493850052
  31
0.0
   0
LINE
   5
4E4
 100
AcDbEntity
   8
LEVEL002
 370
15
 100
AcDbLine
   6
CONTINUOUS
  62
7
  10
 95.088971523011
  20
 122.81493850052
  30
0.0
  11
 95.088971523011
  21
 120.82449682853
  31
0.0
   0
LINE
   5
4E5
 100
AcDbEntity
   8
LEVEL002
 370
15
 100
AcDbLine
   6
CONTINUOUS
  62
7
  10
 93.488971523011
  20
 123.32449682853
  30
0.0
  11
 94.088971523011
  21
 122.82449682853
  31
0.0
   0
LINE
   5
4E6
 100
AcDbEntity
   8
LEVEL002
 370
15
 100
AcDbLine
   6
CONTINUOUS
  62
7
  10
 95.088971523011
  20
 120.82449682853
  30
0.0
  11
 97.988971523011
  21
 120.82449682853
  31
0.0
   0
LINE
   5
4E7
 100
AcDbEntity
   8
LEVEL002
 370
15
 100
AcDbLine
   6
CONTINUOUS
  62
7
  10
 97.988971523011
  20
 119.62449682853
  30
0.0
  11
 95.088971523011
  21
 119.62449682853
  31
0.0
   0
LINE
   5
4E8
 100
AcDbEntity
   8
LEVEL002
 370
15
 100
AcDbLine
   6
CONTINUOUS
  62
7
  10
 94.088971523011
  20
 122.82449682853
  30
0.0
  11
 93.663170770804
  21
 122.47997727986
  31
0.0
   0
LINE
   5
4E9
 100
AcDbEntity
   8
LEVEL002
 370
15
 100
AcDbLine
   6
CONTINUOUS
  62
7
  10
 94.088971523011
  20
 120.82449682853
  30
0.0
  11
 93.599667024445
  21
 122.25996926215
  31
0.0
   0
LINE
   5
4EA
 100
AcDbEntity
   8
LEVEL002
 370
15
 100
AcDbLine
   6
CONTINUOUS
  62
7
  10
 94.088971523011
  20
 115.82449682853
  30
0.0
  11
 93.596484779077
  21
 117.57019348232
  31
0.0
   0
LINE
   5
4EB
 100
AcDbEntity
   8
LEVEL002
 370
15
 100
AcDbLine
   6
CONTINUOUS
  62
7
  10
 94.088971523011
  20
 117.82449682853
  30
0.0
  11
 93.788971523011
  21
 117.82449682853
  31
0.0
   0
LINE
   5
4EC
 100
AcDbEntity
   8
LEVEL002
 370
15
 100
AcDbLine
   6
CONTINUOUS
  62
7
  10
 94.088971523011
  20
 117.82449682853
  30
0.0
  11
 93.603036941598
  21
 119.05081961744
  31
0.0
   0
LINE
   5
4ED
 100
AcDbEntity
   8
LEVEL002
 370
15
 100
AcDbLine
   6
CONTINUOUS
  62
7
  10
 94.088971523011
  20
 119.32449682853
  30
0.0
  11
 93.788971523011
  21
 119.32449682853
  31
0.0
   0
LINE
   5
4EE
 100
AcDbEntity
   8
LEVEL002
 370
15
 100
AcDbLine
   6
CONTINUOUS
  62
7
  10
 94.088971523011
  20
 119.32449682853
  30
0.0
  11
 93.603036941598
  21
 120.55081961744
  31
0.0
   0
LINE
   5
4EF
 100
AcDbEntity
   8
LEVEL002
 370
15
 100
AcDbLine
   6
CONTINUOUS
  62
7
  10
 94.088971523011
  20
 120.82449682853
  30
0.0
  11
 93.788971523011
  21
 120.82449682853
  31
0.0
   0
ARC
   5
4F0
 100
AcDbEntity
   8
LEVEL002
 370
15
   6
CONTINUOUS
  62
7
 100
AcDbCircle
  10
 95.788971523010
  20
 123.84732378209
  30
0.0
  40
 0.20000000000000
 100
AcDbArc
  50
0.0
  51
 69.999999999955
   0
ARC
   5
4F1
 100
AcDbEntity
   8
LEVEL002
 370
15
   6
CONTINUOUS
  62
7
 100
AcDbCircle
  10
 93.788971523011
  20
 122.32449682853
  30
0.0
  40
 0.20000000000000
 100
AcDbArc
  50
 128.97666001881
  51
 198.82252501438
   0
ARC
   5
4F2
 100
AcDbEntity
   8
LEVEL002
 370
15
   6
CONTINUOUS
  62
7
 100
AcDbCircle
  10
 93.788971523011
  20
 120.62449682853
  30
0.0
  40
 0.20000000000000
 100
AcDbArc
  50
 90.000000000065
  51
 201.61611552981
   0
ARC
   5
4F3
 100
AcDbEntity
   8
LEVEL002
 370
15
   6
CONTINUOUS
  62
7
 100
AcDbCircle
  10
 93.788971523011
  20
 119.12449682853
  30
0.0
  40
 0.20000000000000
 100
AcDbArc
  50
 90.000000000102
  51
 201.61611552967
   0
ARC
   5
4F4
 100
AcDbEntity
   8
LEVEL002
 370
15
   6
CONTINUOUS
  62
7
 100
AcDbCircle
  10
 93.788971523011
  20
 117.62449682853
  30
0.0
  40
 0.20000000000000
 100
AcDbArc
  50
 90.000000000004
  51
 195.75454113501
   0
LINE
   5
4F5
 100
AcDbEntity
   8
LEVEL002
 370
15
 100
AcDbLine
   6
CONTINUOUS
  62
7
  10
 100.88897152301
  20
 116.82449682853
  30
0.0
  11
 99.974777413940
  21
 116.18869093760
  31
0.0
   0
LINE
   5
4F6
 100
AcDbEntity
   8
LEVEL002
 370
15
 100
AcDbLine
   6
CONTINUOUS
  62
7
  10
 102.48897152301
  20
 124.82449682853
  30
0.0
  11
 102.48897152301
  21
 123.32449682853
  31
0.0
   0
LINE
   5
4F7
 100
AcDbEntity
   8
LEVEL002
 370
15
 100
AcDbLine
   6
CONTINUOUS
  62
7
  10
 100.88897152301
  20
 119.62449682853
  30
0.0
  11
 100.88897152301
  21
 116.82449682853
  31
0.0
   0
LINE
   5
4F8
 100
AcDbEntity
   8
LEVEL002
 370
15
 100
AcDbLine
   6
CONTINUOUS
  62
7
  10
 99.988971523011
  20
 122.48736528968
  30
0.0
  11
 100.88897152301
  21
 122.81493850052
  31
0.0
   0
LINE
   5
4F9
 100
AcDbEntity
   8
LEVEL002
 370
15
 100
AcDbLine
   6
CONTINUOUS
  62
7
  10
 100.88897152301
  20
 122.81493850052
  30
0.0
  11
 100.88897152301
  21
 120.82449682853
  31
0.0
   0
LINE
   5
4FA
 100
AcDbEntity
   8
LEVEL002
 370
15
 100
AcDbLine
   6
CONTINUOUS
  62
7
  10
 102.48897152301
  20
 123.32449682853
  30
0.0
  11
 101.88897152301
  21
 122.82449682853
  31
0.0
   0
LINE
   5
4FB
 100
AcDbEntity
   8
LEVEL002
 370
15
 100
AcDbLine
   6
CONTINUOUS
  62
7
  10
 100.88897152301
  20
 120.82449682853
  30
0.0
  11
 97.988971523011
  21
 120.82449682853
  31
0.0
   0
LINE
   5
4FC
 100
AcDbEntity
   8
LEVEL002
 370
15
 100
AcDbLine
   6
CONTINUOUS
  62
7
  10
 97.988971523011
  20
 119.62449682853
  30
0.0
  11
 100.88897152301
  21
 119.62449682853
  31
0.0
   0
LINE
   5
4FD
 100
AcDbEntity
   8
LEVEL002
 370
15
 100
AcDbLine
   6
CONTINUOUS
  62
7
  10
 101.88897152301
  20
 122.82449682853
  30
0.0
  11
 102.31477227522
  21
 122.47997727986
  31
0.0
   0
LINE
   5
4FE
 100
AcDbEntity
   8
LEVEL002
 370
15
 100
AcDbLine
   6
CONTINUOUS
  62
7
  10
 101.88897152301
  20
 120.82449682853
  30
0.0
  11
 102.37827602158
  21
 122.25996926215
  31
0.0
   0
LINE
   5
4FF
 100
AcDbEntity
   8
LEVEL002
 370
15
 100
AcDbLine
   6
CONTINUOUS
  62
7
  10
 101.88897152301
  20
 115.82449682853
  30
0.0
  11
 102.38145826694
  21
 117.57019348232
  31
0.0
   0
LINE
   5
500
 100
AcDbEntity
   8
LEVEL002
 370
15
 100
AcDbLine
   6
CONTINUOUS
  62
7
  10
 101.88897152301
  20
 117.82449682853
  30
0.0
  11
 102.18897152301
  21
 117.82449682853
  31
0.0
   0
LINE
   5
501
 100
AcDbEntity
   8
LEVEL002
 370
15
 100
AcDbLine
   6
CONTINUOUS
  62
7
  10
 101.88897152301
  20
 117.82449682853
  30
0.0
  11
 102.37490610442
  21
 119.05081961744
  31
0.0
   0
LINE
   5
502
 100
AcDbEntity
   8
LEVEL002
 370
15
 100
AcDbLine
   6
CONTINUOUS
  62
7
  10
 101.88897152301
  20
 119.32449682853
  30
0.0
  11
 102.18897152301
  21
 119.32449682853
  31
0.0
   0
LINE
   5
503
 100
AcDbEntity
   8
LEVEL002
 370
15
 100
AcDbLine
   6
CONTINUOUS
  62
7
  10
 101.88897152301
  20
 119.32449682853
  30
0.0
  11
 102.37490610442
  21
 120.55081961744
  31
0.0
   0
LINE
   5
504
 100
AcDbEntity
   8
LEVEL002
 370
15
 100
AcDbLine
   6
CONTINUOUS
  62
7
  10
 101.88897152301
  20
 120.82449682853
  30
0.0
  11
 102.18897152301
  21
 120.82449682853
  31
0.0
   0
ARC
   5
505
 100
AcDbEntity
   8
LEVEL002
 370
15
   6
CONTINUOUS
  62
7
 100
AcDbCircle
  10
 100.18897152301
  20
 123.84732378209
  30
0.0
  40
 0.20000000000000
 100
AcDbArc
  50
 110.00000000008
  51
 180.00000000003
   0
ARC
   5
506
 100
AcDbEntity
   8
LEVEL002
 370
15
   6
CONTINUOUS
  62
7
 100
AcDbCircle
  10
 102.18897152301
  20
 122.32449682853
  30
0.0
  40
 0.20000000000000
 100
AcDbArc
  50
 341.17747498596
  51
 51.023339981299
   0
ARC
   5
507
 100
AcDbEntity
   8
LEVEL002
 370
15
   6
CONTINUOUS
  62
7
 100
AcDbCircle
  10
 102.18897152301
  20
 120.62449682853
  30
0.0
  40
 0.20000000000000
 100
AcDbArc
  50
 338.38388447028
  51
 89.999999999919
   0
ARC
   5
508
 100
AcDbEntity
   8
LEVEL002
 370
15
   6
CONTINUOUS
  62
7
 100
AcDbCircle
  10
 102.18897152301
  20
 119.12449682853
  30
0.0
  40
 0.20000000000000
 100
AcDbArc
  50
 338.38388447008
  51
 89.999999999972
   0
ARC
   5
509
 100
AcDbEntity
   8
LEVEL002
 370
15
   6
CONTINUOUS
  62
7
 100
AcDbCircle
  10
 102.18897152301
  20
 117.62449682853
  30
0.0
  40
 0.20000000000000
 100
AcDbArc
  50
 344.24545886482
  51
 90.000000000041
   0
LINE
   5
50A
 100
AcDbEntity
   8
LEVEL002
 370
15
 100
AcDbLine
   6
CONTINUOUS
  62
7
  10
 95.857375551676
  20
 124.03526230625
  30
0.0
  11
 93.688971523052
  21
 124.82449682853
  31
0.0
   0
LINE
   5
50B
 100
AcDbEntity
   8
LEVEL002
 370
15
 100
AcDbLine
   6
CONTINUOUS
  62
7
  10
 93.688971523052
  20
 124.82449682853
  30
0.0
  11
 93.488971523011
  21
 124.82449682853
  31
0.0
   0
LINE
   5
50C
 100
AcDbEntity
   8
LEVEL002
 370
15
 100
AcDbLine
   6
CONTINUOUS
  62
7
  10
 95.988971523011
  20
 122.48736528968
  30
0.0
  11
 95.988971523011
  21
 123.84732378209
  31
0.0
   0
LINE
   5
50D
 100
AcDbEntity
   8
LEVEL002
 370
15
 100
AcDbLine
   6
CONTINUOUS
  62
7
  10
 99.988971523011
  20
 122.48736528968
  30
0.0
  11
 99.988971523011
  21
 123.84732378209
  31
0.0
   0
LINE
   5
50E
 100
AcDbEntity
   8
LEVEL002
 370
15
 100
AcDbLine
   6
CONTINUOUS
  62
7
  10
 100.12056749435
  20
 124.03526230625
  30
0.0
  11
 102.28897152297
  21
 124.82449682853
  31
0.0
   0
LINE
   5
50F
 100
AcDbEntity
   8
LEVEL002
 370
15
 100
AcDbLine
   6
CONTINUOUS
  62
7
  10
 102.28897152297
  20
 124.82449682853
  30
0.0
  11
 102.48897152301
  21
 124.82449682853
  31
0.0
   0
ARC
   5
510
 100
AcDbEntity
   8
LEVEL002
 370
15
   6
CONTINUOUS
  62
7
 100
AcDbCircle
  10
 95.888971523011
  20
 116.02449682853
  30
0.0
  40
 0.20000000000000
 100
AcDbArc
  50
 270.00000000007
  51
 55.182067403097
   0
LINE
   5
511
 100
AcDbEntity
   8
LEVEL002
 370
15
 100
AcDbLine
   6
CONTINUOUS
  62
7
  10
 94.088971523011
  20
 115.82449682853
  30
0.0
  11
 95.888971523011
  21
 115.82449682853
  31
0.0
   0
ARC
   5
512
 100
AcDbEntity
   8
LEVEL002
 370
15
   6
CONTINUOUS
  62
7
 100
AcDbCircle
  10
 100.08897152301
  20
 116.02449682853
  30
0.0
  40
 0.20000000000000
 100
AcDbArc
  50
 124.81793259664
  51
 270.00000000025
   0
LINE
   5
513
 100
AcDbEntity
   8
LEVEL002
 370
15
 100
AcDbLine
   6
CONTINUOUS
  62
7
  10
 101.88897152301
  20
 115.82449682853
  30
0.0
  11
 100.08897152301
  21
 115.82449682853
  31
0.0
   0
DIMENSION
   5
514
 100
AcDbEntity
   8
LEVEL001
 370
15
   6
CONTINUOUS
  62
8
 100
AcDbDimension
   2
*D34
  10
 90.988971523011
  20
 124.82449682853
  30
0.0
  11
 90.988971523011
  21
 122.82449682853
  31
0.0
  70
0
   3
GMM001
 100
AcDbAlignedDimension
  13
 95.088971523011
  23
 120.82449682853
  33
0.0
  14
 93.488971523011
  24
 124.82449682853
  34
0.0
  50
 90.000000000000
 100
AcDbRotatedDimension
   0
DIMENSION
   5
515
 100
AcDbEntity
   8
LEVEL001
 370
15
   6
CONTINUOUS
  62
8
 100
AcDbDimension
   2
*D35
  10
 99.988971523011
  20
 127.82449682853
  30
0.0
  11
 97.988971523011
  21
 127.82449682853
  31
0.0
  70
0
   3
GMM001
 100
AcDbAlignedDimension
  13
 95.988971523011
  23
 123.84732378209
  33
0.0
  14
 99.988971523011
  24
 123.84732378209
  34
0.0
 100
AcDbRotatedDimension
   0
DIMENSION
   5
516
 100
AcDbEntity
   8
LEVEL001
 370
15
   6
CONTINUOUS
  62
8
 100
AcDbDimension
   2
*D36
  10
 102.48897152301
  20
 130.82449682853
  30
0.0
  11
 97.988971523011
  21
 130.82449682853
  31
0.0
  70
0
   3
GMM001
 100
AcDbAlignedDimension
  13
 93.488971523011
  23
 124.82449682853
  33
0.0
  14
 102.48897152301
  24
 124.82449682853
  34
0.0
 100
AcDbRotatedDimension
   0
DIMENSION
   5
517
 100
AcDbEntity
   8
LEVEL001
 370
15
   6
CONTINUOUS
  62
8
 100
AcDbDimension
   2
*D37
  10
 104.98897152301
  20
 124.82449682853
  30
0.0
  11
 104.98897152301
  21
 120.32449682853
  31
0.0
  70
0
   3
GMM001
 100
AcDbAlignedDimension
  13
 101.88897152301
  23
 115.82449682853
  33
0.0
  14
 102.48897152301
  24
 124.82449682853
  34
0.0
  50
 90.000000000000
 100
AcDbRotatedDimension
   0
MTEXT
   5
519
 100
AcDbEntity
   8
LEVEL001
 370
15
  62
8
 100
AcDbMText
  10
 80.149999999975
  20
 110.87500000000
  30
0.0
  40
 1.5000000000000
  41
0.0
  71
4
  72
1
   1
\W0.500000;\T1.000000; \W1.000000;\T1.000000;　堀込寸法：９×９
   7
GMM002
  44
 0.79999984000003
   0
LINE
   5
51A
 100
AcDbEntity
   8
LEVEL002
 370
15
 100
AcDbLine
   6
DASHDOT
  62
8
  10
 97.988971523011
  20
 113.73284958025
  30
0.0
  11
 97.988971523011
  21
 126.91614407682
  31
0.0
   0
MTEXT
   5
51C
 100
AcDbEntity
   8
LEVEL001
 370
15
  62
8
 100
AcDbMText
  10
 80.149999999975
  20
 105.87500000000
  30
0.0
  40
 1.5000000000000
  41
0.0
  71
4
  72
1
   1
\W0.500000;\T1.000000; \W1.000000;\T1.000000;　ＤＹＡ９
   7
GMM002
  44
 0.79999984000003
   0
MTEXT
   5
51E
 100
AcDbEntity
   8
LEVEL001
 370
15
  62
8
 100
AcDbMText
  10
 80.149999999975
  20
 75.843821510300
  30
0.0
  40
 1.5000000000000
  41
0.0
  71
4
  72
1
   1
\W0.500000;\T1.000000; \W1.000000;\T1.000000;　堀込寸法：９×９
   7
GMM002
  44
 0.79999984000003
   0
LINE
   5
51F
 100
AcDbEntity
   8
LEVEL002
 370
15
 100
AcDbLine
   6
DASHDOT
  62
8
  10
 97.988971522896
  20
 81.775418693786
  30
0.0
  11
 97.988971522896
  21
 92.077683264008
  31
0.0
   0
DIMENSION
   5
520
 100
AcDbEntity
   8
LEVEL001
 370
15
   6
CONTINUOUS
  62
8
 100
AcDbDimension
   2
*D38
  10
 99.988971522895
  20
 94.926550978897
  30
0.0
  11
 97.988971522953
  21
 94.926550978897
  31
0.0
  70
0
   3
GMM001
 100
AcDbAlignedDimension
  13
 95.988971523012
  23
 91.089419440057
  33
0.0
  14
 99.988971522895
  24
 91.089419440057
  34
0.0
 100
AcDbRotatedDimension
   0
DIMENSION
   5
521
 100
AcDbEntity
   8
LEVEL001
 370
15
   6
CONTINUOUS
  62
8
 100
AcDbDimension
   2
*D39
  10
 104.48897152289
  20
 97.926550978897
  30
0.0
  11
 97.988971522895
  21
 97.926550978897
  31
0.0
  70
0
   3
GMM001
 100
AcDbAlignedDimension
  13
 91.488971522897
  23
 91.426550978898
  33
0.0
  14
 104.48897152289
  24
 91.426550978898
  34
0.0
 100
AcDbRotatedDimension
   0
DIMENSION
   5
522
 100
AcDbEntity
   8
LEVEL001
 370
15
   6
CONTINUOUS
  62
8
 100
AcDbDimension
   2
*D40
  10
 102.48897152289
  20
 77.926550978897
  30
0.0
  11
 97.988971522953
  21
 77.926550978897
  31
0.0
  70
0
   3
GMM001
 100
AcDbAlignedDimension
  13
 93.488971523012
  23
 89.426550978897
  33
0.0
  14
 102.48897152289
  24
 89.329083355219
  34
0.0
 100
AcDbRotatedDimension
   0
DIMENSION
   5
523
 100
AcDbEntity
   8
LEVEL001
 370
15
   6
CONTINUOUS
  62
8
 100
AcDbDimension
   2
*D41
  10
 109.48897152289
  20
 91.926550978897
  30
0.0
  11
 109.48897152289
  21
 86.926550978897
  31
0.0
  70
0
   3
GMM002
 100
AcDbAlignedDimension
  13
 106.98897152289
  23
 81.926550978897
  33
0.0
  14
 106.98897152289
  24
 91.926550978897
  34
0.0
  50
 90.000000000000
 100
AcDbRotatedDimension
   0
DIMENSION
   5
524
 100
AcDbEntity
   8
LEVEL001
 370
15
   6
CONTINUOUS
  62
8
 100
AcDbDimension
   2
*D42
  10
 106.98897152289
  20
 90.926550978897
  30
0.0
  11
 106.98897152289
  21
 86.426550978897
  31
0.0
  70
0
   3
GMM002
 100
AcDbAlignedDimension
  13
 101.88897152289
  23
 81.926550978897
  33
0.0
  14
 104.18897152289
  24
 90.926550978897
  34
0.0
  50
 90.000000000000
 100
AcDbRotatedDimension
   0
DIMENSION
   5
525
 100
AcDbEntity
   8
LEVEL001
 370
15
   6
CONTINUOUS
  62
8
 100
AcDbDimension
   2
*D43
  10
 106.98897152289
  20
 91.926550978897
  30
0.0
  11
 106.98897152289
  21
 92.930396643789
  31
0.0
  70
128
   3
GMM007
 100
AcDbAlignedDimension
  13
 104.18897152289
  23
 90.926550978897
  33
0.0
  14
 102.40011714089
  24
 91.926550978897
  34
0.0
  50
 90.000000000000
 100
AcDbRotatedDimension
   0
DIMENSION
   5
526
 100
AcDbEntity
   8
LEVEL001
 370
15
   6
CONTINUOUS
  62
8
 100
AcDbDimension
   2
*D44
  10
 88.988971522897
  20
 91.926550978897
  30
0.0
  11
 88.988971522897
  21
 89.426550978897
  31
0.0
  70
0
   3
GMM002
 100
AcDbAlignedDimension
  13
 95.088971523012
  23
 86.926550978897
  33
0.0
  14
 93.388971522896
  24
 91.926550978897
  34
0.0
  50
 90.000000000000
 100
AcDbRotatedDimension
   0
LINE
   5
527
 100
AcDbEntity
   8
LEVEL002
 370
15
 100
AcDbLine
   6
CONTINUOUS
  62
7
  10
 102.48897152289
  20
 90.926550978897
  30
0.0
  11
 102.48897152289
  21
 89.426550978897
  31
0.0
   0
LINE
   5
528
 100
AcDbEntity
   8
LEVEL002
 370
15
 100
AcDbLine
   6
CONTINUOUS
  62
7
  10
 100.88897152289
  20
 85.726550978897
  30
0.0
  11
 100.88897152289
  21
 82.926550978897
  31
0.0
   0
ARC
   5
529
 100
AcDbEntity
   8
LEVEL002
 370
15
   6
CONTINUOUS
  62
7
 100
AcDbCircle
  10
 102.40011714089
  20
 87.426550978897
  30
0.0
  40
 4.5000000000000
 100
AcDbArc
  50
 64.791234703243
  51
 90.000000000003
   0
ARC
   5
52A
 100
AcDbEntity
   8
LEVEL002
 370
15
   6
CONTINUOUS
  62
7
 100
AcDbCircle
  10
 104.18897152289
  20
 91.226550978897
  30
0.0
  40
 0.30000000000000
 100
AcDbArc
  50
 269.99999999991
  51
 64.791234703335
   0
LINE
   5
52B
 100
AcDbEntity
   8
LEVEL002
 370
15
 100
AcDbLine
   6
CONTINUOUS
  62
7
  10
 102.48897152289
  20
 90.926550978897
  30
0.0
  11
 104.18897152289
  21
 90.926550978897
  31
0.0
   0
LINE
   5
52C
 100
AcDbEntity
   8
LEVEL002
 370
15
 100
AcDbLine
   6
CONTINUOUS
  62
7
  10
 100.88897152289
  20
 82.926550978897
  30
0.0
  11
 99.974777413824
  21
 82.290745087968
  31
0.0
   0
ARC
   5
52D
 100
AcDbEntity
   8
LEVEL002
 370
15
   6
CONTINUOUS
  62
7
 100
AcDbCircle
  10
 100.08897152289
  20
 82.126550978897
  30
0.0
  40
 0.20000000000000
 100
AcDbArc
  50
 124.81793259670
  51
 270.00000000020
   0
LINE
   5
52E
 100
AcDbEntity
   8
LEVEL002
 370
15
 100
AcDbLine
   6
CONTINUOUS
  62
7
  10
 102.40011714089
  20
 91.926550978897
  30
0.0
  11
 102.28897152297
  21
 91.926550978897
  31
0.0
   0
LINE
   5
52F
 100
AcDbEntity
   8
LEVEL002
 370
15
 100
AcDbLine
   6
CONTINUOUS
  62
7
  10
 102.28897152297
  20
 91.926550978897
  30
0.0
  11
 99.988971522895
  21
 91.089419440057
  31
0.0
   0
LINE
   5
530
 100
AcDbEntity
   8
LEVEL002
 370
15
 100
AcDbLine
   6
CONTINUOUS
  62
7
  10
 99.988971522895
  20
 91.089419440057
  30
0.0
  11
 99.988971522895
  21
 89.875049041385
  31
0.0
   0
ARC
   5
531
 100
AcDbEntity
   8
LEVEL002
 370
15
   6
CONTINUOUS
  62
7
 100
AcDbCircle
  10
 100.18897152289
  20
 89.875049041385
  30
0.0
  40
 0.20000000000000
 100
AcDbArc
  50
 180.00000000000
  51
 290.00000000000
   0
LINE
   5
532
 100
AcDbEntity
   8
LEVEL002
 370
15
 100
AcDbLine
   6
CONTINUOUS
  62
7
  10
 100.25737555156
  20
 89.687110517228
  30
0.0
  11
 100.88897152289
  21
 89.916992650876
  31
0.0
   0
LINE
   5
533
 100
AcDbEntity
   8
LEVEL002
 370
15
 100
AcDbLine
   6
CONTINUOUS
  62
7
  10
 100.88897152289
  20
 89.916992650876
  30
0.0
  11
 100.88897152289
  21
 86.926550978897
  31
0.0
   0
LINE
   5
534
 100
AcDbEntity
   8
LEVEL002
 370
15
 100
AcDbLine
   6
CONTINUOUS
  62
7
  10
 102.48897152289
  20
 89.426550978897
  30
0.0
  11
 101.88897152289
  21
 88.926550978897
  31
0.0
   0
LINE
   5
535
 100
AcDbEntity
   8
LEVEL002
 370
15
 100
AcDbLine
   6
CONTINUOUS
  62
7
  10
 101.88897152289
  20
 86.926550978897
  30
0.0
  11
 102.18897152289
  21
 86.926550978897
  31
0.0
   0
LINE
   5
536
 100
AcDbEntity
   8
LEVEL002
 370
15
 100
AcDbLine
   6
CONTINUOUS
  62
7
  10
 101.88897152289
  20
 81.926550978897
  30
0.0
  11
 100.08897152289
  21
 81.926550978897
  31
0.0
   0
LINE
   5
537
 100
AcDbEntity
   8
LEVEL002
 370
15
 100
AcDbLine
   6
CONTINUOUS
  62
7
  10
 101.88897152289
  20
 85.426550978897
  30
0.0
  11
 102.18897152289
  21
 85.426550978897
  31
0.0
   0
LINE
   5
538
 100
AcDbEntity
   8
LEVEL002
 370
15
 100
AcDbLine
   6
CONTINUOUS
  62
7
  10
 101.88897152289
  20
 83.926550978897
  30
0.0
  11
 102.18897152289
  21
 83.926550978897
  31
0.0
   0
LINE
   5
539
 100
AcDbEntity
   8
LEVEL002
 370
15
 100
AcDbLine
   6
CONTINUOUS
  62
7
  10
 100.88897152289
  20
 85.726550978897
  30
0.0
  11
 97.988971522896
  21
 85.726550978897
  31
0.0
   0
LINE
   5
53A
 100
AcDbEntity
   8
LEVEL002
 370
15
 100
AcDbLine
   6
CONTINUOUS
  62
7
  10
 97.988971522896
  20
 86.926550978897
  30
0.0
  11
 100.88897152289
  21
 86.926550978897
  31
0.0
   0
LINE
   5
53B
 100
AcDbEntity
   8
LEVEL002
 370
15
 100
AcDbLine
   6
CONTINUOUS
  62
7
  10
 101.88897152289
  20
 81.926550978897
  30
0.0
  11
 102.38145826683
  21
 83.672247632686
  31
0.0
   0
LINE
   5
53C
 100
AcDbEntity
   8
LEVEL002
 370
15
 100
AcDbLine
   6
CONTINUOUS
  62
7
  10
 101.88897152289
  20
 83.926550978897
  30
0.0
  11
 102.37490610431
  21
 85.152873767802
  31
0.0
   0
LINE
   5
53D
 100
AcDbEntity
   8
LEVEL002
 370
15
 100
AcDbLine
   6
CONTINUOUS
  62
7
  10
 101.88897152289
  20
 85.426550978897
  30
0.0
  11
 102.37490610431
  21
 86.652873767802
  31
0.0
   0
LINE
   5
53E
 100
AcDbEntity
   8
LEVEL002
 370
15
 100
AcDbLine
   6
CONTINUOUS
  62
7
  10
 101.88897152289
  20
 86.926550978897
  30
0.0
  11
 102.37827602146
  21
 88.362023412518
  31
0.0
   0
LINE
   5
53F
 100
AcDbEntity
   8
LEVEL002
 370
15
 100
AcDbLine
   6
CONTINUOUS
  62
7
  10
 101.88897152289
  20
 88.926550978897
  30
0.0
  11
 102.31477227510
  21
 88.582031430222
  31
0.0
   0
ARC
   5
540
 100
AcDbEntity
   8
LEVEL002
 370
15
   6
CONTINUOUS
  62
7
 100
AcDbCircle
  10
 102.18897152289
  20
 83.726550978897
  30
0.0
  40
 0.20000000000000
 100
AcDbArc
  50
 344.24545886501
  51
 90.000000000000
   0
ARC
   5
541
 100
AcDbEntity
   8
LEVEL002
 370
15
   6
CONTINUOUS
  62
7
 100
AcDbCircle
  10
 102.18897152289
  20
 88.426550978897
  30
0.0
  40
 0.20000000000000
 100
AcDbArc
  50
 341.17747498590
  51
 51.023339981279
   0
ARC
   5
542
 100
AcDbEntity
   8
LEVEL002
 370
15
   6
CONTINUOUS
  62
7
 100
AcDbCircle
  10
 102.18897152289
  20
 86.726550978897
  30
0.0
  40
 0.20000000000000
 100
AcDbArc
  50
 338.38388447004
  51
 90.000000000004
   0
ARC
   5
543
 100
AcDbEntity
   8
LEVEL002
 370
15
   6
CONTINUOUS
  62
7
 100
AcDbCircle
  10
 102.18897152289
  20
 85.226550978897
  30
0.0
  40
 0.20000000000000
 100
AcDbArc
  50
 338.38388447004
  51
 90.000000000004
   0
LINE
   5
544
 100
AcDbEntity
   8
LEVEL002
 370
15
 100
AcDbLine
   6
CONTINUOUS
  62
7
  10
 93.488971523012
  20
 90.926550978897
  30
0.0
  11
 93.488971523012
  21
 89.426550978897
  31
0.0
   0
LINE
   5
545
 100
AcDbEntity
   8
LEVEL002
 370
15
 100
AcDbLine
   6
CONTINUOUS
  62
7
  10
 95.088971523012
  20
 85.726550978897
  30
0.0
  11
 95.088971523012
  21
 82.926550978897
  31
0.0
   0
ARC
   5
546
 100
AcDbEntity
   8
LEVEL002
 370
15
   6
CONTINUOUS
  62
7
 100
AcDbCircle
  10
 93.577825905012
  20
 87.426550978897
  30
0.0
  40
 4.5000000000000
 100
AcDbArc
  50
 89.999999999997
  51
 115.20876529676
   0
ARC
   5
547
 100
AcDbEntity
   8
LEVEL002
 370
15
   6
CONTINUOUS
  62
7
 100
AcDbCircle
  10
 91.788971523012
  20
 91.226550978897
  30
0.0
  40
 0.30000000000000
 100
AcDbArc
  50
 115.20876529665
  51
 270.00000000010
   0
LINE
   5
548
 100
AcDbEntity
   8
LEVEL002
 370
15
 100
AcDbLine
   6
CONTINUOUS
  62
7
  10
 93.488971523012
  20
 90.926550978897
  30
0.0
  11
 91.788971523012
  21
 90.926550978897
  31
0.0
   0
LINE
   5
549
 100
AcDbEntity
   8
LEVEL002
 370
15
 100
AcDbLine
   6
CONTINUOUS
  62
7
  10
 95.088971523012
  20
 82.926550978897
  30
0.0
  11
 96.003165632083
  21
 82.290745087968
  31
0.0
   0
ARC
   5
54A
 100
AcDbEntity
   8
LEVEL002
 370
15
   6
CONTINUOUS
  62
7
 100
AcDbCircle
  10
 95.888971523013
  20
 82.126550978897
  30
0.0
  40
 0.20000000000000
 100
AcDbArc
  50
 269.99999999980
  51
 55.182067403302
   0
LINE
   5
54B
 100
AcDbEntity
   8
LEVEL002
 370
15
 100
AcDbLine
   6
CONTINUOUS
  62
7
  10
 93.577825905012
  20
 91.926550978897
  30
0.0
  11
 93.688971522936
  21
 91.926550978897
  31
0.0
   0
LINE
   5
54C
 100
AcDbEntity
   8
LEVEL002
 370
15
 100
AcDbLine
   6
CONTINUOUS
  62
7
  10
 93.688971522936
  20
 91.926550978897
  30
0.0
  11
 95.988971523012
  21
 91.089419440057
  31
0.0
   0
LINE
   5
54D
 100
AcDbEntity
   8
LEVEL002
 370
15
 100
AcDbLine
   6
CONTINUOUS
  62
7
  10
 95.988971523012
  20
 91.089419440057
  30
0.0
  11
 95.988971523012
  21
 89.875049041385
  31
0.0
   0
ARC
   5
54E
 100
AcDbEntity
   8
LEVEL002
 370
15
   6
CONTINUOUS
  62
7
 100
AcDbCircle
  10
 95.788971523012
  20
 89.875049041385
  30
0.0
  40
 0.20000000000000
 100
AcDbArc
  50
 250.00000000000
  51
 0.40711099922732E-11
   0
LINE
   5
54F
 100
AcDbEntity
   8
LEVEL002
 370
15
 100
AcDbLine
   6
CONTINUOUS
  62
7
  10
 95.720567494347
  20
 89.687110517228
  30
0.0
  11
 95.088971523012
  21
 89.916992650876
  31
0.0
   0
LINE
   5
550
 100
AcDbEntity
   8
LEVEL002
 370
15
 100
AcDbLine
   6
CONTINUOUS
  62
7
  10
 95.088971523012
  20
 89.916992650876
  30
0.0
  11
 95.088971523012
  21
 86.926550978897
  31
0.0
   0
LINE
   5
551
 100
AcDbEntity
   8
LEVEL002
 370
15
 100
AcDbLine
   6
CONTINUOUS
  62
7
  10
 93.488971523012
  20
 89.426550978897
  30
0.0
  11
 94.088971523012
  21
 88.926550978897
  31
0.0
   0
LINE
   5
552
 100
AcDbEntity
   8
LEVEL002
 370
15
 100
AcDbLine
   6
CONTINUOUS
  62
7
  10
 94.088971523012
  20
 86.926550978897
  30
0.0
  11
 93.788971523012
  21
 86.926550978897
  31
0.0
   0
LINE
   5
553
 100
AcDbEntity
   8
LEVEL002
 370
15
 100
AcDbLine
   6
CONTINUOUS
  62
7
  10
 94.088971523012
  20
 81.926550978897
  30
0.0
  11
 95.888971523012
  21
 81.926550978897
  31
0.0
   0
LINE
   5
554
 100
AcDbEntity
   8
LEVEL002
 370
15
 100
AcDbLine
   6
CONTINUOUS
  62
7
  10
 94.088971523012
  20
 85.426550978897
  30
0.0
  11
 93.788971523012
  21
 85.426550978897
  31
0.0
   0
LINE
   5
555
 100
AcDbEntity
   8
LEVEL002
 370
15
 100
AcDbLine
   6
CONTINUOUS
  62
7
  10
 94.088971523012
  20
 83.926550978897
  30
0.0
  11
 93.788971523012
  21
 83.926550978897
  31
0.0
   0
LINE
   5
556
 100
AcDbEntity
   8
LEVEL002
 370
15
 100
AcDbLine
   6
CONTINUOUS
  62
7
  10
 95.088971523012
  20
 85.726550978897
  30
0.0
  11
 97.988971523011
  21
 85.726550978897
  31
0.0
   0
LINE
   5
557
 100
AcDbEntity
   8
LEVEL002
 370
15
 100
AcDbLine
   6
CONTINUOUS
  62
7
  10
 97.988971523011
  20
 86.926550978897
  30
0.0
  11
 95.088971523012
  21
 86.926550978897
  31
0.0
   0
LINE
   5
558
 100
AcDbEntity
   8
LEVEL002
 370
15
 100
AcDbLine
   6
CONTINUOUS
  62
7
  10
 94.088971523012
  20
 81.926550978897
  30
0.0
  11
 93.596484779078
  21
 83.672247632686
  31
0.0
   0
LINE
   5
559
 100
AcDbEntity
   8
LEVEL002
 370
15
 100
AcDbLine
   6
CONTINUOUS
  62
7
  10
 94.088971523012
  20
 83.926550978897
  30
0.0
  11
 93.603036941599
  21
 85.152873767802
  31
0.0
   0
LINE
   5
55A
 100
AcDbEntity
   8
LEVEL002
 370
15
 100
AcDbLine
   6
CONTINUOUS
  62
7
  10
 94.088971523012
  20
 85.426550978897
  30
0.0
  11
 93.603036941599
  21
 86.652873767802
  31
0.0
   0
LINE
   5
55B
 100
AcDbEntity
   8
LEVEL002
 370
15
 100
AcDbLine
   6
CONTINUOUS
  62
7
  10
 94.088971523012
  20
 86.926550978897
  30
0.0
  11
 93.599667024447
  21
 88.362023412518
  31
0.0
   0
LINE
   5
55C
 100
AcDbEntity
   8
LEVEL002
 370
15
 100
AcDbLine
   6
CONTINUOUS
  62
7
  10
 94.088971523012
  20
 88.926550978897
  30
0.0
  11
 93.663170770805
  21
 88.582031430222
  31
0.0
   0
ARC
   5
55D
 100
AcDbEntity
   8
LEVEL002
 370
15
   6
CONTINUOUS
  62
7
 100
AcDbCircle
  10
 93.788971523012
  20
 83.726550978897
  30
0.0
  40
 0.20000000000000
 100
AcDbArc
  50
 90.000000000008
  51
 195.75454113499
   0
ARC
   5
55E
 100
AcDbEntity
   8
LEVEL002
 370
15
   6
CONTINUOUS
  62
7
 100
AcDbCircle
  10
 93.788971523012
  20
 88.426550978897
  30
0.0
  40
 0.20000000000000
 100
AcDbArc
  50
 128.97666001872
  51
 198.82252501410
   0
ARC
   5
55F
 100
AcDbEntity
   8
LEVEL002
 370
15
   6
CONTINUOUS
  62
7
 100
AcDbCircle
  10
 93.788971523012
  20
 86.726550978897
  30
0.0
  40
 0.20000000000000
 100
AcDbArc
  50
 90.000000000008
  51
 201.61611552996
   0
ARC
   5
560
 100
AcDbEntity
   8
LEVEL002
 370
15
   6
CONTINUOUS
  62
7
 100
AcDbCircle
  10
 93.788971523012
  20
 85.226550978897
  30
0.0
  40
 0.20000000000000
 100
AcDbArc
  50
 90.000000000008
  51
 201.61611552996
   0
MTEXT
   5
562
 100
AcDbEntity
   8
LEVEL001
 370
15
  62
8
 100
AcDbMText
  10
 44.024999999975
  20
 105.87500000000
  30
0.0
  40
 1.5000000000000
  41
0.0
  71
4
  72
1
   1
\W0.500000;\T1.000000; \W1.000000;\T1.000000;　ＤＹＡ７
   7
GMM002
  44
 0.79999984000003
   0
MTEXT
   5
564
 100
AcDbEntity
   8
LEVEL001
 370
15
  62
8
 100
AcDbMText
  10
 44.024999999975
  20
 75.843821510300
  30
0.0
  40
 1.5000000000000
  41
0.0
  71
4
  72
1
   1
\W0.500000;\T1.000000; \W1.000000;\T1.000000;　堀込寸法：１２×７
   7
GMM002
  44
 0.79999984000003
   0
LINE
   5
565
 100
AcDbEntity
   8
LEVEL002
 370
15
 100
AcDbLine
   6
DASHDOT
  62
8
  10
 62.040751534931
  20
 80.054575532468
  30
0.0
  11
 62.040751534931
  21
 91.798526425326
  31
0.0
   0
DIMENSION
   5
566
 100
AcDbEntity
   8
LEVEL001
 370
15
   6
CONTINUOUS
  62
8
 100
AcDbDimension
   2
*D45
  10
 64.040751534931
  20
 92.926550978868
  30
0.0
  11
 62.040751534931
  21
 92.926550978868
  31
0.0
  70
0
   3
GMM004
 100
AcDbAlignedDimension
  13
 60.040751534931
  23
 89.016625393209
  33
0.0
  14
 64.040751534931
  24
 89.016625393202
  34
0.0
 100
AcDbRotatedDimension
   0
DIMENSION
   5
567
 100
AcDbEntity
   8
LEVEL001
 370
15
   6
CONTINUOUS
  62
8
 100
AcDbDimension
   2
*D46
  10
 70.140751534931
  20
 95.926550978868
  30
0.0
  11
 62.040751534931
  21
 95.926550978868
  31
0.0
  70
0
   3
GMM004
 100
AcDbAlignedDimension
  13
 53.940751534931
  23
 90.126550978897
  33
0.0
  14
 70.140751534931
  24
 90.126550978897
  34
0.0
 100
AcDbRotatedDimension
   0
DIMENSION
   5
568
 100
AcDbEntity
   8
LEVEL001
 370
15
   6
CONTINUOUS
  62
8
 100
AcDbDimension
   2
*D47
  10
 76.140751534931
  20
 89.926550978897
  30
0.0
  11
 76.140751534931
  21
 85.926550978897
  31
0.0
  70
0
   3
GMM002
 100
AcDbAlignedDimension
  13
 73.140751534931
  23
 81.926550978897
  33
0.0
  14
 73.140751534931
  24
 89.926550978897
  34
0.0
  50
 90.000000000000
 100
AcDbRotatedDimension
   0
DIMENSION
   5
569
 100
AcDbEntity
   8
LEVEL001
 370
15
   6
CONTINUOUS
  62
8
 100
AcDbDimension
   2
*D48
  10
 73.140751534931
  20
 88.926550978897
  30
0.0
  11
 73.140751534931
  21
 85.426550978897
  31
0.0
  70
0
   3
GMM002
 100
AcDbAlignedDimension
  13
 67.490751534931
  23
 81.926550978897
  33
0.0
  14
 69.840751534931
  24
 88.926550978897
  34
0.0
  50
 90.000000000000
 100
AcDbRotatedDimension
   0
DIMENSION
   5
56A
 100
AcDbEntity
   8
LEVEL001
 370
15
   6
CONTINUOUS
  62
8
 100
AcDbDimension
   2
*D49
  10
 73.140751534931
  20
 89.926550978897
  30
0.0
  11
 73.140751534931
  21
 91.162942901298
  31
0.0
  70
128
   3
GMM008
 100
AcDbAlignedDimension
  13
 69.840751534931
  23
 88.926550978897
  33
0.0
  14
 67.583941784513
  24
 89.926550978897
  34
0.0
  50
 90.000000000000
 100
AcDbRotatedDimension
   0
DIMENSION
   5
56B
 100
AcDbEntity
   8
LEVEL001
 370
15
   6
CONTINUOUS
  62
8
 100
AcDbDimension
   2
*D50
  10
 68.140751534931
  20
 77.926550978897
  30
0.0
  11
 62.040751534931
  21
 77.926550978897
  31
0.0
  70
0
   3
GMM004
 100
AcDbAlignedDimension
  13
 55.940751534931
  23
 87.426550978897
  33
0.0
  14
 68.140751534931
  24
 87.426550978897
  34
0.0
 100
AcDbRotatedDimension
   0
DIMENSION
   5
56C
 100
AcDbEntity
   8
LEVEL001
 370
15
   6
CONTINUOUS
  62
8
 100
AcDbDimension
   2
*D51
  10
 51.440751534931
  20
 89.926550978897
  30
0.0
  11
 51.440751534931
  21
 88.376550978897
  31
0.0
  70
0
   3
GMM004
 100
AcDbAlignedDimension
  13
 60.040751534931
  23
 86.826550978897
  33
0.0
  14
 56.997561285349
  24
 89.926550978897
  34
0.0
  50
 90.000000000000
 100
AcDbRotatedDimension
   0
ARC
   5
56D
 100
AcDbEntity
   8
LEVEL002
 370
15
   6
CONTINUOUS
  62
7
 100
AcDbCircle
  10
 67.083941784513
  20
 79.926550978897
  30
0.0
  40
 10.000000000000
 100
AcDbArc
  50
 73.488535597432
  51
 90.000000000000
   0
ARC
   5
56E
 100
AcDbEntity
   8
LEVEL002
 370
15
   6
CONTINUOUS
  62
7
 100
AcDbCircle
  10
 69.840751534931
  20
 89.226550978897
  30
0.0
  40
 0.30000000000000
 100
AcDbArc
  50
 269.99999999999
  51
 73.488535597444
   0
ARC
   5
56F
 100
AcDbEntity
   8
LEVEL002
 370
15
   6
CONTINUOUS
  62
7
 100
AcDbCircle
  10
 56.997561285349
  20
 79.926550978897
  30
0.0
  40
 10.000000000000
 100
AcDbArc
  50
 90.000000000000
  51
 106.51146440257
   0
ARC
   5
570
 100
AcDbEntity
   8
LEVEL002
 370
15
   6
CONTINUOUS
  62
7
 100
AcDbCircle
  10
 54.240751534930
  20
 89.226550978897
  30
0.0
  40
 0.30000000000000
 100
AcDbArc
  50
 106.51146440236
  51
 270.00000000020
   0
LINE
   5
571
 100
AcDbEntity
   8
LEVEL002
 370
15
 100
AcDbLine
   6
CONTINUOUS
  62
7
  10
 67.083941784513
  20
 89.926550978897
  30
0.0
  11
 66.540751534931
  21
 89.926550978868
  31
0.0
   0
LINE
   5
572
 100
AcDbEntity
   8
LEVEL002
 370
15
 100
AcDbLine
   6
CONTINUOUS
  62
7
  10
 66.540751534931
  20
 89.926550978868
  30
0.0
  11
 64.040751534931
  21
 89.016625393202
  31
0.0
   0
LINE
   5
573
 100
AcDbEntity
   8
LEVEL002
 370
15
 100
AcDbLine
   6
CONTINUOUS
  62
7
  10
 64.040751534931
  20
 89.016625393202
  30
0.0
  11
 64.040751534931
  21
 86.826550978897
  31
0.0
   0
LINE
   5
574
 100
AcDbEntity
   8
LEVEL002
 370
15
 100
AcDbLine
   6
CONTINUOUS
  62
7
  10
 64.040751534931
  20
 86.826550978897
  30
0.0
  11
 60.040751534931
  21
 86.826550978897
  31
0.0
   0
LINE
   5
575
 100
AcDbEntity
   8
LEVEL002
 370
15
 100
AcDbLine
   6
CONTINUOUS
  62
7
  10
 60.040751534931
  20
 86.826550978897
  30
0.0
  11
 60.040751534931
  21
 89.016625393209
  31
0.0
   0
LINE
   5
576
 100
AcDbEntity
   8
LEVEL002
 370
15
 100
AcDbLine
   6
CONTINUOUS
  62
7
  10
 60.040751534931
  20
 89.016625393209
  30
0.0
  11
 57.540751534931
  21
 89.926550978874
  31
0.0
   0
LINE
   5
577
 100
AcDbEntity
   8
LEVEL002
 370
15
 100
AcDbLine
   6
CONTINUOUS
  62
7
  10
 57.540751534931
  20
 89.926550978874
  30
0.0
  11
 56.997561285349
  21
 89.926550978897
  31
0.0
   0
ARC
   5
578
 100
AcDbEntity
   8
LEVEL002
 370
15
   6
CONTINUOUS
  62
7
 100
AcDbCircle
  10
 64.040751534931
  20
 86.826550978897
  30
0.0
  40
 1.0000000000000
 100
AcDbArc
  50
 270.00000000000
  51
0.0
   0
LINE
   5
579
 100
AcDbEntity
   8
LEVEL002
 370
15
 100
AcDbLine
   6
CONTINUOUS
  62
7
  10
 64.040751534931
  20
 85.826550978897
  30
0.0
  11
 60.040751534931
  21
 85.826550978897
  31
0.0
   0
ARC
   5
57A
 100
AcDbEntity
   8
LEVEL002
 370
15
   6
CONTINUOUS
  62
7
 100
AcDbCircle
  10
 60.040751534931
  20
 86.826550978897
  30
0.0
  40
 1.0000000000000
 100
AcDbArc
  50
 180.00000000001
  51
 270.00000000000
   0
LINE
   5
57B
 100
AcDbEntity
   8
LEVEL002
 370
15
 100
AcDbLine
   6
CONTINUOUS
  62
7
  10
 65.040751534931
  20
 87.966314085888
  30
0.0
  11
 65.040751534931
  21
 86.826550978897
  31
0.0
   0
ARC
   5
57C
 100
AcDbEntity
   8
LEVEL002
 370
15
   6
CONTINUOUS
  62
7
 100
AcDbCircle
  10
 65.540751534931
  20
 87.966314085888
  30
0.0
  40
 0.50000000000000
 100
AcDbArc
  50
 110.00000000000
  51
 180.00000000000
   0
LINE
   5
57D
 100
AcDbEntity
   8
LEVEL002
 370
15
 100
AcDbLine
   6
CONTINUOUS
  62
7
  10
 65.869741463268
  20
 88.618145513414
  30
0.0
  11
 65.369741463268
  21
 88.436160396281
  31
0.0
   0
ARC
   5
57E
 100
AcDbEntity
   8
LEVEL002
 370
15
   6
CONTINUOUS
  62
7
 100
AcDbCircle
  10
 66.040751534931
  20
 88.148299203021
  30
0.0
  40
 0.50000000000000
 100
AcDbArc
  50
0.0
  51
 110.00000000000
   0
LINE
   5
57F
 100
AcDbEntity
   8
LEVEL002
 370
15
 100
AcDbLine
   6
CONTINUOUS
  62
7
  10
 69.840751534931
  20
 88.926550978897
  30
0.0
  11
 68.140751534931
  21
 88.926550978897
  31
0.0
   0
LINE
   5
580
 100
AcDbEntity
   8
LEVEL002
 370
15
 100
AcDbLine
   6
CONTINUOUS
  62
7
  10
 68.140751534931
  20
 88.926550978897
  30
0.0
  11
 68.140751534931
  21
 87.426550978897
  31
0.0
   0
LINE
   5
581
 100
AcDbEntity
   8
LEVEL002
 370
15
 100
AcDbLine
   6
CONTINUOUS
  62
7
  10
 68.140751534931
  20
 87.426550978897
  30
0.0
  11
 67.490751534931
  21
 86.676550978897
  31
0.0
   0
LINE
   5
582
 100
AcDbEntity
   8
LEVEL002
 370
15
 100
AcDbLine
   6
CONTINUOUS
  62
7
  10
 67.490751534931
  20
 86.676550978897
  30
0.0
  11
 67.990751534931
  21
 85.926550978897
  31
0.0
   0
LINE
   5
583
 100
AcDbEntity
   8
LEVEL002
 370
15
 100
AcDbLine
   6
CONTINUOUS
  62
7
  10
 67.990751534931
  20
 85.926550978897
  30
0.0
  11
 67.490751534931
  21
 83.926550978897
  31
0.0
   0
LINE
   5
584
 100
AcDbEntity
   8
LEVEL002
 370
15
 100
AcDbLine
   6
CONTINUOUS
  62
7
  10
 67.490751534931
  20
 83.926550978897
  30
0.0
  11
 67.990751534931
  21
 83.926550978897
  31
0.0
   0
LINE
   5
585
 100
AcDbEntity
   8
LEVEL002
 370
15
 100
AcDbLine
   6
CONTINUOUS
  62
7
  10
 67.990751534931
  20
 83.926550978897
  30
0.0
  11
 67.490751534931
  21
 81.926550978897
  31
0.0
   0
LINE
   5
586
 100
AcDbEntity
   8
LEVEL002
 370
15
 100
AcDbLine
   6
CONTINUOUS
  62
7
  10
 67.490751534931
  20
 81.926550978897
  30
0.0
  11
 66.540751534931
  21
 81.926550978897
  31
0.0
   0
LINE
   5
587
 100
AcDbEntity
   8
LEVEL002
 370
15
 100
AcDbLine
   6
CONTINUOUS
  62
7
  10
 66.540751534931
  20
 81.926550978897
  30
0.0
  11
 66.540751534931
  21
 88.148299203021
  31
0.0
   0
LINE
   5
588
 100
AcDbEntity
   8
LEVEL002
 370
15
 100
AcDbLine
   6
CONTINUOUS
  62
7
  10
 54.240751534931
  20
 88.926550978897
  30
0.0
  11
 55.940751534931
  21
 88.926550978897
  31
0.0
   0
LINE
   5
589
 100
AcDbEntity
   8
LEVEL002
 370
15
 100
AcDbLine
   6
CONTINUOUS
  62
7
  10
 55.940751534931
  20
 88.926550978897
  30
0.0
  11
 55.940751534931
  21
 87.426550978897
  31
0.0
   0
LINE
   5
58A
 100
AcDbEntity
   8
LEVEL002
 370
15
 100
AcDbLine
   6
CONTINUOUS
  62
7
  10
 55.940751534931
  20
 87.426550978897
  30
0.0
  11
 56.590751534931
  21
 86.676550978897
  31
0.0
   0
LINE
   5
58B
 100
AcDbEntity
   8
LEVEL002
 370
15
 100
AcDbLine
   6
CONTINUOUS
  62
7
  10
 56.590751534931
  20
 86.676550978897
  30
0.0
  11
 56.090751534931
  21
 85.926550978897
  31
0.0
   0
LINE
   5
58C
 100
AcDbEntity
   8
LEVEL002
 370
15
 100
AcDbLine
   6
CONTINUOUS
  62
7
  10
 56.090751534931
  20
 85.926550978897
  30
0.0
  11
 56.590751534931
  21
 83.926550978897
  31
0.0
   0
LINE
   5
58D
 100
AcDbEntity
   8
LEVEL002
 370
15
 100
AcDbLine
   6
CONTINUOUS
  62
7
  10
 56.590751534931
  20
 83.926550978897
  30
0.0
  11
 56.090751534931
  21
 83.926550978897
  31
0.0
   0
LINE
   5
58E
 100
AcDbEntity
   8
LEVEL002
 370
15
 100
AcDbLine
   6
CONTINUOUS
  62
7
  10
 56.090751534931
  20
 83.926550978897
  30
0.0
  11
 56.590751534931
  21
 81.926550978897
  31
0.0
   0
LINE
   5
58F
 100
AcDbEntity
   8
LEVEL002
 370
15
 100
AcDbLine
   6
CONTINUOUS
  62
7
  10
 56.590751534931
  20
 81.926550978897
  30
0.0
  11
 57.540751534931
  21
 81.926550978897
  31
0.0
   0
LINE
   5
590
 100
AcDbEntity
   8
LEVEL002
 370
15
 100
AcDbLine
   6
CONTINUOUS
  62
7
  10
 57.540751534931
  20
 81.926550978897
  30
0.0
  11
 57.540751534931
  21
 88.148299203027
  31
0.0
   0
ARC
   5
591
 100
AcDbEntity
   8
LEVEL002
 370
15
   6
CONTINUOUS
  62
7
 100
AcDbCircle
  10
 58.040751534931
  20
 88.148299203027
  30
0.0
  40
 0.50000000000000
 100
AcDbArc
  50
 69.999999999982
  51
 180.00000000001
   0
LINE
   5
592
 100
AcDbEntity
   8
LEVEL002
 370
15
 100
AcDbLine
   6
CONTINUOUS
  62
7
  10
 59.040751534931
  20
 86.826550978897
  30
0.0
  11
 59.040751534931
  21
 87.966314085894
  31
0.0
   0
LINE
   5
593
 100
AcDbEntity
   8
LEVEL002
 370
15
 100
AcDbLine
   6
CONTINUOUS
  62
7
  10
 58.711761606594
  20
 88.436160396287
  30
0.0
  11
 58.211761606594
  21
 88.618145513420
  31
0.0
   0
ARC
   5
594
 100
AcDbEntity
   8
LEVEL002
 370
15
   6
CONTINUOUS
  62
7
 100
AcDbCircle
  10
 58.540751534931
  20
 87.966314085894
  30
0.0
  40
 0.50000000000000
 100
AcDbArc
  50
0.0
  51
 70.000000000014
   0
ENDSEC
  0
SECTION
  2
OBJECTS
  0
DICTIONARY
  5
C
100
AcDbDictionary
  3
ACAD_GROUP
350
D
  3
ACAD_MLINESTYLE
350
1B
  3
DWGPROPS
350
1C
  0
DICTIONARY
  5
D
102
{ACAD_REACTORS
330
C
102
}
100
AcDbDictionary
  0
DICTIONARY
  5
1B
102
{ACAD_REACTORS
330
C
102
}
100
AcDbDictionary
  3
STANDARD
350
1D
  0
MLINESTYLE
  5
1D
102
{ACAD_REACTORS
330
1B
102
}
100
AcDbMlineStyle
  2
STANDARD
 70
     0
  3

 62
   256
 51
90.0
 52
90.0
 71
     2
 49
0.5
 62
   256
  6
BYLAYER
 49
-0.5
 62
   256
  6
BYLAYER
   0
XRECORD
   5
1C
 102
{ACAD_REACTORS
 330
C
 102
}
 330
C
 100
AcDbXrecord
 280
1
   1
DWGPROPS COOKIE
   2
 
   3
 
   4
haruna
   6
 
   7
ﾊﾟﾙﾌﾗｯﾄﾚｰﾙ-Y溝(Yﾀｲﾌﾟ②)(Y型･DY型
   8
haruna
   9

 300
 = 
 301
 = 
 302
 = 
 303
 = 
 304
 = 
 305
 = 
 306
 = 
 307
 = 
 308
 = 
 309
 = 
  40
0.0
  41
 2459822.5000000
  42
 2459984.5000000
   1

  90
10
   0
ENDSEC
   0
EOF
