   0
SECTION
   2
HEADER
   9
$ACADVER
   1
AC1015
   9
$DWGCODEPAGE
   3
ANSI_932
   9
$LIMMIN
  10
0.0
  20
0.0
   9
$LIMMAX
  10
 1680.0000000000
  20
 1188.0000000000
   9
$EXTMIN
  10
0.0
  20
0.0
  30
0.0
   9
$EXTMAX
  10
 1680.0000000000
  20
 1188.0000000000
  30
0.0
   9
$LTSCALE
  40
 33.600000000000
   9
$HANDSEED
   5
604
   0
ENDSEC
   0
SECTION
   2
TABLES
  0
TABLE
  2
VPORT
  5
8
100
AcDbSymbolTable
 70
     1
  0
VPORT
  5
603
100
AcDbSymbolTableRecord
100
AcDbViewportTableRecord
  2
*ACTIVE
 70
     0
 10
0.0
 20
0.0
 11
1.0
 21
1.0
  12
 840.00000000000
  22
 594.00000000000
 13
0.0
 23
0.0
 14
1.0
 24
1.0
 15
0.0
 25
0.0
 16
0.0
 26
0.0
 36
1.0
 17
0.0
 27
0.0
 37
0.0
  40
 1680.0000000000
  41
 1.4787878787879
 42
50.0
 43
0.0
 44
0.0
 50
0.0
 51
0.0
 71
     0
 72
   100
 73
     1
 74
     1
 75
     0
 76
     0
 77
     0
 78
     0
  0
ENDTAB
  0
TABLE
  2
LTYPE
  5
5
100
AcDbSymbolTable
 70
    25
  0
LTYPE
  5
12
100
AcDbSymbolTableRecord
100
AcDbLinetypeTableRecord
  2
BYBLOCK
 70
     0
  3

 72
    65
 73
     0
 40
0.0
  0
LTYPE
  5
13
100
AcDbSymbolTableRecord
100
AcDbLinetypeTableRecord
  2
BYLAYER
 70
     0
  3

 72
    65
 73
     0
 40
0.0
  0
LTYPE
  5
14
100
AcDbSymbolTableRecord
100
AcDbLinetypeTableRecord
  2
CONTINUOUS
 70
     0
  3
Solid line
 72
    65
 73
     0
 40
0.0
  0
LTYPE
  5
20
100
AcDbSymbolTableRecord
100
AcDbLinetypeTableRecord
  2
BORDER
 70
     0
  3
__ __ . __ __ . __ __ . __ __ . __ __ . __ __ .
 72
    65
 73
     6
 40
1.75
 49
0.5
 74
     0
 49
-0.25
 74
     0
 49
0.5
 74
     0
 49
-0.25
 74
     0
 49
0.0
 74
     0
 49
-0.25
 74
     0
  0
LTYPE
  5
21
100
AcDbSymbolTableRecord
100
AcDbLinetypeTableRecord
  2
BORDER2
 70
     0
  3
__.__.__.__.__.__.__.__.__.__.__.__.__.__.__.__
 72
    65
 73
     6
 40
0.875
 49
0.25
 74
     0
 49
-0.125
 74
     0
 49
0.25
 74
     0
 49
-0.125
 74
     0
 49
0.0
 74
     0
 49
-0.125
 74
     0
  0
LTYPE
  5
22
100
AcDbSymbolTableRecord
100
AcDbLinetypeTableRecord
  2
BORDERX2
 70
     0
  3
____  ____  .  ____  ____  .  ____  ____  .  __
 72
    65
 73
     6
 40
3.5
 49
1.0
 74
     0
 49
-0.5
 74
     0
 49
1.0
 74
     0
 49
-0.5
 74
     0
 49
0.0
 74
     0
 49
-0.5
 74
     0
  0
LTYPE
  5
23
100
AcDbSymbolTableRecord
100
AcDbLinetypeTableRecord
  2
CENTER
 70
     0
  3
____ _ ____ _ ____ _ ____ _ ____ _ ____ _ ____ 
 72
    65
 73
     4
 40
2.0
 49
1.25
 74
     0
 49
-0.25
 74
     0
 49
0.25
 74
     0
 49
-0.25
 74
     0
  0
LTYPE
  5
24
100
AcDbSymbolTableRecord
100
AcDbLinetypeTableRecord
  2
CENTER2
 70
     0
  3
___ _ ___ _ ___ _ ___ _ ___ _ ___ _ ___ _ ___ _
 72
    65
 73
     4
 40
1.125
 49
0.75
 74
     0
 49
-0.125
 74
     0
 49
0.125
 74
     0
 49
-0.125
 74
     0
  0
LTYPE
  5
25
100
AcDbSymbolTableRecord
100
AcDbLinetypeTableRecord
  2
CENTERX2
 70
     0
  3
________  __  ________  __  ________  __  _____
 72
    65
 73
     4
 40
4.0
 49
2.5
 74
     0
 49
-0.5
 74
     0
 49
0.5
 74
     0
 49
-0.5
 74
     0
  0
LTYPE
  5
26
100
AcDbSymbolTableRecord
100
AcDbLinetypeTableRecord
  2
DASHDOT
 70
     0
  3
__ . __ . __ . __ . __ . __ . __ . __ . __ . __
 72
    65
 73
     4
 40
1.0
 49
0.5
 74
     0
 49
-0.25
 74
     0
 49
0.0
 74
     0
 49
-0.25
 74
     0
  0
LTYPE
  5
27
100
AcDbSymbolTableRecord
100
AcDbLinetypeTableRecord
  2
DASHDOT2
 70
     0
  3
_._._._._._._._._._._._._._._._._._._._._._._._
 72
    65
 73
     4
 40
0.5
 49
0.25
 74
     0
 49
-0.125
 74
     0
 49
0.0
 74
     0
 49
-0.125
 74
     0
  0
LTYPE
  5
28
100
AcDbSymbolTableRecord
100
AcDbLinetypeTableRecord
  2
DASHDOTX2
 70
     0
  3
____  .  ____  .  ____  .  ____  .  ____  .  __
 72
    65
 73
     4
 40
2.0
 49
1.0
 74
     0
 49
-0.5
 74
     0
 49
0.0
 74
     0
 49
-0.5
 74
     0
  0
LTYPE
  5
29
100
AcDbSymbolTableRecord
100
AcDbLinetypeTableRecord
  2
DASHED
 70
     0
  3
__ __ __ __ __ __ __ __ __ __ __ __ __ __ __ __
 72
    65
 73
     2
 40
0.75
 49
0.5
 74
     0
 49
-0.25
 74
     0
  0
LTYPE
  5
2A
100
AcDbSymbolTableRecord
100
AcDbLinetypeTableRecord
  2
DASHED2
 70
     0
  3
_ _ _ _ _ _ _ _ _ _ _ _ _ _ _ _ _ _ _ _ _ _ _ _
 72
    65
 73
     2
 40
0.375
 49
0.25
 74
     0
 49
-0.125
 74
     0
  0
LTYPE
  5
2B
100
AcDbSymbolTableRecord
100
AcDbLinetypeTableRecord
  2
DASHEDX2
 70
     0
  3
____  ____  ____  ____  ____  ____  ____  ____ 
 72
    65
 73
     2
 40
1.5
 49
1.0
 74
     0
 49
-0.5
 74
     0
  0
LTYPE
  5
2C
100
AcDbSymbolTableRecord
100
AcDbLinetypeTableRecord
  2
DIVIDE
 70
     0
  3
____ . . ____ . . ____ . . ____ . . ____ . . __
 72
    65
 73
     6
 40
1.25
 49
0.5
 74
     0
 49
-0.25
 74
     0
 49
0.0
 74
     0
 49
-0.25
 74
     0
 49
0.0
 74
     0
 49
-0.25
 74
     0
  0
LTYPE
  5
2D
100
AcDbSymbolTableRecord
100
AcDbLinetypeTableRecord
  2
DIVIDE2
 70
     0
  3
__..__..__..__..__..__..__..__..__..__..__..__.
 72
    65
 73
     6
 40
0.625
 49
0.25
 74
     0
 49
-0.125
 74
     0
 49
0.0
 74
     0
 49
-0.125
 74
     0
 49
0.0
 74
     0
 49
-0.125
 74
     0
  0
LTYPE
  5
2E
100
AcDbSymbolTableRecord
100
AcDbLinetypeTableRecord
  2
DIVIDEX2
 70
     0
  3
________  .  .  ________  .  .  ________  .  . 
 72
    65
 73
     6
 40
2.5
 49
1.0
 74
     0
 49
-0.5
 74
     0
 49
0.0
 74
     0
 49
-0.5
 74
     0
 49
0.0
 74
     0
 49
-0.5
 74
     0
  0
LTYPE
  5
2F
100
AcDbSymbolTableRecord
100
AcDbLinetypeTableRecord
  2
DOT
 70
     0
  3
. . . . . . . . . . . . . . . . . . . . . . . .
 72
    65
 73
     2
 40
0.25
 49
0.0
 74
     0
 49
-0.25
 74
     0
  0
LTYPE
  5
30
100
AcDbSymbolTableRecord
100
AcDbLinetypeTableRecord
  2
DOT2
 70
     0
  3
...............................................
 72
    65
 73
     2
 40
0.125
 49
0.0
 74
     0
 49
-0.125
 74
     0
  0
LTYPE
  5
31
100
AcDbSymbolTableRecord
100
AcDbLinetypeTableRecord
  2
DOTX2
 70
     0
  3
.  .  .  .  .  .  .  .  .  .  .  .  .  .  .  . 
 72
    65
 73
     2
 40
0.5
 49
0.0
 74
     0
 49
-0.5
 74
     0
  0
LTYPE
  5
32
100
AcDbSymbolTableRecord
100
AcDbLinetypeTableRecord
  2
HIDDEN
 70
     0
  3
__ __ __ __ __ __ __ __ __ __ __ __ __ __ __ __
 72
    65
 73
     2
 40
0.375
 49
0.25
 74
     0
 49
-0.125
 74
     0
  0
LTYPE
  5
33
100
AcDbSymbolTableRecord
100
AcDbLinetypeTableRecord
  2
HIDDEN2
 70
     0
  3
_ _ _ _ _ _ _ _ _ _ _ _ _ _ _ _ _ _ _ _ _ _ _ _
 72
    65
 73
     2
 40
0.1875
 49
0.125
 74
     0
 49
-0.0625
 74
     0
  0
LTYPE
  5
34
100
AcDbSymbolTableRecord
100
AcDbLinetypeTableRecord
  2
HIDDENX2
 70
     0
  3
____ ____ ____ ____ ____ ____ ____ ____ ____ __
 72
    65
 73
     2
 40
0.75
 49
0.5
 74
     0
 49
-0.25
 74
     0
  0
LTYPE
  5
35
100
AcDbSymbolTableRecord
100
AcDbLinetypeTableRecord
  2
PHANTOM
 70
     0
  3
______  __  __  ______  __  __  ______  __  __ 
 72
    65
 73
     6
 40
2.5
 49
1.25
 74
     0
 49
-0.25
 74
     0
 49
0.25
 74
     0
 49
-0.25
 74
     0
 49
0.25
 74
     0
 49
-0.25
 74
     0
  0
LTYPE
  5
36
100
AcDbSymbolTableRecord
100
AcDbLinetypeTableRecord
  2
PHANTOM2
 70
     0
  3
___ _ _ ___ _ _ ___ _ _ ___ _ _ ___ _ _ ___ _ _
 72
    65
 73
     6
 40
1.25
 49
0.625
 74
     0
 49
-0.125
 74
     0
 49
0.125
 74
     0
 49
-0.125
 74
     0
 49
0.125
 74
     0
 49
-0.125
 74
     0
  0
LTYPE
  5
37
100
AcDbSymbolTableRecord
100
AcDbLinetypeTableRecord
  2
PHANTOMX2
 70
     0
  3
____________    ____    ____    ____________   
 72
    65
 73
     6
 40
5.0
 49
2.5
 74
     0
 49
-0.5
 74
     0
 49
0.5
 74
     0
 49
-0.5
 74
     0
 49
0.5
 74
     0
 49
-0.5
 74
     0
  0
ENDTAB
   0
TABLE
   2
LAYER
   5
2
 100
AcDbSymbolTable
  70
6
   0
LAYER
   5
E
 100
AcDbSymbolTableRecord
 100
AcDbLayerTableRecord
   2
0
  70
0
  62
7
   6
CONTINUOUS
 390
30
   0
LAYER
   5
39
 100
AcDbSymbolTableRecord
 100
AcDbLayerTableRecord
   2
LEVEL001
  70
0
  62
7
   6
CONTINUOUS
 390
30
   0
LAYER
   5
3A
 100
AcDbSymbolTableRecord
 100
AcDbLayerTableRecord
   2
LEVEL002
  70
0
  62
7
   6
CONTINUOUS
 390
30
   0
LAYER
   5
3B
 100
AcDbSymbolTableRecord
 100
AcDbLayerTableRecord
   2
LEVEL004
  70
0
  62
7
   6
CONTINUOUS
 390
30
   0
LAYER
   5
3C
 100
AcDbSymbolTableRecord
 100
AcDbLayerTableRecord
   2
LEVEL006
  70
0
  62
7
   6
CONTINUOUS
 390
30
   0
LAYER
   5
3D
 100
AcDbSymbolTableRecord
 100
AcDbLayerTableRecord
   2
LEVEL007
  70
0
  62
7
   6
CONTINUOUS
 390
30
   0
ENDTAB
  0
TABLE
  2
STYLE
  5
3
100
AcDbSymbolTable
  70
4
  0
STYLE
  5
F
100
AcDbSymbolTableRecord
100
AcDbTextStyleTableRecord
  2
STANDARD
 70
     0
 40
0.0
 41
1.0
 50
0.0
 71
     0
 42
0.2
  3
TXT
  4
BIGFONT
  0
STYLE
  5
38
100
AcDbSymbolTableRecord
100
AcDbTextStyleTableRecord
  2
STANDARD1
 70
     4
 40
0.0
 41
1.0
 50
0.0
 71
     0
 42
0.2
  3
TXT
  4
BIGFONT
   0
STYLE
   5
3E
 100
AcDbSymbolTableRecord
 100
AcDbTextStyleTableRecord
   2
GMM001
  70
0
  40
0.0
  41
 1.0000000000000
  50
0.0
  71
     0
  42
1.0
   3
txt.shx
   4
bigfont.shx
   0
STYLE
   5
3F
 100
AcDbSymbolTableRecord
 100
AcDbTextStyleTableRecord
   2
GMM002
  70
0
  40
0.0
  41
 0.80000000000000
  50
0.0
  71
     0
  42
1.0
   3
txt.shx
   4
bigfont.shx
   0
ENDTAB
  0
TABLE
  2
VIEW
  5
6
100
AcDbSymbolTable
 70
     0
  0
ENDTAB
  0
TABLE
  2
UCS
  5
7
100
AcDbSymbolTable
 70
     0
  0
ENDTAB
  0
TABLE
  2
APPID
  5
9
100
AcDbSymbolTable
 70
     1
  0
APPID
  5
10
100
AcDbSymbolTableRecord
100
AcDbRegAppTableRecord
  2
ACAD
 70
     0
  0
ENDTAB
   0
TABLE
   2
DIMSTYLE
   5
A
 100
AcDbSymbolTable
  70
10
 100
AcDbDimStyleTable
  0
DIMSTYLE
105
1D
100
AcDbSymbolTableRecord
100
AcDbDimStyleTableRecord
  2
STANDARD
 70
     0
  3

  4

  5

  6

  7

 40
1.0
 41
0.18
 42
0.0625
 43
0.38
 44
0.18
 45
0.0
 46
0.0
 47
0.0
 48
0.0
140
0.18
141
0.09
142
0.0
143
25.4
144
1.0
145
0.0
146
1.0
147
0.09
 71
     0
 72
     0
 73
     1
 74
     1
 75
     0
 76
     0
 77
     0
 78
     0
170
     0
171
     2
172
     0
173
     0
174
     0
175
     0
176
     0
177
     0
178
     0
270
     2
271
     4
272
     4
273
     2
274
     2
340
F
275
     0
280
     0
281
     0
282
     0
283
     1
284
     0
285
     0
286
     0
287
     3
288
     0
   0
DIMSTYLE
 105
40
 100
AcDbSymbolTableRecord
 100
AcDbDimStyleTableRecord
   2
GMM001
  70
0
   3

   4

   5

   6

   7

  40
 1.0000000000000
  41
 8.0000000000000
  42
 4.0000000000000
  43
 32.000000000000
  44
 4.0000000000000
  45
0.0
  46
0.0
  47
0.0
  48
0.0
 140
 10.000000000000
 141
 4.0000000000000
 142
0.0
 143
 0.39400000000000E-1
 144
 1.0000000000000
 145
0.0
 146
 1.0000000000000
 147
 4.0000000000000
  71
0
  72
0
  73
0
  74
0
  75
0
  76
0
  77
3
  78
8
 170
0
 171
2
 172
1
 173
1
 174
0
 175
0
 176
8
 177
8
 178
8
 270
2
 271
6
 272
0
 273
2
 274
2
 340
3E
 275
1
 280
0
 281
0
 282
0
 283
1
 284
0
 285
0
 286
0
 287
3
 288
0
   0
DIMSTYLE
 105
41
 100
AcDbSymbolTableRecord
 100
AcDbDimStyleTableRecord
   2
GMM002
  70
0
   3

   4

   5

   6

   7

  40
 1.0000000000000
  41
 8.0000000000000
  42
 4.0000000000000
  43
 32.000000000000
  44
 4.0000000000000
  45
0.0
  46
0.0
  47
0.0
  48
0.0
 140
 10.000000000000
 141
 4.0000000000000
 142
0.0
 143
 0.39400000000000E-1
 144
 1.0000000000000
 145
0.0
 146
 1.0000000000000
 147
 2.5485937064894
  71
0
  72
0
  73
0
  74
0
  75
0
  76
0
  77
3
  78
8
 170
0
 171
2
 172
1
 173
1
 174
0
 175
0
 176
8
 177
8
 178
8
 270
2
 271
6
 272
0
 273
2
 274
2
 340
3E
 275
1
 280
0
 281
0
 282
0
 283
1
 284
0
 285
0
 286
0
 287
3
 288
1
   0
DIMSTYLE
 105
42
 100
AcDbSymbolTableRecord
 100
AcDbDimStyleTableRecord
   2
GMM003
  70
0
   3

   4

   5

   6

   7

  40
 1.0000000000000
  41
 8.0000000000000
  42
 4.0000000000000
  43
 32.000000000000
  44
 4.0000000000000
  45
0.0
  46
0.0
  47
0.0
  48
0.0
 140
 10.000000000000
 141
 4.0000000000000
 142
0.0
 143
 0.39400000000000E-1
 144
 1.0000000000000
 145
0.0
 146
 1.0000000000000
 147
0.0
  71
0
  72
0
  73
0
  74
0
  75
0
  76
0
  77
1
  78
8
 170
0
 171
2
 172
1
 173
1
 174
0
 175
0
 176
8
 177
8
 178
8
 270
2
 271
6
 272
0
 273
2
 274
2
 340
3E
 275
1
 280
0
 281
0
 282
0
 283
1
 284
0
 285
0
 286
0
 287
3
 288
0
   0
DIMSTYLE
 105
43
 100
AcDbSymbolTableRecord
 100
AcDbDimStyleTableRecord
   2
GMM004
  70
0
   3

   4

   5

   6

   7

  40
 1.0000000000000
  41
 8.0000000000000
  42
 4.0000000000000
  43
 32.000000000000
  44
 4.0000000000000
  45
0.0
  46
0.0
  47
0.0
  48
0.0
 140
 10.000000000000
 141
 4.0000000000000
 142
0.0
 143
 0.39400000000000E-1
 144
 1.0000000000000
 145
0.0
 146
 1.0000000000000
 147
 4.0000000000000
  71
0
  72
0
  73
0
  74
0
  75
0
  76
0
  77
3
  78
8
 170
0
 171
2
 172
1
 173
1
 174
0
 175
0
 176
8
 177
8
 178
8
 270
2
 271
6
 272
0
 273
2
 274
2
 340
3E
 275
1
 280
0
 281
0
 282
0
 283
1
 284
0
 285
0
 286
0
 287
3
 288
0
   0
DIMSTYLE
 105
44
 100
AcDbSymbolTableRecord
 100
AcDbDimStyleTableRecord
   2
GMM005
  70
0
   3

   4

   5

   6

   7

  40
 1.0000000000000
  41
 8.0000000000000
  42
 4.0000000000000
  43
 32.000000000000
  44
 4.0000000000000
  45
0.0
  46
0.0
  47
0.0
  48
0.0
 140
 10.000000000000
 141
 4.0000000000000
 142
0.0
 143
 0.39400000000000E-1
 144
 1.0000000000000
 145
0.0
 146
 1.0000000000000
 147
 2.9406850459532
  71
0
  72
0
  73
0
  74
0
  75
0
  76
0
  77
3
  78
8
 170
0
 171
2
 172
1
 173
1
 174
0
 175
0
 176
8
 177
8
 178
8
 270
2
 271
6
 272
0
 273
2
 274
2
 340
3E
 275
1
 280
0
 281
0
 282
0
 283
1
 284
0
 285
0
 286
0
 287
3
 288
1
   0
DIMSTYLE
 105
45
 100
AcDbSymbolTableRecord
 100
AcDbDimStyleTableRecord
   2
GMM006
  70
0
   3

   4

   5

   6

   7

  40
 1.0000000000000
  41
 8.0000000000000
  42
 4.0000000000000
  43
 32.000000000000
  44
 4.0000000000000
  45
0.0
  46
0.0
  47
0.0
  48
0.0
 140
 10.000000000000
 141
 4.0000000000000
 142
0.0
 143
 0.39400000000000E-1
 144
 1.0000000000000
 145
0.0
 146
 1.0000000000000
 147
 3.3266499582188
  71
0
  72
0
  73
0
  74
0
  75
0
  76
0
  77
3
  78
8
 170
0
 171
2
 172
1
 173
1
 174
0
 175
0
 176
8
 177
8
 178
8
 270
2
 271
6
 272
0
 273
2
 274
2
 340
3E
 275
1
 280
0
 281
0
 282
0
 283
1
 284
0
 285
0
 286
0
 287
3
 288
1
   0
DIMSTYLE
 105
46
 100
AcDbSymbolTableRecord
 100
AcDbDimStyleTableRecord
   2
GMM007
  70
0
   3

   4

   5

   6

   7

  40
 1.0000000000000
  41
 8.0000000000000
  42
 4.0000000000000
  43
 32.000000000000
  44
 4.0000000000000
  45
0.0
  46
0.0
  47
0.0
  48
0.0
 140
 10.000000000000
 141
 4.0000000000000
 142
0.0
 143
 0.39400000000000E-1
 144
 1.0000000000000
 145
0.0
 146
 1.0000000000000
 147
 3.1367307156829
  71
0
  72
0
  73
0
  74
0
  75
0
  76
0
  77
3
  78
8
 170
0
 171
2
 172
1
 173
1
 174
0
 175
0
 176
8
 177
8
 178
8
 270
2
 271
6
 272
0
 273
2
 274
2
 340
3E
 275
1
 280
0
 281
0
 282
0
 283
1
 284
0
 285
0
 286
0
 287
3
 288
1
   0
DIMSTYLE
 105
47
 100
AcDbSymbolTableRecord
 100
AcDbDimStyleTableRecord
   2
GMM008
  70
0
   3

   4

   5

   6

   7

  40
 1.0000000000000
  41
 8.0000000000000
  42
 4.0000000000000
  43
 32.000000000000
  44
 4.0000000000000
  45
0.0
  46
0.0
  47
0.0
  48
0.0
 140
 10.000000000000
 141
 4.0000000000000
 142
0.0
 143
 0.39400000000000E-1
 144
 1.0000000000000
 145
0.0
 146
 1.0000000000000
 147
 4.4110275689600
  71
0
  72
0
  73
0
  74
0
  75
0
  76
0
  77
3
  78
8
 170
0
 171
2
 172
1
 173
1
 174
0
 175
0
 176
8
 177
8
 178
8
 270
2
 271
6
 272
0
 273
2
 274
2
 340
3E
 275
1
 280
0
 281
0
 282
0
 283
1
 284
0
 285
0
 286
0
 287
3
 288
1
   0
ENDTAB
  0
TABLE
  2
BLOCK_RECORD
  5
1
100
AcDbSymbolTable
 70
     0
  0
BLOCK_RECORD
  5
18
100
AcDbSymbolTableRecord
100
AcDbBlockTableRecord
  2
*MODEL_SPACE
  0
BLOCK_RECORD
  5
15
100
AcDbSymbolTableRecord
100
AcDbBlockTableRecord
  2
*PAPER_SPACE
   0
BLOCK_RECORD
   5
48
 100
AcDbSymbolTableRecord
 100
AcDbBlockTableRecord
   2
*D1
   0
BLOCK_RECORD
   5
49
 100
AcDbSymbolTableRecord
 100
AcDbBlockTableRecord
   2
*D2
   0
BLOCK_RECORD
   5
4A
 100
AcDbSymbolTableRecord
 100
AcDbBlockTableRecord
   2
*D3
   0
BLOCK_RECORD
   5
4B
 100
AcDbSymbolTableRecord
 100
AcDbBlockTableRecord
   2
*D5
   0
BLOCK_RECORD
   5
4C
 100
AcDbSymbolTableRecord
 100
AcDbBlockTableRecord
   2
*D6
   0
BLOCK_RECORD
   5
4D
 100
AcDbSymbolTableRecord
 100
AcDbBlockTableRecord
   2
*D7
   0
BLOCK_RECORD
   5
4E
 100
AcDbSymbolTableRecord
 100
AcDbBlockTableRecord
   2
*D8
   0
BLOCK_RECORD
   5
4F
 100
AcDbSymbolTableRecord
 100
AcDbBlockTableRecord
   2
*D9
   0
BLOCK_RECORD
   5
50
 100
AcDbSymbolTableRecord
 100
AcDbBlockTableRecord
   2
*D10
   0
BLOCK_RECORD
   5
51
 100
AcDbSymbolTableRecord
 100
AcDbBlockTableRecord
   2
*D12
   0
BLOCK_RECORD
   5
52
 100
AcDbSymbolTableRecord
 100
AcDbBlockTableRecord
   2
*D13
   0
BLOCK_RECORD
   5
53
 100
AcDbSymbolTableRecord
 100
AcDbBlockTableRecord
   2
*D14
   0
BLOCK_RECORD
   5
54
 100
AcDbSymbolTableRecord
 100
AcDbBlockTableRecord
   2
*D15
   0
BLOCK_RECORD
   5
55
 100
AcDbSymbolTableRecord
 100
AcDbBlockTableRecord
   2
*D16
   0
BLOCK_RECORD
   5
56
 100
AcDbSymbolTableRecord
 100
AcDbBlockTableRecord
   2
*D17
   0
BLOCK_RECORD
   5
57
 100
AcDbSymbolTableRecord
 100
AcDbBlockTableRecord
   2
*D18
   0
BLOCK_RECORD
   5
58
 100
AcDbSymbolTableRecord
 100
AcDbBlockTableRecord
   2
*D20
   0
BLOCK_RECORD
   5
59
 100
AcDbSymbolTableRecord
 100
AcDbBlockTableRecord
   2
*D21
   0
BLOCK_RECORD
   5
5A
 100
AcDbSymbolTableRecord
 100
AcDbBlockTableRecord
   2
*D22
   0
BLOCK_RECORD
   5
5B
 100
AcDbSymbolTableRecord
 100
AcDbBlockTableRecord
   2
*D23
   0
BLOCK_RECORD
   5
5C
 100
AcDbSymbolTableRecord
 100
AcDbBlockTableRecord
   2
*D24
   0
BLOCK_RECORD
   5
5D
 100
AcDbSymbolTableRecord
 100
AcDbBlockTableRecord
   2
*D25
   0
BLOCK_RECORD
   5
5E
 100
AcDbSymbolTableRecord
 100
AcDbBlockTableRecord
   2
*D27
   0
BLOCK_RECORD
   5
5F
 100
AcDbSymbolTableRecord
 100
AcDbBlockTableRecord
   2
*D28
   0
BLOCK_RECORD
   5
60
 100
AcDbSymbolTableRecord
 100
AcDbBlockTableRecord
   2
*D29
   0
BLOCK_RECORD
   5
61
 100
AcDbSymbolTableRecord
 100
AcDbBlockTableRecord
   2
*D30
   0
BLOCK_RECORD
   5
62
 100
AcDbSymbolTableRecord
 100
AcDbBlockTableRecord
   2
*D31
   0
BLOCK_RECORD
   5
63
 100
AcDbSymbolTableRecord
 100
AcDbBlockTableRecord
   2
*D32
   0
BLOCK_RECORD
   5
64
 100
AcDbSymbolTableRecord
 100
AcDbBlockTableRecord
   2
*D33
   0
BLOCK_RECORD
   5
65
 100
AcDbSymbolTableRecord
 100
AcDbBlockTableRecord
   2
*D34
   0
BLOCK_RECORD
   5
66
 100
AcDbSymbolTableRecord
 100
AcDbBlockTableRecord
   2
*D35
   0
BLOCK_RECORD
   5
67
 100
AcDbSymbolTableRecord
 100
AcDbBlockTableRecord
   2
*D36
   0
BLOCK_RECORD
   5
68
 100
AcDbSymbolTableRecord
 100
AcDbBlockTableRecord
   2
*D37
   0
BLOCK_RECORD
   5
69
 100
AcDbSymbolTableRecord
 100
AcDbBlockTableRecord
   2
*D38
   0
BLOCK_RECORD
   5
6A
 100
AcDbSymbolTableRecord
 100
AcDbBlockTableRecord
   2
*D39
   0
BLOCK_RECORD
   5
6B
 100
AcDbSymbolTableRecord
 100
AcDbBlockTableRecord
   2
*D40
   0
BLOCK_RECORD
   5
6C
 100
AcDbSymbolTableRecord
 100
AcDbBlockTableRecord
   2
*D41
   0
BLOCK_RECORD
   5
6D
 100
AcDbSymbolTableRecord
 100
AcDbBlockTableRecord
   2
*D42
   0
BLOCK_RECORD
   5
6E
 100
AcDbSymbolTableRecord
 100
AcDbBlockTableRecord
   2
*D43
   0
BLOCK_RECORD
   5
6F
 100
AcDbSymbolTableRecord
 100
AcDbBlockTableRecord
   2
*D44
   0
BLOCK_RECORD
   5
70
 100
AcDbSymbolTableRecord
 100
AcDbBlockTableRecord
   2
*D45
   0
BLOCK_RECORD
   5
71
 100
AcDbSymbolTableRecord
 100
AcDbBlockTableRecord
   2
*D46
   0
BLOCK_RECORD
   5
72
 100
AcDbSymbolTableRecord
 100
AcDbBlockTableRecord
   2
*D47
   0
BLOCK_RECORD
   5
73
 100
AcDbSymbolTableRecord
 100
AcDbBlockTableRecord
   2
*D48
   0
BLOCK_RECORD
   5
74
 100
AcDbSymbolTableRecord
 100
AcDbBlockTableRecord
   2
*D49
   0
BLOCK_RECORD
   5
75
 100
AcDbSymbolTableRecord
 100
AcDbBlockTableRecord
   2
*D50
   0
BLOCK_RECORD
   5
76
 100
AcDbSymbolTableRecord
 100
AcDbBlockTableRecord
   2
*D51
   0
BLOCK_RECORD
   5
77
 100
AcDbSymbolTableRecord
 100
AcDbBlockTableRecord
   2
*D52
   0
BLOCK_RECORD
   5
78
 100
AcDbSymbolTableRecord
 100
AcDbBlockTableRecord
   2
_ARCHTICK
   0
BLOCK_RECORD
   5
79
 100
AcDbSymbolTableRecord
 100
AcDbBlockTableRecord
   2
_BOXBLANK
   0
BLOCK_RECORD
   5
7A
 100
AcDbSymbolTableRecord
 100
AcDbBlockTableRecord
   2
_BOXFILLED
   0
BLOCK_RECORD
   5
7B
 100
AcDbSymbolTableRecord
 100
AcDbBlockTableRecord
   2
_CLOSED
   0
BLOCK_RECORD
   5
7C
 100
AcDbSymbolTableRecord
 100
AcDbBlockTableRecord
   2
_CLOSEDBLANK
   0
BLOCK_RECORD
   5
7D
 100
AcDbSymbolTableRecord
 100
AcDbBlockTableRecord
   2
_DATUMBLANK
   0
BLOCK_RECORD
   5
7E
 100
AcDbSymbolTableRecord
 100
AcDbBlockTableRecord
   2
_DATUMFILLED
   0
BLOCK_RECORD
   5
7F
 100
AcDbSymbolTableRecord
 100
AcDbBlockTableRecord
   2
_DOT
   0
BLOCK_RECORD
   5
80
 100
AcDbSymbolTableRecord
 100
AcDbBlockTableRecord
   2
_DOTBLANK
   0
BLOCK_RECORD
   5
81
 100
AcDbSymbolTableRecord
 100
AcDbBlockTableRecord
   2
_DOTSMALL
   0
BLOCK_RECORD
   5
82
 100
AcDbSymbolTableRecord
 100
AcDbBlockTableRecord
   2
_INTEGRAL
   0
BLOCK_RECORD
   5
83
 100
AcDbSymbolTableRecord
 100
AcDbBlockTableRecord
   2
_NONE
   0
BLOCK_RECORD
   5
84
 100
AcDbSymbolTableRecord
 100
AcDbBlockTableRecord
   2
_OBLIQUE
   0
BLOCK_RECORD
   5
85
 100
AcDbSymbolTableRecord
 100
AcDbBlockTableRecord
   2
_OPEN
   0
BLOCK_RECORD
   5
86
 100
AcDbSymbolTableRecord
 100
AcDbBlockTableRecord
   2
_OPEN30
   0
BLOCK_RECORD
   5
87
 100
AcDbSymbolTableRecord
 100
AcDbBlockTableRecord
   2
_OPEN90
   0
BLOCK_RECORD
   5
88
 100
AcDbSymbolTableRecord
 100
AcDbBlockTableRecord
   2
_ORIGIN
   0
ENDTAB
   0
ENDSEC
  0
SECTION
  2
BLOCKS
  0
BLOCK
  5
19
100
AcDbEntity
  8
0
100
AcDbBlockBegin
  2
*MODEL_SPACE
 70
     0
 10
0.0
 20
0.0
 30
0.0
  3
*MODEL_SPACE
  1

  0
ENDBLK
  5
1A
100
AcDbEntity
  8
0
100
AcDbBlockEnd
  0
BLOCK
  5
16
100
AcDbEntity
 67
     1
  8
0
100
AcDbBlockBegin
  2
*PAPER_SPACE
 70
     0
 10
0.0
 20
0.0
 30
0.0
  3
*PAPER_SPACE
  1

  0
ENDBLK
  5
17
100
AcDbEntity
 67
     1
  8
0
100
AcDbBlockEnd
   0
BLOCK
   5
89
 100
AcDbEntity
   8
0
 100
AcDbBlockBegin
   2
_ARCHTICK
  70
0
  10
0.0
  20
0.0
  30
0.0
   3
_ARCHTICK
   0
POLYLINE
   5
8A
 100
AcDbEntity
   8
0
 370
-2
   6
BYBLOCK
  62
0
 100
AcDb2dPolyline
  66
1
  10
0.0
  20
0.0
  30
0.0
  70
1
  40
 0.15000000000000
  41
 0.15000000000000
   0
VERTEX
   5
8B
 100
AcDbEntity
   8
0
   6
BYBLOCK
  62
0
 100
AcDbVertex
 100
AcDb2dVertex
  10
-0.50000000000000
  20
-0.50000000000000
  30
0.0
  40
 0.15000000000000
  41
 0.15000000000000
   0
VERTEX
   5
8C
 100
AcDbEntity
   8
0
   6
BYBLOCK
  62
0
 100
AcDbVertex
 100
AcDb2dVertex
  10
 0.50000000000000
  20
 0.50000000000000
  30
0.0
  40
 0.15000000000000
  41
 0.15000000000000
   0
SEQEND
   5
8D
 100
AcDbEntity
   8
0
   6
BYBLOCK
  62
0
   0
ENDBLK
   5
8E
 100
AcDbEntity
   8
0
 100
AcDbBlockEnd
   0
BLOCK
   5
8F
 100
AcDbEntity
   8
0
 100
AcDbBlockBegin
   2
_OBLIQUE
  70
0
  10
0.0
  20
0.0
  30
0.0
   3
_OBLIQUE
   0
LINE
   5
90
 100
AcDbEntity
   8
0
 370
-2
 100
AcDbLine
   6
BYBLOCK
  62
0
  10
-0.50000000000000
  20
-0.50000000000000
  30
0.0
  11
 0.50000000000000
  21
 0.50000000000000
  31
0.0
   0
ENDBLK
   5
91
 100
AcDbEntity
   8
0
 100
AcDbBlockEnd
   0
BLOCK
   5
92
 100
AcDbEntity
   8
0
 100
AcDbBlockBegin
   2
_BOXBLANK
  70
0
  10
0.0
  20
0.0
  30
0.0
   3
_BOXBLANK
   0
LINE
   5
93
 100
AcDbEntity
   8
0
 370
-2
 100
AcDbLine
   6
BYBLOCK
  62
0
  10
-0.50000000000000
  20
-0.50000000000000
  30
0.0
  11
 0.50000000000000
  21
-0.50000000000000
  31
0.0
   0
LINE
   5
94
 100
AcDbEntity
   8
0
 370
-2
 100
AcDbLine
   6
BYBLOCK
  62
0
  10
 0.50000000000000
  20
-0.50000000000000
  30
0.0
  11
 0.50000000000000
  21
 0.50000000000000
  31
0.0
   0
LINE
   5
95
 100
AcDbEntity
   8
0
 370
-2
 100
AcDbLine
   6
BYBLOCK
  62
0
  10
 0.50000000000000
  20
 0.50000000000000
  30
0.0
  11
-0.50000000000000
  21
 0.50000000000000
  31
0.0
   0
LINE
   5
96
 100
AcDbEntity
   8
0
 370
-2
 100
AcDbLine
   6
BYBLOCK
  62
0
  10
-0.50000000000000
  20
 0.50000000000000
  30
0.0
  11
-0.50000000000000
  21
-0.50000000000000
  31
0.0
   0
LINE
   5
97
 100
AcDbEntity
   8
0
 370
-2
 100
AcDbLine
   6
BYBLOCK
  62
0
  10
-0.50000000000000
  20
0.0
  30
0.0
  11
-1.0000000000000
  21
0.0
  31
0.0
   0
ENDBLK
   5
98
 100
AcDbEntity
   8
0
 100
AcDbBlockEnd
   0
BLOCK
   5
99
 100
AcDbEntity
   8
0
 100
AcDbBlockBegin
   2
_BOXFILLED
  70
0
  10
0.0
  20
0.0
  30
0.0
   3
_BOXFILLED
   0
SOLID
   5
9A
 100
AcDbEntity
   8
0
 100
AcDbTrace
   6
BYBLOCK
  62
0
  10
-0.50000000000000
  20
 0.50000000000000
  30
0.0
  11
 0.50000000000000
  21
 0.50000000000000
  31
0.0
  12
-0.50000000000000
  22
-0.50000000000000
  32
0.0
  13
 0.50000000000000
  23
-0.50000000000000
  33
0.0
   0
LINE
   5
9B
 100
AcDbEntity
   8
0
 370
-2
 100
AcDbLine
   6
BYBLOCK
  62
0
  10
-0.50000000000000
  20
0.0
  30
0.0
  11
-1.0000000000000
  21
0.0
  31
0.0
   0
ENDBLK
   5
9C
 100
AcDbEntity
   8
0
 100
AcDbBlockEnd
   0
BLOCK
   5
9D
 100
AcDbEntity
   8
0
 100
AcDbBlockBegin
   2
_CLOSED
  70
0
  10
0.0
  20
0.0
  30
0.0
   3
_CLOSED
   0
LINE
   5
9E
 100
AcDbEntity
   8
0
 370
-2
 100
AcDbLine
   6
BYBLOCK
  62
0
  10
-1.0000000000000
  20
 0.16666666666667
  30
0.0
  11
0.0
  21
0.0
  31
0.0
   0
LINE
   5
9F
 100
AcDbEntity
   8
0
 370
-2
 100
AcDbLine
   6
BYBLOCK
  62
0
  10
0.0
  20
0.0
  30
0.0
  11
-1.0000000000000
  21
-0.16666666666667
  31
0.0
   0
LINE
   5
A0
 100
AcDbEntity
   8
0
 370
-2
 100
AcDbLine
   6
BYBLOCK
  62
0
  10
-1.0000000000000
  20
 0.16666666666667
  30
0.0
  11
-1.0000000000000
  21
-0.16666666666667
  31
0.0
   0
LINE
   5
A1
 100
AcDbEntity
   8
0
 370
-2
 100
AcDbLine
   6
BYBLOCK
  62
0
  10
0.0
  20
0.0
  30
0.0
  11
-1.0000000000000
  21
0.0
  31
0.0
   0
ENDBLK
   5
A2
 100
AcDbEntity
   8
0
 100
AcDbBlockEnd
   0
BLOCK
   5
A3
 100
AcDbEntity
   8
0
 100
AcDbBlockBegin
   2
_OPEN
  70
0
  10
0.0
  20
0.0
  30
0.0
   3
_OPEN
   0
LINE
   5
A4
 100
AcDbEntity
   8
0
 370
-2
 100
AcDbLine
   6
BYBLOCK
  62
0
  10
-1.0000000000000
  20
 0.16666666666667
  30
0.0
  11
0.0
  21
0.0
  31
0.0
   0
LINE
   5
A5
 100
AcDbEntity
   8
0
 370
-2
 100
AcDbLine
   6
BYBLOCK
  62
0
  10
0.0
  20
0.0
  30
0.0
  11
-1.0000000000000
  21
-0.16666666666667
  31
0.0
   0
LINE
   5
A6
 100
AcDbEntity
   8
0
 370
-2
 100
AcDbLine
   6
BYBLOCK
  62
0
  10
0.0
  20
0.0
  30
0.0
  11
-1.0000000000000
  21
0.0
  31
0.0
   0
ENDBLK
   5
A7
 100
AcDbEntity
   8
0
 100
AcDbBlockEnd
   0
BLOCK
   5
A8
 100
AcDbEntity
   8
0
 100
AcDbBlockBegin
   2
_OPEN30
  70
0
  10
0.0
  20
0.0
  30
0.0
   3
_OPEN30
   0
LINE
   5
A9
 100
AcDbEntity
   8
0
 370
-2
 100
AcDbLine
   6
BYBLOCK
  62
0
  10
-1.0000000000000
  20
 0.26794919243110
  30
0.0
  11
0.0
  21
0.0
  31
0.0
   0
LINE
   5
AA
 100
AcDbEntity
   8
0
 370
-2
 100
AcDbLine
   6
BYBLOCK
  62
0
  10
0.0
  20
0.0
  30
0.0
  11
-1.0000000000000
  21
-0.26794919243110
  31
0.0
   0
LINE
   5
AB
 100
AcDbEntity
   8
0
 370
-2
 100
AcDbLine
   6
BYBLOCK
  62
0
  10
0.0
  20
0.0
  30
0.0
  11
-1.0000000000000
  21
0.0
  31
0.0
   0
ENDBLK
   5
AC
 100
AcDbEntity
   8
0
 100
AcDbBlockEnd
   0
BLOCK
   5
AD
 100
AcDbEntity
   8
0
 100
AcDbBlockBegin
   2
_OPEN90
  70
0
  10
0.0
  20
0.0
  30
0.0
   3
_OPEN90
   0
LINE
   5
AE
 100
AcDbEntity
   8
0
 370
-2
 100
AcDbLine
   6
BYBLOCK
  62
0
  10
-0.50000000000000
  20
 0.50000000000000
  30
0.0
  11
0.0
  21
0.0
  31
0.0
   0
LINE
   5
AF
 100
AcDbEntity
   8
0
 370
-2
 100
AcDbLine
   6
BYBLOCK
  62
0
  10
0.0
  20
0.0
  30
0.0
  11
-0.50000000000000
  21
-0.50000000000000
  31
0.0
   0
LINE
   5
B0
 100
AcDbEntity
   8
0
 370
-2
 100
AcDbLine
   6
BYBLOCK
  62
0
  10
0.0
  20
0.0
  30
0.0
  11
-1.0000000000000
  21
0.0
  31
0.0
   0
ENDBLK
   5
B1
 100
AcDbEntity
   8
0
 100
AcDbBlockEnd
   0
BLOCK
   5
B2
 100
AcDbEntity
   8
0
 100
AcDbBlockBegin
   2
_CLOSEDBLANK
  70
0
  10
0.0
  20
0.0
  30
0.0
   3
_CLOSEDBLANK
   0
LINE
   5
B3
 100
AcDbEntity
   8
0
 370
-2
 100
AcDbLine
   6
BYBLOCK
  62
0
  10
-1.0000000000000
  20
 0.16666666666667
  30
0.0
  11
0.0
  21
0.0
  31
0.0
   0
LINE
   5
B4
 100
AcDbEntity
   8
0
 370
-2
 100
AcDbLine
   6
BYBLOCK
  62
0
  10
0.0
  20
0.0
  30
0.0
  11
-1.0000000000000
  21
-0.16666666666667
  31
0.0
   0
LINE
   5
B5
 100
AcDbEntity
   8
0
 370
-2
 100
AcDbLine
   6
BYBLOCK
  62
0
  10
-1.0000000000000
  20
 0.16666666666667
  30
0.0
  11
-1.0000000000000
  21
-0.16666666666667
  31
0.0
   0
ENDBLK
   5
B6
 100
AcDbEntity
   8
0
 100
AcDbBlockEnd
   0
BLOCK
   5
B7
 100
AcDbEntity
   8
0
 100
AcDbBlockBegin
   2
_DOT
  70
0
  10
0.0
  20
0.0
  30
0.0
   3
_DOT
   0
POLYLINE
   5
B8
 100
AcDbEntity
   8
0
 370
-2
   6
BYBLOCK
  62
0
 100
AcDb2dPolyline
  66
1
  10
0.0
  20
0.0
  30
0.0
  70
1
  40
 0.50000000000000
  41
 0.50000000000000
   0
VERTEX
   5
B9
 100
AcDbEntity
   8
0
   6
BYBLOCK
  62
0
 100
AcDbVertex
 100
AcDb2dVertex
  10
-0.25000000000000
  20
0.0
  30
0.0
  42
 1.0000000000000
  40
 0.50000000000000
  41
 0.50000000000000
   0
VERTEX
   5
BA
 100
AcDbEntity
   8
0
   6
BYBLOCK
  62
0
 100
AcDbVertex
 100
AcDb2dVertex
  10
 0.25000000000000
  20
0.0
  30
0.0
  42
 1.0000000000000
  40
 0.50000000000000
  41
 0.50000000000000
   0
SEQEND
   5
BB
 100
AcDbEntity
   8
0
   6
BYBLOCK
  62
0
   0
LINE
   5
BC
 100
AcDbEntity
   8
0
 370
-2
 100
AcDbLine
   6
BYBLOCK
  62
0
  10
-0.50000000000000
  20
0.0
  30
0.0
  11
-1.0000000000000
  21
0.0
  31
0.0
   0
ENDBLK
   5
BD
 100
AcDbEntity
   8
0
 100
AcDbBlockEnd
   0
BLOCK
   5
BE
 100
AcDbEntity
   8
0
 100
AcDbBlockBegin
   2
_DOTSMALL
  70
0
  10
0.0
  20
0.0
  30
0.0
   3
_DOTSMALL
   0
POLYLINE
   5
BF
 100
AcDbEntity
   8
0
 370
-2
   6
BYBLOCK
  62
0
 100
AcDb2dPolyline
  66
1
  10
0.0
  20
0.0
  30
0.0
  70
1
  40
 0.50000000000000
  41
 0.50000000000000
   0
VERTEX
   5
C0
 100
AcDbEntity
   8
0
   6
BYBLOCK
  62
0
 100
AcDbVertex
 100
AcDb2dVertex
  10
-0.62500000000000E-1
  20
0.0
  30
0.0
  42
 1.0000000000000
  40
 0.50000000000000
  41
 0.50000000000000
   0
VERTEX
   5
C1
 100
AcDbEntity
   8
0
   6
BYBLOCK
  62
0
 100
AcDbVertex
 100
AcDb2dVertex
  10
 0.62500000000000E-1
  20
0.0
  30
0.0
  42
 1.0000000000000
  40
 0.50000000000000
  41
 0.50000000000000
   0
SEQEND
   5
C2
 100
AcDbEntity
   8
0
   6
BYBLOCK
  62
0
   0
ENDBLK
   5
C3
 100
AcDbEntity
   8
0
 100
AcDbBlockEnd
   0
BLOCK
   5
C4
 100
AcDbEntity
   8
0
 100
AcDbBlockBegin
   2
_DATUMBLANK
  70
0
  10
0.0
  20
0.0
  30
0.0
   3
_DATUMBLANK
   0
LINE
   5
C5
 100
AcDbEntity
   8
0
 370
-2
 100
AcDbLine
   6
BYBLOCK
  62
0
  10
0.0
  20
 0.57735027000000
  30
0.0
  11
-1.0000000000000
  21
0.0
  31
0.0
   0
LINE
   5
C6
 100
AcDbEntity
   8
0
 370
-2
 100
AcDbLine
   6
BYBLOCK
  62
0
  10
-1.0000000000000
  20
0.0
  30
0.0
  11
0.0
  21
-0.57735027000000
  31
0.0
   0
LINE
   5
C7
 100
AcDbEntity
   8
0
 370
-2
 100
AcDbLine
   6
BYBLOCK
  62
0
  10
0.0
  20
-0.57735027000000
  30
0.0
  11
0.0
  21
 0.57735027000000
  31
0.0
   0
ENDBLK
   5
C8
 100
AcDbEntity
   8
0
 100
AcDbBlockEnd
   0
BLOCK
   5
C9
 100
AcDbEntity
   8
0
 100
AcDbBlockBegin
   2
_DATUMFILLED
  70
0
  10
0.0
  20
0.0
  30
0.0
   3
_DATUMFILLED
   0
SOLID
   5
CA
 100
AcDbEntity
   8
0
 100
AcDbTrace
   6
BYBLOCK
  62
0
  10
0.0
  20
 0.57735027000000
  30
0.0
  11
-1.0000000000000
  21
0.0
  31
0.0
  12
0.0
  22
-0.57735027000000
  32
0.0
  13
0.0
  23
-0.57735027000000
  33
0.0
   0
ENDBLK
   5
CB
 100
AcDbEntity
   8
0
 100
AcDbBlockEnd
   0
BLOCK
   5
CC
 100
AcDbEntity
   8
0
 100
AcDbBlockBegin
   2
_ORIGIN
  70
0
  10
0.0
  20
0.0
  30
0.0
   3
_ORIGIN
   0
CIRCLE
   5
CD
 100
AcDbEntity
   8
0
 370
-2
 100
AcDbCircle
   6
BYBLOCK
  62
0
  10
0.0
  20
0.0
  30
0.0
  40
 0.50000000000000
   0
LINE
   5
CE
 100
AcDbEntity
   8
0
 370
-2
 100
AcDbLine
   6
BYBLOCK
  62
0
  10
0.0
  20
0.0
  30
0.0
  11
-1.0000000000000
  21
0.0
  31
0.0
   0
ENDBLK
   5
CF
 100
AcDbEntity
   8
0
 100
AcDbBlockEnd
   0
BLOCK
   5
D0
 100
AcDbEntity
   8
0
 100
AcDbBlockBegin
   2
_NONE
  70
0
  10
0.0
  20
0.0
  30
0.0
   3
_NONE
   0
CIRCLE
   5
D1
 100
AcDbEntity
   8
0
 370
-2
 100
AcDbCircle
   6
BYBLOCK
  62
0
  10
0.0
  20
0.0
  30
0.0
  40
 0.25000000000000
   0
ENDBLK
   5
D2
 100
AcDbEntity
   8
0
 100
AcDbBlockEnd
   0
BLOCK
   5
D3
 100
AcDbEntity
   8
0
 100
AcDbBlockBegin
   2
_DOTBLANK
  70
0
  10
0.0
  20
0.0
  30
0.0
   3
_DOTBLANK
   0
CIRCLE
   5
D4
 100
AcDbEntity
   8
0
 370
-2
 100
AcDbCircle
   6
BYBLOCK
  62
0
  10
0.0
  20
0.0
  30
0.0
  40
 0.50000000000000
   0
LINE
   5
D5
 100
AcDbEntity
   8
0
 370
-2
 100
AcDbLine
   6
BYBLOCK
  62
0
  10
-0.50000000000000
  20
0.0
  30
0.0
  11
-1.0000000000000
  21
0.0
  31
0.0
   0
ENDBLK
   5
D6
 100
AcDbEntity
   8
0
 100
AcDbBlockEnd
   0
BLOCK
   5
D7
 100
AcDbEntity
   8
0
 100
AcDbBlockBegin
   2
_INTEGRAL
  70
0
  10
0.0
  20
0.0
  30
0.0
   3
_INTEGRAL
   0
ARC
   5
D8
 100
AcDbEntity
   8
0
 370
-2
   6
BYBLOCK
  62
0
 100
AcDbCircle
  10
 0.44488800000000
  20
-0.91335000000000E-1
  30
0.0
  40
 0.45416700000000
 100
AcDbArc
  50
 102.00000000000
  51
 168.00000000000
   0
ARC
   5
D9
 100
AcDbEntity
   8
0
 370
-2
   6
BYBLOCK
  62
0
 100
AcDbCircle
  10
-0.44488800000000
  20
 0.91335000000000E-1
  30
0.0
  40
 0.45416700000000
 100
AcDbArc
  50
 282.00000000000
  51
 348.00000000000
   0
ENDBLK
   5
DA
 100
AcDbEntity
   8
0
 100
AcDbBlockEnd
   0
BLOCK
   5
DB
 100
AcDbEntity
   8
0
 100
AcDbBlockBegin
   2
*D1
  70
65
  10
0.0
  20
0.0
  30
0.0
   3
*D1
   0
LINE
   5
DC
 100
AcDbEntity
   8
0
 370
15
 100
AcDbLine
   6
CONTINUOUS
  62
8
  10
 420.78650664791
  20
 235.45838762098
  30
0.0
  11
 420.78650664791
  21
 183.25083763887
  31
0.0
   0
LINE
   5
DD
 100
AcDbEntity
   8
0
 370
15
 100
AcDbLine
   6
CONTINUOUS
  62
8
  10
 446.78650664791
  20
 235.45838762098
  30
0.0
  11
 446.78650664791
  21
 183.25083763887
  31
0.0
   0
LINE
   5
DE
 100
AcDbEntity
   8
0
 370
15
 100
AcDbLine
   6
CONTINUOUS
  62
8
  10
 420.78650664791
  20
 187.25083763887
  30
0.0
  11
 433.78650664791
  21
 187.25083763887
  31
0.0
   0
LINE
   5
DF
 100
AcDbEntity
   8
0
 370
15
 100
AcDbLine
   6
CONTINUOUS
  62
8
  10
 446.78650664791
  20
 187.25083763887
  30
0.0
  11
 433.78650664791
  21
 187.25083763887
  31
0.0
   0
SOLID
   5
E0
 100
AcDbEntity
   8
0
 100
AcDbTrace
   6
CONTINUOUS
  62
8
  10
 420.78650664791
  20
 187.25083763887
  30
0.0
  11
 428.78650664791
  21
 185.84022179320
  31
0.0
  12
 428.78650664791
  22
 188.66145348454
  32
0.0
  13
 428.78650664791
  23
 188.66145348454
  33
0.0
   0
SOLID
   5
E1
 100
AcDbEntity
   8
0
 100
AcDbTrace
   6
CONTINUOUS
  62
8
  10
 446.78650664791
  20
 187.25083763887
  30
0.0
  11
 438.78650664791
  21
 188.66145348454
  31
0.0
  12
 438.78650664791
  22
 185.84022179320
  32
0.0
  13
 438.78650664791
  23
 185.84022179320
  33
0.0
   0
MTEXT
   5
E2
 100
AcDbEntity
   8
0
 370
15
  62
8
 100
AcDbMText
  10
 433.78650664791
  20
 191.25083763887
  30
0.0
  40
 10.000000000000
  41
0.0
  71
8
  72
1
   1
\A1;26
   7
GMM001
   0
ENDBLK
   5
E3
 100
AcDbEntity
   8
0
 100
AcDbBlockEnd
   0
BLOCK
   5
E4
 100
AcDbEntity
   8
0
 100
AcDbBlockBegin
   2
*D2
  70
65
  10
0.0
  20
0.0
  30
0.0
   3
*D2
   0
LINE
   5
E5
 100
AcDbEntity
   8
0
 370
15
 100
AcDbLine
   6
CONTINUOUS
  62
8
  10
 427.28650664791
  20
 235.45838762098
  30
0.0
  11
 427.28650664791
  21
 203.90915008669
  31
0.0
   0
LINE
   5
E6
 100
AcDbEntity
   8
0
 370
15
 100
AcDbLine
   6
CONTINUOUS
  62
8
  10
 440.28650664791
  20
 235.45838762098
  30
0.0
  11
 440.28650664791
  21
 203.90915008669
  31
0.0
   0
LINE
   5
E7
 100
AcDbEntity
   8
0
 370
15
 100
AcDbLine
   6
CONTINUOUS
  62
8
  10
 417.28650664791
  20
 207.90915008669
  30
0.0
  11
 433.78650664791
  21
 207.90915008669
  31
0.0
   0
LINE
   5
E8
 100
AcDbEntity
   8
0
 370
15
 100
AcDbLine
   6
CONTINUOUS
  62
8
  10
 474.79364815691
  20
 207.90915008669
  30
0.0
  11
 433.78650664791
  21
 207.90915008669
  31
0.0
   0
SOLID
   5
E9
 100
AcDbEntity
   8
0
 100
AcDbTrace
   6
CONTINUOUS
  62
8
  10
 427.28650664791
  20
 207.90915008669
  30
0.0
  11
 419.28650664791
  21
 209.31976593236
  31
0.0
  12
 419.28650664791
  22
 206.49853424102
  32
0.0
  13
 419.28650664791
  23
 206.49853424102
  33
0.0
   0
SOLID
   5
EA
 100
AcDbEntity
   8
0
 100
AcDbTrace
   6
CONTINUOUS
  62
8
  10
 440.28650664791
  20
 207.90915008669
  30
0.0
  11
 448.28650664791
  21
 206.49853424102
  31
0.0
  12
 448.28650664791
  22
 209.31976593236
  32
0.0
  13
 448.28650664791
  23
 209.31976593236
  33
0.0
   0
MTEXT
   5
EB
 100
AcDbEntity
   8
0
 370
15
  62
8
 100
AcDbMText
  10
 456.79364815691
  20
 210.45774379318
  30
0.0
  40
 10.000000000000
  41
0.0
  71
7
  72
1
   1
\A1;13
   7
GMM001
   0
ENDBLK
   5
EC
 100
AcDbEntity
   8
0
 100
AcDbBlockEnd
   0
BLOCK
   5
ED
 100
AcDbEntity
   8
0
 100
AcDbBlockBegin
   2
*D3
  70
65
  10
0.0
  20
0.0
  30
0.0
   3
*D3
   0
LINE
   5
EE
 100
AcDbEntity
   8
0
 370
15
 100
AcDbLine
   6
CONTINUOUS
  62
8
  10
 322.33590180056
  20
 239.45838762098
  30
0.0
  11
 374.97994162412
  21
 239.45838762098
  31
0.0
   0
LINE
   5
EF
 100
AcDbEntity
   8
0
 370
15
 100
AcDbLine
   6
CONTINUOUS
  62
8
  10
 346.33590180057
  20
 274.45838762098
  30
0.0
  11
 374.97994162412
  21
 274.45838762098
  31
0.0
   0
LINE
   5
F0
 100
AcDbEntity
   8
0
 370
15
 100
AcDbLine
   6
CONTINUOUS
  62
8
  10
 370.97994162412
  20
 239.45838762098
  30
0.0
  11
 370.97994162412
  21
 256.95838762098
  31
0.0
   0
LINE
   5
F1
 100
AcDbEntity
   8
0
 370
15
 100
AcDbLine
   6
CONTINUOUS
  62
8
  10
 370.97994162412
  20
 274.45838762098
  30
0.0
  11
 370.97994162412
  21
 256.95838762098
  31
0.0
   0
SOLID
   5
F2
 100
AcDbEntity
   8
0
 100
AcDbTrace
   6
CONTINUOUS
  62
8
  10
 370.97994162412
  20
 239.45838762098
  30
0.0
  11
 372.39055746979
  21
 247.45838762098
  31
0.0
  12
 369.56932577845
  22
 247.45838762098
  32
0.0
  13
 369.56932577845
  23
 247.45838762098
  33
0.0
   0
SOLID
   5
F3
 100
AcDbEntity
   8
0
 100
AcDbTrace
   6
CONTINUOUS
  62
8
  10
 370.97994162412
  20
 274.45838762098
  30
0.0
  11
 369.56932577845
  21
 266.45838762098
  31
0.0
  12
 372.39055746979
  22
 266.45838762098
  32
0.0
  13
 372.39055746979
  23
 266.45838762098
  33
0.0
   0
MTEXT
   5
F4
 100
AcDbEntity
   8
0
 370
15
  62
8
 100
AcDbMText
  10
 366.97994162412
  20
 256.95838762098
  30
0.0
  40
 10.000000000000
  41
0.0
  71
8
  72
1
   1
\A1;35
   7
GMM001
  11
0.0
  21
 1.0000000000000
  31
0.0
   0
ENDBLK
   5
F5
 100
AcDbEntity
   8
0
 100
AcDbBlockEnd
   0
BLOCK
   5
F6
 100
AcDbEntity
   8
0
 100
AcDbBlockBegin
   2
*D5
  70
65
  10
0.0
  20
0.0
  30
0.0
   3
*D5
   0
LINE
   5
F7
 100
AcDbEntity
   8
0
 370
15
 100
AcDbLine
   6
CONTINUOUS
  62
8
  10
 275.33590180057
  20
 252.45838762098
  30
0.0
  11
 260.96091593034
  21
 252.45838762098
  31
0.0
   0
LINE
   5
F8
 100
AcDbEntity
   8
0
 370
15
 100
AcDbLine
   6
CONTINUOUS
  62
8
  10
 275.33590180057
  20
 226.45838762098
  30
0.0
  11
 260.96091593034
  21
 226.45838762098
  31
0.0
   0
LINE
   5
F9
 100
AcDbEntity
   8
0
 370
15
 100
AcDbLine
   6
CONTINUOUS
  62
8
  10
 264.96091593034
  20
 252.45838762098
  30
0.0
  11
 264.96091593034
  21
 239.45838762098
  31
0.0
   0
LINE
   5
FA
 100
AcDbEntity
   8
0
 370
15
 100
AcDbLine
   6
CONTINUOUS
  62
8
  10
 264.96091593034
  20
 226.45838762098
  30
0.0
  11
 264.96091593034
  21
 239.45838762098
  31
0.0
   0
SOLID
   5
FB
 100
AcDbEntity
   8
0
 100
AcDbTrace
   6
CONTINUOUS
  62
8
  10
 264.96091593034
  20
 252.45838762098
  30
0.0
  11
 263.55030008467
  21
 244.45838762098
  31
0.0
  12
 266.37153177601
  22
 244.45838762098
  32
0.0
  13
 266.37153177601
  23
 244.45838762098
  33
0.0
   0
SOLID
   5
FC
 100
AcDbEntity
   8
0
 100
AcDbTrace
   6
CONTINUOUS
  62
8
  10
 264.96091593034
  20
 226.45838762098
  30
0.0
  11
 266.37153177601
  21
 234.45838762098
  31
0.0
  12
 263.55030008467
  22
 234.45838762098
  32
0.0
  13
 263.55030008467
  23
 234.45838762098
  33
0.0
   0
MTEXT
   5
FD
 100
AcDbEntity
   8
0
 370
15
  62
8
 100
AcDbMText
  10
 260.96091593034
  20
 239.45838762098
  30
0.0
  40
 10.000000000000
  41
0.0
  71
8
  72
1
   1
\A1;26
   7
GMM001
  11
0.0
  21
 1.0000000000000
  31
0.0
   0
ENDBLK
   5
FE
 100
AcDbEntity
   8
0
 100
AcDbBlockEnd
   0
BLOCK
   5
FF
 100
AcDbEntity
   8
0
 100
AcDbBlockBegin
   2
*D6
  70
65
  10
0.0
  20
0.0
  30
0.0
   3
*D6
   0
LINE
   5
100
 100
AcDbEntity
   8
0
 370
15
 100
AcDbLine
   6
CONTINUOUS
  62
8
  10
 279.33590180057
  20
 214.45838762098
  30
0.0
  11
 279.33590180057
  21
 183.25083763887
  31
0.0
   0
LINE
   5
101
 100
AcDbEntity
   8
0
 370
15
 100
AcDbLine
   6
CONTINUOUS
  62
8
  10
 334.33590180057
  20
 249.95838762098
  30
0.0
  11
 334.33590180057
  21
 183.25083763887
  31
0.0
   0
LINE
   5
102
 100
AcDbEntity
   8
0
 370
15
 100
AcDbLine
   6
CONTINUOUS
  62
8
  10
 279.33590180057
  20
 187.25083763887
  30
0.0
  11
 306.83590180057
  21
 187.25083763887
  31
0.0
   0
LINE
   5
103
 100
AcDbEntity
   8
0
 370
15
 100
AcDbLine
   6
CONTINUOUS
  62
8
  10
 334.33590180057
  20
 187.25083763887
  30
0.0
  11
 306.83590180057
  21
 187.25083763887
  31
0.0
   0
SOLID
   5
104
 100
AcDbEntity
   8
0
 100
AcDbTrace
   6
CONTINUOUS
  62
8
  10
 279.33590180057
  20
 187.25083763887
  30
0.0
  11
 287.33590180057
  21
 185.84022179320
  31
0.0
  12
 287.33590180057
  22
 188.66145348454
  32
0.0
  13
 287.33590180057
  23
 188.66145348454
  33
0.0
   0
SOLID
   5
105
 100
AcDbEntity
   8
0
 100
AcDbTrace
   6
CONTINUOUS
  62
8
  10
 334.33590180057
  20
 187.25083763887
  30
0.0
  11
 326.33590180057
  21
 188.66145348454
  31
0.0
  12
 326.33590180057
  22
 185.84022179320
  32
0.0
  13
 326.33590180057
  23
 185.84022179320
  33
0.0
   0
MTEXT
   5
106
 100
AcDbEntity
   8
0
 370
15
  62
8
 100
AcDbMText
  10
 306.83590180057
  20
 191.25083763887
  30
0.0
  40
 10.000000000000
  41
0.0
  71
8
  72
1
   1
\A1;L
   7
GMM001
   0
ENDBLK
   5
107
 100
AcDbEntity
   8
0
 100
AcDbBlockEnd
   0
BLOCK
   5
108
 100
AcDbEntity
   8
0
 100
AcDbBlockBegin
   2
*D7
  70
65
  10
0.0
  20
0.0
  30
0.0
   3
*D7
   0
LINE
   5
109
 100
AcDbEntity
   8
0
 370
15
 100
AcDbLine
   6
CONTINUOUS
  62
8
  10
 279.33590180057
  20
 222.45838762098
  30
0.0
  11
 279.33590180057
  21
 203.90915008669
  31
0.0
   0
LINE
   5
10A
 100
AcDbEntity
   8
0
 370
15
 100
AcDbLine
   6
CONTINUOUS
  62
8
  10
 282.33590180057
  20
 223.45838762098
  30
0.0
  11
 282.33590180057
  21
 203.90915008669
  31
0.0
   0
LINE
   5
10B
 100
AcDbEntity
   8
0
 370
15
 100
AcDbLine
   6
CONTINUOUS
  62
8
  10
 262.32896568437
  20
 207.90915008669
  30
0.0
  11
 280.83590180057
  21
 207.90915008669
  31
0.0
   0
LINE
   5
10C
 100
AcDbEntity
   8
0
 370
15
 100
AcDbLine
   6
CONTINUOUS
  62
8
  10
 292.33590180057
  20
 207.90915008669
  30
0.0
  11
 280.83590180057
  21
 207.90915008669
  31
0.0
   0
SOLID
   5
10D
 100
AcDbEntity
   8
0
 100
AcDbTrace
   6
CONTINUOUS
  62
8
  10
 279.33590180057
  20
 207.90915008669
  30
0.0
  11
 271.33590180057
  21
 209.31976593236
  31
0.0
  12
 271.33590180057
  22
 206.49853424102
  32
0.0
  13
 271.33590180057
  23
 206.49853424102
  33
0.0
   0
SOLID
   5
10E
 100
AcDbEntity
   8
0
 100
AcDbTrace
   6
CONTINUOUS
  62
8
  10
 282.33590180057
  20
 207.90915008669
  30
0.0
  11
 290.33590180057
  21
 206.49853424102
  31
0.0
  12
 290.33590180057
  22
 209.31976593236
  32
0.0
  13
 290.33590180057
  23
 209.31976593236
  33
0.0
   0
MTEXT
   5
10F
 100
AcDbEntity
   8
0
 370
15
  62
8
 100
AcDbMText
  10
 272.32896568437
  20
 210.84983513264
  30
0.0
  40
 10.000000000000
  41
0.0
  71
9
  72
1
   1
\A1;3
   7
GMM001
   0
ENDBLK
   5
110
 100
AcDbEntity
   8
0
 100
AcDbBlockEnd
   0
BLOCK
   5
111
 100
AcDbEntity
   8
0
 100
AcDbBlockBegin
   2
*D8
  70
65
  10
0.0
  20
0.0
  30
0.0
   3
*D8
   0
LINE
   5
112
 100
AcDbEntity
   8
0
 370
15
 100
AcDbLine
   6
CONTINUOUS
  62
8
  10
 1025.0319425610
  20
 235.45838762086
  30
0.0
  11
 1025.0319425610
  21
 183.25083763875
  31
0.0
   0
LINE
   5
113
 100
AcDbEntity
   8
0
 370
15
 100
AcDbLine
   6
CONTINUOUS
  62
8
  10
 1051.0319425610
  20
 235.45838762086
  30
0.0
  11
 1051.0319425610
  21
 183.25083763875
  31
0.0
   0
LINE
   5
114
 100
AcDbEntity
   8
0
 370
15
 100
AcDbLine
   6
CONTINUOUS
  62
8
  10
 1025.0319425610
  20
 187.25083763875
  30
0.0
  11
 1038.0319425610
  21
 187.25083763875
  31
0.0
   0
LINE
   5
115
 100
AcDbEntity
   8
0
 370
15
 100
AcDbLine
   6
CONTINUOUS
  62
8
  10
 1051.0319425610
  20
 187.25083763875
  30
0.0
  11
 1038.0319425610
  21
 187.25083763875
  31
0.0
   0
SOLID
   5
116
 100
AcDbEntity
   8
0
 100
AcDbTrace
   6
CONTINUOUS
  62
8
  10
 1025.0319425610
  20
 187.25083763875
  30
0.0
  11
 1033.0319425610
  21
 185.84022179308
  31
0.0
  12
 1033.0319425610
  22
 188.66145348442
  32
0.0
  13
 1033.0319425610
  23
 188.66145348442
  33
0.0
   0
SOLID
   5
117
 100
AcDbEntity
   8
0
 100
AcDbTrace
   6
CONTINUOUS
  62
8
  10
 1051.0319425610
  20
 187.25083763875
  30
0.0
  11
 1043.0319425610
  21
 188.66145348442
  31
0.0
  12
 1043.0319425610
  22
 185.84022179308
  32
0.0
  13
 1043.0319425610
  23
 185.84022179308
  33
0.0
   0
MTEXT
   5
118
 100
AcDbEntity
   8
0
 370
15
  62
8
 100
AcDbMText
  10
 1038.0319425610
  20
 191.25083763875
  30
0.0
  40
 10.000000000000
  41
0.0
  71
8
  72
1
   1
\A1;26
   7
GMM001
   0
ENDBLK
   5
119
 100
AcDbEntity
   8
0
 100
AcDbBlockEnd
   0
BLOCK
   5
11A
 100
AcDbEntity
   8
0
 100
AcDbBlockBegin
   2
*D9
  70
65
  10
0.0
  20
0.0
  30
0.0
   3
*D9
   0
LINE
   5
11B
 100
AcDbEntity
   8
0
 370
15
 100
AcDbLine
   6
CONTINUOUS
  62
8
  10
 1031.5319425610
  20
 235.45838762086
  30
0.0
  11
 1031.5319425610
  21
 203.90915008657
  31
0.0
   0
LINE
   5
11C
 100
AcDbEntity
   8
0
 370
15
 100
AcDbLine
   6
CONTINUOUS
  62
8
  10
 1044.5319425610
  20
 235.45838762086
  30
0.0
  11
 1044.5319425610
  21
 203.90915008657
  31
0.0
   0
LINE
   5
11D
 100
AcDbEntity
   8
0
 370
15
 100
AcDbLine
   6
CONTINUOUS
  62
8
  10
 1021.5319425610
  20
 207.90915008657
  30
0.0
  11
 1038.0319425610
  21
 207.90915008657
  31
0.0
   0
LINE
   5
11E
 100
AcDbEntity
   8
0
 370
15
 100
AcDbLine
   6
CONTINUOUS
  62
8
  10
 1079.0390840700
  20
 207.90915008657
  30
0.0
  11
 1038.0319425610
  21
 207.90915008657
  31
0.0
   0
SOLID
   5
11F
 100
AcDbEntity
   8
0
 100
AcDbTrace
   6
CONTINUOUS
  62
8
  10
 1031.5319425610
  20
 207.90915008657
  30
0.0
  11
 1023.5319425610
  21
 209.31976593224
  31
0.0
  12
 1023.5319425610
  22
 206.49853424090
  32
0.0
  13
 1023.5319425610
  23
 206.49853424090
  33
0.0
   0
SOLID
   5
120
 100
AcDbEntity
   8
0
 100
AcDbTrace
   6
CONTINUOUS
  62
8
  10
 1044.5319425610
  20
 207.90915008657
  30
0.0
  11
 1052.5319425610
  21
 206.49853424090
  31
0.0
  12
 1052.5319425610
  22
 209.31976593224
  32
0.0
  13
 1052.5319425610
  23
 209.31976593224
  33
0.0
   0
MTEXT
   5
121
 100
AcDbEntity
   8
0
 370
15
  62
8
 100
AcDbMText
  10
 1061.0390840700
  20
 210.45774379306
  30
0.0
  40
 10.000000000000
  41
0.0
  71
7
  72
1
   1
\A1;13
   7
GMM001
   0
ENDBLK
   5
122
 100
AcDbEntity
   8
0
 100
AcDbBlockEnd
   0
BLOCK
   5
123
 100
AcDbEntity
   8
0
 100
AcDbBlockBegin
   2
*D10
  70
65
  10
0.0
  20
0.0
  30
0.0
   3
*D10
   0
LINE
   5
124
 100
AcDbEntity
   8
0
 370
15
 100
AcDbLine
   6
CONTINUOUS
  62
8
  10
 926.58133771368
  20
 239.45838762086
  30
0.0
  11
 979.22537753724
  21
 239.45838762086
  31
0.0
   0
LINE
   5
125
 100
AcDbEntity
   8
0
 370
15
 100
AcDbLine
   6
CONTINUOUS
  62
8
  10
 950.58133771369
  20
 274.45838762086
  30
0.0
  11
 979.22537753724
  21
 274.45838762086
  31
0.0
   0
LINE
   5
126
 100
AcDbEntity
   8
0
 370
15
 100
AcDbLine
   6
CONTINUOUS
  62
8
  10
 975.22537753724
  20
 239.45838762086
  30
0.0
  11
 975.22537753724
  21
 256.95838762086
  31
0.0
   0
LINE
   5
127
 100
AcDbEntity
   8
0
 370
15
 100
AcDbLine
   6
CONTINUOUS
  62
8
  10
 975.22537753724
  20
 274.45838762086
  30
0.0
  11
 975.22537753724
  21
 256.95838762086
  31
0.0
   0
SOLID
   5
128
 100
AcDbEntity
   8
0
 100
AcDbTrace
   6
CONTINUOUS
  62
8
  10
 975.22537753724
  20
 239.45838762086
  30
0.0
  11
 976.63599338291
  21
 247.45838762086
  31
0.0
  12
 973.81476169157
  22
 247.45838762086
  32
0.0
  13
 973.81476169157
  23
 247.45838762086
  33
0.0
   0
SOLID
   5
129
 100
AcDbEntity
   8
0
 100
AcDbTrace
   6
CONTINUOUS
  62
8
  10
 975.22537753724
  20
 274.45838762086
  30
0.0
  11
 973.81476169157
  21
 266.45838762086
  31
0.0
  12
 976.63599338291
  22
 266.45838762086
  32
0.0
  13
 976.63599338291
  23
 266.45838762086
  33
0.0
   0
MTEXT
   5
12A
 100
AcDbEntity
   8
0
 370
15
  62
8
 100
AcDbMText
  10
 971.22537753724
  20
 256.95838762086
  30
0.0
  40
 10.000000000000
  41
0.0
  71
8
  72
1
   1
\A1;35
   7
GMM001
  11
0.0
  21
 1.0000000000000
  31
0.0
   0
ENDBLK
   5
12B
 100
AcDbEntity
   8
0
 100
AcDbBlockEnd
   0
BLOCK
   5
12C
 100
AcDbEntity
   8
0
 100
AcDbBlockBegin
   2
*D12
  70
65
  10
0.0
  20
0.0
  30
0.0
   3
*D12
   0
LINE
   5
12D
 100
AcDbEntity
   8
0
 370
15
 100
AcDbLine
   6
CONTINUOUS
  62
8
  10
 879.58133771369
  20
 252.45838762086
  30
0.0
  11
 865.20635184346
  21
 252.45838762086
  31
0.0
   0
LINE
   5
12E
 100
AcDbEntity
   8
0
 370
15
 100
AcDbLine
   6
CONTINUOUS
  62
8
  10
 879.58133771369
  20
 226.45838762086
  30
0.0
  11
 865.20635184346
  21
 226.45838762086
  31
0.0
   0
LINE
   5
12F
 100
AcDbEntity
   8
0
 370
15
 100
AcDbLine
   6
CONTINUOUS
  62
8
  10
 869.20635184346
  20
 252.45838762086
  30
0.0
  11
 869.20635184346
  21
 239.45838762086
  31
0.0
   0
LINE
   5
130
 100
AcDbEntity
   8
0
 370
15
 100
AcDbLine
   6
CONTINUOUS
  62
8
  10
 869.20635184346
  20
 226.45838762086
  30
0.0
  11
 869.20635184346
  21
 239.45838762086
  31
0.0
   0
SOLID
   5
131
 100
AcDbEntity
   8
0
 100
AcDbTrace
   6
CONTINUOUS
  62
8
  10
 869.20635184346
  20
 252.45838762086
  30
0.0
  11
 867.79573599779
  21
 244.45838762086
  31
0.0
  12
 870.61696768913
  22
 244.45838762086
  32
0.0
  13
 870.61696768913
  23
 244.45838762086
  33
0.0
   0
SOLID
   5
132
 100
AcDbEntity
   8
0
 100
AcDbTrace
   6
CONTINUOUS
  62
8
  10
 869.20635184346
  20
 226.45838762086
  30
0.0
  11
 870.61696768913
  21
 234.45838762086
  31
0.0
  12
 867.79573599779
  22
 234.45838762086
  32
0.0
  13
 867.79573599779
  23
 234.45838762086
  33
0.0
   0
MTEXT
   5
133
 100
AcDbEntity
   8
0
 370
15
  62
8
 100
AcDbMText
  10
 865.20635184346
  20
 239.45838762086
  30
0.0
  40
 10.000000000000
  41
0.0
  71
8
  72
1
   1
\A1;26
   7
GMM001
  11
0.0
  21
 1.0000000000000
  31
0.0
   0
ENDBLK
   5
134
 100
AcDbEntity
   8
0
 100
AcDbBlockEnd
   0
BLOCK
   5
135
 100
AcDbEntity
   8
0
 100
AcDbBlockBegin
   2
*D13
  70
65
  10
0.0
  20
0.0
  30
0.0
   3
*D13
   0
LINE
   5
136
 100
AcDbEntity
   8
0
 370
15
 100
AcDbLine
   6
CONTINUOUS
  62
8
  10
 883.58133771369
  20
 214.45838762086
  30
0.0
  11
 883.58133771369
  21
 183.25083763875
  31
0.0
   0
LINE
   5
137
 100
AcDbEntity
   8
0
 370
15
 100
AcDbLine
   6
CONTINUOUS
  62
8
  10
 938.58133771369
  20
 249.95838762086
  30
0.0
  11
 938.58133771369
  21
 183.25083763875
  31
0.0
   0
LINE
   5
138
 100
AcDbEntity
   8
0
 370
15
 100
AcDbLine
   6
CONTINUOUS
  62
8
  10
 883.58133771369
  20
 187.25083763875
  30
0.0
  11
 911.08133771369
  21
 187.25083763875
  31
0.0
   0
LINE
   5
139
 100
AcDbEntity
   8
0
 370
15
 100
AcDbLine
   6
CONTINUOUS
  62
8
  10
 938.58133771369
  20
 187.25083763875
  30
0.0
  11
 911.08133771369
  21
 187.25083763875
  31
0.0
   0
SOLID
   5
13A
 100
AcDbEntity
   8
0
 100
AcDbTrace
   6
CONTINUOUS
  62
8
  10
 883.58133771369
  20
 187.25083763875
  30
0.0
  11
 891.58133771369
  21
 185.84022179308
  31
0.0
  12
 891.58133771369
  22
 188.66145348442
  32
0.0
  13
 891.58133771369
  23
 188.66145348442
  33
0.0
   0
SOLID
   5
13B
 100
AcDbEntity
   8
0
 100
AcDbTrace
   6
CONTINUOUS
  62
8
  10
 938.58133771369
  20
 187.25083763875
  30
0.0
  11
 930.58133771369
  21
 188.66145348442
  31
0.0
  12
 930.58133771369
  22
 185.84022179308
  32
0.0
  13
 930.58133771369
  23
 185.84022179308
  33
0.0
   0
MTEXT
   5
13C
 100
AcDbEntity
   8
0
 370
15
  62
8
 100
AcDbMText
  10
 911.08133771369
  20
 191.25083763875
  30
0.0
  40
 10.000000000000
  41
0.0
  71
8
  72
1
   1
\A1;L
   7
GMM001
   0
ENDBLK
   5
13D
 100
AcDbEntity
   8
0
 100
AcDbBlockEnd
   0
BLOCK
   5
13E
 100
AcDbEntity
   8
0
 100
AcDbBlockBegin
   2
*D14
  70
65
  10
0.0
  20
0.0
  30
0.0
   3
*D14
   0
LINE
   5
13F
 100
AcDbEntity
   8
0
 370
15
 100
AcDbLine
   6
CONTINUOUS
  62
8
  10
 883.58133771369
  20
 222.45838762086
  30
0.0
  11
 883.58133771369
  21
 203.90915008657
  31
0.0
   0
LINE
   5
140
 100
AcDbEntity
   8
0
 370
15
 100
AcDbLine
   6
CONTINUOUS
  62
8
  10
 886.58133771369
  20
 223.45838762086
  30
0.0
  11
 886.58133771369
  21
 203.90915008657
  31
0.0
   0
LINE
   5
141
 100
AcDbEntity
   8
0
 370
15
 100
AcDbLine
   6
CONTINUOUS
  62
8
  10
 866.57440159749
  20
 207.90915008657
  30
0.0
  11
 885.08133771369
  21
 207.90915008657
  31
0.0
   0
LINE
   5
142
 100
AcDbEntity
   8
0
 370
15
 100
AcDbLine
   6
CONTINUOUS
  62
8
  10
 896.58133771369
  20
 207.90915008657
  30
0.0
  11
 885.08133771369
  21
 207.90915008657
  31
0.0
   0
SOLID
   5
143
 100
AcDbEntity
   8
0
 100
AcDbTrace
   6
CONTINUOUS
  62
8
  10
 883.58133771369
  20
 207.90915008657
  30
0.0
  11
 875.58133771369
  21
 209.31976593224
  31
0.0
  12
 875.58133771369
  22
 206.49853424090
  32
0.0
  13
 875.58133771369
  23
 206.49853424090
  33
0.0
   0
SOLID
   5
144
 100
AcDbEntity
   8
0
 100
AcDbTrace
   6
CONTINUOUS
  62
8
  10
 886.58133771369
  20
 207.90915008657
  30
0.0
  11
 894.58133771369
  21
 206.49853424090
  31
0.0
  12
 894.58133771369
  22
 209.31976593224
  32
0.0
  13
 894.58133771369
  23
 209.31976593224
  33
0.0
   0
MTEXT
   5
145
 100
AcDbEntity
   8
0
 370
15
  62
8
 100
AcDbMText
  10
 876.57440159749
  20
 210.84983513252
  30
0.0
  40
 10.000000000000
  41
0.0
  71
9
  72
1
   1
\A1;3
   7
GMM001
   0
ENDBLK
   5
146
 100
AcDbEntity
   8
0
 100
AcDbBlockEnd
   0
BLOCK
   5
147
 100
AcDbEntity
   8
0
 100
AcDbBlockBegin
   2
*D15
  70
65
  10
0.0
  20
0.0
  30
0.0
   3
*D15
   0
LINE
   5
148
 100
AcDbEntity
   8
0
 370
15
 100
AcDbLine
   6
CONTINUOUS
  62
8
  10
 427.04982259920
  20
 777.41537478657
  30
0.0
  11
 427.04982259920
  21
 741.41724238131
  31
0.0
   0
LINE
   5
149
 100
AcDbEntity
   8
0
 370
15
 100
AcDbLine
   6
CONTINUOUS
  62
8
  10
 443.04982259920
  20
 777.41537478657
  30
0.0
  11
 443.04982259920
  21
 741.41724238131
  31
0.0
   0
LINE
   5
14A
 100
AcDbEntity
   8
0
 370
15
 100
AcDbLine
   6
CONTINUOUS
  62
8
  10
 417.04982259920
  20
 745.41724238131
  30
0.0
  11
 435.04982259920
  21
 745.41724238131
  31
0.0
   0
LINE
   5
14B
 100
AcDbEntity
   8
0
 370
15
 100
AcDbLine
   6
CONTINUOUS
  62
8
  10
 496.29794289985
  20
 745.41724238131
  30
0.0
  11
 435.04982259920
  21
 745.41724238131
  31
0.0
   0
SOLID
   5
14C
 100
AcDbEntity
   8
0
 100
AcDbTrace
   6
CONTINUOUS
  62
8
  10
 427.04982259920
  20
 745.41724238131
  30
0.0
  11
 419.04982259920
  21
 746.82785822698
  31
0.0
  12
 419.04982259920
  22
 744.00662653564
  32
0.0
  13
 419.04982259920
  23
 744.00662653564
  33
0.0
   0
SOLID
   5
14D
 100
AcDbEntity
   8
0
 100
AcDbTrace
   6
CONTINUOUS
  62
8
  10
 443.04982259920
  20
 745.41724238131
  30
0.0
  11
 451.04982259920
  21
 744.00662653564
  31
0.0
  12
 451.04982259920
  22
 746.82785822698
  32
0.0
  13
 451.04982259920
  23
 746.82785822698
  33
0.0
   0
MTEXT
   5
14E
 100
AcDbEntity
   8
0
 370
15
  62
8
 100
AcDbMText
  10
 487.29794289985
  20
 748.74389233953
  30
0.0
  40
 10.000000000000
  41
0.0
  71
8
  72
1
   1
\A1;16
   7
GMM001
   0
ENDBLK
   5
14F
 100
AcDbEntity
   8
0
 100
AcDbBlockEnd
   0
BLOCK
   5
150
 100
AcDbEntity
   8
0
 100
AcDbBlockBegin
   2
*D16
  70
65
  10
0.0
  20
0.0
  30
0.0
   3
*D16
   0
LINE
   5
151
 100
AcDbEntity
   8
0
 370
15
 100
AcDbLine
   6
CONTINUOUS
  62
8
  10
 417.04982259920
  20
 777.41537478657
  30
0.0
  11
 417.04982259920
  21
 719.91537478657
  31
0.0
   0
LINE
   5
152
 100
AcDbEntity
   8
0
 370
15
 100
AcDbLine
   6
CONTINUOUS
  62
8
  10
 453.04982259920
  20
 777.41537478657
  30
0.0
  11
 453.04982259920
  21
 719.91537478657
  31
0.0
   0
LINE
   5
153
 100
AcDbEntity
   8
0
 370
15
 100
AcDbLine
   6
CONTINUOUS
  62
8
  10
 417.04982259920
  20
 723.91537478657
  30
0.0
  11
 435.04982259920
  21
 723.91537478657
  31
0.0
   0
LINE
   5
154
 100
AcDbEntity
   8
0
 370
15
 100
AcDbLine
   6
CONTINUOUS
  62
8
  10
 453.04982259920
  20
 723.91537478657
  30
0.0
  11
 435.04982259920
  21
 723.91537478657
  31
0.0
   0
SOLID
   5
155
 100
AcDbEntity
   8
0
 100
AcDbTrace
   6
CONTINUOUS
  62
8
  10
 417.04982259920
  20
 723.91537478657
  30
0.0
  11
 425.04982259920
  21
 722.50475894090
  31
0.0
  12
 425.04982259920
  22
 725.32599063224
  32
0.0
  13
 425.04982259920
  23
 725.32599063224
  33
0.0
   0
SOLID
   5
156
 100
AcDbEntity
   8
0
 100
AcDbTrace
   6
CONTINUOUS
  62
8
  10
 453.04982259920
  20
 723.91537478657
  30
0.0
  11
 445.04982259920
  21
 725.32599063224
  31
0.0
  12
 445.04982259920
  22
 722.50475894090
  32
0.0
  13
 445.04982259920
  23
 722.50475894090
  33
0.0
   0
MTEXT
   5
157
 100
AcDbEntity
   8
0
 370
15
  62
8
 100
AcDbMText
  10
 435.04982259920
  20
 727.91537478657
  30
0.0
  40
 10.000000000000
  41
0.0
  71
8
  72
1
   1
\A1;36
   7
GMM001
   0
ENDBLK
   5
158
 100
AcDbEntity
   8
0
 100
AcDbBlockEnd
   0
BLOCK
   5
159
 100
AcDbEntity
   8
0
 100
AcDbBlockBegin
   2
*D17
  70
65
  10
0.0
  20
0.0
  30
0.0
   3
*D17
   0
LINE
   5
15A
 100
AcDbEntity
   8
0
 370
15
 100
AcDbLine
   6
CONTINUOUS
  62
8
  10
 323.59921775184
  20
 781.41537478657
  30
0.0
  11
 376.24325757540
  21
 781.41537478657
  31
0.0
   0
LINE
   5
15B
 100
AcDbEntity
   8
0
 370
15
 100
AcDbLine
   6
CONTINUOUS
  62
8
  10
 347.59921775185
  20
 826.41537478657
  30
0.0
  11
 376.24325757540
  21
 826.41537478657
  31
0.0
   0
LINE
   5
15C
 100
AcDbEntity
   8
0
 370
15
 100
AcDbLine
   6
CONTINUOUS
  62
8
  10
 372.24325757540
  20
 781.41537478657
  30
0.0
  11
 372.24325757540
  21
 803.91537478657
  31
0.0
   0
LINE
   5
15D
 100
AcDbEntity
   8
0
 370
15
 100
AcDbLine
   6
CONTINUOUS
  62
8
  10
 372.24325757540
  20
 826.41537478657
  30
0.0
  11
 372.24325757540
  21
 803.91537478657
  31
0.0
   0
SOLID
   5
15E
 100
AcDbEntity
   8
0
 100
AcDbTrace
   6
CONTINUOUS
  62
8
  10
 372.24325757540
  20
 781.41537478657
  30
0.0
  11
 373.65387342107
  21
 789.41537478657
  31
0.0
  12
 370.83264172974
  22
 789.41537478657
  32
0.0
  13
 370.83264172974
  23
 789.41537478657
  33
0.0
   0
SOLID
   5
15F
 100
AcDbEntity
   8
0
 100
AcDbTrace
   6
CONTINUOUS
  62
8
  10
 372.24325757540
  20
 826.41537478657
  30
0.0
  11
 370.83264172974
  21
 818.41537478657
  31
0.0
  12
 373.65387342107
  22
 818.41537478657
  32
0.0
  13
 373.65387342107
  23
 818.41537478657
  33
0.0
   0
MTEXT
   5
160
 100
AcDbEntity
   8
0
 370
15
  62
8
 100
AcDbMText
  10
 368.24325757540
  20
 803.91537478657
  30
0.0
  40
 10.000000000000
  41
0.0
  71
8
  72
1
   1
\A1;45
   7
GMM001
  11
0.0
  21
 1.0000000000000
  31
0.0
   0
ENDBLK
   5
161
 100
AcDbEntity
   8
0
 100
AcDbBlockEnd
   0
BLOCK
   5
162
 100
AcDbEntity
   8
0
 100
AcDbBlockBegin
   2
*D18
  70
65
  10
0.0
  20
0.0
  30
0.0
   3
*D18
   0
LINE
   5
163
 100
AcDbEntity
   8
0
 370
15
 100
AcDbLine
   6
CONTINUOUS
  62
8
  10
 265.59921775185
  20
 751.41537478657
  30
0.0
  11
 265.59921775185
  21
 719.91537478657
  31
0.0
   0
LINE
   5
164
 100
AcDbEntity
   8
0
 370
15
 100
AcDbLine
   6
CONTINUOUS
  62
8
  10
 335.59921775184
  20
 793.41537478657
  30
0.0
  11
 335.59921775184
  21
 719.91537478657
  31
0.0
   0
LINE
   5
165
 100
AcDbEntity
   8
0
 370
15
 100
AcDbLine
   6
CONTINUOUS
  62
8
  10
 265.59921775185
  20
 723.91537478657
  30
0.0
  11
 300.59921775185
  21
 723.91537478657
  31
0.0
   0
LINE
   5
166
 100
AcDbEntity
   8
0
 370
15
 100
AcDbLine
   6
CONTINUOUS
  62
8
  10
 335.59921775184
  20
 723.91537478657
  30
0.0
  11
 300.59921775185
  21
 723.91537478657
  31
0.0
   0
SOLID
   5
167
 100
AcDbEntity
   8
0
 100
AcDbTrace
   6
CONTINUOUS
  62
8
  10
 265.59921775185
  20
 723.91537478657
  30
0.0
  11
 273.59921775185
  21
 722.50475894090
  31
0.0
  12
 273.59921775185
  22
 725.32599063224
  32
0.0
  13
 273.59921775185
  23
 725.32599063224
  33
0.0
   0
SOLID
   5
168
 100
AcDbEntity
   8
0
 100
AcDbTrace
   6
CONTINUOUS
  62
8
  10
 335.59921775184
  20
 723.91537478657
  30
0.0
  11
 327.59921775184
  21
 725.32599063224
  31
0.0
  12
 327.59921775184
  22
 722.50475894090
  32
0.0
  13
 327.59921775184
  23
 722.50475894090
  33
0.0
   0
MTEXT
   5
169
 100
AcDbEntity
   8
0
 370
15
  62
8
 100
AcDbMText
  10
 300.59921775185
  20
 727.91537478657
  30
0.0
  40
 10.000000000000
  41
0.0
  71
8
  72
1
   1
\A1;L
   7
GMM001
   0
ENDBLK
   5
16A
 100
AcDbEntity
   8
0
 100
AcDbBlockEnd
   0
BLOCK
   5
16B
 100
AcDbEntity
   8
0
 100
AcDbBlockBegin
   2
*D20
  70
65
  10
0.0
  20
0.0
  30
0.0
   3
*D20
   0
LINE
   5
16C
 100
AcDbEntity
   8
0
 370
15
 100
AcDbLine
   6
CONTINUOUS
  62
8
  10
 265.59921775185
  20
 759.41537478657
  30
0.0
  11
 265.59921775185
  21
 741.41724238131
  31
0.0
   0
LINE
   5
16D
 100
AcDbEntity
   8
0
 370
15
 100
AcDbLine
   6
CONTINUOUS
  62
8
  10
 268.59921775185
  20
 760.41537478657
  30
0.0
  11
 268.59921775185
  21
 741.41724238131
  31
0.0
   0
LINE
   5
16E
 100
AcDbEntity
   8
0
 370
15
 100
AcDbLine
   6
CONTINUOUS
  62
8
  10
 246.47500799613
  20
 745.41724238131
  30
0.0
  11
 267.09921775185
  21
 745.41724238131
  31
0.0
   0
LINE
   5
16F
 100
AcDbEntity
   8
0
 370
15
 100
AcDbLine
   6
CONTINUOUS
  62
8
  10
 278.59921775185
  20
 745.41724238131
  30
0.0
  11
 267.09921775185
  21
 745.41724238131
  31
0.0
   0
SOLID
   5
170
 100
AcDbEntity
   8
0
 100
AcDbTrace
   6
CONTINUOUS
  62
8
  10
 265.59921775185
  20
 745.41724238131
  30
0.0
  11
 257.59921775185
  21
 746.82785822698
  31
0.0
  12
 257.59921775185
  22
 744.00662653564
  32
0.0
  13
 257.59921775185
  23
 744.00662653564
  33
0.0
   0
SOLID
   5
171
 100
AcDbEntity
   8
0
 100
AcDbTrace
   6
CONTINUOUS
  62
8
  10
 268.59921775185
  20
 745.41724238131
  30
0.0
  11
 276.59921775185
  21
 744.00662653564
  31
0.0
  12
 276.59921775185
  22
 746.82785822698
  32
0.0
  13
 276.59921775185
  23
 746.82785822698
  33
0.0
   0
MTEXT
   5
172
 100
AcDbEntity
   8
0
 370
15
  62
8
 100
AcDbMText
  10
 256.47500799613
  20
 748.55397309699
  30
0.0
  40
 10.000000000000
  41
0.0
  71
9
  72
1
   1
\A1;3
   7
GMM001
   0
ENDBLK
   5
173
 100
AcDbEntity
   8
0
 100
AcDbBlockEnd
   0
BLOCK
   5
174
 100
AcDbEntity
   8
0
 100
AcDbBlockBegin
   2
*D21
  70
65
  10
0.0
  20
0.0
  30
0.0
   3
*D21
   0
LINE
   5
175
 100
AcDbEntity
   8
0
 370
15
 100
AcDbLine
   6
CONTINUOUS
  62
8
  10
 261.59921775185
  20
 799.41537478657
  30
0.0
  11
 240.70205710036
  21
 799.41537478657
  31
0.0
   0
LINE
   5
176
 100
AcDbEntity
   8
0
 370
15
 100
AcDbLine
   6
CONTINUOUS
  62
8
  10
 261.59921775185
  20
 763.41537478657
  30
0.0
  11
 240.70205710036
  21
 763.41537478657
  31
0.0
   0
LINE
   5
177
 100
AcDbEntity
   8
0
 370
15
 100
AcDbLine
   6
CONTINUOUS
  62
8
  10
 244.70205710036
  20
 799.41537478657
  30
0.0
  11
 244.70205710036
  21
 781.41537478657
  31
0.0
   0
LINE
   5
178
 100
AcDbEntity
   8
0
 370
15
 100
AcDbLine
   6
CONTINUOUS
  62
8
  10
 244.70205710036
  20
 763.41537478657
  30
0.0
  11
 244.70205710036
  21
 781.41537478657
  31
0.0
   0
SOLID
   5
179
 100
AcDbEntity
   8
0
 100
AcDbTrace
   6
CONTINUOUS
  62
8
  10
 244.70205710036
  20
 799.41537478657
  30
0.0
  11
 243.29144125469
  21
 791.41537478657
  31
0.0
  12
 246.11267294603
  22
 791.41537478657
  32
0.0
  13
 246.11267294603
  23
 791.41537478657
  33
0.0
   0
SOLID
   5
17A
 100
AcDbEntity
   8
0
 100
AcDbTrace
   6
CONTINUOUS
  62
8
  10
 244.70205710036
  20
 763.41537478657
  30
0.0
  11
 246.11267294603
  21
 771.41537478657
  31
0.0
  12
 243.29144125469
  22
 771.41537478657
  32
0.0
  13
 243.29144125469
  23
 771.41537478657
  33
0.0
   0
MTEXT
   5
17B
 100
AcDbEntity
   8
0
 370
15
  62
8
 100
AcDbMText
  10
 240.70205710036
  20
 781.41537478657
  30
0.0
  40
 10.000000000000
  41
0.0
  71
8
  72
1
   1
\A1;36
   7
GMM001
  11
0.0
  21
 1.0000000000000
  31
0.0
   0
ENDBLK
   5
17C
 100
AcDbEntity
   8
0
 100
AcDbBlockEnd
   0
BLOCK
   5
17D
 100
AcDbEntity
   8
0
 100
AcDbBlockBegin
   2
*D22
  70
65
  10
0.0
  20
0.0
  30
0.0
   3
*D22
   0
LINE
   5
17E
 100
AcDbEntity
   8
0
 370
15
 100
AcDbLine
   6
CONTINUOUS
  62
8
  10
 1030.0498225992
  20
 777.41537478654
  30
0.0
  11
 1030.0498225992
  21
 741.41724238128
  31
0.0
   0
LINE
   5
17F
 100
AcDbEntity
   8
0
 370
15
 100
AcDbLine
   6
CONTINUOUS
  62
8
  10
 1046.0498225992
  20
 777.41537478654
  30
0.0
  11
 1046.0498225992
  21
 741.41724238128
  31
0.0
   0
LINE
   5
180
 100
AcDbEntity
   8
0
 370
15
 100
AcDbLine
   6
CONTINUOUS
  62
8
  10
 1020.0498225992
  20
 745.41724238128
  30
0.0
  11
 1038.0498225992
  21
 745.41724238128
  31
0.0
   0
LINE
   5
181
 100
AcDbEntity
   8
0
 370
15
 100
AcDbLine
   6
CONTINUOUS
  62
8
  10
 1099.2979428999
  20
 745.41724238128
  30
0.0
  11
 1038.0498225992
  21
 745.41724238128
  31
0.0
   0
SOLID
   5
182
 100
AcDbEntity
   8
0
 100
AcDbTrace
   6
CONTINUOUS
  62
8
  10
 1030.0498225992
  20
 745.41724238128
  30
0.0
  11
 1022.0498225992
  21
 746.82785822695
  31
0.0
  12
 1022.0498225992
  22
 744.00662653561
  32
0.0
  13
 1022.0498225992
  23
 744.00662653561
  33
0.0
   0
SOLID
   5
183
 100
AcDbEntity
   8
0
 100
AcDbTrace
   6
CONTINUOUS
  62
8
  10
 1046.0498225992
  20
 745.41724238128
  30
0.0
  11
 1054.0498225992
  21
 744.00662653561
  31
0.0
  12
 1054.0498225992
  22
 746.82785822695
  32
0.0
  13
 1054.0498225992
  23
 746.82785822695
  33
0.0
   0
MTEXT
   5
184
 100
AcDbEntity
   8
0
 370
15
  62
8
 100
AcDbMText
  10
 1090.2979428999
  20
 748.74389233950
  30
0.0
  40
 10.000000000000
  41
0.0
  71
8
  72
1
   1
\A1;16
   7
GMM001
   0
ENDBLK
   5
185
 100
AcDbEntity
   8
0
 100
AcDbBlockEnd
   0
BLOCK
   5
186
 100
AcDbEntity
   8
0
 100
AcDbBlockBegin
   2
*D23
  70
65
  10
0.0
  20
0.0
  30
0.0
   3
*D23
   0
LINE
   5
187
 100
AcDbEntity
   8
0
 370
15
 100
AcDbLine
   6
CONTINUOUS
  62
8
  10
 1020.0498225992
  20
 777.41537478654
  30
0.0
  11
 1020.0498225992
  21
 719.91537478654
  31
0.0
   0
LINE
   5
188
 100
AcDbEntity
   8
0
 370
15
 100
AcDbLine
   6
CONTINUOUS
  62
8
  10
 1056.0498225992
  20
 777.41537478654
  30
0.0
  11
 1056.0498225992
  21
 719.91537478654
  31
0.0
   0
LINE
   5
189
 100
AcDbEntity
   8
0
 370
15
 100
AcDbLine
   6
CONTINUOUS
  62
8
  10
 1020.0498225992
  20
 723.91537478654
  30
0.0
  11
 1038.0498225992
  21
 723.91537478654
  31
0.0
   0
LINE
   5
18A
 100
AcDbEntity
   8
0
 370
15
 100
AcDbLine
   6
CONTINUOUS
  62
8
  10
 1056.0498225992
  20
 723.91537478654
  30
0.0
  11
 1038.0498225992
  21
 723.91537478654
  31
0.0
   0
SOLID
   5
18B
 100
AcDbEntity
   8
0
 100
AcDbTrace
   6
CONTINUOUS
  62
8
  10
 1020.0498225992
  20
 723.91537478654
  30
0.0
  11
 1028.0498225992
  21
 722.50475894087
  31
0.0
  12
 1028.0498225992
  22
 725.32599063221
  32
0.0
  13
 1028.0498225992
  23
 725.32599063221
  33
0.0
   0
SOLID
   5
18C
 100
AcDbEntity
   8
0
 100
AcDbTrace
   6
CONTINUOUS
  62
8
  10
 1056.0498225992
  20
 723.91537478654
  30
0.0
  11
 1048.0498225992
  21
 725.32599063221
  31
0.0
  12
 1048.0498225992
  22
 722.50475894087
  32
0.0
  13
 1048.0498225992
  23
 722.50475894087
  33
0.0
   0
MTEXT
   5
18D
 100
AcDbEntity
   8
0
 370
15
  62
8
 100
AcDbMText
  10
 1038.0498225992
  20
 727.91537478654
  30
0.0
  40
 10.000000000000
  41
0.0
  71
8
  72
1
   1
\A1;36
   7
GMM001
   0
ENDBLK
   5
18E
 100
AcDbEntity
   8
0
 100
AcDbBlockEnd
   0
BLOCK
   5
18F
 100
AcDbEntity
   8
0
 100
AcDbBlockBegin
   2
*D24
  70
65
  10
0.0
  20
0.0
  30
0.0
   3
*D24
   0
LINE
   5
190
 100
AcDbEntity
   8
0
 370
15
 100
AcDbLine
   6
CONTINUOUS
  62
8
  10
 926.59921775188
  20
 781.41537478654
  30
0.0
  11
 979.24325757544
  21
 781.41537478654
  31
0.0
   0
LINE
   5
191
 100
AcDbEntity
   8
0
 370
15
 100
AcDbLine
   6
CONTINUOUS
  62
8
  10
 950.59921775189
  20
 826.41537478654
  30
0.0
  11
 979.24325757544
  21
 826.41537478654
  31
0.0
   0
LINE
   5
192
 100
AcDbEntity
   8
0
 370
15
 100
AcDbLine
   6
CONTINUOUS
  62
8
  10
 975.24325757544
  20
 781.41537478654
  30
0.0
  11
 975.24325757544
  21
 803.91537478654
  31
0.0
   0
LINE
   5
193
 100
AcDbEntity
   8
0
 370
15
 100
AcDbLine
   6
CONTINUOUS
  62
8
  10
 975.24325757544
  20
 826.41537478654
  30
0.0
  11
 975.24325757544
  21
 803.91537478654
  31
0.0
   0
SOLID
   5
194
 100
AcDbEntity
   8
0
 100
AcDbTrace
   6
CONTINUOUS
  62
8
  10
 975.24325757544
  20
 781.41537478654
  30
0.0
  11
 976.65387342111
  21
 789.41537478654
  31
0.0
  12
 973.83264172977
  22
 789.41537478654
  32
0.0
  13
 973.83264172977
  23
 789.41537478654
  33
0.0
   0
SOLID
   5
195
 100
AcDbEntity
   8
0
 100
AcDbTrace
   6
CONTINUOUS
  62
8
  10
 975.24325757544
  20
 826.41537478654
  30
0.0
  11
 973.83264172977
  21
 818.41537478654
  31
0.0
  12
 976.65387342111
  22
 818.41537478654
  32
0.0
  13
 976.65387342111
  23
 818.41537478654
  33
0.0
   0
MTEXT
   5
196
 100
AcDbEntity
   8
0
 370
15
  62
8
 100
AcDbMText
  10
 971.24325757544
  20
 803.91537478654
  30
0.0
  40
 10.000000000000
  41
0.0
  71
8
  72
1
   1
\A1;45
   7
GMM001
  11
0.0
  21
 1.0000000000000
  31
0.0
   0
ENDBLK
   5
197
 100
AcDbEntity
   8
0
 100
AcDbBlockEnd
   0
BLOCK
   5
198
 100
AcDbEntity
   8
0
 100
AcDbBlockBegin
   2
*D25
  70
65
  10
0.0
  20
0.0
  30
0.0
   3
*D25
   0
LINE
   5
199
 100
AcDbEntity
   8
0
 370
15
 100
AcDbLine
   6
CONTINUOUS
  62
8
  10
 868.59921775189
  20
 751.41537478654
  30
0.0
  11
 868.59921775189
  21
 719.91537478654
  31
0.0
   0
LINE
   5
19A
 100
AcDbEntity
   8
0
 370
15
 100
AcDbLine
   6
CONTINUOUS
  62
8
  10
 938.59921775188
  20
 793.41537478654
  30
0.0
  11
 938.59921775188
  21
 719.91537478654
  31
0.0
   0
LINE
   5
19B
 100
AcDbEntity
   8
0
 370
15
 100
AcDbLine
   6
CONTINUOUS
  62
8
  10
 868.59921775189
  20
 723.91537478654
  30
0.0
  11
 903.59921775188
  21
 723.91537478654
  31
0.0
   0
LINE
   5
19C
 100
AcDbEntity
   8
0
 370
15
 100
AcDbLine
   6
CONTINUOUS
  62
8
  10
 938.59921775188
  20
 723.91537478654
  30
0.0
  11
 903.59921775188
  21
 723.91537478654
  31
0.0
   0
SOLID
   5
19D
 100
AcDbEntity
   8
0
 100
AcDbTrace
   6
CONTINUOUS
  62
8
  10
 868.59921775189
  20
 723.91537478654
  30
0.0
  11
 876.59921775189
  21
 722.50475894087
  31
0.0
  12
 876.59921775189
  22
 725.32599063221
  32
0.0
  13
 876.59921775189
  23
 725.32599063221
  33
0.0
   0
SOLID
   5
19E
 100
AcDbEntity
   8
0
 100
AcDbTrace
   6
CONTINUOUS
  62
8
  10
 938.59921775188
  20
 723.91537478654
  30
0.0
  11
 930.59921775188
  21
 725.32599063221
  31
0.0
  12
 930.59921775188
  22
 722.50475894087
  32
0.0
  13
 930.59921775188
  23
 722.50475894087
  33
0.0
   0
MTEXT
   5
19F
 100
AcDbEntity
   8
0
 370
15
  62
8
 100
AcDbMText
  10
 903.59921775188
  20
 727.91537478654
  30
0.0
  40
 10.000000000000
  41
0.0
  71
8
  72
1
   1
\A1;L
   7
GMM001
   0
ENDBLK
   5
1A0
 100
AcDbEntity
   8
0
 100
AcDbBlockEnd
   0
BLOCK
   5
1A1
 100
AcDbEntity
   8
0
 100
AcDbBlockBegin
   2
*D27
  70
65
  10
0.0
  20
0.0
  30
0.0
   3
*D27
   0
LINE
   5
1A2
 100
AcDbEntity
   8
0
 370
15
 100
AcDbLine
   6
CONTINUOUS
  62
8
  10
 868.59921775189
  20
 759.41537478654
  30
0.0
  11
 868.59921775189
  21
 741.41724238128
  31
0.0
   0
LINE
   5
1A3
 100
AcDbEntity
   8
0
 370
15
 100
AcDbLine
   6
CONTINUOUS
  62
8
  10
 871.59921775189
  20
 760.41537478654
  30
0.0
  11
 871.59921775189
  21
 741.41724238128
  31
0.0
   0
LINE
   5
1A4
 100
AcDbEntity
   8
0
 370
15
 100
AcDbLine
   6
CONTINUOUS
  62
8
  10
 849.47500799617
  20
 745.41724238128
  30
0.0
  11
 870.09921775189
  21
 745.41724238128
  31
0.0
   0
LINE
   5
1A5
 100
AcDbEntity
   8
0
 370
15
 100
AcDbLine
   6
CONTINUOUS
  62
8
  10
 881.59921775189
  20
 745.41724238128
  30
0.0
  11
 870.09921775189
  21
 745.41724238128
  31
0.0
   0
SOLID
   5
1A6
 100
AcDbEntity
   8
0
 100
AcDbTrace
   6
CONTINUOUS
  62
8
  10
 868.59921775189
  20
 745.41724238128
  30
0.0
  11
 860.59921775189
  21
 746.82785822695
  31
0.0
  12
 860.59921775189
  22
 744.00662653561
  32
0.0
  13
 860.59921775189
  23
 744.00662653561
  33
0.0
   0
SOLID
   5
1A7
 100
AcDbEntity
   8
0
 100
AcDbTrace
   6
CONTINUOUS
  62
8
  10
 871.59921775189
  20
 745.41724238128
  30
0.0
  11
 879.59921775189
  21
 744.00662653561
  31
0.0
  12
 879.59921775189
  22
 746.82785822695
  32
0.0
  13
 879.59921775189
  23
 746.82785822695
  33
0.0
   0
MTEXT
   5
1A8
 100
AcDbEntity
   8
0
 370
15
  62
8
 100
AcDbMText
  10
 859.47500799617
  20
 748.55397309696
  30
0.0
  40
 10.000000000000
  41
0.0
  71
9
  72
1
   1
\A1;3
   7
GMM001
   0
ENDBLK
   5
1A9
 100
AcDbEntity
   8
0
 100
AcDbBlockEnd
   0
BLOCK
   5
1AA
 100
AcDbEntity
   8
0
 100
AcDbBlockBegin
   2
*D28
  70
65
  10
0.0
  20
0.0
  30
0.0
   3
*D28
   0
LINE
   5
1AB
 100
AcDbEntity
   8
0
 370
15
 100
AcDbLine
   6
CONTINUOUS
  62
8
  10
 864.59921775189
  20
 799.41537478654
  30
0.0
  11
 843.70205710040
  21
 799.41537478654
  31
0.0
   0
LINE
   5
1AC
 100
AcDbEntity
   8
0
 370
15
 100
AcDbLine
   6
CONTINUOUS
  62
8
  10
 864.59921775189
  20
 763.41537478654
  30
0.0
  11
 843.70205710040
  21
 763.41537478654
  31
0.0
   0
LINE
   5
1AD
 100
AcDbEntity
   8
0
 370
15
 100
AcDbLine
   6
CONTINUOUS
  62
8
  10
 847.70205710040
  20
 799.41537478654
  30
0.0
  11
 847.70205710040
  21
 781.41537478654
  31
0.0
   0
LINE
   5
1AE
 100
AcDbEntity
   8
0
 370
15
 100
AcDbLine
   6
CONTINUOUS
  62
8
  10
 847.70205710040
  20
 763.41537478654
  30
0.0
  11
 847.70205710040
  21
 781.41537478654
  31
0.0
   0
SOLID
   5
1AF
 100
AcDbEntity
   8
0
 100
AcDbTrace
   6
CONTINUOUS
  62
8
  10
 847.70205710040
  20
 799.41537478654
  30
0.0
  11
 846.29144125473
  21
 791.41537478654
  31
0.0
  12
 849.11267294606
  22
 791.41537478654
  32
0.0
  13
 849.11267294606
  23
 791.41537478654
  33
0.0
   0
SOLID
   5
1B0
 100
AcDbEntity
   8
0
 100
AcDbTrace
   6
CONTINUOUS
  62
8
  10
 847.70205710040
  20
 763.41537478654
  30
0.0
  11
 849.11267294606
  21
 771.41537478654
  31
0.0
  12
 846.29144125473
  22
 771.41537478654
  32
0.0
  13
 846.29144125473
  23
 771.41537478654
  33
0.0
   0
MTEXT
   5
1B1
 100
AcDbEntity
   8
0
 370
15
  62
8
 100
AcDbMText
  10
 843.70205710040
  20
 781.41537478654
  30
0.0
  40
 10.000000000000
  41
0.0
  71
8
  72
1
   1
\A1;36
   7
GMM001
  11
0.0
  21
 1.0000000000000
  31
0.0
   0
ENDBLK
   5
1B2
 100
AcDbEntity
   8
0
 100
AcDbBlockEnd
   0
BLOCK
   5
1B3
 100
AcDbEntity
   8
0
 100
AcDbBlockBegin
   2
*D29
  70
65
  10
0.0
  20
0.0
  30
0.0
   3
*D29
   0
LINE
   5
1B4
 100
AcDbEntity
   8
0
 370
15
 100
AcDbLine
   6
CONTINUOUS
  62
8
  10
 475.78650664792
  20
 385.90765407381
  30
0.0
  11
 511.66269112809
  21
 385.90765407381
  31
0.0
   0
LINE
   5
1B5
 100
AcDbEntity
   8
0
 370
15
 100
AcDbLine
   6
CONTINUOUS
  62
8
  10
 475.78650664792
  20
 405.90765407381
  30
0.0
  11
 511.66269112809
  21
 405.90765407381
  31
0.0
   0
LINE
   5
1B6
 100
AcDbEntity
   8
0
 370
15
 100
AcDbLine
   6
CONTINUOUS
  62
8
  10
 507.66269112809
  20
 385.90765407381
  30
0.0
  11
 507.66269112809
  21
 395.90765407381
  31
0.0
   0
LINE
   5
1B7
 100
AcDbEntity
   8
0
 370
15
 100
AcDbLine
   6
CONTINUOUS
  62
8
  10
 507.66269112809
  20
 405.90765407381
  30
0.0
  11
 507.66269112809
  21
 395.90765407381
  31
0.0
   0
SOLID
   5
1B8
 100
AcDbEntity
   8
0
 100
AcDbTrace
   6
CONTINUOUS
  62
8
  10
 507.66269112809
  20
 385.90765407381
  30
0.0
  11
 509.07330697376
  21
 393.90765407381
  31
0.0
  12
 506.25207528243
  22
 393.90765407381
  32
0.0
  13
 506.25207528243
  23
 393.90765407381
  33
0.0
   0
SOLID
   5
1B9
 100
AcDbEntity
   8
0
 100
AcDbTrace
   6
CONTINUOUS
  62
8
  10
 507.66269112809
  20
 405.90765407381
  30
0.0
  11
 506.25207528243
  21
 397.90765407381
  31
0.0
  12
 509.07330697376
  22
 397.90765407381
  32
0.0
  13
 509.07330697376
  23
 397.90765407381
  33
0.0
   0
MTEXT
   5
1BA
 100
AcDbEntity
   8
0
 370
15
  62
8
 100
AcDbMText
  10
 503.66269112809
  20
 395.90765407381
  30
0.0
  40
 10.000000000000
  41
0.0
  71
8
  72
1
   1
\A1;20
   7
GMM001
  11
0.0
  21
 1.0000000000000
  31
0.0
   0
ENDBLK
   5
1BB
 100
AcDbEntity
   8
0
 100
AcDbBlockEnd
   0
BLOCK
   5
1BC
 100
AcDbEntity
   8
0
 100
AcDbBlockBegin
   2
*D30
  70
65
  10
0.0
  20
0.0
  30
0.0
   3
*D30
   0
LINE
   5
1BD
 100
AcDbEntity
   8
0
 370
15
 100
AcDbLine
   6
CONTINUOUS
  62
8
  10
 393.78650664792
  20
 383.90765407381
  30
0.0
  11
 393.78650664792
  21
 333.47961265843
  31
0.0
   0
LINE
   5
1BE
 100
AcDbEntity
   8
0
 370
15
 100
AcDbLine
   6
CONTINUOUS
  62
8
  10
 473.78650664792
  20
 383.90765407381
  30
0.0
  11
 473.78650664792
  21
 333.47961265843
  31
0.0
   0
LINE
   5
1BF
 100
AcDbEntity
   8
0
 370
15
 100
AcDbLine
   6
CONTINUOUS
  62
8
  10
 393.78650664792
  20
 337.47961265843
  30
0.0
  11
 433.78650664792
  21
 337.47961265843
  31
0.0
   0
LINE
   5
1C0
 100
AcDbEntity
   8
0
 370
15
 100
AcDbLine
   6
CONTINUOUS
  62
8
  10
 473.78650664792
  20
 337.47961265843
  30
0.0
  11
 433.78650664792
  21
 337.47961265843
  31
0.0
   0
SOLID
   5
1C1
 100
AcDbEntity
   8
0
 100
AcDbTrace
   6
CONTINUOUS
  62
8
  10
 393.78650664792
  20
 337.47961265843
  30
0.0
  11
 401.78650664792
  21
 336.06899681277
  31
0.0
  12
 401.78650664792
  22
 338.89022850410
  32
0.0
  13
 401.78650664792
  23
 338.89022850410
  33
0.0
   0
SOLID
   5
1C2
 100
AcDbEntity
   8
0
 100
AcDbTrace
   6
CONTINUOUS
  62
8
  10
 473.78650664792
  20
 337.47961265843
  30
0.0
  11
 465.78650664792
  21
 338.89022850410
  31
0.0
  12
 465.78650664792
  22
 336.06899681277
  32
0.0
  13
 465.78650664792
  23
 336.06899681277
  33
0.0
   0
MTEXT
   5
1C3
 100
AcDbEntity
   8
0
 370
15
  62
8
 100
AcDbMText
  10
 433.78650664792
  20
 341.47961265843
  30
0.0
  40
 10.000000000000
  41
0.0
  71
8
  72
1
   1
\A1;80
   7
GMM001
   0
ENDBLK
   5
1C4
 100
AcDbEntity
   8
0
 100
AcDbBlockEnd
   0
BLOCK
   5
1C5
 100
AcDbEntity
   8
0
 100
AcDbBlockBegin
   2
*D31
  70
65
  10
0.0
  20
0.0
  30
0.0
   3
*D31
   0
LINE
   5
1C6
 100
AcDbEntity
   8
0
 370
15
 100
AcDbLine
   6
CONTINUOUS
  62
8
  10
 403.78650664792
  20
 388.65675482603
  30
0.0
  11
 403.78650664792
  21
 355.97585326013
  31
0.0
   0
LINE
   5
1C7
 100
AcDbEntity
   8
0
 370
15
 100
AcDbLine
   6
CONTINUOUS
  62
8
  10
 463.78650664792
  20
 383.98341362470
  30
0.0
  11
 463.78650664792
  21
 355.97585326013
  31
0.0
   0
LINE
   5
1C8
 100
AcDbEntity
   8
0
 370
15
 100
AcDbLine
   6
CONTINUOUS
  62
8
  10
 403.78650664792
  20
 359.97585326013
  30
0.0
  11
 433.78650664792
  21
 359.97585326013
  31
0.0
   0
LINE
   5
1C9
 100
AcDbEntity
   8
0
 370
15
 100
AcDbLine
   6
CONTINUOUS
  62
8
  10
 463.78650664792
  20
 359.97585326013
  30
0.0
  11
 433.78650664792
  21
 359.97585326013
  31
0.0
   0
SOLID
   5
1CA
 100
AcDbEntity
   8
0
 100
AcDbTrace
   6
CONTINUOUS
  62
8
  10
 403.78650664792
  20
 359.97585326013
  30
0.0
  11
 411.78650664792
  21
 358.56523741446
  31
0.0
  12
 411.78650664792
  22
 361.38646910579
  32
0.0
  13
 411.78650664792
  23
 361.38646910579
  33
0.0
   0
SOLID
   5
1CB
 100
AcDbEntity
   8
0
 100
AcDbTrace
   6
CONTINUOUS
  62
8
  10
 463.78650664792
  20
 359.97585326013
  30
0.0
  11
 455.78650664792
  21
 361.38646910579
  31
0.0
  12
 455.78650664792
  22
 358.56523741446
  32
0.0
  13
 455.78650664792
  23
 358.56523741446
  33
0.0
   0
MTEXT
   5
1CC
 100
AcDbEntity
   8
0
 370
15
  62
8
 100
AcDbMText
  10
 433.78650664792
  20
 363.97585326013
  30
0.0
  40
 10.000000000000
  41
0.0
  71
8
  72
1
   1
\A1;60
   7
GMM001
   0
ENDBLK
   5
1CD
 100
AcDbEntity
   8
0
 100
AcDbBlockEnd
   0
BLOCK
   5
1CE
 100
AcDbEntity
   8
0
 100
AcDbBlockBegin
   2
*D32
  70
65
  10
0.0
  20
0.0
  30
0.0
   3
*D32
   0
LINE
   5
1CF
 100
AcDbEntity
   8
0
 370
15
 100
AcDbLine
   6
CONTINUOUS
  62
8
  10
 477.04982259921
  20
 937.86464123940
  30
0.0
  11
 512.92600707938
  21
 937.86464123940
  31
0.0
   0
LINE
   5
1D0
 100
AcDbEntity
   8
0
 370
15
 100
AcDbLine
   6
CONTINUOUS
  62
8
  10
 477.04982259921
  20
 957.86464123940
  30
0.0
  11
 512.92600707938
  21
 957.86464123940
  31
0.0
   0
LINE
   5
1D1
 100
AcDbEntity
   8
0
 370
15
 100
AcDbLine
   6
CONTINUOUS
  62
8
  10
 508.92600707938
  20
 937.86464123940
  30
0.0
  11
 508.92600707938
  21
 947.86464123940
  31
0.0
   0
LINE
   5
1D2
 100
AcDbEntity
   8
0
 370
15
 100
AcDbLine
   6
CONTINUOUS
  62
8
  10
 508.92600707938
  20
 957.86464123940
  30
0.0
  11
 508.92600707938
  21
 947.86464123940
  31
0.0
   0
SOLID
   5
1D3
 100
AcDbEntity
   8
0
 100
AcDbTrace
   6
CONTINUOUS
  62
8
  10
 508.92600707938
  20
 937.86464123940
  30
0.0
  11
 510.33662292504
  21
 945.86464123940
  31
0.0
  12
 507.51539123371
  22
 945.86464123940
  32
0.0
  13
 507.51539123371
  23
 945.86464123940
  33
0.0
   0
SOLID
   5
1D4
 100
AcDbEntity
   8
0
 100
AcDbTrace
   6
CONTINUOUS
  62
8
  10
 508.92600707938
  20
 957.86464123940
  30
0.0
  11
 507.51539123371
  21
 949.86464123940
  31
0.0
  12
 510.33662292504
  22
 949.86464123940
  32
0.0
  13
 510.33662292504
  23
 949.86464123940
  33
0.0
   0
MTEXT
   5
1D5
 100
AcDbEntity
   8
0
 370
15
  62
8
 100
AcDbMText
  10
 504.92600707938
  20
 947.86464123940
  30
0.0
  40
 10.000000000000
  41
0.0
  71
8
  72
1
   1
\A1;20
   7
GMM001
  11
0.0
  21
 1.0000000000000
  31
0.0
   0
ENDBLK
   5
1D6
 100
AcDbEntity
   8
0
 100
AcDbBlockEnd
   0
BLOCK
   5
1D7
 100
AcDbEntity
   8
0
 100
AcDbBlockBegin
   2
*D33
  70
65
  10
0.0
  20
0.0
  30
0.0
   3
*D33
   0
LINE
   5
1D8
 100
AcDbEntity
   8
0
 370
15
 100
AcDbLine
   6
CONTINUOUS
  62
8
  10
 395.04982259921
  20
 935.86464123940
  30
0.0
  11
 395.04982259921
  21
 885.43659982402
  31
0.0
   0
LINE
   5
1D9
 100
AcDbEntity
   8
0
 370
15
 100
AcDbLine
   6
CONTINUOUS
  62
8
  10
 475.04982259921
  20
 935.86464123940
  30
0.0
  11
 475.04982259921
  21
 885.43659982402
  31
0.0
   0
LINE
   5
1DA
 100
AcDbEntity
   8
0
 370
15
 100
AcDbLine
   6
CONTINUOUS
  62
8
  10
 395.04982259921
  20
 889.43659982402
  30
0.0
  11
 435.04982259921
  21
 889.43659982402
  31
0.0
   0
LINE
   5
1DB
 100
AcDbEntity
   8
0
 370
15
 100
AcDbLine
   6
CONTINUOUS
  62
8
  10
 475.04982259921
  20
 889.43659982402
  30
0.0
  11
 435.04982259921
  21
 889.43659982402
  31
0.0
   0
SOLID
   5
1DC
 100
AcDbEntity
   8
0
 100
AcDbTrace
   6
CONTINUOUS
  62
8
  10
 395.04982259921
  20
 889.43659982402
  30
0.0
  11
 403.04982259921
  21
 888.02598397835
  31
0.0
  12
 403.04982259921
  22
 890.84721566969
  32
0.0
  13
 403.04982259921
  23
 890.84721566969
  33
0.0
   0
SOLID
   5
1DD
 100
AcDbEntity
   8
0
 100
AcDbTrace
   6
CONTINUOUS
  62
8
  10
 475.04982259921
  20
 889.43659982402
  30
0.0
  11
 467.04982259921
  21
 890.84721566969
  31
0.0
  12
 467.04982259921
  22
 888.02598397835
  32
0.0
  13
 467.04982259921
  23
 888.02598397835
  33
0.0
   0
MTEXT
   5
1DE
 100
AcDbEntity
   8
0
 370
15
  62
8
 100
AcDbMText
  10
 435.04982259921
  20
 893.43659982402
  30
0.0
  40
 10.000000000000
  41
0.0
  71
8
  72
1
   1
\A1;80
   7
GMM001
   0
ENDBLK
   5
1DF
 100
AcDbEntity
   8
0
 100
AcDbBlockEnd
   0
BLOCK
   5
1E0
 100
AcDbEntity
   8
0
 100
AcDbBlockBegin
   2
*D34
  70
65
  10
0.0
  20
0.0
  30
0.0
   3
*D34
   0
LINE
   5
1E1
 100
AcDbEntity
   8
0
 370
15
 100
AcDbLine
   6
CONTINUOUS
  62
8
  10
 405.04982259921
  20
 940.61374199162
  30
0.0
  11
 405.04982259921
  21
 907.93284042571
  31
0.0
   0
LINE
   5
1E2
 100
AcDbEntity
   8
0
 370
15
 100
AcDbLine
   6
CONTINUOUS
  62
8
  10
 465.04982259921
  20
 935.94040079028
  30
0.0
  11
 465.04982259921
  21
 907.93284042571
  31
0.0
   0
LINE
   5
1E3
 100
AcDbEntity
   8
0
 370
15
 100
AcDbLine
   6
CONTINUOUS
  62
8
  10
 405.04982259921
  20
 911.93284042571
  30
0.0
  11
 435.04982259921
  21
 911.93284042571
  31
0.0
   0
LINE
   5
1E4
 100
AcDbEntity
   8
0
 370
15
 100
AcDbLine
   6
CONTINUOUS
  62
8
  10
 465.04982259921
  20
 911.93284042571
  30
0.0
  11
 435.04982259921
  21
 911.93284042571
  31
0.0
   0
SOLID
   5
1E5
 100
AcDbEntity
   8
0
 100
AcDbTrace
   6
CONTINUOUS
  62
8
  10
 405.04982259921
  20
 911.93284042571
  30
0.0
  11
 413.04982259921
  21
 910.52222458005
  31
0.0
  12
 413.04982259921
  22
 913.34345627138
  32
0.0
  13
 413.04982259921
  23
 913.34345627138
  33
0.0
   0
SOLID
   5
1E6
 100
AcDbEntity
   8
0
 100
AcDbTrace
   6
CONTINUOUS
  62
8
  10
 465.04982259921
  20
 911.93284042571
  30
0.0
  11
 457.04982259921
  21
 913.34345627138
  31
0.0
  12
 457.04982259921
  22
 910.52222458005
  32
0.0
  13
 457.04982259921
  23
 910.52222458005
  33
0.0
   0
MTEXT
   5
1E7
 100
AcDbEntity
   8
0
 370
15
  62
8
 100
AcDbMText
  10
 435.04982259921
  20
 915.93284042571
  30
0.0
  40
 10.000000000000
  41
0.0
  71
8
  72
1
   1
\A1;60
   7
GMM001
   0
ENDBLK
   5
1E8
 100
AcDbEntity
   8
0
 100
AcDbBlockEnd
   0
BLOCK
   5
1E9
 100
AcDbEntity
   8
0
 100
AcDbBlockBegin
   2
*D35
  70
65
  10
0.0
  20
0.0
  30
0.0
   3
*D35
   0
LINE
   5
1EA
 100
AcDbEntity
   8
0
 370
15
 100
AcDbLine
   6
CONTINUOUS
  62
8
  10
 477.78650664791
  20
 274.45838762098
  30
0.0
  11
 511.66269112808
  21
 274.45838762098
  31
0.0
   0
LINE
   5
1EB
 100
AcDbEntity
   8
0
 370
15
 100
AcDbLine
   6
CONTINUOUS
  62
8
  10
 477.78650664791
  20
 276.95838762098
  30
0.0
  11
 511.66269112808
  21
 276.95838762098
  31
0.0
   0
LINE
   5
1EC
 100
AcDbEntity
   8
0
 370
15
 100
AcDbLine
   6
CONTINUOUS
  62
8
  10
 507.66269112808
  20
 264.45838762098
  30
0.0
  11
 507.66269112808
  21
 275.70838762098
  31
0.0
   0
LINE
   5
1ED
 100
AcDbEntity
   8
0
 370
15
 100
AcDbLine
   6
CONTINUOUS
  62
8
  10
 507.66269112808
  20
 307.83383153853
  30
0.0
  11
 507.66269112808
  21
 275.70838762098
  31
0.0
   0
SOLID
   5
1EE
 100
AcDbEntity
   8
0
 100
AcDbTrace
   6
CONTINUOUS
  62
8
  10
 507.66269112808
  20
 274.45838762098
  30
0.0
  11
 506.25207528242
  21
 266.45838762098
  31
0.0
  12
 509.07330697375
  22
 266.45838762098
  32
0.0
  13
 509.07330697375
  23
 266.45838762098
  33
0.0
   0
SOLID
   5
1EF
 100
AcDbEntity
   8
0
 100
AcDbTrace
   6
CONTINUOUS
  62
8
  10
 507.66269112808
  20
 276.95838762098
  30
0.0
  11
 509.07330697375
  21
 284.95838762098
  31
0.0
  12
 506.25207528242
  22
 284.95838762098
  32
0.0
  13
 506.25207528242
  23
 284.95838762098
  33
0.0
   0
MTEXT
   5
1F0
 100
AcDbEntity
   8
0
 370
15
  62
8
 100
AcDbMText
  10
 503.25166355912
  20
 285.83383153853
  30
0.0
  40
 10.000000000000
  41
0.0
  71
7
  72
1
   1
\A1;2.5
   7
GMM001
  11
0.0
  21
 1.0000000000000
  31
0.0
   0
ENDBLK
   5
1F1
 100
AcDbEntity
   8
0
 100
AcDbBlockEnd
   0
BLOCK
   5
1F2
 100
AcDbEntity
   8
0
 100
AcDbBlockBegin
   2
*D36
  70
65
  10
0.0
  20
0.0
  30
0.0
   3
*D36
   0
LINE
   5
1F3
 100
AcDbEntity
   8
0
 370
15
 100
AcDbLine
   6
CONTINUOUS
  62
8
  10
 393.78650664791
  20
 280.95838762098
  30
0.0
  11
 393.78650664791
  21
 300.95838762098
  31
0.0
   0
LINE
   5
1F4
 100
AcDbEntity
   8
0
 370
15
 100
AcDbLine
   6
CONTINUOUS
  62
8
  10
 473.78650664791
  20
 280.95838762098
  30
0.0
  11
 473.78650664791
  21
 300.95838762098
  31
0.0
   0
LINE
   5
1F5
 100
AcDbEntity
   8
0
 370
15
 100
AcDbLine
   6
CONTINUOUS
  62
8
  10
 393.78650664791
  20
 296.95838762098
  30
0.0
  11
 433.78650664791
  21
 296.95838762098
  31
0.0
   0
LINE
   5
1F6
 100
AcDbEntity
   8
0
 370
15
 100
AcDbLine
   6
CONTINUOUS
  62
8
  10
 473.78650664791
  20
 296.95838762098
  30
0.0
  11
 433.78650664791
  21
 296.95838762098
  31
0.0
   0
SOLID
   5
1F7
 100
AcDbEntity
   8
0
 100
AcDbTrace
   6
CONTINUOUS
  62
8
  10
 393.78650664791
  20
 296.95838762098
  30
0.0
  11
 401.78650664791
  21
 295.54777177532
  31
0.0
  12
 401.78650664791
  22
 298.36900346665
  32
0.0
  13
 401.78650664791
  23
 298.36900346665
  33
0.0
   0
SOLID
   5
1F8
 100
AcDbEntity
   8
0
 100
AcDbTrace
   6
CONTINUOUS
  62
8
  10
 473.78650664791
  20
 296.95838762098
  30
0.0
  11
 465.78650664791
  21
 298.36900346665
  31
0.0
  12
 465.78650664791
  22
 295.54777177532
  32
0.0
  13
 465.78650664791
  23
 295.54777177532
  33
0.0
   0
MTEXT
   5
1F9
 100
AcDbEntity
   8
0
 370
15
  62
8
 100
AcDbMText
  10
 433.78650664791
  20
 300.95838762098
  30
0.0
  40
 10.000000000000
  41
0.0
  71
8
  72
1
   1
\A1;80
   7
GMM001
   0
ENDBLK
   5
1FA
 100
AcDbEntity
   8
0
 100
AcDbBlockEnd
   0
BLOCK
   5
1FB
 100
AcDbEntity
   8
0
 100
AcDbBlockBegin
   2
*D37
  70
65
  10
0.0
  20
0.0
  30
0.0
   3
*D37
   0
LINE
   5
1FC
 100
AcDbEntity
   8
0
 370
15
 100
AcDbLine
   6
CONTINUOUS
  62
8
  10
 479.04982259920
  20
 826.41537478657
  30
0.0
  11
 512.92600707937
  21
 826.41537478657
  31
0.0
   0
LINE
   5
1FD
 100
AcDbEntity
   8
0
 370
15
 100
AcDbLine
   6
CONTINUOUS
  62
8
  10
 479.04982259920
  20
 828.91537478657
  30
0.0
  11
 512.92600707937
  21
 828.91537478657
  31
0.0
   0
LINE
   5
1FE
 100
AcDbEntity
   8
0
 370
15
 100
AcDbLine
   6
CONTINUOUS
  62
8
  10
 508.92600707937
  20
 816.41537478657
  30
0.0
  11
 508.92600707937
  21
 827.66537478657
  31
0.0
   0
LINE
   5
1FF
 100
AcDbEntity
   8
0
 370
15
 100
AcDbLine
   6
CONTINUOUS
  62
8
  10
 508.92600707937
  20
 859.79081870412
  30
0.0
  11
 508.92600707937
  21
 827.66537478657
  31
0.0
   0
SOLID
   5
200
 100
AcDbEntity
   8
0
 100
AcDbTrace
   6
CONTINUOUS
  62
8
  10
 508.92600707937
  20
 826.41537478657
  30
0.0
  11
 507.51539123370
  21
 818.41537478657
  31
0.0
  12
 510.33662292504
  22
 818.41537478657
  32
0.0
  13
 510.33662292504
  23
 818.41537478657
  33
0.0
   0
SOLID
   5
201
 100
AcDbEntity
   8
0
 100
AcDbTrace
   6
CONTINUOUS
  62
8
  10
 508.92600707937
  20
 828.91537478657
  30
0.0
  11
 510.33662292504
  21
 836.91537478657
  31
0.0
  12
 507.51539123370
  22
 836.91537478657
  32
0.0
  13
 507.51539123370
  23
 836.91537478657
  33
0.0
   0
MTEXT
   5
202
 100
AcDbEntity
   8
0
 370
15
  62
8
 100
AcDbMText
  10
 504.51497951041
  20
 837.79081870412
  30
0.0
  40
 10.000000000000
  41
0.0
  71
7
  72
1
   1
\A1;2.5
   7
GMM001
  11
0.0
  21
 1.0000000000000
  31
0.0
   0
ENDBLK
   5
203
 100
AcDbEntity
   8
0
 100
AcDbBlockEnd
   0
BLOCK
   5
204
 100
AcDbEntity
   8
0
 100
AcDbBlockBegin
   2
*D38
  70
65
  10
0.0
  20
0.0
  30
0.0
   3
*D38
   0
LINE
   5
205
 100
AcDbEntity
   8
0
 370
15
 100
AcDbLine
   6
CONTINUOUS
  62
8
  10
 395.04982259920
  20
 832.91537478657
  30
0.0
  11
 395.04982259920
  21
 852.91537478657
  31
0.0
   0
LINE
   5
206
 100
AcDbEntity
   8
0
 370
15
 100
AcDbLine
   6
CONTINUOUS
  62
8
  10
 475.04982259920
  20
 832.91537478657
  30
0.0
  11
 475.04982259920
  21
 852.91537478657
  31
0.0
   0
LINE
   5
207
 100
AcDbEntity
   8
0
 370
15
 100
AcDbLine
   6
CONTINUOUS
  62
8
  10
 395.04982259920
  20
 848.91537478657
  30
0.0
  11
 435.04982259920
  21
 848.91537478657
  31
0.0
   0
LINE
   5
208
 100
AcDbEntity
   8
0
 370
15
 100
AcDbLine
   6
CONTINUOUS
  62
8
  10
 475.04982259920
  20
 848.91537478657
  30
0.0
  11
 435.04982259920
  21
 848.91537478657
  31
0.0
   0
SOLID
   5
209
 100
AcDbEntity
   8
0
 100
AcDbTrace
   6
CONTINUOUS
  62
8
  10
 395.04982259920
  20
 848.91537478657
  30
0.0
  11
 403.04982259920
  21
 847.50475894090
  31
0.0
  12
 403.04982259920
  22
 850.32599063224
  32
0.0
  13
 403.04982259920
  23
 850.32599063224
  33
0.0
   0
SOLID
   5
20A
 100
AcDbEntity
   8
0
 100
AcDbTrace
   6
CONTINUOUS
  62
8
  10
 475.04982259920
  20
 848.91537478657
  30
0.0
  11
 467.04982259920
  21
 850.32599063224
  31
0.0
  12
 467.04982259920
  22
 847.50475894090
  32
0.0
  13
 467.04982259920
  23
 847.50475894090
  33
0.0
   0
MTEXT
   5
20B
 100
AcDbEntity
   8
0
 370
15
  62
8
 100
AcDbMText
  10
 435.04982259920
  20
 852.91537478657
  30
0.0
  40
 10.000000000000
  41
0.0
  71
8
  72
1
   1
\A1;80
   7
GMM001
   0
ENDBLK
   5
20C
 100
AcDbEntity
   8
0
 100
AcDbBlockEnd
   0
BLOCK
   5
20D
 100
AcDbEntity
   8
0
 100
AcDbBlockBegin
   2
*D39
  70
65
  10
0.0
  20
0.0
  30
0.0
   3
*D39
   0
LINE
   5
20E
 100
AcDbEntity
   8
0
 370
15
 100
AcDbLine
   6
CONTINUOUS
  62
8
  10
 324.33590180057
  20
 280.95838762098
  30
0.0
  11
 324.33590180057
  21
 300.95838762098
  31
0.0
   0
LINE
   5
20F
 100
AcDbEntity
   8
0
 370
15
 100
AcDbLine
   6
CONTINUOUS
  62
8
  10
 344.33590180057
  20
 280.95838762098
  30
0.0
  11
 344.33590180057
  21
 300.95838762098
  31
0.0
   0
LINE
   5
210
 100
AcDbEntity
   8
0
 370
15
 100
AcDbLine
   6
CONTINUOUS
  62
8
  10
 324.33590180057
  20
 296.95838762098
  30
0.0
  11
 334.33590180057
  21
 296.95838762098
  31
0.0
   0
LINE
   5
211
 100
AcDbEntity
   8
0
 370
15
 100
AcDbLine
   6
CONTINUOUS
  62
8
  10
 344.33590180057
  20
 296.95838762098
  30
0.0
  11
 334.33590180057
  21
 296.95838762098
  31
0.0
   0
SOLID
   5
212
 100
AcDbEntity
   8
0
 100
AcDbTrace
   6
CONTINUOUS
  62
8
  10
 324.33590180057
  20
 296.95838762098
  30
0.0
  11
 332.33590180057
  21
 295.54777177532
  31
0.0
  12
 332.33590180057
  22
 298.36900346665
  32
0.0
  13
 332.33590180057
  23
 298.36900346665
  33
0.0
   0
SOLID
   5
213
 100
AcDbEntity
   8
0
 100
AcDbTrace
   6
CONTINUOUS
  62
8
  10
 344.33590180057
  20
 296.95838762098
  30
0.0
  11
 336.33590180057
  21
 298.36900346665
  31
0.0
  12
 336.33590180057
  22
 295.54777177532
  32
0.0
  13
 336.33590180057
  23
 295.54777177532
  33
0.0
   0
MTEXT
   5
214
 100
AcDbEntity
   8
0
 370
15
  62
8
 100
AcDbMText
  10
 334.33590180057
  20
 300.95838762098
  30
0.0
  40
 10.000000000000
  41
0.0
  71
8
  72
1
   1
\A1;20
   7
GMM001
   0
ENDBLK
   5
215
 100
AcDbEntity
   8
0
 100
AcDbBlockEnd
   0
BLOCK
   5
216
 100
AcDbEntity
   8
0
 100
AcDbBlockBegin
   2
*D40
  70
65
  10
0.0
  20
0.0
  30
0.0
   3
*D40
   0
LINE
   5
217
 100
AcDbEntity
   8
0
 370
15
 100
AcDbLine
   6
CONTINUOUS
  62
8
  10
 325.59921775185
  20
 832.91537478657
  30
0.0
  11
 325.59921775185
  21
 852.91537478657
  31
0.0
   0
LINE
   5
218
 100
AcDbEntity
   8
0
 370
15
 100
AcDbLine
   6
CONTINUOUS
  62
8
  10
 345.59921775185
  20
 832.91537478657
  30
0.0
  11
 345.59921775185
  21
 852.91537478657
  31
0.0
   0
LINE
   5
219
 100
AcDbEntity
   8
0
 370
15
 100
AcDbLine
   6
CONTINUOUS
  62
8
  10
 325.59921775185
  20
 848.91537478657
  30
0.0
  11
 335.59921775185
  21
 848.91537478657
  31
0.0
   0
LINE
   5
21A
 100
AcDbEntity
   8
0
 370
15
 100
AcDbLine
   6
CONTINUOUS
  62
8
  10
 345.59921775185
  20
 848.91537478657
  30
0.0
  11
 335.59921775185
  21
 848.91537478657
  31
0.0
   0
SOLID
   5
21B
 100
AcDbEntity
   8
0
 100
AcDbTrace
   6
CONTINUOUS
  62
8
  10
 325.59921775185
  20
 848.91537478657
  30
0.0
  11
 333.59921775185
  21
 847.50475894090
  31
0.0
  12
 333.59921775185
  22
 850.32599063224
  32
0.0
  13
 333.59921775185
  23
 850.32599063224
  33
0.0
   0
SOLID
   5
21C
 100
AcDbEntity
   8
0
 100
AcDbTrace
   6
CONTINUOUS
  62
8
  10
 345.59921775185
  20
 848.91537478657
  30
0.0
  11
 337.59921775185
  21
 850.32599063224
  31
0.0
  12
 337.59921775185
  22
 847.50475894090
  32
0.0
  13
 337.59921775185
  23
 847.50475894090
  33
0.0
   0
MTEXT
   5
21D
 100
AcDbEntity
   8
0
 370
15
  62
8
 100
AcDbMText
  10
 335.59921775185
  20
 852.91537478657
  30
0.0
  40
 10.000000000000
  41
0.0
  71
8
  72
1
   1
\A1;20
   7
GMM001
   0
ENDBLK
   5
21E
 100
AcDbEntity
   8
0
 100
AcDbBlockEnd
   0
BLOCK
   5
21F
 100
AcDbEntity
   8
0
 100
AcDbBlockBegin
   2
*D41
  70
65
  10
0.0
  20
0.0
  30
0.0
   3
*D41
   0
LINE
   5
220
 100
AcDbEntity
   8
0
 370
15
 100
AcDbLine
   6
CONTINUOUS
  62
8
  10
 998.03194256103
  20
 381.40765407369
  30
0.0
  11
 998.03194256103
  21
 334.60499643150
  31
0.0
   0
LINE
   5
221
 100
AcDbEntity
   8
0
 370
15
 100
AcDbLine
   6
CONTINUOUS
  62
8
  10
 1078.0319425610
  20
 381.40765407369
  30
0.0
  11
 1078.0319425610
  21
 334.60499643150
  31
0.0
   0
LINE
   5
222
 100
AcDbEntity
   8
0
 370
15
 100
AcDbLine
   6
CONTINUOUS
  62
8
  10
 998.03194256103
  20
 338.60499643150
  30
0.0
  11
 1038.0319425610
  21
 338.60499643150
  31
0.0
   0
LINE
   5
223
 100
AcDbEntity
   8
0
 370
15
 100
AcDbLine
   6
CONTINUOUS
  62
8
  10
 1078.0319425610
  20
 338.60499643150
  30
0.0
  11
 1038.0319425610
  21
 338.60499643150
  31
0.0
   0
SOLID
   5
224
 100
AcDbEntity
   8
0
 100
AcDbTrace
   6
CONTINUOUS
  62
8
  10
 998.03194256103
  20
 338.60499643150
  30
0.0
  11
 1006.0319425610
  21
 337.19438058583
  31
0.0
  12
 1006.0319425610
  22
 340.01561227717
  32
0.0
  13
 1006.0319425610
  23
 340.01561227717
  33
0.0
   0
SOLID
   5
225
 100
AcDbEntity
   8
0
 100
AcDbTrace
   6
CONTINUOUS
  62
8
  10
 1078.0319425610
  20
 338.60499643150
  30
0.0
  11
 1070.0319425610
  21
 340.01561227717
  31
0.0
  12
 1070.0319425610
  22
 337.19438058583
  32
0.0
  13
 1070.0319425610
  23
 337.19438058583
  33
0.0
   0
MTEXT
   5
226
 100
AcDbEntity
   8
0
 370
15
  62
8
 100
AcDbMText
  10
 1038.0319425610
  20
 342.60499643150
  30
0.0
  40
 10.000000000000
  41
0.0
  71
8
  72
1
   1
\A1;80
   7
GMM001
   0
ENDBLK
   5
227
 100
AcDbEntity
   8
0
 100
AcDbBlockEnd
   0
BLOCK
   5
228
 100
AcDbEntity
   8
0
 100
AcDbBlockBegin
   2
*D42
  70
65
  10
0.0
  20
0.0
  30
0.0
   3
*D42
   0
LINE
   5
229
 100
AcDbEntity
   8
0
 370
15
 100
AcDbLine
   6
CONTINUOUS
  62
8
  10
 1008.0319425610
  20
 390.39020662151
  30
0.0
  11
 1008.0319425610
  21
 357.10123703320
  31
0.0
   0
LINE
   5
22A
 100
AcDbEntity
   8
0
 370
15
 100
AcDbLine
   6
CONTINUOUS
  62
8
  10
 1068.0319425610
  20
 380.39020662151
  30
0.0
  11
 1068.0319425610
  21
 357.10123703320
  31
0.0
   0
LINE
   5
22B
 100
AcDbEntity
   8
0
 370
15
 100
AcDbLine
   6
CONTINUOUS
  62
8
  10
 1008.0319425610
  20
 361.10123703320
  30
0.0
  11
 1038.0319425610
  21
 361.10123703320
  31
0.0
   0
LINE
   5
22C
 100
AcDbEntity
   8
0
 370
15
 100
AcDbLine
   6
CONTINUOUS
  62
8
  10
 1068.0319425610
  20
 361.10123703320
  30
0.0
  11
 1038.0319425610
  21
 361.10123703320
  31
0.0
   0
SOLID
   5
22D
 100
AcDbEntity
   8
0
 100
AcDbTrace
   6
CONTINUOUS
  62
8
  10
 1008.0319425610
  20
 361.10123703320
  30
0.0
  11
 1016.0319425610
  21
 359.69062118753
  31
0.0
  12
 1016.0319425610
  22
 362.51185287886
  32
0.0
  13
 1016.0319425610
  23
 362.51185287886
  33
0.0
   0
SOLID
   5
22E
 100
AcDbEntity
   8
0
 100
AcDbTrace
   6
CONTINUOUS
  62
8
  10
 1068.0319425610
  20
 361.10123703320
  30
0.0
  11
 1060.0319425610
  21
 362.51185287886
  31
0.0
  12
 1060.0319425610
  22
 359.69062118753
  32
0.0
  13
 1060.0319425610
  23
 359.69062118753
  33
0.0
   0
MTEXT
   5
22F
 100
AcDbEntity
   8
0
 370
15
  62
8
 100
AcDbMText
  10
 1038.0319425610
  20
 365.10123703320
  30
0.0
  40
 10.000000000000
  41
0.0
  71
8
  72
1
   1
\A1;60
   7
GMM001
   0
ENDBLK
   5
230
 100
AcDbEntity
   8
0
 100
AcDbBlockEnd
   0
BLOCK
   5
231
 100
AcDbEntity
   8
0
 100
AcDbBlockBegin
   2
*D43
  70
65
  10
0.0
  20
0.0
  30
0.0
   3
*D43
   0
LINE
   5
232
 100
AcDbEntity
   8
0
 370
15
 100
AcDbLine
   6
CONTINUOUS
  62
8
  10
 1080.0319425610
  20
 383.40765407369
  30
0.0
  11
 1115.9081270412
  21
 383.40765407369
  31
0.0
   0
LINE
   5
233
 100
AcDbEntity
   8
0
 370
15
 100
AcDbLine
   6
CONTINUOUS
  62
8
  10
 1080.0319425610
  20
 408.40765407369
  30
0.0
  11
 1115.9081270412
  21
 408.40765407369
  31
0.0
   0
LINE
   5
234
 100
AcDbEntity
   8
0
 370
15
 100
AcDbLine
   6
CONTINUOUS
  62
8
  10
 1111.9081270412
  20
 383.40765407369
  30
0.0
  11
 1111.9081270412
  21
 395.90765407369
  31
0.0
   0
LINE
   5
235
 100
AcDbEntity
   8
0
 370
15
 100
AcDbLine
   6
CONTINUOUS
  62
8
  10
 1111.9081270412
  20
 408.40765407369
  30
0.0
  11
 1111.9081270412
  21
 395.90765407369
  31
0.0
   0
SOLID
   5
236
 100
AcDbEntity
   8
0
 100
AcDbTrace
   6
CONTINUOUS
  62
8
  10
 1111.9081270412
  20
 383.40765407369
  30
0.0
  11
 1113.3187428869
  21
 391.40765407369
  31
0.0
  12
 1110.4975111955
  22
 391.40765407369
  32
0.0
  13
 1110.4975111955
  23
 391.40765407369
  33
0.0
   0
SOLID
   5
237
 100
AcDbEntity
   8
0
 100
AcDbTrace
   6
CONTINUOUS
  62
8
  10
 1111.9081270412
  20
 408.40765407369
  30
0.0
  11
 1110.4975111955
  21
 400.40765407369
  31
0.0
  12
 1113.3187428869
  22
 400.40765407369
  32
0.0
  13
 1113.3187428869
  23
 400.40765407369
  33
0.0
   0
MTEXT
   5
238
 100
AcDbEntity
   8
0
 370
15
  62
8
 100
AcDbMText
  10
 1107.9081270412
  20
 395.90765407369
  30
0.0
  40
 10.000000000000
  41
0.0
  71
8
  72
1
   1
\A1;25
   7
GMM001
  11
0.0
  21
 1.0000000000000
  31
0.0
   0
ENDBLK
   5
239
 100
AcDbEntity
   8
0
 100
AcDbBlockEnd
   0
BLOCK
   5
23A
 100
AcDbEntity
   8
0
 100
AcDbBlockBegin
   2
*D44
  70
65
  10
0.0
  20
0.0
  30
0.0
   3
*D44
   0
LINE
   5
23B
 100
AcDbEntity
   8
0
 370
15
 100
AcDbLine
   6
CONTINUOUS
  62
8
  10
 998.04982259923
  20
 933.36464123937
  30
0.0
  11
 998.04982259923
  21
 886.56198359718
  31
0.0
   0
LINE
   5
23C
 100
AcDbEntity
   8
0
 370
15
 100
AcDbLine
   6
CONTINUOUS
  62
8
  10
 1078.0498225992
  20
 933.36464123937
  30
0.0
  11
 1078.0498225992
  21
 886.56198359718
  31
0.0
   0
LINE
   5
23D
 100
AcDbEntity
   8
0
 370
15
 100
AcDbLine
   6
CONTINUOUS
  62
8
  10
 998.04982259923
  20
 890.56198359718
  30
0.0
  11
 1038.0498225992
  21
 890.56198359718
  31
0.0
   0
LINE
   5
23E
 100
AcDbEntity
   8
0
 370
15
 100
AcDbLine
   6
CONTINUOUS
  62
8
  10
 1078.0498225992
  20
 890.56198359718
  30
0.0
  11
 1038.0498225992
  21
 890.56198359718
  31
0.0
   0
SOLID
   5
23F
 100
AcDbEntity
   8
0
 100
AcDbTrace
   6
CONTINUOUS
  62
8
  10
 998.04982259923
  20
 890.56198359718
  30
0.0
  11
 1006.0498225992
  21
 889.15136775151
  31
0.0
  12
 1006.0498225992
  22
 891.97259944285
  32
0.0
  13
 1006.0498225992
  23
 891.97259944285
  33
0.0
   0
SOLID
   5
240
 100
AcDbEntity
   8
0
 100
AcDbTrace
   6
CONTINUOUS
  62
8
  10
 1078.0498225992
  20
 890.56198359718
  30
0.0
  11
 1070.0498225992
  21
 891.97259944285
  31
0.0
  12
 1070.0498225992
  22
 889.15136775151
  32
0.0
  13
 1070.0498225992
  23
 889.15136775151
  33
0.0
   0
MTEXT
   5
241
 100
AcDbEntity
   8
0
 370
15
  62
8
 100
AcDbMText
  10
 1038.0498225992
  20
 894.56198359718
  30
0.0
  40
 10.000000000000
  41
0.0
  71
8
  72
1
   1
\A1;80
   7
GMM001
   0
ENDBLK
   5
242
 100
AcDbEntity
   8
0
 100
AcDbBlockEnd
   0
BLOCK
   5
243
 100
AcDbEntity
   8
0
 100
AcDbBlockBegin
   2
*D45
  70
65
  10
0.0
  20
0.0
  30
0.0
   3
*D45
   0
LINE
   5
244
 100
AcDbEntity
   8
0
 370
15
 100
AcDbLine
   6
CONTINUOUS
  62
8
  10
 1008.0498225992
  20
 942.34719378719
  30
0.0
  11
 1008.0498225992
  21
 909.05822419887
  31
0.0
   0
LINE
   5
245
 100
AcDbEntity
   8
0
 370
15
 100
AcDbLine
   6
CONTINUOUS
  62
8
  10
 1068.0498225992
  20
 932.34719378719
  30
0.0
  11
 1068.0498225992
  21
 909.05822419887
  31
0.0
   0
LINE
   5
246
 100
AcDbEntity
   8
0
 370
15
 100
AcDbLine
   6
CONTINUOUS
  62
8
  10
 1008.0498225992
  20
 913.05822419887
  30
0.0
  11
 1038.0498225992
  21
 913.05822419887
  31
0.0
   0
LINE
   5
247
 100
AcDbEntity
   8
0
 370
15
 100
AcDbLine
   6
CONTINUOUS
  62
8
  10
 1068.0498225992
  20
 913.05822419887
  30
0.0
  11
 1038.0498225992
  21
 913.05822419887
  31
0.0
   0
SOLID
   5
248
 100
AcDbEntity
   8
0
 100
AcDbTrace
   6
CONTINUOUS
  62
8
  10
 1008.0498225992
  20
 913.05822419887
  30
0.0
  11
 1016.0498225992
  21
 911.64760835320
  31
0.0
  12
 1016.0498225992
  22
 914.46884004454
  32
0.0
  13
 1016.0498225992
  23
 914.46884004454
  33
0.0
   0
SOLID
   5
249
 100
AcDbEntity
   8
0
 100
AcDbTrace
   6
CONTINUOUS
  62
8
  10
 1068.0498225992
  20
 913.05822419887
  30
0.0
  11
 1060.0498225992
  21
 914.46884004454
  31
0.0
  12
 1060.0498225992
  22
 911.64760835320
  32
0.0
  13
 1060.0498225992
  23
 911.64760835320
  33
0.0
   0
MTEXT
   5
24A
 100
AcDbEntity
   8
0
 370
15
  62
8
 100
AcDbMText
  10
 1038.0498225992
  20
 917.05822419887
  30
0.0
  40
 10.000000000000
  41
0.0
  71
8
  72
1
   1
\A1;60
   7
GMM001
   0
ENDBLK
   5
24B
 100
AcDbEntity
   8
0
 100
AcDbBlockEnd
   0
BLOCK
   5
24C
 100
AcDbEntity
   8
0
 100
AcDbBlockBegin
   2
*D46
  70
65
  10
0.0
  20
0.0
  30
0.0
   3
*D46
   0
LINE
   5
24D
 100
AcDbEntity
   8
0
 370
15
 100
AcDbLine
   6
CONTINUOUS
  62
8
  10
 1080.0498225992
  20
 935.36464123937
  30
0.0
  11
 1115.9260070794
  21
 935.36464123937
  31
0.0
   0
LINE
   5
24E
 100
AcDbEntity
   8
0
 370
15
 100
AcDbLine
   6
CONTINUOUS
  62
8
  10
 1080.0498225992
  20
 960.36464123937
  30
0.0
  11
 1115.9260070794
  21
 960.36464123937
  31
0.0
   0
LINE
   5
24F
 100
AcDbEntity
   8
0
 370
15
 100
AcDbLine
   6
CONTINUOUS
  62
8
  10
 1111.9260070794
  20
 935.36464123937
  30
0.0
  11
 1111.9260070794
  21
 947.86464123937
  31
0.0
   0
LINE
   5
250
 100
AcDbEntity
   8
0
 370
15
 100
AcDbLine
   6
CONTINUOUS
  62
8
  10
 1111.9260070794
  20
 960.36464123937
  30
0.0
  11
 1111.9260070794
  21
 947.86464123937
  31
0.0
   0
SOLID
   5
251
 100
AcDbEntity
   8
0
 100
AcDbTrace
   6
CONTINUOUS
  62
8
  10
 1111.9260070794
  20
 935.36464123937
  30
0.0
  11
 1113.3366229251
  21
 943.36464123937
  31
0.0
  12
 1110.5153912337
  22
 943.36464123937
  32
0.0
  13
 1110.5153912337
  23
 943.36464123937
  33
0.0
   0
SOLID
   5
252
 100
AcDbEntity
   8
0
 100
AcDbTrace
   6
CONTINUOUS
  62
8
  10
 1111.9260070794
  20
 960.36464123937
  30
0.0
  11
 1110.5153912337
  21
 952.36464123937
  31
0.0
  12
 1113.3366229251
  22
 952.36464123937
  32
0.0
  13
 1113.3366229251
  23
 952.36464123937
  33
0.0
   0
MTEXT
   5
253
 100
AcDbEntity
   8
0
 370
15
  62
8
 100
AcDbMText
  10
 1107.9260070794
  20
 947.86464123937
  30
0.0
  40
 10.000000000000
  41
0.0
  71
8
  72
1
   1
\A1;25
   7
GMM001
  11
0.0
  21
 1.0000000000000
  31
0.0
   0
ENDBLK
   5
254
 100
AcDbEntity
   8
0
 100
AcDbBlockEnd
   0
BLOCK
   5
255
 100
AcDbEntity
   8
0
 100
AcDbBlockBegin
   2
*D47
  70
65
  10
0.0
  20
0.0
  30
0.0
   3
*D47
   0
LINE
   5
256
 100
AcDbEntity
   8
0
 370
15
 100
AcDbLine
   6
CONTINUOUS
  62
8
  10
 926.08133771369
  20
 280.95838762086
  30
0.0
  11
 926.08133771369
  21
 302.08377139405
  31
0.0
   0
LINE
   5
257
 100
AcDbEntity
   8
0
 370
15
 100
AcDbLine
   6
CONTINUOUS
  62
8
  10
 951.08133771369
  20
 280.95838762086
  30
0.0
  11
 951.08133771369
  21
 302.08377139405
  31
0.0
   0
LINE
   5
258
 100
AcDbEntity
   8
0
 370
15
 100
AcDbLine
   6
CONTINUOUS
  62
8
  10
 926.08133771369
  20
 298.08377139405
  30
0.0
  11
 938.58133771369
  21
 298.08377139405
  31
0.0
   0
LINE
   5
259
 100
AcDbEntity
   8
0
 370
15
 100
AcDbLine
   6
CONTINUOUS
  62
8
  10
 951.08133771369
  20
 298.08377139405
  30
0.0
  11
 938.58133771369
  21
 298.08377139405
  31
0.0
   0
SOLID
   5
25A
 100
AcDbEntity
   8
0
 100
AcDbTrace
   6
CONTINUOUS
  62
8
  10
 926.08133771369
  20
 298.08377139405
  30
0.0
  11
 934.08133771369
  21
 296.67315554838
  31
0.0
  12
 934.08133771369
  22
 299.49438723972
  32
0.0
  13
 934.08133771369
  23
 299.49438723972
  33
0.0
   0
SOLID
   5
25B
 100
AcDbEntity
   8
0
 100
AcDbTrace
   6
CONTINUOUS
  62
8
  10
 951.08133771369
  20
 298.08377139405
  30
0.0
  11
 943.08133771369
  21
 299.49438723972
  31
0.0
  12
 943.08133771369
  22
 296.67315554838
  32
0.0
  13
 943.08133771369
  23
 296.67315554838
  33
0.0
   0
MTEXT
   5
25C
 100
AcDbEntity
   8
0
 370
15
  62
8
 100
AcDbMText
  10
 938.58133771369
  20
 302.08377139405
  30
0.0
  40
 10.000000000000
  41
0.0
  71
8
  72
1
   1
\A1;25
   7
GMM001
   0
ENDBLK
   5
25D
 100
AcDbEntity
   8
0
 100
AcDbBlockEnd
   0
BLOCK
   5
25E
 100
AcDbEntity
   8
0
 100
AcDbBlockBegin
   2
*D48
  70
65
  10
0.0
  20
0.0
  30
0.0
   3
*D48
   0
LINE
   5
25F
 100
AcDbEntity
   8
0
 370
15
 100
AcDbLine
   6
CONTINUOUS
  62
8
  10
 926.09921775189
  20
 832.91537478654
  30
0.0
  11
 926.09921775189
  21
 854.04075855973
  31
0.0
   0
LINE
   5
260
 100
AcDbEntity
   8
0
 370
15
 100
AcDbLine
   6
CONTINUOUS
  62
8
  10
 951.09921775189
  20
 832.91537478654
  30
0.0
  11
 951.09921775189
  21
 854.04075855973
  31
0.0
   0
LINE
   5
261
 100
AcDbEntity
   8
0
 370
15
 100
AcDbLine
   6
CONTINUOUS
  62
8
  10
 926.09921775189
  20
 850.04075855973
  30
0.0
  11
 938.59921775189
  21
 850.04075855973
  31
0.0
   0
LINE
   5
262
 100
AcDbEntity
   8
0
 370
15
 100
AcDbLine
   6
CONTINUOUS
  62
8
  10
 951.09921775189
  20
 850.04075855973
  30
0.0
  11
 938.59921775189
  21
 850.04075855973
  31
0.0
   0
SOLID
   5
263
 100
AcDbEntity
   8
0
 100
AcDbTrace
   6
CONTINUOUS
  62
8
  10
 926.09921775189
  20
 850.04075855973
  30
0.0
  11
 934.09921775189
  21
 848.63014271406
  31
0.0
  12
 934.09921775189
  22
 851.45137440540
  32
0.0
  13
 934.09921775189
  23
 851.45137440540
  33
0.0
   0
SOLID
   5
264
 100
AcDbEntity
   8
0
 100
AcDbTrace
   6
CONTINUOUS
  62
8
  10
 951.09921775189
  20
 850.04075855973
  30
0.0
  11
 943.09921775189
  21
 851.45137440540
  31
0.0
  12
 943.09921775189
  22
 848.63014271406
  32
0.0
  13
 943.09921775189
  23
 848.63014271406
  33
0.0
   0
MTEXT
   5
265
 100
AcDbEntity
   8
0
 370
15
  62
8
 100
AcDbMText
  10
 938.59921775189
  20
 854.04075855973
  30
0.0
  40
 10.000000000000
  41
0.0
  71
8
  72
1
   1
\A1;25
   7
GMM001
   0
ENDBLK
   5
266
 100
AcDbEntity
   8
0
 100
AcDbBlockEnd
   0
BLOCK
   5
267
 100
AcDbEntity
   8
0
 100
AcDbBlockBegin
   2
*D49
  70
65
  10
0.0
  20
0.0
  30
0.0
   3
*D49
   0
LINE
   5
268
 100
AcDbEntity
   8
0
 370
15
 100
AcDbLine
   6
CONTINUOUS
  62
8
  10
 998.03194256103
  20
 280.95838762086
  30
0.0
  11
 998.03194256103
  21
 302.08377139405
  31
0.0
   0
LINE
   5
269
 100
AcDbEntity
   8
0
 370
15
 100
AcDbLine
   6
CONTINUOUS
  62
8
  10
 1078.0319425610
  20
 280.95838762086
  30
0.0
  11
 1078.0319425610
  21
 302.08377139405
  31
0.0
   0
LINE
   5
26A
 100
AcDbEntity
   8
0
 370
15
 100
AcDbLine
   6
CONTINUOUS
  62
8
  10
 998.03194256103
  20
 298.08377139405
  30
0.0
  11
 1038.0319425610
  21
 298.08377139405
  31
0.0
   0
LINE
   5
26B
 100
AcDbEntity
   8
0
 370
15
 100
AcDbLine
   6
CONTINUOUS
  62
8
  10
 1078.0319425610
  20
 298.08377139405
  30
0.0
  11
 1038.0319425610
  21
 298.08377139405
  31
0.0
   0
SOLID
   5
26C
 100
AcDbEntity
   8
0
 100
AcDbTrace
   6
CONTINUOUS
  62
8
  10
 998.03194256103
  20
 298.08377139405
  30
0.0
  11
 1006.0319425610
  21
 296.67315554838
  31
0.0
  12
 1006.0319425610
  22
 299.49438723972
  32
0.0
  13
 1006.0319425610
  23
 299.49438723972
  33
0.0
   0
SOLID
   5
26D
 100
AcDbEntity
   8
0
 100
AcDbTrace
   6
CONTINUOUS
  62
8
  10
 1078.0319425610
  20
 298.08377139405
  30
0.0
  11
 1070.0319425610
  21
 299.49438723972
  31
0.0
  12
 1070.0319425610
  22
 296.67315554838
  32
0.0
  13
 1070.0319425610
  23
 296.67315554838
  33
0.0
   0
MTEXT
   5
26E
 100
AcDbEntity
   8
0
 370
15
  62
8
 100
AcDbMText
  10
 1038.0319425610
  20
 302.08377139405
  30
0.0
  40
 10.000000000000
  41
0.0
  71
8
  72
1
   1
\A1;80
   7
GMM001
   0
ENDBLK
   5
26F
 100
AcDbEntity
   8
0
 100
AcDbBlockEnd
   0
BLOCK
   5
270
 100
AcDbEntity
   8
0
 100
AcDbBlockBegin
   2
*D50
  70
65
  10
0.0
  20
0.0
  30
0.0
   3
*D50
   0
LINE
   5
271
 100
AcDbEntity
   8
0
 370
15
 100
AcDbLine
   6
CONTINUOUS
  62
8
  10
 1082.0319425610
  20
 274.45838762086
  30
0.0
  11
 1115.9081270412
  21
 274.45838762086
  31
0.0
   0
LINE
   5
272
 100
AcDbEntity
   8
0
 370
15
 100
AcDbLine
   6
CONTINUOUS
  62
8
  10
 1082.0319425610
  20
 276.95838762086
  30
0.0
  11
 1115.9081270412
  21
 276.95838762086
  31
0.0
   0
LINE
   5
273
 100
AcDbEntity
   8
0
 370
15
 100
AcDbLine
   6
CONTINUOUS
  62
8
  10
 1111.9081270412
  20
 264.45838762086
  30
0.0
  11
 1111.9081270412
  21
 275.70838762086
  31
0.0
   0
LINE
   5
274
 100
AcDbEntity
   8
0
 370
15
 100
AcDbLine
   6
CONTINUOUS
  62
8
  10
 1111.9081270412
  20
 307.83383153841
  30
0.0
  11
 1111.9081270412
  21
 275.70838762086
  31
0.0
   0
SOLID
   5
275
 100
AcDbEntity
   8
0
 100
AcDbTrace
   6
CONTINUOUS
  62
8
  10
 1111.9081270412
  20
 274.45838762086
  30
0.0
  11
 1110.4975111955
  21
 266.45838762086
  31
0.0
  12
 1113.3187428869
  22
 266.45838762086
  32
0.0
  13
 1113.3187428869
  23
 266.45838762086
  33
0.0
   0
SOLID
   5
276
 100
AcDbEntity
   8
0
 100
AcDbTrace
   6
CONTINUOUS
  62
8
  10
 1111.9081270412
  20
 276.95838762086
  30
0.0
  11
 1113.3187428869
  21
 284.95838762086
  31
0.0
  12
 1110.4975111955
  22
 284.95838762086
  32
0.0
  13
 1110.4975111955
  23
 284.95838762086
  33
0.0
   0
MTEXT
   5
277
 100
AcDbEntity
   8
0
 370
15
  62
8
 100
AcDbMText
  10
 1107.4970994722
  20
 285.83383153841
  30
0.0
  40
 10.000000000000
  41
0.0
  71
7
  72
1
   1
\A1;2.5
   7
GMM001
  11
0.0
  21
 1.0000000000000
  31
0.0
   0
ENDBLK
   5
278
 100
AcDbEntity
   8
0
 100
AcDbBlockEnd
   0
BLOCK
   5
279
 100
AcDbEntity
   8
0
 100
AcDbBlockBegin
   2
*D51
  70
65
  10
0.0
  20
0.0
  30
0.0
   3
*D51
   0
LINE
   5
27A
 100
AcDbEntity
   8
0
 370
15
 100
AcDbLine
   6
CONTINUOUS
  62
8
  10
 998.04982259923
  20
 832.91537478654
  30
0.0
  11
 998.04982259923
  21
 854.04075855973
  31
0.0
   0
LINE
   5
27B
 100
AcDbEntity
   8
0
 370
15
 100
AcDbLine
   6
CONTINUOUS
  62
8
  10
 1078.0498225992
  20
 832.91537478654
  30
0.0
  11
 1078.0498225992
  21
 854.04075855973
  31
0.0
   0
LINE
   5
27C
 100
AcDbEntity
   8
0
 370
15
 100
AcDbLine
   6
CONTINUOUS
  62
8
  10
 998.04982259923
  20
 850.04075855973
  30
0.0
  11
 1038.0498225992
  21
 850.04075855973
  31
0.0
   0
LINE
   5
27D
 100
AcDbEntity
   8
0
 370
15
 100
AcDbLine
   6
CONTINUOUS
  62
8
  10
 1078.0498225992
  20
 850.04075855973
  30
0.0
  11
 1038.0498225992
  21
 850.04075855973
  31
0.0
   0
SOLID
   5
27E
 100
AcDbEntity
   8
0
 100
AcDbTrace
   6
CONTINUOUS
  62
8
  10
 998.04982259923
  20
 850.04075855973
  30
0.0
  11
 1006.0498225992
  21
 848.63014271406
  31
0.0
  12
 1006.0498225992
  22
 851.45137440540
  32
0.0
  13
 1006.0498225992
  23
 851.45137440540
  33
0.0
   0
SOLID
   5
27F
 100
AcDbEntity
   8
0
 100
AcDbTrace
   6
CONTINUOUS
  62
8
  10
 1078.0498225992
  20
 850.04075855973
  30
0.0
  11
 1070.0498225992
  21
 851.45137440540
  31
0.0
  12
 1070.0498225992
  22
 848.63014271406
  32
0.0
  13
 1070.0498225992
  23
 848.63014271406
  33
0.0
   0
MTEXT
   5
280
 100
AcDbEntity
   8
0
 370
15
  62
8
 100
AcDbMText
  10
 1038.0498225992
  20
 854.04075855973
  30
0.0
  40
 10.000000000000
  41
0.0
  71
8
  72
1
   1
\A1;80
   7
GMM001
   0
ENDBLK
   5
281
 100
AcDbEntity
   8
0
 100
AcDbBlockEnd
   0
BLOCK
   5
282
 100
AcDbEntity
   8
0
 100
AcDbBlockBegin
   2
*D52
  70
65
  10
0.0
  20
0.0
  30
0.0
   3
*D52
   0
LINE
   5
283
 100
AcDbEntity
   8
0
 370
15
 100
AcDbLine
   6
CONTINUOUS
  62
8
  10
 1082.0498225992
  20
 826.41537478654
  30
0.0
  11
 1115.9260070794
  21
 826.41537478654
  31
0.0
   0
LINE
   5
284
 100
AcDbEntity
   8
0
 370
15
 100
AcDbLine
   6
CONTINUOUS
  62
8
  10
 1082.0498225992
  20
 828.91537478654
  30
0.0
  11
 1115.9260070794
  21
 828.91537478654
  31
0.0
   0
LINE
   5
285
 100
AcDbEntity
   8
0
 370
15
 100
AcDbLine
   6
CONTINUOUS
  62
8
  10
 1111.9260070794
  20
 816.41537478654
  30
0.0
  11
 1111.9260070794
  21
 827.66537478654
  31
0.0
   0
LINE
   5
286
 100
AcDbEntity
   8
0
 370
15
 100
AcDbLine
   6
CONTINUOUS
  62
8
  10
 1111.9260070794
  20
 859.79081870409
  30
0.0
  11
 1111.9260070794
  21
 827.66537478654
  31
0.0
   0
SOLID
   5
287
 100
AcDbEntity
   8
0
 100
AcDbTrace
   6
CONTINUOUS
  62
8
  10
 1111.9260070794
  20
 826.41537478654
  30
0.0
  11
 1110.5153912337
  21
 818.41537478654
  31
0.0
  12
 1113.3366229251
  22
 818.41537478654
  32
0.0
  13
 1113.3366229251
  23
 818.41537478654
  33
0.0
   0
SOLID
   5
288
 100
AcDbEntity
   8
0
 100
AcDbTrace
   6
CONTINUOUS
  62
8
  10
 1111.9260070794
  20
 828.91537478654
  30
0.0
  11
 1113.3366229251
  21
 836.91537478654
  31
0.0
  12
 1110.5153912337
  22
 836.91537478654
  32
0.0
  13
 1110.5153912337
  23
 836.91537478654
  33
0.0
   0
MTEXT
   5
289
 100
AcDbEntity
   8
0
 370
15
  62
8
 100
AcDbMText
  10
 1107.5149795104
  20
 837.79081870409
  30
0.0
  40
 10.000000000000
  41
0.0
  71
7
  72
1
   1
\A1;2.5
   7
GMM001
  11
0.0
  21
 1.0000000000000
  31
0.0
   0
ENDBLK
   5
28A
 100
AcDbEntity
   8
0
 100
AcDbBlockEnd
   0
ENDSEC
   0
SECTION
   2
ENTITIES
   0
LINE
   5
28B
 100
AcDbEntity
   8
LEVEL001
 370
40
 100
AcDbLine
   6
CONTINUOUS
  62
3
  10
 1268.0000000001
  20
 1027.0000000000
  30
0.0
  11
 1618.0000000001
  21
 1027.0000000000
  31
0.0
   0
LINE
   5
28C
 100
AcDbEntity
   8
LEVEL001
 370
40
 100
AcDbLine
   6
CONTINUOUS
  62
3
  10
 1268.0000000001
  20
 947.00000000001
  30
0.0
  11
 1618.0000000001
  21
 947.00000000001
  31
0.0
   0
LINE
   5
28D
 100
AcDbEntity
   8
LEVEL001
 370
40
 100
AcDbLine
   6
CONTINUOUS
  62
3
  10
 1268.0000000001
  20
 867.00000000001
  30
0.0
  11
 1618.0000000001
  21
 867.00000000001
  31
0.0
   0
LINE
   5
28E
 100
AcDbEntity
   8
LEVEL001
 370
40
 100
AcDbLine
   6
CONTINUOUS
  62
3
  10
 1468.0000000001
  20
 208.00000000001
  30
0.0
  11
 1468.0000000001
  21
 48.000000000009
  31
0.0
   0
LINE
   5
28F
 100
AcDbEntity
   8
LEVEL001
 370
40
 100
AcDbLine
   6
CONTINUOUS
  62
3
  10
 1268.0000000001
  20
 288.00000000001
  30
0.0
  11
 1618.0000000001
  21
 288.00000000001
  31
0.0
   0
LINE
   5
290
 100
AcDbEntity
   8
LEVEL001
 370
40
 100
AcDbLine
   6
CONTINUOUS
  62
3
  10
 1268.0000000001
  20
 208.00000000001
  30
0.0
  11
 1618.0000000001
  21
 208.00000000001
  31
0.0
   0
LINE
   5
291
 100
AcDbEntity
   8
LEVEL001
 370
40
 100
AcDbLine
   6
CONTINUOUS
  62
3
  10
 1268.0000000001
  20
 128.00000000001
  30
0.0
  11
 1618.0000000001
  21
 128.00000000001
  31
0.0
   0
LINE
   5
292
 100
AcDbEntity
   8
LEVEL001
 370
40
 100
AcDbLine
   6
CONTINUOUS
  62
3
  10
 1468.0000000001
  20
 181.33333333334
  30
0.0
  11
 1618.0000000001
  21
 181.33333333334
  31
0.0
   0
LINE
   5
293
 100
AcDbEntity
   8
LEVEL001
 370
40
 100
AcDbLine
   6
CONTINUOUS
  62
3
  10
 1468.0000000001
  20
 154.66666666668
  30
0.0
  11
 1618.0000000001
  21
 154.66666666668
  31
0.0
   0
LINE
   5
294
 100
AcDbEntity
   8
LEVEL001
 370
40
 100
AcDbLine
   6
CONTINUOUS
  62
3
  10
 1409.8800000003
  20
 1087.3400000000
  30
0.0
  11
 1386.8400000003
  21
 1087.3400000000
  31
0.0
   0
LINE
   5
295
 100
AcDbEntity
   8
LEVEL001
 370
40
 100
AcDbLine
   6
CONTINUOUS
  62
3
  10
 1386.8400000003
  20
 1087.3400000000
  30
0.0
  11
 1386.8400000003
  21
 1052.7800000000
  31
0.0
   0
LINE
   5
296
 100
AcDbEntity
   8
LEVEL001
 370
40
 100
AcDbLine
   6
CONTINUOUS
  62
3
  10
 1386.8400000003
  20
 1052.7800000000
  30
0.0
  11
 1398.3600000003
  21
 1052.7800000000
  31
0.0
   0
LINE
   5
297
 100
AcDbEntity
   8
LEVEL001
 370
40
 100
AcDbLine
   6
CONTINUOUS
  62
3
  10
 1398.3600000003
  20
 1052.7800000000
  30
0.0
  11
 1398.3600000003
  21
 1058.5400000000
  31
0.0
   0
LINE
   5
298
 100
AcDbEntity
   8
LEVEL001
 370
40
 100
AcDbLine
   6
CONTINUOUS
  62
3
  10
 1398.3600000003
  20
 1058.5400000000
  30
0.0
  11
 1409.8800000003
  21
 1058.5400000000
  31
0.0
   0
ARC
   5
299
 100
AcDbEntity
   8
LEVEL001
 370
40
   6
CONTINUOUS
  62
3
 100
AcDbCircle
  10
 1409.8800000003
  20
 1072.9400000000
  30
0.0
  40
 14.400000000000
 100
AcDbArc
  50
 270.00000000000
  51
 90.000000000000
   0
LINE
   5
29A
 100
AcDbEntity
   8
LEVEL001
 370
40
 100
AcDbLine
   6
CONTINUOUS
  62
3
  10
 1398.3600000003
  20
 1070.0600000000
  30
0.0
  11
 1409.8800000003
  21
 1070.0600000000
  31
0.0
   0
ARC
   5
29B
 100
AcDbEntity
   8
LEVEL001
 370
40
   6
CONTINUOUS
  62
3
 100
AcDbCircle
  10
 1409.8800000003
  20
 1072.9400000000
  30
0.0
  40
 2.8800000000000
 100
AcDbArc
  50
 270.00000000000
  51
 90.000000000000
   0
LINE
   5
29C
 100
AcDbEntity
   8
LEVEL001
 370
40
 100
AcDbLine
   6
CONTINUOUS
  62
3
  10
 1409.8800000003
  20
 1075.8200000000
  30
0.0
  11
 1398.3600000003
  21
 1075.8200000000
  31
0.0
   0
LINE
   5
29D
 100
AcDbEntity
   8
LEVEL001
 370
40
 100
AcDbLine
   6
CONTINUOUS
  62
3
  10
 1398.3600000003
  20
 1075.8200000000
  30
0.0
  11
 1398.3600000003
  21
 1070.0600000000
  31
0.0
   0
LINE
   5
29E
 100
AcDbEntity
   8
LEVEL001
 370
40
 100
AcDbLine
   6
CONTINUOUS
  62
3
  10
 1415.6400000003
  20
 1052.7800000000
  30
0.0
  11
 1438.6800000003
  21
 1087.3400000000
  31
0.0
   0
LINE
   5
29F
 100
AcDbEntity
   8
LEVEL001
 370
40
 100
AcDbLine
   6
CONTINUOUS
  62
3
  10
 1438.6800000003
  20
 1087.3400000000
  30
0.0
  11
 1467.4800000003
  21
 1087.3400000000
  31
0.0
   0
LINE
   5
2A0
 100
AcDbEntity
   8
LEVEL001
 370
40
 100
AcDbLine
   6
CONTINUOUS
  62
3
  10
 1467.4800000003
  20
 1087.3400000000
  30
0.0
  11
 1467.4800000003
  21
 1064.3000000000
  31
0.0
   0
LINE
   5
2A1
 100
AcDbEntity
   8
LEVEL001
 370
40
 100
AcDbLine
   6
CONTINUOUS
  62
3
  10
 1467.4800000003
  20
 1064.3000000000
  30
0.0
  11
 1484.7600000003
  21
 1064.3000000000
  31
0.0
   0
LINE
   5
2A2
 100
AcDbEntity
   8
LEVEL001
 370
40
 100
AcDbLine
   6
CONTINUOUS
  62
3
  10
 1484.7600000003
  20
 1064.3000000000
  30
0.0
  11
 1484.7600000003
  21
 1075.8200000000
  31
0.0
   0
LINE
   5
2A3
 100
AcDbEntity
   8
LEVEL001
 370
40
 100
AcDbLine
   6
CONTINUOUS
  62
3
  10
 1484.7600000003
  20
 1075.8200000000
  30
0.0
  11
 1473.2400000003
  21
 1075.8200000000
  31
0.0
   0
LINE
   5
2A4
 100
AcDbEntity
   8
LEVEL001
 370
40
 100
AcDbLine
   6
CONTINUOUS
  62
3
  10
 1473.2400000003
  20
 1075.8200000000
  30
0.0
  11
 1473.2400000003
  21
 1087.3400000000
  31
0.0
   0
LINE
   5
2A5
 100
AcDbEntity
   8
LEVEL001
 370
40
 100
AcDbLine
   6
CONTINUOUS
  62
3
  10
 1473.2400000003
  20
 1087.3400000000
  30
0.0
  11
 1542.3600000003
  21
 1087.3400000000
  31
0.0
   0
LINE
   5
2A6
 100
AcDbEntity
   8
LEVEL001
 370
40
 100
AcDbLine
   6
CONTINUOUS
  62
3
  10
 1542.3600000003
  20
 1087.3400000000
  30
0.0
  11
 1542.3600000003
  21
 1075.8200000000
  31
0.0
   0
LINE
   5
2A7
 100
AcDbEntity
   8
LEVEL001
 370
40
 100
AcDbLine
   6
CONTINUOUS
  62
3
  10
 1542.3600000003
  20
 1075.8200000000
  30
0.0
  11
 1519.3200000003
  21
 1075.8200000000
  31
0.0
   0
LINE
   5
2A8
 100
AcDbEntity
   8
LEVEL001
 370
40
 100
AcDbLine
   6
CONTINUOUS
  62
3
  10
 1519.3200000003
  20
 1075.8200000000
  30
0.0
  11
 1519.3200000003
  21
 1072.9400000000
  31
0.0
   0
LINE
   5
2A9
 100
AcDbEntity
   8
LEVEL001
 370
40
 100
AcDbLine
   6
CONTINUOUS
  62
3
  10
 1519.3200000003
  20
 1072.9400000000
  30
0.0
  11
 1539.4800000003
  21
 1072.9400000000
  31
0.0
   0
LINE
   5
2AA
 100
AcDbEntity
   8
LEVEL001
 370
40
 100
AcDbLine
   6
CONTINUOUS
  62
3
  10
 1539.4800000003
  20
 1072.9400000000
  30
0.0
  11
 1539.4800000003
  21
 1067.1800000000
  31
0.0
   0
LINE
   5
2AB
 100
AcDbEntity
   8
LEVEL001
 370
40
 100
AcDbLine
   6
CONTINUOUS
  62
3
  10
 1539.4800000003
  20
 1067.1800000000
  30
0.0
  11
 1519.3200000003
  21
 1067.1800000000
  31
0.0
   0
LINE
   5
2AC
 100
AcDbEntity
   8
LEVEL001
 370
40
 100
AcDbLine
   6
CONTINUOUS
  62
3
  10
 1519.3200000003
  20
 1067.1800000000
  30
0.0
  11
 1519.3200000003
  21
 1064.3000000000
  31
0.0
   0
LINE
   5
2AD
 100
AcDbEntity
   8
LEVEL001
 370
40
 100
AcDbLine
   6
CONTINUOUS
  62
3
  10
 1519.3200000003
  20
 1064.3000000000
  30
0.0
  11
 1542.3600000003
  21
 1064.3000000000
  31
0.0
   0
LINE
   5
2AE
 100
AcDbEntity
   8
LEVEL001
 370
40
 100
AcDbLine
   6
CONTINUOUS
  62
3
  10
 1542.3600000003
  20
 1064.3000000000
  30
0.0
  11
 1542.3600000003
  21
 1052.7800000000
  31
0.0
   0
LINE
   5
2AF
 100
AcDbEntity
   8
LEVEL001
 370
40
 100
AcDbLine
   6
CONTINUOUS
  62
3
  10
 1542.3600000003
  20
 1052.7800000000
  30
0.0
  11
 1507.8000000003
  21
 1052.7800000000
  31
0.0
   0
LINE
   5
2B0
 100
AcDbEntity
   8
LEVEL001
 370
40
 100
AcDbLine
   6
CONTINUOUS
  62
3
  10
 1507.8000000003
  20
 1052.7800000000
  30
0.0
  11
 1507.8000000003
  21
 1075.8200000000
  31
0.0
   0
LINE
   5
2B1
 100
AcDbEntity
   8
LEVEL001
 370
40
 100
AcDbLine
   6
CONTINUOUS
  62
3
  10
 1507.8000000003
  20
 1075.8200000000
  30
0.0
  11
 1496.2800000003
  21
 1075.8200000000
  31
0.0
   0
LINE
   5
2B2
 100
AcDbEntity
   8
LEVEL001
 370
40
 100
AcDbLine
   6
CONTINUOUS
  62
3
  10
 1496.2800000003
  20
 1075.8200000000
  30
0.0
  11
 1496.2800000003
  21
 1052.7800000000
  31
0.0
   0
LINE
   5
2B3
 100
AcDbEntity
   8
LEVEL001
 370
40
 100
AcDbLine
   6
CONTINUOUS
  62
3
  10
 1496.2800000003
  20
 1052.7800000000
  30
0.0
  11
 1455.9600000003
  21
 1052.7800000000
  31
0.0
   0
LINE
   5
2B4
 100
AcDbEntity
   8
LEVEL001
 370
40
 100
AcDbLine
   6
CONTINUOUS
  62
3
  10
 1455.9600000003
  20
 1052.7800000000
  30
0.0
  11
 1455.9600000003
  21
 1087.3400000000
  31
0.0
   0
LINE
   5
2B5
 100
AcDbEntity
   8
LEVEL001
 370
40
 100
AcDbLine
   6
CONTINUOUS
  62
3
  10
 1455.9600000003
  20
 1087.3400000000
  30
0.0
  11
 1432.9200000003
  21
 1052.7800000000
  31
0.0
   0
LINE
   5
2B6
 100
AcDbEntity
   8
LEVEL001
 370
40
 100
AcDbLine
   6
CONTINUOUS
  62
3
  10
 1432.9200000003
  20
 1052.7800000000
  30
0.0
  11
 1415.6400000003
  21
 1052.7800000000
  31
0.0
   0
LINE
   5
2B7
 100
AcDbEntity
   8
LEVEL001
 370
40
 100
AcDbLine
   6
CONTINUOUS
  62
3
  10
 1452.1200000003
  20
 1074.6573415511
  30
0.0
  11
 1437.5351056329
  21
 1052.7800000000
  31
0.0
   0
LINE
   5
2B8
 100
AcDbEntity
   8
LEVEL001
 370
40
 100
AcDbLine
   6
CONTINUOUS
  62
3
  10
 1437.5351056329
  20
 1052.7800000000
  30
0.0
  11
 1452.1200000003
  21
 1052.7800000000
  31
0.0
   0
LINE
   5
2B9
 100
AcDbEntity
   8
LEVEL001
 370
40
 100
AcDbLine
   6
CONTINUOUS
  62
3
  10
 1452.1200000003
  20
 1052.7800000000
  30
0.0
  11
 1452.1200000003
  21
 1074.6573415511
  31
0.0
   0
ARC
   5
2BA
 100
AcDbEntity
   8
LEVEL001
 370
40
   6
CONTINUOUS
  62
3
 100
AcDbCircle
  10
 1559.6400000003
  20
 1070.0600000000
  30
0.0
  40
 17.280000000000
 100
AcDbArc
  50
 90.000000000000
  51
 270.00000000000
   0
ARC
   5
2BB
 100
AcDbEntity
   8
LEVEL001
 370
40
   6
CONTINUOUS
  62
3
 100
AcDbCircle
  10
 1559.6400000003
  20
 1070.0600000000
  30
0.0
  40
 5.7600000000000
 100
AcDbArc
  50
 90.000000000000
  51
 270.00000000000
   0
LINE
   5
2BC
 100
AcDbEntity
   8
LEVEL001
 370
40
 100
AcDbLine
   6
CONTINUOUS
  62
3
  10
 1559.6400000003
  20
 1087.3400000000
  30
0.0
  11
 1576.9200000003
  21
 1087.3400000000
  31
0.0
   0
LINE
   5
2BD
 100
AcDbEntity
   8
LEVEL001
 370
40
 100
AcDbLine
   6
CONTINUOUS
  62
3
  10
 1576.9200000003
  20
 1087.3400000000
  30
0.0
  11
 1576.9200000003
  21
 1075.8200000000
  31
0.0
   0
LINE
   5
2BE
 100
AcDbEntity
   8
LEVEL001
 370
40
 100
AcDbLine
   6
CONTINUOUS
  62
3
  10
 1576.9200000003
  20
 1075.8200000000
  30
0.0
  11
 1559.6400000003
  21
 1075.8200000000
  31
0.0
   0
LINE
   5
2BF
 100
AcDbEntity
   8
LEVEL001
 370
40
 100
AcDbLine
   6
CONTINUOUS
  62
3
  10
 1386.8400000003
  20
 1087.3400000000
  30
0.0
  11
 1386.8400000003
  21
 1052.7800000000
  31
0.0
   0
LINE
   5
2C0
 100
AcDbEntity
   8
LEVEL001
 370
40
 100
AcDbLine
   6
CONTINUOUS
  62
3
  10
 1386.8400000003
  20
 1052.7800000000
  30
0.0
  11
 1398.3600000003
  21
 1052.7800000000
  31
0.0
   0
LINE
   5
2C1
 100
AcDbEntity
   8
LEVEL001
 370
40
 100
AcDbLine
   6
CONTINUOUS
  62
3
  10
 1398.3600000003
  20
 1052.7800000000
  30
0.0
  11
 1398.3600000003
  21
 1058.5400000000
  31
0.0
   0
LINE
   5
2C2
 100
AcDbEntity
   8
LEVEL001
 370
40
 100
AcDbLine
   6
CONTINUOUS
  62
3
  10
 1398.3600000003
  20
 1058.5400000000
  30
0.0
  11
 1409.8800000003
  21
 1058.5400000000
  31
0.0
   0
ARC
   5
2C3
 100
AcDbEntity
   8
LEVEL001
 370
40
   6
CONTINUOUS
  62
3
 100
AcDbCircle
  10
 1409.8800000003
  20
 1072.9400000000
  30
0.0
  40
 14.400000000000
 100
AcDbArc
  50
 270.00000000000
  51
 90.000000000000
   0
LINE
   5
2C4
 100
AcDbEntity
   8
LEVEL001
 370
40
 100
AcDbLine
   6
CONTINUOUS
  62
3
  10
 1409.8800000003
  20
 1087.3400000000
  30
0.0
  11
 1386.8400000003
  21
 1087.3400000000
  31
0.0
   0
LINE
   5
2C5
 100
AcDbEntity
   8
LEVEL001
 370
40
 100
AcDbLine
   6
CONTINUOUS
  62
3
  10
 1398.3600000003
  20
 1075.8200000000
  30
0.0
  11
 1398.3600000003
  21
 1070.0600000000
  31
0.0
   0
LINE
   5
2C6
 100
AcDbEntity
   8
LEVEL001
 370
40
 100
AcDbLine
   6
CONTINUOUS
  62
3
  10
 1398.3600000003
  20
 1070.0600000000
  30
0.0
  11
 1409.8800000003
  21
 1070.0600000000
  31
0.0
   0
ARC
   5
2C7
 100
AcDbEntity
   8
LEVEL001
 370
40
   6
CONTINUOUS
  62
3
 100
AcDbCircle
  10
 1409.8800000003
  20
 1072.9400000000
  30
0.0
  40
 2.8800000000000
 100
AcDbArc
  50
 270.00000000000
  51
 90.000000000000
   0
LINE
   5
2C8
 100
AcDbEntity
   8
LEVEL001
 370
40
 100
AcDbLine
   6
CONTINUOUS
  62
3
  10
 1409.8800000003
  20
 1075.8200000000
  30
0.0
  11
 1398.3600000003
  21
 1075.8200000000
  31
0.0
   0
LINE
   5
2C9
 100
AcDbEntity
   8
LEVEL001
 370
40
 100
AcDbLine
   6
CONTINUOUS
  62
3
  10
 1438.6800000003
  20
 1087.3400000000
  30
0.0
  11
 1415.6400000003
  21
 1052.7800000000
  31
0.0
   0
LINE
   5
2CA
 100
AcDbEntity
   8
LEVEL001
 370
40
 100
AcDbLine
   6
CONTINUOUS
  62
3
  10
 1415.6400000003
  20
 1052.7800000000
  30
0.0
  11
 1432.9200000003
  21
 1052.7800000000
  31
0.0
   0
LINE
   5
2CB
 100
AcDbEntity
   8
LEVEL001
 370
40
 100
AcDbLine
   6
CONTINUOUS
  62
3
  10
 1432.9200000003
  20
 1052.7800000000
  30
0.0
  11
 1455.9600000003
  21
 1087.3400000000
  31
0.0
   0
LINE
   5
2CC
 100
AcDbEntity
   8
LEVEL001
 370
40
 100
AcDbLine
   6
CONTINUOUS
  62
3
  10
 1455.9600000003
  20
 1087.3400000000
  30
0.0
  11
 1438.6800000003
  21
 1087.3400000000
  31
0.0
   0
LINE
   5
2CD
 100
AcDbEntity
   8
LEVEL001
 370
40
 100
AcDbLine
   6
CONTINUOUS
  62
3
  10
 1452.1200000003
  20
 1052.7800000000
  30
0.0
  11
 1452.1200000003
  21
 1074.6573415511
  31
0.0
   0
LINE
   5
2CE
 100
AcDbEntity
   8
LEVEL001
 370
40
 100
AcDbLine
   6
CONTINUOUS
  62
3
  10
 1452.1200000003
  20
 1074.6573415511
  30
0.0
  11
 1437.5351056329
  21
 1052.7800000000
  31
0.0
   0
LINE
   5
2CF
 100
AcDbEntity
   8
LEVEL001
 370
40
 100
AcDbLine
   6
CONTINUOUS
  62
3
  10
 1437.5351056329
  20
 1052.7800000000
  30
0.0
  11
 1452.1200000003
  21
 1052.7800000000
  31
0.0
   0
LINE
   5
2D0
 100
AcDbEntity
   8
LEVEL001
 370
40
 100
AcDbLine
   6
CONTINUOUS
  62
3
  10
 1455.9600000003
  20
 1052.7800000000
  30
0.0
  11
 1496.2800000003
  21
 1052.7800000000
  31
0.0
   0
LINE
   5
2D1
 100
AcDbEntity
   8
LEVEL001
 370
40
 100
AcDbLine
   6
CONTINUOUS
  62
3
  10
 1496.2800000003
  20
 1052.7800000000
  30
0.0
  11
 1496.2800000003
  21
 1075.8200000000
  31
0.0
   0
LINE
   5
2D2
 100
AcDbEntity
   8
LEVEL001
 370
40
 100
AcDbLine
   6
CONTINUOUS
  62
3
  10
 1496.2800000003
  20
 1075.8200000000
  30
0.0
  11
 1507.8000000003
  21
 1075.8200000000
  31
0.0
   0
LINE
   5
2D3
 100
AcDbEntity
   8
LEVEL001
 370
40
 100
AcDbLine
   6
CONTINUOUS
  62
3
  10
 1507.8000000003
  20
 1075.8200000000
  30
0.0
  11
 1507.8000000003
  21
 1052.7800000000
  31
0.0
   0
LINE
   5
2D4
 100
AcDbEntity
   8
LEVEL001
 370
40
 100
AcDbLine
   6
CONTINUOUS
  62
3
  10
 1507.8000000003
  20
 1052.7800000000
  30
0.0
  11
 1542.3600000003
  21
 1052.7800000000
  31
0.0
   0
LINE
   5
2D5
 100
AcDbEntity
   8
LEVEL001
 370
40
 100
AcDbLine
   6
CONTINUOUS
  62
3
  10
 1542.3600000003
  20
 1052.7800000000
  30
0.0
  11
 1542.3600000003
  21
 1064.3000000000
  31
0.0
   0
LINE
   5
2D6
 100
AcDbEntity
   8
LEVEL001
 370
40
 100
AcDbLine
   6
CONTINUOUS
  62
3
  10
 1542.3600000003
  20
 1064.3000000000
  30
0.0
  11
 1519.3200000003
  21
 1064.3000000000
  31
0.0
   0
LINE
   5
2D7
 100
AcDbEntity
   8
LEVEL001
 370
40
 100
AcDbLine
   6
CONTINUOUS
  62
3
  10
 1519.3200000003
  20
 1064.3000000000
  30
0.0
  11
 1519.3200000003
  21
 1067.1800000000
  31
0.0
   0
LINE
   5
2D8
 100
AcDbEntity
   8
LEVEL001
 370
40
 100
AcDbLine
   6
CONTINUOUS
  62
3
  10
 1519.3200000003
  20
 1067.1800000000
  30
0.0
  11
 1539.4800000003
  21
 1067.1800000000
  31
0.0
   0
LINE
   5
2D9
 100
AcDbEntity
   8
LEVEL001
 370
40
 100
AcDbLine
   6
CONTINUOUS
  62
3
  10
 1539.4800000003
  20
 1067.1800000000
  30
0.0
  11
 1539.4800000003
  21
 1072.9400000000
  31
0.0
   0
LINE
   5
2DA
 100
AcDbEntity
   8
LEVEL001
 370
40
 100
AcDbLine
   6
CONTINUOUS
  62
3
  10
 1539.4800000003
  20
 1072.9400000000
  30
0.0
  11
 1519.3200000003
  21
 1072.9400000000
  31
0.0
   0
LINE
   5
2DB
 100
AcDbEntity
   8
LEVEL001
 370
40
 100
AcDbLine
   6
CONTINUOUS
  62
3
  10
 1519.3200000003
  20
 1072.9400000000
  30
0.0
  11
 1519.3200000003
  21
 1075.8200000000
  31
0.0
   0
LINE
   5
2DC
 100
AcDbEntity
   8
LEVEL001
 370
40
 100
AcDbLine
   6
CONTINUOUS
  62
3
  10
 1519.3200000003
  20
 1075.8200000000
  30
0.0
  11
 1542.3600000003
  21
 1075.8200000000
  31
0.0
   0
LINE
   5
2DD
 100
AcDbEntity
   8
LEVEL001
 370
40
 100
AcDbLine
   6
CONTINUOUS
  62
3
  10
 1542.3600000003
  20
 1075.8200000000
  30
0.0
  11
 1542.3600000003
  21
 1087.3400000000
  31
0.0
   0
LINE
   5
2DE
 100
AcDbEntity
   8
LEVEL001
 370
40
 100
AcDbLine
   6
CONTINUOUS
  62
3
  10
 1542.3600000003
  20
 1087.3400000000
  30
0.0
  11
 1473.2400000003
  21
 1087.3400000000
  31
0.0
   0
LINE
   5
2DF
 100
AcDbEntity
   8
LEVEL001
 370
40
 100
AcDbLine
   6
CONTINUOUS
  62
3
  10
 1473.2400000003
  20
 1087.3400000000
  30
0.0
  11
 1473.2400000003
  21
 1075.8200000000
  31
0.0
   0
LINE
   5
2E0
 100
AcDbEntity
   8
LEVEL001
 370
40
 100
AcDbLine
   6
CONTINUOUS
  62
3
  10
 1473.2400000003
  20
 1075.8200000000
  30
0.0
  11
 1484.7600000003
  21
 1075.8200000000
  31
0.0
   0
LINE
   5
2E1
 100
AcDbEntity
   8
LEVEL001
 370
40
 100
AcDbLine
   6
CONTINUOUS
  62
3
  10
 1484.7600000003
  20
 1075.8200000000
  30
0.0
  11
 1484.7600000003
  21
 1064.3000000000
  31
0.0
   0
LINE
   5
2E2
 100
AcDbEntity
   8
LEVEL001
 370
40
 100
AcDbLine
   6
CONTINUOUS
  62
3
  10
 1484.7600000003
  20
 1064.3000000000
  30
0.0
  11
 1467.4800000003
  21
 1064.3000000000
  31
0.0
   0
LINE
   5
2E3
 100
AcDbEntity
   8
LEVEL001
 370
40
 100
AcDbLine
   6
CONTINUOUS
  62
3
  10
 1467.4800000003
  20
 1064.3000000000
  30
0.0
  11
 1467.4800000003
  21
 1087.3400000000
  31
0.0
   0
LINE
   5
2E4
 100
AcDbEntity
   8
LEVEL001
 370
40
 100
AcDbLine
   6
CONTINUOUS
  62
3
  10
 1467.4800000003
  20
 1087.3400000000
  30
0.0
  11
 1455.9600000003
  21
 1087.3400000000
  31
0.0
   0
LINE
   5
2E5
 100
AcDbEntity
   8
LEVEL001
 370
40
 100
AcDbLine
   6
CONTINUOUS
  62
3
  10
 1455.9600000003
  20
 1087.3400000000
  30
0.0
  11
 1455.9600000003
  21
 1052.7800000000
  31
0.0
   0
LINE
   5
2E6
 100
AcDbEntity
   8
LEVEL001
 370
40
 100
AcDbLine
   6
CONTINUOUS
  62
3
  10
 1559.6400000003
  20
 1052.7800000000
  30
0.0
  11
 1576.9200000003
  21
 1052.7800000000
  31
0.0
   0
LINE
   5
2E7
 100
AcDbEntity
   8
LEVEL001
 370
40
 100
AcDbLine
   6
CONTINUOUS
  62
3
  10
 1576.9200000003
  20
 1052.7800000000
  30
0.0
  11
 1576.9200000003
  21
 1064.3000000000
  31
0.0
   0
LINE
   5
2E8
 100
AcDbEntity
   8
LEVEL001
 370
40
 100
AcDbLine
   6
CONTINUOUS
  62
3
  10
 1576.9200000003
  20
 1064.3000000000
  30
0.0
  11
 1559.6400000003
  21
 1064.3000000000
  31
0.0
   0
ARC
   5
2E9
 100
AcDbEntity
   8
LEVEL001
 370
40
   6
CONTINUOUS
  62
3
 100
AcDbCircle
  10
 1559.6400000003
  20
 1070.0600000000
  30
0.0
  40
 5.7600000000000
 100
AcDbArc
  50
 90.000000000000
  51
 270.00000000000
   0
LINE
   5
2EA
 100
AcDbEntity
   8
LEVEL001
 370
40
 100
AcDbLine
   6
CONTINUOUS
  62
3
  10
 1559.6400000003
  20
 1075.8200000000
  30
0.0
  11
 1576.9200000003
  21
 1075.8200000000
  31
0.0
   0
LINE
   5
2EB
 100
AcDbEntity
   8
LEVEL001
 370
40
 100
AcDbLine
   6
CONTINUOUS
  62
3
  10
 1576.9200000003
  20
 1075.8200000000
  30
0.0
  11
 1576.9200000003
  21
 1087.3400000000
  31
0.0
   0
LINE
   5
2EC
 100
AcDbEntity
   8
LEVEL001
 370
40
 100
AcDbLine
   6
CONTINUOUS
  62
3
  10
 1576.9200000003
  20
 1087.3400000000
  30
0.0
  11
 1559.6400000003
  21
 1087.3400000000
  31
0.0
   0
ARC
   5
2ED
 100
AcDbEntity
   8
LEVEL001
 370
40
   6
CONTINUOUS
  62
3
 100
AcDbCircle
  10
 1559.6400000003
  20
 1070.0600000000
  30
0.0
  40
 17.280000000000
 100
AcDbArc
  50
 90.000000000000
  51
 270.00000000000
   0
LINE
   5
2EE
 100
AcDbEntity
   8
LEVEL001
 370
40
 100
AcDbLine
   6
CONTINUOUS
  62
3
  10
 1375.3200000003
  20
 1060.4600000000
  30
0.0
  11
 1360.9200000003
  21
 1083.5000000000
  31
0.0
   0
LINE
   5
2EF
 100
AcDbEntity
   8
LEVEL001
 370
40
 100
AcDbLine
   6
CONTINUOUS
  62
3
  10
 1360.9200000003
  20
 1083.5000000000
  30
0.0
  11
 1375.3200000003
  21
 1083.5000000000
  31
0.0
   0
LINE
   5
2F0
 100
AcDbEntity
   8
LEVEL001
 370
40
 100
AcDbLine
   6
CONTINUOUS
  62
3
  10
 1375.3200000003
  20
 1083.5000000000
  30
0.0
  11
 1375.3200000003
  21
 1060.4600000000
  31
0.0
   0
LINE
   5
2F1
 100
AcDbEntity
   8
LEVEL001
 370
40
 100
AcDbLine
   6
CONTINUOUS
  62
3
  10
 1360.9200000003
  20
 1083.5000000000
  30
0.0
  11
 1375.3200000003
  21
 1060.4600000000
  31
0.0
   0
LINE
   5
2F2
 100
AcDbEntity
   8
LEVEL001
 370
40
 100
AcDbLine
   6
CONTINUOUS
  62
3
  10
 1375.3200000003
  20
 1060.4600000000
  30
0.0
  11
 1375.3200000003
  21
 1083.5000000000
  31
0.0
   0
LINE
   5
2F3
 100
AcDbEntity
   8
LEVEL001
 370
40
 100
AcDbLine
   6
CONTINUOUS
  62
3
  10
 1375.3200000003
  20
 1083.5000000000
  30
0.0
  11
 1360.9200000003
  21
 1083.5000000000
  31
0.0
   0
LINE
   5
2F4
 100
AcDbEntity
   8
LEVEL001
 370
40
 100
AcDbLine
   6
CONTINUOUS
  62
3
  10
 1329.5600000003
  20
 1114.2200000000
  30
0.0
  11
 1309.0800000003
  21
 1083.5000000000
  31
0.0
   0
LINE
   5
2F5
 100
AcDbEntity
   8
LEVEL001
 370
40
 100
AcDbLine
   6
CONTINUOUS
  62
3
  10
 1309.0800000003
  20
 1083.5000000000
  30
0.0
  11
 1329.5600000003
  21
 1052.7800000000
  31
0.0
   0
LINE
   5
2F6
 100
AcDbEntity
   8
LEVEL001
 370
40
 100
AcDbLine
   6
CONTINUOUS
  62
3
  10
 1346.8400000003
  20
 1052.7800000000
  30
0.0
  11
 1326.3600000003
  21
 1083.5000000000
  31
0.0
   0
LINE
   5
2F7
 100
AcDbEntity
   8
LEVEL001
 370
40
 100
AcDbLine
   6
CONTINUOUS
  62
3
  10
 1326.3600000003
  20
 1083.5000000000
  30
0.0
  11
 1346.8400000003
  21
 1114.2200000000
  31
0.0
   0
LINE
   5
2F8
 100
AcDbEntity
   8
LEVEL001
 370
40
 100
AcDbLine
   6
CONTINUOUS
  62
3
  10
 1355.4800000003
  20
 1114.2200000000
  30
0.0
  11
 1335.0000000003
  21
 1083.5000000000
  31
0.0
   0
LINE
   5
2F9
 100
AcDbEntity
   8
LEVEL001
 370
40
 100
AcDbLine
   6
CONTINUOUS
  62
3
  10
 1335.0000000003
  20
 1083.5000000000
  30
0.0
  11
 1355.4800000003
  21
 1052.7800000000
  31
0.0
   0
LINE
   5
2FA
 100
AcDbEntity
   8
LEVEL001
 370
40
 100
AcDbLine
   6
CONTINUOUS
  62
3
  10
 1372.7600000003
  20
 1052.7800000000
  30
0.0
  11
 1352.2800000003
  21
 1083.5000000000
  31
0.0
   0
LINE
   5
2FB
 100
AcDbEntity
   8
LEVEL001
 370
40
 100
AcDbLine
   6
CONTINUOUS
  62
3
  10
 1352.2800000003
  20
 1083.5000000000
  30
0.0
  11
 1372.7600000003
  21
 1114.2200000000
  31
0.0
   0
LINE
   5
2FC
 100
AcDbEntity
   8
LEVEL001
 370
40
 100
AcDbLine
   6
CONTINUOUS
  62
3
  10
 1329.5600000003
  20
 1052.7800000000
  30
0.0
  11
 1309.0800000003
  21
 1083.5000000000
  31
0.0
   0
LINE
   5
2FD
 100
AcDbEntity
   8
LEVEL001
 370
40
 100
AcDbLine
   6
CONTINUOUS
  62
3
  10
 1309.0800000003
  20
 1083.5000000000
  30
0.0
  11
 1329.5600000003
  21
 1114.2200000000
  31
0.0
   0
LINE
   5
2FE
 100
AcDbEntity
   8
LEVEL001
 370
40
 100
AcDbLine
   6
CONTINUOUS
  62
3
  10
 1329.5600000003
  20
 1114.2200000000
  30
0.0
  11
 1346.8400000003
  21
 1114.2200000000
  31
0.0
   0
LINE
   5
2FF
 100
AcDbEntity
   8
LEVEL001
 370
40
 100
AcDbLine
   6
CONTINUOUS
  62
3
  10
 1346.8400000003
  20
 1114.2200000000
  30
0.0
  11
 1326.3600000003
  21
 1083.5000000000
  31
0.0
   0
LINE
   5
300
 100
AcDbEntity
   8
LEVEL001
 370
40
 100
AcDbLine
   6
CONTINUOUS
  62
3
  10
 1326.3600000003
  20
 1083.5000000000
  30
0.0
  11
 1346.8400000003
  21
 1052.7800000000
  31
0.0
   0
LINE
   5
301
 100
AcDbEntity
   8
LEVEL001
 370
40
 100
AcDbLine
   6
CONTINUOUS
  62
3
  10
 1346.8400000003
  20
 1052.7800000000
  30
0.0
  11
 1329.5600000003
  21
 1052.7800000000
  31
0.0
   0
LINE
   5
302
 100
AcDbEntity
   8
LEVEL001
 370
40
 100
AcDbLine
   6
CONTINUOUS
  62
3
  10
 1355.4800000003
  20
 1052.7800000000
  30
0.0
  11
 1335.0000000003
  21
 1083.5000000000
  31
0.0
   0
LINE
   5
303
 100
AcDbEntity
   8
LEVEL001
 370
40
 100
AcDbLine
   6
CONTINUOUS
  62
3
  10
 1335.0000000003
  20
 1083.5000000000
  30
0.0
  11
 1355.4800000003
  21
 1114.2200000000
  31
0.0
   0
LINE
   5
304
 100
AcDbEntity
   8
LEVEL001
 370
40
 100
AcDbLine
   6
CONTINUOUS
  62
3
  10
 1355.4800000003
  20
 1114.2200000000
  30
0.0
  11
 1372.7600000003
  21
 1114.2200000000
  31
0.0
   0
LINE
   5
305
 100
AcDbEntity
   8
LEVEL001
 370
40
 100
AcDbLine
   6
CONTINUOUS
  62
3
  10
 1372.7600000003
  20
 1114.2200000000
  30
0.0
  11
 1352.2800000003
  21
 1083.5000000000
  31
0.0
   0
LINE
   5
306
 100
AcDbEntity
   8
LEVEL001
 370
40
 100
AcDbLine
   6
CONTINUOUS
  62
3
  10
 1352.2800000003
  20
 1083.5000000000
  30
0.0
  11
 1372.7600000003
  21
 1052.7800000000
  31
0.0
   0
LINE
   5
307
 100
AcDbEntity
   8
LEVEL001
 370
40
 100
AcDbLine
   6
CONTINUOUS
  62
3
  10
 1372.7600000003
  20
 1052.7800000000
  30
0.0
  11
 1355.4800000003
  21
 1052.7800000000
  31
0.0
   0
LINE
   5
308
 100
AcDbEntity
   8
LEVEL001
 370
40
 100
AcDbLine
   6
CONTINUOUS
  62
3
  10
 1268.0000000001
  20
 333.38360969059
  30
0.0
  11
 1618.0000000001
  21
 333.38360969059
  31
0.0
   0
HATCH
   5
309
 100
AcDbEntity
   8
0
  62
1
 100
AcDbHatch
  10
0.0
  20
0.0
  30
0.0
 210
0.0
 220
0.0
 230
 1.0000000000000
   2
SOLID
  70
1
  71
1
  91
1
  92
1
  93
6
  72
1
  10
 1326.3600000003
  20
 1083.5000000000
  11
 1346.8400000003
  21
 1052.7800000000
  72
1
  10
 1346.8400000003
  20
 1052.7800000000
  11
 1329.5600000003
  21
 1052.7800000000
  72
1
  10
 1329.5600000003
  20
 1052.7800000000
  11
 1309.0800000003
  21
 1083.5000000000
  72
1
  10
 1309.0800000003
  20
 1083.5000000000
  11
 1329.5600000003
  21
 1114.2200000000
  72
1
  10
 1329.5600000003
  20
 1114.2200000000
  11
 1346.8400000003
  21
 1114.2200000000
  72
1
  10
 1346.8400000003
  20
 1114.2200000000
  11
 1326.3600000003
  21
 1083.5000000000
  97
1
 330

  75
0
  76
1
  98
1
  10
0.0
  20
0.0
   0
HATCH
   5
30A
 100
AcDbEntity
   8
0
  62
1
 100
AcDbHatch
  10
0.0
  20
0.0
  30
0.0
 210
0.0
 220
0.0
 230
 1.0000000000000
   2
SOLID
  70
1
  71
1
  91
1
  92
1
  93
6
  72
1
  10
 1355.4800000003
  20
 1114.2200000000
  11
 1372.7600000003
  21
 1114.2200000000
  72
1
  10
 1372.7600000003
  20
 1114.2200000000
  11
 1352.2800000003
  21
 1083.5000000000
  72
1
  10
 1352.2800000003
  20
 1083.5000000000
  11
 1372.7600000003
  21
 1052.7800000000
  72
1
  10
 1372.7600000003
  20
 1052.7800000000
  11
 1355.4800000003
  21
 1052.7800000000
  72
1
  10
 1355.4800000003
  20
 1052.7800000000
  11
 1335.0000000003
  21
 1083.5000000000
  72
1
  10
 1335.0000000003
  20
 1083.5000000000
  11
 1355.4800000003
  21
 1114.2200000000
  97
1
 330

  75
0
  76
1
  98
1
  10
0.0
  20
0.0
   0
HATCH
   5
30B
 100
AcDbEntity
   8
0
  62
1
 100
AcDbHatch
  10
0.0
  20
0.0
  30
0.0
 210
0.0
 220
0.0
 230
 1.0000000000000
   2
SOLID
  70
1
  71
1
  91
1
  92
1
  93
3
  72
1
  10
 1360.9200000003
  20
 1083.5000000000
  11
 1375.3200000003
  21
 1083.5000000000
  72
1
  10
 1375.3200000003
  20
 1083.5000000000
  11
 1375.3200000003
  21
 1060.4600000000
  72
1
  10
 1375.3200000003
  20
 1060.4600000000
  11
 1360.9200000003
  21
 1083.5000000000
  97
1
 330

  75
0
  76
1
  98
1
  10
0.0
  20
0.0
   0
HATCH
   5
30C
 100
AcDbEntity
   8
0
  62
1
 100
AcDbHatch
  10
0.0
  20
0.0
  30
0.0
 210
0.0
 220
0.0
 230
 1.0000000000000
   2
SOLID
  70
1
  71
1
  91
2
  92
1
  93
6
  72
2
  10
 1409.8800000003
  20
 1072.9400000000
  40
 14.400000000000
  50
 270.00000000000
  51
 90.000000000000
  73
0
  72
1
  10
 1409.8800000003
  20
 1058.5400000000
  11
 1398.3600000003
  21
 1058.5400000000
  72
1
  10
 1398.3600000003
  20
 1058.5400000000
  11
 1398.3600000003
  21
 1052.7800000000
  72
1
  10
 1398.3600000003
  20
 1052.7800000000
  11
 1386.8400000003
  21
 1052.7800000000
  72
1
  10
 1386.8400000003
  20
 1052.7800000000
  11
 1386.8400000003
  21
 1087.3400000000
  72
1
  10
 1386.8400000003
  20
 1087.3400000000
  11
 1409.8800000003
  21
 1087.3400000000
  97
1
 330

  92
16
  93
4
  72
2
  10
 1409.8800000003
  20
 1072.9400000000
  40
 2.8800000000000
  50
 270.00000000000
  51
 90.000000000000
  73
1
  72
1
  10
 1409.8800000003
  20
 1075.8200000000
  11
 1398.3600000003
  21
 1075.8200000000
  72
1
  10
 1398.3600000003
  20
 1075.8200000000
  11
 1398.3600000003
  21
 1070.0600000000
  72
1
  10
 1398.3600000003
  20
 1070.0600000000
  11
 1409.8800000003
  21
 1070.0600000000
  97
1
 330

  75
0
  76
1
  98
1
  10
0.0
  20
0.0
   0
HATCH
   5
30D
 100
AcDbEntity
   8
0
  62
1
 100
AcDbHatch
  10
0.0
  20
0.0
  30
0.0
 210
0.0
 220
0.0
 230
 1.0000000000000
   2
SOLID
  70
1
  71
1
  91
1
  92
1
  93
4
  72
1
  10
 1438.6800000003
  20
 1087.3400000000
  11
 1455.9600000003
  21
 1087.3400000000
  72
1
  10
 1455.9600000003
  20
 1087.3400000000
  11
 1432.9200000003
  21
 1052.7800000000
  72
1
  10
 1432.9200000003
  20
 1052.7800000000
  11
 1415.6400000003
  21
 1052.7800000000
  72
1
  10
 1415.6400000003
  20
 1052.7800000000
  11
 1438.6800000003
  21
 1087.3400000000
  97
1
 330

  75
0
  76
1
  98
1
  10
0.0
  20
0.0
   0
HATCH
   5
30E
 100
AcDbEntity
   8
0
  62
1
 100
AcDbHatch
  10
0.0
  20
0.0
  30
0.0
 210
0.0
 220
0.0
 230
 1.0000000000000
   2
SOLID
  70
1
  71
1
  91
1
  92
1
  93
3
  72
1
  10
 1437.5351056329
  20
 1052.7800000000
  11
 1452.1200000003
  21
 1074.6573415511
  72
1
  10
 1452.1200000003
  20
 1074.6573415511
  11
 1452.1200000003
  21
 1052.7800000000
  72
1
  10
 1452.1200000003
  20
 1052.7800000000
  11
 1437.5351056329
  21
 1052.7800000000
  97
1
 330

  75
0
  76
1
  98
1
  10
0.0
  20
0.0
   0
HATCH
   5
30F
 100
AcDbEntity
   8
0
  62
1
 100
AcDbHatch
  10
0.0
  20
0.0
  30
0.0
 210
0.0
 220
0.0
 230
 1.0000000000000
   2
SOLID
  70
1
  71
1
  91
1
  92
1
  93
22
  72
1
  10
 1519.3200000003
  20
 1064.3000000000
  11
 1542.3600000003
  21
 1064.3000000000
  72
1
  10
 1542.3600000003
  20
 1064.3000000000
  11
 1542.3600000003
  21
 1052.7800000000
  72
1
  10
 1542.3600000003
  20
 1052.7800000000
  11
 1507.8000000003
  21
 1052.7800000000
  72
1
  10
 1507.8000000003
  20
 1052.7800000000
  11
 1507.8000000003
  21
 1075.8200000000
  72
1
  10
 1507.8000000003
  20
 1075.8200000000
  11
 1496.2800000003
  21
 1075.8200000000
  72
1
  10
 1496.2800000003
  20
 1075.8200000000
  11
 1496.2800000003
  21
 1052.7800000000
  72
1
  10
 1496.2800000003
  20
 1052.7800000000
  11
 1455.9600000003
  21
 1052.7800000000
  72
1
  10
 1455.9600000003
  20
 1052.7800000000
  11
 1455.9600000003
  21
 1087.3400000000
  72
1
  10
 1455.9600000003
  20
 1087.3400000000
  11
 1467.4800000003
  21
 1087.3400000000
  72
1
  10
 1467.4800000003
  20
 1087.3400000000
  11
 1467.4800000003
  21
 1064.3000000000
  72
1
  10
 1467.4800000003
  20
 1064.3000000000
  11
 1484.7600000003
  21
 1064.3000000000
  72
1
  10
 1484.7600000003
  20
 1064.3000000000
  11
 1484.7600000003
  21
 1075.8200000000
  72
1
  10
 1484.7600000003
  20
 1075.8200000000
  11
 1473.2400000003
  21
 1075.8200000000
  72
1
  10
 1473.2400000003
  20
 1075.8200000000
  11
 1473.2400000003
  21
 1087.3400000000
  72
1
  10
 1473.2400000003
  20
 1087.3400000000
  11
 1542.3600000003
  21
 1087.3400000000
  72
1
  10
 1542.3600000003
  20
 1087.3400000000
  11
 1542.3600000003
  21
 1075.8200000000
  72
1
  10
 1542.3600000003
  20
 1075.8200000000
  11
 1519.3200000003
  21
 1075.8200000000
  72
1
  10
 1519.3200000003
  20
 1075.8200000000
  11
 1519.3200000003
  21
 1072.9400000000
  72
1
  10
 1519.3200000003
  20
 1072.9400000000
  11
 1539.4800000003
  21
 1072.9400000000
  72
1
  10
 1539.4800000003
  20
 1072.9400000000
  11
 1539.4800000003
  21
 1067.1800000000
  72
1
  10
 1539.4800000003
  20
 1067.1800000000
  11
 1519.3200000003
  21
 1067.1800000000
  72
1
  10
 1519.3200000003
  20
 1067.1800000000
  11
 1519.3200000003
  21
 1064.3000000000
  97
1
 330

  75
0
  76
1
  98
1
  10
0.0
  20
0.0
   0
HATCH
   5
310
 100
AcDbEntity
   8
0
  62
1
 100
AcDbHatch
  10
0.0
  20
0.0
  30
0.0
 210
0.0
 220
0.0
 230
 1.0000000000000
   2
SOLID
  70
1
  71
1
  91
1
  92
1
  93
8
  72
1
  10
 1559.6400000003
  20
 1087.3400000000
  11
 1576.9200000003
  21
 1087.3400000000
  72
1
  10
 1576.9200000003
  20
 1087.3400000000
  11
 1576.9200000003
  21
 1075.8200000000
  72
1
  10
 1576.9200000003
  20
 1075.8200000000
  11
 1559.6400000003
  21
 1075.8200000000
  72
2
  10
 1559.6400000003
  20
 1070.0600000000
  40
 5.7600000000000
  50
 90.000000000000
  51
 270.00000000000
  73
1
  72
1
  10
 1559.6400000003
  20
 1064.3000000000
  11
 1576.9200000003
  21
 1064.3000000000
  72
1
  10
 1576.9200000003
  20
 1064.3000000000
  11
 1576.9200000003
  21
 1052.7800000000
  72
1
  10
 1576.9200000003
  20
 1052.7800000000
  11
 1559.6400000003
  21
 1052.7800000000
  72
2
  10
 1559.6400000003
  20
 1070.0600000000
  40
 17.280000000000
  50
 90.000000000000
  51
 270.00000000000
  73
0
  97
1
 330

  75
0
  76
1
  98
1
  10
0.0
  20
0.0
   0
LINE
   5
311
 100
AcDbEntity
   8
LEVEL001
 370
50
 100
AcDbLine
   6
CONTINUOUS
  62
4
  10
 1268.0000000001
  20
 1140.0000000000
  30
0.0
  11
 1268.0000000001
  21
 48.000000000020
  31
0.0
   0
LINE
   5
312
 100
AcDbEntity
   8
LEVEL001
 370
50
 100
AcDbLine
   6
CONTINUOUS
  62
4
  10
 1268.0000000001
  20
 1140.0000000000
  30
0.0
  11
 1268.0000000001
  21
 48.000000000009
  31
0.0
   0
LINE
   5
313
 100
AcDbEntity
   8
LEVEL001
 370
50
 100
AcDbLine
   6
CONTINUOUS
  62
4
  10
 1618.0000000001
  20
 48.000000000009
  30
0.0
  11
 1618.0000000001
  21
 1140.0000000000
  31
0.0
   0
LINE
   5
314
 100
AcDbEntity
   8
LEVEL001
 370
50
 100
AcDbLine
   6
CONTINUOUS
  62
4
  10
 1618.0000000001
  20
 1140.0000000000
  30
0.0
  11
 62.000000000102
  21
 1140.0000000000
  31
0.0
   0
LINE
   5
315
 100
AcDbEntity
   8
LEVEL001
 370
50
 100
AcDbLine
   6
CONTINUOUS
  62
4
  10
 62.000000000102
  20
 1140.0000000000
  30
0.0
  11
 62.000000000102
  21
 48.000000000020
  31
0.0
   0
LINE
   5
316
 100
AcDbEntity
   8
LEVEL001
 370
50
 100
AcDbLine
   6
CONTINUOUS
  62
4
  10
 62.000000000102
  20
 48.000000000020
  30
0.0
  11
 1618.0000000001
  21
 48.000000000020
  31
0.0
   0
MTEXT
   5
318
 100
AcDbEntity
   8
LEVEL001
 370
20
  62
7
 100
AcDbMText
  10
 1386.8400000003
  20
 1093.1000000000
  30
0.0
  40
 12.000000000000
  41
0.0
  71
7
  72
1
   1
\T1.000000;ケージーパルテック株式会社
   7
GMM001
  44
 0.79999984000003
   0
MTEXT
   5
31A
 100
AcDbEntity
   8
LEVEL001
 370
15
  62
8
 100
AcDbMText
  10
 1499.2000000001
  20
 194.66666666668
  30
0.0
  40
 11.200000000000
  41
0.0
  71
5
  72
1
   1
\T1.000000;作成日付：
   7
GMM002
  44
 0.79999984000003
   0
MTEXT
   5
31C
 100
AcDbEntity
   8
LEVEL001
 370
15
  62
8
 100
AcDbMText
  10
 1499.2000000001
  20
 168.00000000001
  30
0.0
  40
 11.200000000000
  41
0.0
  71
5
  72
1
   1
\T1.000000;変更日付：
   7
GMM002
  44
 0.79999984000003
   0
MTEXT
   5
31E
 100
AcDbEntity
   8
LEVEL001
 370
15
  62
8
 100
AcDbMText
  10
 1443.0000000001
  20
 248.00000000001
  30
0.0
  40
 15.000000000000
  41
0.0
  71
5
  72
1
   1
\T1.000000;三面図
   7
GMM002
  44
 0.79999984000003
   0
MTEXT
   5
320
 100
AcDbEntity
   8
LEVEL001
 370
15
  62
8
 100
AcDbMText
  10
 1276.7858875373
  20
 312.89545107619
  30
0.0
  40
 12.000000000000
  41
0.0
  71
7
  72
1
   1
\T1.000000;※本製品は予告無しに変更する事があります。
   7
GMM002
  44
 0.79999984000003
   0
LINE
   5
321
 100
AcDbEntity
   8
0
 370
15
 100
AcDbLine
   6
DOT
  62
2
  10
 1680.0000000000
  20
 1188.0000000000
  30
0.0
  11
0.0
  21
 1188.0000000000
  31
0.0
   0
LINE
   5
322
 100
AcDbEntity
   8
0
 370
15
 100
AcDbLine
   6
DOT
  62
2
  10
0.0
  20
0.0
  30
0.0
  11
 1680.0000000000
  21
0.0
  31
0.0
   0
LINE
   5
323
 100
AcDbEntity
   8
0
 370
15
 100
AcDbLine
   6
DOT
  62
2
  10
0.0
  20
 1188.0000000000
  30
0.0
  11
0.0
  21
0.0
  31
0.0
   0
MTEXT
   5
325
 100
AcDbEntity
   8
LEVEL001
 370
15
  62
8
 100
AcDbMText
  10
 1293.2000000001
  20
 1012.0000000000
  30
0.0
  40
 12.000000000000
  41
0.0
  71
5
  72
1
   1
\T1.000000;商品名：
   7
GMM001
  44
 0.79999984000003
   0
MTEXT
   5
327
 100
AcDbEntity
   8
LEVEL001
 370
15
  62
8
 100
AcDbMText
  10
 1287.2000000001
  20
 932.00000000001
  30
0.0
  40
 12.000000000000
  41
0.0
  71
5
  72
1
   1
\T1.000000;形式：
   7
GMM001
  44
 0.79999984000003
   0
MTEXT
   5
329
 100
AcDbEntity
   8
LEVEL001
 370
15
  62
8
 100
AcDbMText
  10
 1287.2000000001
  20
 852.00000000001
  30
0.0
  40
 12.000000000000
  41
0.0
  71
5
  72
1
   1
\T1.000000;仕様：
   7
GMM001
  44
 0.79999984000003
   0
MTEXT
   5
32B
 100
AcDbEntity
   8
LEVEL001
 370
15
  62
8
 100
AcDbMText
  10
 1299.2000000001
  20
 273.00000000001
  30
0.0
  40
 12.000000000000
  41
0.0
  71
5
  72
1
   1
\T1.000000;図面名称：
   7
GMM001
  44
 0.79999984000003
   0
MTEXT
   5
32D
 100
AcDbEntity
   8
LEVEL001
 370
15
  62
8
 100
AcDbMText
  10
 1287.2000000001
  20
 193.00000000001
  30
0.0
  40
 12.000000000000
  41
0.0
  71
5
  72
1
   1
\T1.000000;縮尺：
   7
GMM001
  44
 0.79999984000003
   0
MTEXT
   5
32F
 100
AcDbEntity
   8
LEVEL001
 370
15
  62
8
 100
AcDbMText
  10
 1305.2000000001
  20
 114.88614091451
  30
0.0
  40
 12.000000000000
  41
0.0
  71
5
  72
1
   1
\T1.000000;用紙サイズ：
   7
GMM001
  44
 0.79999984000003
   0
MTEXT
   5
331
 100
AcDbEntity
   8
LEVEL001
 370
15
  62
8
 100
AcDbMText
  10
 1505.2000000001
  20
 113.00000000001
  30
0.0
  40
 12.000000000000
  41
0.0
  71
5
  72
1
   1
\T1.000000;ファイル名：
   7
GMM001
  44
 0.79999984000003
   0
MTEXT
   5
333
 100
AcDbEntity
   8
LEVEL001
 370
15
  62
8
 100
AcDbMText
  10
 1335.0000000001
  20
 978.00000000001
  30
0.0
  40
 18.000000000000
  41
0.0
  71
7
  72
1
   1
\T1.000000;手摺金具　Ｌ型　Ｐタイプ
   7
GMM001
  44
 0.79999984000003
   0
MTEXT
   5
335
 100
AcDbEntity
   8
LEVEL001
 370
15
  62
8
 100
AcDbMText
  10
 1368.0000000001
  20
 168.00000000001
  30
0.0
  40
 15.000000000000
  41
0.0
  71
5
  72
1
   1
\T1.000000;Ｓ＝１：４
   7
GMM001
  44
 0.79999984000003
   0
MTEXT
   5
337
 100
AcDbEntity
   8
LEVEL001
 370
15
  62
8
 100
AcDbMText
  10
 1368.0000000001
  20
 88.000000000009
  30
0.0
  40
 15.000000000000
  41
0.0
  71
5
  72
1
   1
\T1.000000;Ａ３
   7
GMM001
  44
 0.79999984000003
   0
MTEXT
   5
339
 100
AcDbEntity
   8
LEVEL001
 370
15
  62
8
 100
AcDbMText
  10
 1573.2000000001
  20
 141.33333333334
  30
0.0
  40
 8.0000000000000
  41
0.0
  71
5
  72
1
   1
\T1.000000;平成　　年　　月　　日
   7
GMM001
  44
 0.79999984000003
   0
MTEXT
   5
33B
 100
AcDbEntity
   8
LEVEL001
 370
15
  62
8
 100
AcDbMText
  10
 1573.2000000001
  20
 168.00000000001
  30
0.0
  40
 8.0000000000000
  41
0.0
  71
5
  72
1
   1
\T1.000000;平成　　年　　月　　日
   7
GMM001
  44
 0.79999984000003
   0
LINE
   5
33C
 100
AcDbEntity
   8
0
 370
15
 100
AcDbLine
   6
DOT
  62
2
  10
 1680.0000000000
  20
 1188.0000000000
  30
0.0
  11
 1680.0000000000
  21
0.0
  31
0.0
   0
MTEXT
   5
33E
 100
AcDbEntity
   8
0
 370
15
  62
8
 100
AcDbMText
  10
-418.75647742605
  20
 1132.5945415873
  30
0.0
  40
 100.00000000000
  41
0.0
  71
4
  72
1
   1
\T1.000000;ＰＩＡ
   7
GMM001
  44
 0.79999984000003
   0
LINE
   5
33F
 100
AcDbEntity
   8
0
 370
40
 100
AcDbLine
   6
CONTINUOUS
  62
3
  10
 62.000000000102
  20
 596.25076754632
  30
0.0
  11
 1268.0000000001
  21
 596.25076754632
  31
0.0
   0
MTEXT
   5
341
 100
AcDbEntity
   8
LEVEL001
 370
15
  62
8
 100
AcDbMText
  10
 1292.5000000001
  20
 900.00000000001
  30
0.0
  40
 14.000000000000
  41
0.0
  71
7
  72
1
   1
\W1.000000;\T1.000000;平受あそびアンカー座\W0.500000;\T1.000000; \W1.000000;\T1.000000;ＰＩＡ\W0.500000;\T1.000000;(\W1.000000;\T1.000000;１６軸\W0.500000;\T1.000000;)/(\W1.000000;\T1.000000;１３軸）
   7
GMM001
  44
 0.79999984000003
   0
MTEXT
   5
343
 100
AcDbEntity
   8
LEVEL001
 370
15
  62
8
 100
AcDbMText
  10
 1543.0000000001
  20
 88.000000000010
  30
0.0
  40
 10.000000000000
  41
0.0
  71
2
  72
1
   1
{\W1.000000;\T1.000000;手摺金具－ＰＩＡ}\P{\W1.000000;\T1.000000;　　　　　\W0.500000;\T1.000000;(\W1.000000;\T1.000000;１６軸\W0.500000;\T1.000000;)(\W1.000000;\T1.000000;１３軸\W0.500000;\T1.000000;)}
   7
GMM001
  44
 0.79999984000003
   0
MTEXT
   5
345
 100
AcDbEntity
   8
LEVEL001
 370
15
  62
8
 100
AcDbMText
  10
 63.200000000103
  20
 1122.2507675463
  30
0.0
  40
 12.000000000000
  41
0.0
  71
4
  72
1
   1
\T1.000000;　ＰＩＡ２０（１６軸）
   7
GMM001
  44
 0.79999984000003
   0
MTEXT
   5
347
 100
AcDbEntity
   8
LEVEL001
 370
15
  62
8
 100
AcDbMText
  10
 666.20000000010
  20
 1122.2507675463
  30
0.0
  40
 12.000000000000
  41
0.0
  71
4
  72
1
   1
\T1.000000;　ＰＩＡ２５（１６軸）
   7
GMM001
  44
 0.79999984000003
   0
MTEXT
   5
349
 100
AcDbEntity
   8
LEVEL001
 370
15
  62
8
 100
AcDbMText
  10
 63.200000000103
  20
 576.25076754632
  30
0.0
  40
 12.000000000000
  41
0.0
  71
4
  72
1
   1
\T1.000000;　ＰＩＡ２０（１３軸）
   7
GMM001
  44
 0.79999984000003
   0
MTEXT
   5
34B
 100
AcDbEntity
   8
LEVEL001
 370
15
  62
8
 100
AcDbMText
  10
 666.20000000010
  20
 576.25076754632
  30
0.0
  40
 12.000000000000
  41
0.0
  71
4
  72
1
   1
\T1.000000;　ＰＩＡ２５（１３軸）
   7
GMM001
  44
 0.79999984000003
   0
LINE
   5
34C
 100
AcDbEntity
   8
LEVEL001
 370
15
 100
AcDbLine
   6
DASHDOT
  62
8
  10
 421.74211419453
  20
 395.90765407381
  30
0.0
  11
 445.83089910129
  21
 395.90765407381
  31
0.0
   0
CIRCLE
   5
34D
 100
AcDbEntity
   8
LEVEL001
 370
15
 100
AcDbCircle
   6
HIDDEN
  62
2
  10
 433.78650664791
  20
 395.90765407381
  30
0.0
  40
 6.5000000000000
   0
LINE
   5
34E
 100
AcDbEntity
   8
LEVEL001
 370
20
 100
AcDbLine
   6
CONTINUOUS
  62
7
  10
 440.28650664791
  20
 239.45838762098
  30
0.0
  11
 440.28650664791
  21
 274.45838762098
  31
0.0
   0
ARC
   5
34F
 100
AcDbEntity
   8
LEVEL001
 370
20
   6
CONTINUOUS
  62
7
 100
AcDbCircle
  10
 433.78650664791
  20
 239.45838762098
  30
0.0
  40
 6.5000000000000
 100
AcDbArc
  50
 180.00000000000
  51
0.0
   0
LINE
   5
350
 100
AcDbEntity
   8
LEVEL001
 370
20
 100
AcDbLine
   6
CONTINUOUS
  62
7
  10
 427.28650664791
  20
 274.45838762098
  30
0.0
  11
 427.28650664791
  21
 239.45838762098
  31
0.0
   0
ARC
   5
351
 100
AcDbEntity
   8
LEVEL001
 370
20
   6
CONTINUOUS
  62
7
 100
AcDbCircle
  10
 433.78650664791
  20
 239.45838762098
  30
0.0
  40
 12.000000000000
 100
AcDbArc
  50
 122.79716829582
  51
 57.202831704176
   0
ARC
   5
352
 100
AcDbEntity
   8
LEVEL001
 370
20
   6
CONTINUOUS
  62
7
 100
AcDbCircle
  10
 433.78650664791
  20
 239.45838762098
  30
0.0
  40
 13.000000000000
 100
AcDbArc
  50
 120.00000000000
  51
 60.000000000000
   0
LINE
   5
353
 100
AcDbEntity
   8
LEVEL001
 370
15
 100
AcDbLine
   6
DASHDOT
  62
8
  10
 415.26716782973
  20
 239.45838762098
  30
0.0
  11
 452.30584546610
  21
 239.45838762098
  31
0.0
   0
DIMENSION
   5
354
 100
AcDbEntity
   8
0
 370
15
   6
CONTINUOUS
  62
8
 100
AcDbDimension
   2
*D1
  10
 446.78650664791
  20
 187.25083763887
  30
0.0
  11
 433.78650664791
  21
 187.25083763887
  31
0.0
  70
0
   3
GMM001
 100
AcDbAlignedDimension
  13
 420.78650664791
  23
 239.45838762098
  33
0.0
  14
 446.78650664791
  24
 239.45838762098
  34
0.0
 100
AcDbRotatedDimension
   0
DIMENSION
   5
355
 100
AcDbEntity
   8
0
 370
15
   6
CONTINUOUS
  62
8
 100
AcDbDimension
   2
*D2
  10
 440.28650664791
  20
 207.90915008669
  30
0.0
  11
 456.79364815691
  21
 207.90915008669
  31
0.0
  70
128
   3
GMM002
 100
AcDbAlignedDimension
  13
 427.28650664791
  23
 239.45838762098
  33
0.0
  14
 440.28650664791
  24
 239.45838762098
  34
0.0
 100
AcDbRotatedDimension
   0
LINE
   5
356
 100
AcDbEntity
   8
0
 370
20
 100
AcDbLine
   6
CONTINUOUS
  62
7
  10
 427.28650664791
  20
 274.45838762098
  30
0.0
  11
 440.28650664791
  21
 274.45838762098
  31
0.0
   0
LINE
   5
357
 100
AcDbEntity
   8
LEVEL001
 370
15
 100
AcDbLine
   6
DASHDOT
  62
8
  10
 319.83590180057
  20
 239.45838762098
  30
0.0
  11
 267.49169749793
  21
 239.45838762098
  31
0.0
   0
ARC
   5
358
 100
AcDbEntity
   8
LEVEL001
 370
15
   6
DASHDOT
  62
8
 100
AcDbCircle
  10
 319.83590180057
  20
 253.95838762098
  30
0.0
  40
 14.500000000000
 100
AcDbArc
  50
 270.00000000000
  51
0.0
   0
DIMENSION
   5
359
 100
AcDbEntity
   8
0
 370
15
   6
CONTINUOUS
  62
8
 100
AcDbDimension
   2
*D3
  10
 370.97994162412
  20
 274.45838762098
  30
0.0
  11
 370.97994162412
  21
 256.95838762098
  31
0.0
  70
0
   3
GMM001
 100
AcDbAlignedDimension
  13
 318.33590180056
  23
 239.45838762098
  33
0.0
  14
 342.33590180057
  24
 274.45838762098
  34
0.0
  50
 90.000000000000
 100
AcDbRotatedDimension
   0
ARC
   5
35A
 100
AcDbEntity
   8
LEVEL001
 370
20
   6
CONTINUOUS
  62
7
 100
AcDbCircle
  10
 319.83590180057
  20
 253.95838762098
  30
0.0
  40
 21.000000000000
 100
AcDbArc
  50
 270.00000000000
  51
0.0
   0
ARC
   5
35B
 100
AcDbEntity
   8
LEVEL001
 370
20
   6
CONTINUOUS
  62
7
 100
AcDbCircle
  10
 319.83590180057
  20
 253.95838762098
  30
0.0
  40
 8.0000000000000
 100
AcDbArc
  50
 270.00000000000
  51
0.0
   0
LINE
   5
35C
 100
AcDbEntity
   8
LEVEL001
 370
20
 100
AcDbLine
   6
CONTINUOUS
  62
7
  10
 319.83590180057
  20
 245.95838762098
  30
0.0
  11
 279.33590180057
  21
 245.95838762098
  31
0.0
   0
LINE
   5
35D
 100
AcDbEntity
   8
LEVEL001
 370
20
 100
AcDbLine
   6
CONTINUOUS
  62
7
  10
 279.33590180057
  20
 232.95838762098
  30
0.0
  11
 319.83590180057
  21
 232.95838762098
  31
0.0
   0
LINE
   5
35E
 100
AcDbEntity
   8
LEVEL001
 370
20
 100
AcDbLine
   6
CONTINUOUS
  62
7
  10
 279.33590180057
  20
 245.95838762098
  30
0.0
  11
 279.33590180057
  21
 232.95838762098
  31
0.0
   0
LINE
   5
35F
 100
AcDbEntity
   8
LEVEL001
 370
20
 100
AcDbLine
   6
CONTINUOUS
  62
7
  10
 340.83590180057
  20
 253.95838762098
  30
0.0
  11
 340.83590180057
  21
 274.45838762098
  31
0.0
   0
LINE
   5
360
 100
AcDbEntity
   8
LEVEL001
 370
20
 100
AcDbLine
   6
CONTINUOUS
  62
7
  10
 327.83590180057
  20
 274.45838762098
  30
0.0
  11
 327.83590180057
  21
 253.95838762098
  31
0.0
   0
LINE
   5
361
 100
AcDbEntity
   8
LEVEL001
 370
15
 100
AcDbLine
   6
HIDDEN
  62
2
  10
 280.53590180057
  20
 235.15838762098
  30
0.0
  11
 310.33590180057
  21
 235.15838762098
  31
0.0
   0
LINE
   5
362
 100
AcDbEntity
   8
LEVEL001
 370
15
 100
AcDbLine
   6
HIDDEN
  62
2
  10
 310.33590180057
  20
 235.15838762098
  30
0.0
  11
 312.33590180057
  21
 239.45838762098
  31
0.0
   0
LINE
   5
363
 100
AcDbEntity
   8
LEVEL001
 370
15
 100
AcDbLine
   6
HIDDEN
  62
2
  10
 305.45590180057
  20
 235.15838762098
  30
0.0
  11
 304.33590180057
  21
 234.45838762098
  31
0.0
   0
LINE
   5
364
 100
AcDbEntity
   8
LEVEL001
 370
15
 100
AcDbLine
   6
HIDDEN
  62
2
  10
 304.33590180057
  20
 234.45838762098
  30
0.0
  11
 279.83590180057
  21
 234.45838762098
  31
0.0
   0
LINE
   5
365
 100
AcDbEntity
   8
LEVEL001
 370
15
 100
AcDbLine
   6
HIDDEN
  62
2
  10
 310.33590180057
  20
 243.75838762098
  30
0.0
  11
 310.33590180057
  21
 235.15838762098
  31
0.0
   0
LINE
   5
366
 100
AcDbEntity
   8
LEVEL001
 370
15
 100
AcDbLine
   6
HIDDEN
  62
2
  10
 304.33590180057
  20
 244.45838762098
  30
0.0
  11
 304.33590180057
  21
 234.45838762098
  31
0.0
   0
LINE
   5
367
 100
AcDbEntity
   8
LEVEL001
 370
15
 100
AcDbLine
   6
HIDDEN
  62
2
  10
 280.53590180057
  20
 243.75838762098
  30
0.0
  11
 280.53590180057
  21
 235.15838762098
  31
0.0
   0
LINE
   5
368
 100
AcDbEntity
   8
LEVEL001
 370
15
 100
AcDbLine
   6
HIDDEN
  62
2
  10
 280.53590180057
  20
 235.15838762098
  30
0.0
  11
 279.33590180057
  21
 233.95838762098
  31
0.0
   0
LINE
   5
369
 100
AcDbEntity
   8
LEVEL001
 370
15
 100
AcDbLine
   6
HIDDEN
  62
2
  10
 305.45590180057
  20
 243.75838762098
  30
0.0
  11
 305.45590180057
  21
 235.15838762098
  31
0.0
   0
LINE
   5
36A
 100
AcDbEntity
   8
LEVEL001
 370
15
 100
AcDbLine
   6
HIDDEN
  62
2
  10
 310.33590180057
  20
 243.75838762098
  30
0.0
  11
 280.53590180057
  21
 243.75838762098
  31
0.0
   0
LINE
   5
36B
 100
AcDbEntity
   8
LEVEL001
 370
15
 100
AcDbLine
   6
HIDDEN
  62
2
  10
 279.83590180057
  20
 244.45838762098
  30
0.0
  11
 304.33590180057
  21
 244.45838762098
  31
0.0
   0
LINE
   5
36C
 100
AcDbEntity
   8
LEVEL001
 370
15
 100
AcDbLine
   6
HIDDEN
  62
2
  10
 280.53590180057
  20
 243.75838762098
  30
0.0
  11
 279.33590180057
  21
 244.95838762098
  31
0.0
   0
LINE
   5
36D
 100
AcDbEntity
   8
LEVEL001
 370
15
 100
AcDbLine
   6
HIDDEN
  62
2
  10
 312.33590180057
  20
 239.45838762098
  30
0.0
  11
 310.33590180057
  21
 243.75838762098
  31
0.0
   0
LINE
   5
36E
 100
AcDbEntity
   8
LEVEL001
 370
15
 100
AcDbLine
   6
HIDDEN
  62
2
  10
 304.33590180057
  20
 244.45838762098
  30
0.0
  11
 305.45590180057
  21
 243.75838762098
  31
0.0
   0
LEADER
   5
36F
 100
AcDbEntity
   8
0
 370
15
   6
CONTINUOUS
  62
8
 100
AcDbLeader
   3
GMM003
  73
0
  74
1
  75
0
  40
 10.000000000000
  41
 26.000000000000
  76
2
  10
 295.46810100076
  20
 244.45838762098
  30
0.0
  10
 279.73816783148
  20
 284.74159196646
  30
0.0
  77
8
 340
370
 213
0.0
 223
-4.0000000000000
 233
0.0
   0
MTEXT
   5
370
 102
{ACAD_REACTORS
 330
36F
 102
}
 100
AcDbEntity
   8
0
 370
15
  62
8
 100
AcDbMText
  10
 253.73816783148
  20
 288.74159196646
  30
0.0
  40
 10.000000000000
  41
0.0
  71
7
  72
1
   1
\A1;Ｍ１０
   7
GMM001
   0
LINE
   5
371
 100
AcDbEntity
   8
LEVEL001
 370
20
 100
AcDbLine
   6
CONTINUOUS
  62
7
  10
 281.33590180057
  20
 252.45838762098
  30
0.0
  11
 282.33590180057
  21
 251.45838762098
  31
0.0
   0
LINE
   5
372
 100
AcDbEntity
   8
LEVEL001
 370
20
 100
AcDbLine
   6
CONTINUOUS
  62
7
  10
 282.33590180057
  20
 246.55838762098
  30
0.0
  11
 282.33590180057
  21
 251.45838762098
  31
0.0
   0
LINE
   5
373
 100
AcDbEntity
   8
LEVEL001
 370
20
 100
AcDbLine
   6
CONTINUOUS
  62
7
  10
 281.33590180057
  20
 252.45838762098
  30
0.0
  11
 279.33590180057
  21
 252.45838762098
  31
0.0
   0
LINE
   5
374
 100
AcDbEntity
   8
LEVEL001
 370
20
 100
AcDbLine
   6
CONTINUOUS
  62
7
  10
 279.33590180057
  20
 252.45838762098
  30
0.0
  11
 279.33590180057
  21
 226.45838762098
  31
0.0
   0
LINE
   5
375
 100
AcDbEntity
   8
LEVEL001
 370
20
 100
AcDbLine
   6
CONTINUOUS
  62
7
  10
 281.33590180057
  20
 226.45838762098
  30
0.0
  11
 281.33590180057
  21
 252.45838762098
  31
0.0
   0
LINE
   5
376
 100
AcDbEntity
   8
LEVEL001
 370
20
 100
AcDbLine
   6
CONTINUOUS
  62
7
  10
 279.33590180057
  20
 226.45838762098
  30
0.0
  11
 281.33590180057
  21
 226.45838762098
  31
0.0
   0
LINE
   5
377
 100
AcDbEntity
   8
LEVEL001
 370
20
 100
AcDbLine
   6
CONTINUOUS
  62
7
  10
 282.33590180057
  20
 227.45838762098
  30
0.0
  11
 282.33590180057
  21
 246.55838762098
  31
0.0
   0
LINE
   5
378
 100
AcDbEntity
   8
LEVEL001
 370
20
 100
AcDbLine
   6
CONTINUOUS
  62
7
  10
 281.33590180057
  20
 226.45838762098
  30
0.0
  11
 282.33590180057
  21
 227.45838762098
  31
0.0
   0
DIMENSION
   5
379
 100
AcDbEntity
   8
0
 370
15
   6
CONTINUOUS
  62
8
 100
AcDbDimension
   2
*D5
  10
 264.96091593034
  20
 226.45838762098
  30
0.0
  11
 264.96091593034
  21
 239.45838762098
  31
0.0
  70
0
   3
GMM001
 100
AcDbAlignedDimension
  13
 279.33590180057
  23
 252.45838762098
  33
0.0
  14
 279.33590180057
  24
 226.45838762098
  34
0.0
  50
 270.00000000000
 100
AcDbRotatedDimension
   0
DIMENSION
   5
37A
 100
AcDbEntity
   8
0
 370
15
   6
CONTINUOUS
  62
8
 100
AcDbDimension
   2
*D6
  10
 334.33590180057
  20
 187.25083763887
  30
0.0
  11
 306.83590180057
  21
 187.25083763887
  31
0.0
  70
0
   1
\A1;L
   3
GMM004
 100
AcDbAlignedDimension
  13
 279.33590180057
  23
 218.45838762098
  33
0.0
  14
 334.33590180057
  24
 253.95838762098
  34
0.0
 100
AcDbRotatedDimension
   0
DIMENSION
   5
37B
 100
AcDbEntity
   8
0
 370
15
   6
CONTINUOUS
  62
8
 100
AcDbDimension
   2
*D7
  10
 282.33590180057
  20
 207.90915008669
  30
0.0
  11
 272.32896568437
  21
 207.90915008669
  31
0.0
  70
128
   3
GMM005
 100
AcDbAlignedDimension
  13
 279.33590180057
  23
 226.45838762098
  33
0.0
  14
 282.33590180057
  24
 227.45838762098
  34
0.0
 100
AcDbRotatedDimension
   0
LINE
   5
37C
 100
AcDbEntity
   8
0
 370
20
 100
AcDbLine
   6
CONTINUOUS
  62
7
  10
 327.83590180057
  20
 274.45838762098
  30
0.0
  11
 340.83590180057
  21
 274.45838762098
  31
0.0
   0
LINE
   5
37D
 100
AcDbEntity
   8
LEVEL001
 370
15
 100
AcDbLine
   6
DASHDOT
  62
8
  10
 1025.9875501077
  20
 395.90765407369
  30
0.0
  11
 1050.0763350144
  21
 395.90765407369
  31
0.0
   0
CIRCLE
   5
37E
 100
AcDbEntity
   8
LEVEL001
 370
15
 100
AcDbCircle
   6
HIDDEN
  62
2
  10
 1038.0319425610
  20
 395.90765407369
  30
0.0
  40
 6.5000000000000
   0
LINE
   5
37F
 100
AcDbEntity
   8
LEVEL001
 370
20
 100
AcDbLine
   6
CONTINUOUS
  62
7
  10
 1044.5319425610
  20
 239.45838762086
  30
0.0
  11
 1044.5319425610
  21
 274.45838762086
  31
0.0
   0
ARC
   5
380
 100
AcDbEntity
   8
LEVEL001
 370
20
   6
CONTINUOUS
  62
7
 100
AcDbCircle
  10
 1038.0319425610
  20
 239.45838762086
  30
0.0
  40
 6.5000000000000
 100
AcDbArc
  50
 180.00000000000
  51
0.0
   0
LINE
   5
381
 100
AcDbEntity
   8
LEVEL001
 370
20
 100
AcDbLine
   6
CONTINUOUS
  62
7
  10
 1031.5319425610
  20
 274.45838762086
  30
0.0
  11
 1031.5319425610
  21
 239.45838762086
  31
0.0
   0
ARC
   5
382
 100
AcDbEntity
   8
LEVEL001
 370
20
   6
CONTINUOUS
  62
7
 100
AcDbCircle
  10
 1038.0319425610
  20
 239.45838762086
  30
0.0
  40
 12.000000000000
 100
AcDbArc
  50
 122.79716829582
  51
 57.202831704176
   0
ARC
   5
383
 100
AcDbEntity
   8
LEVEL001
 370
20
   6
CONTINUOUS
  62
7
 100
AcDbCircle
  10
 1038.0319425610
  20
 239.45838762086
  30
0.0
  40
 13.000000000000
 100
AcDbArc
  50
 120.00000000000
  51
 60.000000000000
   0
LINE
   5
384
 100
AcDbEntity
   8
LEVEL001
 370
15
 100
AcDbLine
   6
DASHDOT
  62
8
  10
 1019.5126037429
  20
 239.45838762086
  30
0.0
  11
 1056.5512813792
  21
 239.45838762086
  31
0.0
   0
DIMENSION
   5
385
 100
AcDbEntity
   8
0
 370
15
   6
CONTINUOUS
  62
8
 100
AcDbDimension
   2
*D8
  10
 1051.0319425610
  20
 187.25083763875
  30
0.0
  11
 1038.0319425610
  21
 187.25083763875
  31
0.0
  70
0
   3
GMM001
 100
AcDbAlignedDimension
  13
 1025.0319425610
  23
 239.45838762086
  33
0.0
  14
 1051.0319425610
  24
 239.45838762086
  34
0.0
 100
AcDbRotatedDimension
   0
DIMENSION
   5
386
 100
AcDbEntity
   8
0
 370
15
   6
CONTINUOUS
  62
8
 100
AcDbDimension
   2
*D9
  10
 1044.5319425610
  20
 207.90915008657
  30
0.0
  11
 1061.0390840700
  21
 207.90915008657
  31
0.0
  70
128
   3
GMM002
 100
AcDbAlignedDimension
  13
 1031.5319425610
  23
 239.45838762086
  33
0.0
  14
 1044.5319425610
  24
 239.45838762086
  34
0.0
 100
AcDbRotatedDimension
   0
LINE
   5
387
 100
AcDbEntity
   8
0
 370
20
 100
AcDbLine
   6
CONTINUOUS
  62
7
  10
 1031.5319425610
  20
 274.45838762086
  30
0.0
  11
 1044.5319425610
  21
 274.45838762086
  31
0.0
   0
LINE
   5
388
 100
AcDbEntity
   8
LEVEL001
 370
15
 100
AcDbLine
   6
DASHDOT
  62
8
  10
 924.08133771369
  20
 239.45838762086
  30
0.0
  11
 871.73713341105
  21
 239.45838762086
  31
0.0
   0
ARC
   5
389
 100
AcDbEntity
   8
LEVEL001
 370
15
   6
DASHDOT
  62
8
 100
AcDbCircle
  10
 924.08133771369
  20
 253.95838762086
  30
0.0
  40
 14.500000000000
 100
AcDbArc
  50
 270.00000000000
  51
0.0
   0
DIMENSION
   5
38A
 100
AcDbEntity
   8
0
 370
15
   6
CONTINUOUS
  62
8
 100
AcDbDimension
   2
*D10
  10
 975.22537753724
  20
 274.45838762086
  30
0.0
  11
 975.22537753724
  21
 256.95838762086
  31
0.0
  70
0
   3
GMM001
 100
AcDbAlignedDimension
  13
 922.58133771368
  23
 239.45838762086
  33
0.0
  14
 946.58133771369
  24
 274.45838762086
  34
0.0
  50
 90.000000000000
 100
AcDbRotatedDimension
   0
ARC
   5
38B
 100
AcDbEntity
   8
LEVEL001
 370
20
   6
CONTINUOUS
  62
7
 100
AcDbCircle
  10
 924.08133771369
  20
 253.95838762086
  30
0.0
  40
 21.000000000000
 100
AcDbArc
  50
 270.00000000000
  51
0.0
   0
ARC
   5
38C
 100
AcDbEntity
   8
LEVEL001
 370
20
   6
CONTINUOUS
  62
7
 100
AcDbCircle
  10
 924.08133771369
  20
 253.95838762086
  30
0.0
  40
 8.0000000000000
 100
AcDbArc
  50
 270.00000000000
  51
0.0
   0
LINE
   5
38D
 100
AcDbEntity
   8
LEVEL001
 370
20
 100
AcDbLine
   6
CONTINUOUS
  62
7
  10
 924.08133771369
  20
 245.95838762086
  30
0.0
  11
 883.58133771369
  21
 245.95838762086
  31
0.0
   0
LINE
   5
38E
 100
AcDbEntity
   8
LEVEL001
 370
20
 100
AcDbLine
   6
CONTINUOUS
  62
7
  10
 883.58133771369
  20
 232.95838762086
  30
0.0
  11
 924.08133771369
  21
 232.95838762086
  31
0.0
   0
LINE
   5
38F
 100
AcDbEntity
   8
LEVEL001
 370
20
 100
AcDbLine
   6
CONTINUOUS
  62
7
  10
 883.58133771369
  20
 245.95838762086
  30
0.0
  11
 883.58133771369
  21
 232.95838762086
  31
0.0
   0
LINE
   5
390
 100
AcDbEntity
   8
LEVEL001
 370
20
 100
AcDbLine
   6
CONTINUOUS
  62
7
  10
 945.08133771369
  20
 253.95838762086
  30
0.0
  11
 945.08133771369
  21
 274.45838762086
  31
0.0
   0
LINE
   5
391
 100
AcDbEntity
   8
LEVEL001
 370
20
 100
AcDbLine
   6
CONTINUOUS
  62
7
  10
 932.08133771369
  20
 274.45838762086
  30
0.0
  11
 932.08133771369
  21
 253.95838762086
  31
0.0
   0
LINE
   5
392
 100
AcDbEntity
   8
LEVEL001
 370
15
 100
AcDbLine
   6
HIDDEN
  62
2
  10
 884.78133771369
  20
 235.15838762086
  30
0.0
  11
 914.58133771369
  21
 235.15838762086
  31
0.0
   0
LINE
   5
393
 100
AcDbEntity
   8
LEVEL001
 370
15
 100
AcDbLine
   6
HIDDEN
  62
2
  10
 914.58133771369
  20
 235.15838762086
  30
0.0
  11
 916.58133771369
  21
 239.45838762086
  31
0.0
   0
LINE
   5
394
 100
AcDbEntity
   8
LEVEL001
 370
15
 100
AcDbLine
   6
HIDDEN
  62
2
  10
 909.70133771369
  20
 235.15838762086
  30
0.0
  11
 908.58133771369
  21
 234.45838762086
  31
0.0
   0
LINE
   5
395
 100
AcDbEntity
   8
LEVEL001
 370
15
 100
AcDbLine
   6
HIDDEN
  62
2
  10
 908.58133771369
  20
 234.45838762086
  30
0.0
  11
 884.08133771369
  21
 234.45838762086
  31
0.0
   0
LINE
   5
396
 100
AcDbEntity
   8
LEVEL001
 370
15
 100
AcDbLine
   6
HIDDEN
  62
2
  10
 914.58133771369
  20
 243.75838762086
  30
0.0
  11
 914.58133771369
  21
 235.15838762086
  31
0.0
   0
LINE
   5
397
 100
AcDbEntity
   8
LEVEL001
 370
15
 100
AcDbLine
   6
HIDDEN
  62
2
  10
 908.58133771369
  20
 244.45838762086
  30
0.0
  11
 908.58133771369
  21
 234.45838762086
  31
0.0
   0
LINE
   5
398
 100
AcDbEntity
   8
LEVEL001
 370
15
 100
AcDbLine
   6
HIDDEN
  62
2
  10
 884.78133771369
  20
 243.75838762086
  30
0.0
  11
 884.78133771369
  21
 235.15838762086
  31
0.0
   0
LINE
   5
399
 100
AcDbEntity
   8
LEVEL001
 370
15
 100
AcDbLine
   6
HIDDEN
  62
2
  10
 884.78133771369
  20
 235.15838762086
  30
0.0
  11
 883.58133771369
  21
 233.95838762086
  31
0.0
   0
LINE
   5
39A
 100
AcDbEntity
   8
LEVEL001
 370
15
 100
AcDbLine
   6
HIDDEN
  62
2
  10
 909.70133771369
  20
 243.75838762086
  30
0.0
  11
 909.70133771369
  21
 235.15838762086
  31
0.0
   0
LINE
   5
39B
 100
AcDbEntity
   8
LEVEL001
 370
15
 100
AcDbLine
   6
HIDDEN
  62
2
  10
 914.58133771369
  20
 243.75838762086
  30
0.0
  11
 884.78133771369
  21
 243.75838762086
  31
0.0
   0
LINE
   5
39C
 100
AcDbEntity
   8
LEVEL001
 370
15
 100
AcDbLine
   6
HIDDEN
  62
2
  10
 884.08133771369
  20
 244.45838762086
  30
0.0
  11
 908.58133771369
  21
 244.45838762086
  31
0.0
   0
LINE
   5
39D
 100
AcDbEntity
   8
LEVEL001
 370
15
 100
AcDbLine
   6
HIDDEN
  62
2
  10
 884.78133771369
  20
 243.75838762086
  30
0.0
  11
 883.58133771369
  21
 244.95838762086
  31
0.0
   0
LINE
   5
39E
 100
AcDbEntity
   8
LEVEL001
 370
15
 100
AcDbLine
   6
HIDDEN
  62
2
  10
 916.58133771369
  20
 239.45838762086
  30
0.0
  11
 914.58133771369
  21
 243.75838762086
  31
0.0
   0
LINE
   5
39F
 100
AcDbEntity
   8
LEVEL001
 370
15
 100
AcDbLine
   6
HIDDEN
  62
2
  10
 908.58133771369
  20
 244.45838762086
  30
0.0
  11
 909.70133771369
  21
 243.75838762086
  31
0.0
   0
LEADER
   5
3A0
 100
AcDbEntity
   8
0
 370
15
   6
CONTINUOUS
  62
8
 100
AcDbLeader
   3
GMM003
  73
0
  74
1
  75
0
  40
 10.000000000000
  41
 26.000000000000
  76
2
  10
 899.71353691388
  20
 244.45838762086
  30
0.0
  10
 883.98360374460
  20
 284.74159196634
  30
0.0
  77
8
 340
3A1
 213
0.0
 223
-4.0000000000000
 233
0.0
   0
MTEXT
   5
3A1
 102
{ACAD_REACTORS
 330
3A0
 102
}
 100
AcDbEntity
   8
0
 370
15
  62
8
 100
AcDbMText
  10
 857.98360374460
  20
 288.74159196634
  30
0.0
  40
 10.000000000000
  41
0.0
  71
7
  72
1
   1
\A1;Ｍ１０
   7
GMM001
   0
LINE
   5
3A2
 100
AcDbEntity
   8
LEVEL001
 370
20
 100
AcDbLine
   6
CONTINUOUS
  62
7
  10
 885.58133771369
  20
 252.45838762086
  30
0.0
  11
 886.58133771369
  21
 251.45838762086
  31
0.0
   0
LINE
   5
3A3
 100
AcDbEntity
   8
LEVEL001
 370
20
 100
AcDbLine
   6
CONTINUOUS
  62
7
  10
 886.58133771369
  20
 246.55838762086
  30
0.0
  11
 886.58133771369
  21
 251.45838762086
  31
0.0
   0
LINE
   5
3A4
 100
AcDbEntity
   8
LEVEL001
 370
20
 100
AcDbLine
   6
CONTINUOUS
  62
7
  10
 885.58133771369
  20
 252.45838762086
  30
0.0
  11
 883.58133771369
  21
 252.45838762086
  31
0.0
   0
LINE
   5
3A5
 100
AcDbEntity
   8
LEVEL001
 370
20
 100
AcDbLine
   6
CONTINUOUS
  62
7
  10
 883.58133771369
  20
 252.45838762086
  30
0.0
  11
 883.58133771369
  21
 226.45838762086
  31
0.0
   0
LINE
   5
3A6
 100
AcDbEntity
   8
LEVEL001
 370
20
 100
AcDbLine
   6
CONTINUOUS
  62
7
  10
 885.58133771369
  20
 226.45838762086
  30
0.0
  11
 885.58133771369
  21
 252.45838762086
  31
0.0
   0
LINE
   5
3A7
 100
AcDbEntity
   8
LEVEL001
 370
20
 100
AcDbLine
   6
CONTINUOUS
  62
7
  10
 883.58133771369
  20
 226.45838762086
  30
0.0
  11
 885.58133771369
  21
 226.45838762086
  31
0.0
   0
LINE
   5
3A8
 100
AcDbEntity
   8
LEVEL001
 370
20
 100
AcDbLine
   6
CONTINUOUS
  62
7
  10
 886.58133771369
  20
 227.45838762086
  30
0.0
  11
 886.58133771369
  21
 246.55838762086
  31
0.0
   0
LINE
   5
3A9
 100
AcDbEntity
   8
LEVEL001
 370
20
 100
AcDbLine
   6
CONTINUOUS
  62
7
  10
 885.58133771369
  20
 226.45838762086
  30
0.0
  11
 886.58133771369
  21
 227.45838762086
  31
0.0
   0
DIMENSION
   5
3AA
 100
AcDbEntity
   8
0
 370
15
   6
CONTINUOUS
  62
8
 100
AcDbDimension
   2
*D12
  10
 869.20635184346
  20
 226.45838762086
  30
0.0
  11
 869.20635184346
  21
 239.45838762086
  31
0.0
  70
0
   3
GMM001
 100
AcDbAlignedDimension
  13
 883.58133771369
  23
 252.45838762086
  33
0.0
  14
 883.58133771369
  24
 226.45838762086
  34
0.0
  50
 270.00000000000
 100
AcDbRotatedDimension
   0
DIMENSION
   5
3AB
 100
AcDbEntity
   8
0
 370
15
   6
CONTINUOUS
  62
8
 100
AcDbDimension
   2
*D13
  10
 938.58133771369
  20
 187.25083763875
  30
0.0
  11
 911.08133771369
  21
 187.25083763875
  31
0.0
  70
0
   1
\A1;L
   3
GMM004
 100
AcDbAlignedDimension
  13
 883.58133771369
  23
 218.45838762086
  33
0.0
  14
 938.58133771369
  24
 253.95838762086
  34
0.0
 100
AcDbRotatedDimension
   0
DIMENSION
   5
3AC
 100
AcDbEntity
   8
0
 370
15
   6
CONTINUOUS
  62
8
 100
AcDbDimension
   2
*D14
  10
 886.58133771369
  20
 207.90915008657
  30
0.0
  11
 876.57440159749
  21
 207.90915008657
  31
0.0
  70
128
   3
GMM005
 100
AcDbAlignedDimension
  13
 883.58133771369
  23
 226.45838762086
  33
0.0
  14
 886.58133771369
  24
 227.45838762086
  34
0.0
 100
AcDbRotatedDimension
   0
LINE
   5
3AD
 100
AcDbEntity
   8
0
 370
20
 100
AcDbLine
   6
CONTINUOUS
  62
7
  10
 932.08133771369
  20
 274.45838762086
  30
0.0
  11
 945.08133771369
  21
 274.45838762086
  31
0.0
   0
LINE
   5
3AE
 100
AcDbEntity
   8
LEVEL001
 370
20
 100
AcDbLine
   6
CONTINUOUS
  62
7
  10
 427.04982259920
  20
 781.41537478657
  30
0.0
  11
 427.04982259920
  21
 826.41537478657
  31
0.0
   0
LINE
   5
3AF
 100
AcDbEntity
   8
LEVEL001
 370
20
 100
AcDbLine
   6
CONTINUOUS
  62
7
  10
 427.04982259920
  20
 826.41537478657
  30
0.0
  11
 443.04982259920
  21
 826.41537478657
  31
0.0
   0
LINE
   5
3B0
 100
AcDbEntity
   8
LEVEL001
 370
20
 100
AcDbLine
   6
CONTINUOUS
  62
7
  10
 443.04982259920
  20
 826.41537478657
  30
0.0
  11
 443.04982259920
  21
 781.41537478657
  31
0.0
   0
ARC
   5
3B1
 100
AcDbEntity
   8
LEVEL001
 370
20
   6
CONTINUOUS
  62
7
 100
AcDbCircle
  10
 435.04982259920
  20
 781.41537478657
  30
0.0
  40
 8.0000000000000
 100
AcDbArc
  50
 180.00000000000
  51
0.0
   0
LINE
   5
3B2
 100
AcDbEntity
   8
LEVEL001
 370
15
 100
AcDbLine
   6
DASHDOT
  62
8
  10
 467.41637982454
  20
 781.41537478657
  30
0.0
  11
 402.68326537385
  21
 781.41537478657
  31
0.0
   0
LINE
   5
3B3
 100
AcDbEntity
   8
LEVEL004
 370
20
 100
AcDbLine
   6
CONTINUOUS
  62
7
  10
 427.75802653170
  20
 826.41537478657
  30
0.0
  11
 442.34161866670
  21
 826.41537478657
  31
0.0
   0
CIRCLE
   5
3B4
 100
AcDbEntity
   8
LEVEL001
 370
15
 100
AcDbCircle
   6
HIDDEN
  62
2
  10
 435.04982259920
  20
 947.86464123940
  30
0.0
  40
 8.0000000000000
   0
LINE
   5
3B5
 100
AcDbEntity
   8
LEVEL001
 370
15
 100
AcDbLine
   6
DASHDOT
  62
8
  10
 423.00543014582
  20
 947.86464123940
  30
0.0
  11
 447.09421505258
  21
 947.86464123940
  31
0.0
   0
ARC
   5
3B6
 100
AcDbEntity
   8
LEVEL001
 370
20
   6
CONTINUOUS
  62
7
 100
AcDbCircle
  10
 435.04982259919
  20
 781.41537478656
  30
0.0
  40
 18.000000000000
 100
AcDbArc
  50
 116.38779996125
  51
 63.612200038763
   0
ARC
   5
3B7
 100
AcDbEntity
   8
LEVEL001
 370
20
   6
CONTINUOUS
  62
7
 100
AcDbCircle
  10
 435.04982259920
  20
 781.41537478656
  30
0.0
  40
 17.000000000000
 100
AcDbArc
  50
 118.07248693587
  51
 61.927513064174
   0
DIMENSION
   5
3B8
 100
AcDbEntity
   8
0
 370
15
   6
CONTINUOUS
  62
8
 100
AcDbDimension
   2
*D15
  10
 443.04982259920
  20
 745.41724238131
  30
0.0
  11
 487.29794289985
  21
 745.41724238131
  31
0.0
  70
128
  53
0.0
   3
GMM006
 100
AcDbAlignedDimension
  13
 427.04982259920
  23
 781.41537478657
  33
0.0
  14
 443.04982259920
  24
 781.41537478657
  34
0.0
 100
AcDbRotatedDimension
   0
DIMENSION
   5
3B9
 100
AcDbEntity
   8
0
 370
15
   6
CONTINUOUS
  62
8
 100
AcDbDimension
   2
*D16
  10
 453.04982259920
  20
 723.91537478657
  30
0.0
  11
 435.04982259920
  21
 723.91537478657
  31
0.0
  70
0
   3
GMM001
 100
AcDbAlignedDimension
  13
 417.04982259920
  23
 781.41537478657
  33
0.0
  14
 453.04982259920
  24
 781.41537478657
  34
0.0
 100
AcDbRotatedDimension
   0
ARC
   5
3BA
 100
AcDbEntity
   8
LEVEL001
 370
20
   6
CONTINUOUS
  62
7
 100
AcDbCircle
  10
 319.59921775185
  20
 797.41537478657
  30
0.0
  40
 8.0000000000000
 100
AcDbArc
  50
 270.00000000000
  51
0.0
   0
ARC
   5
3BB
 100
AcDbEntity
   8
LEVEL001
 370
20
   6
CONTINUOUS
  62
7
 100
AcDbCircle
  10
 319.59921775185
  20
 797.41537478657
  30
0.0
  40
 24.000000000000
 100
AcDbArc
  50
 270.00000000000
  51
0.0
   0
LINE
   5
3BC
 100
AcDbEntity
   8
LEVEL001
 370
20
 100
AcDbLine
   6
CONTINUOUS
  62
7
  10
 327.59921775185
  20
 797.41537478657
  30
0.0
  11
 327.59921775185
  21
 826.41537478657
  31
0.0
   0
LINE
   5
3BD
 100
AcDbEntity
   8
LEVEL001
 370
20
 100
AcDbLine
   6
CONTINUOUS
  62
7
  10
 327.59921775185
  20
 826.41537478657
  30
0.0
  11
 343.59921775185
  21
 826.41537478657
  31
0.0
   0
LINE
   5
3BE
 100
AcDbEntity
   8
LEVEL001
 370
20
 100
AcDbLine
   6
CONTINUOUS
  62
7
  10
 343.59921775185
  20
 826.41537478657
  30
0.0
  11
 343.59921775185
  21
 797.41537478657
  31
0.0
   0
LINE
   5
3BF
 100
AcDbEntity
   8
LEVEL001
 370
20
 100
AcDbLine
   6
CONTINUOUS
  62
7
  10
 329.09921775185
  20
 826.41537478657
  30
0.0
  11
 342.09921775185
  21
 826.41537478657
  31
0.0
   0
LINE
   5
3C0
 100
AcDbEntity
   8
LEVEL001
 370
20
 100
AcDbLine
   6
CONTINUOUS
  62
7
  10
 265.59921775185
  20
 789.41537478657
  30
0.0
  11
 319.59921775185
  21
 789.41537478657
  31
0.0
   0
LINE
   5
3C1
 100
AcDbEntity
   8
LEVEL001
 370
20
 100
AcDbLine
   6
CONTINUOUS
  62
7
  10
 319.59921775185
  20
 773.41537478657
  30
0.0
  11
 265.59921775185
  21
 773.41537478657
  31
0.0
   0
ARC
   5
3C2
 100
AcDbEntity
   8
LEVEL001
 370
15
   6
DASHDOT
  62
8
 100
AcDbCircle
  10
 319.59921775184
  20
 797.41537478657
  30
0.0
  40
 16.000000000000
 100
AcDbArc
  50
 270.00000000000
  51
0.0
   0
LINE
   5
3C3
 100
AcDbEntity
   8
LEVEL001
 370
15
 100
AcDbLine
   6
DASHDOT
  62
8
  10
 319.59921775185
  20
 781.41537478657
  30
0.0
  11
 255.36610330115
  21
 781.41537478657
  31
0.0
   0
DIMENSION
   5
3C4
 100
AcDbEntity
   8
0
 370
15
   6
CONTINUOUS
  62
8
 100
AcDbDimension
   2
*D17
  10
 372.24325757540
  20
 826.41537478657
  30
0.0
  11
 372.24325757540
  21
 803.91537478657
  31
0.0
  70
0
   3
GMM001
 100
AcDbAlignedDimension
  13
 319.59921775184
  23
 781.41537478657
  33
0.0
  14
 343.59921775185
  24
 826.41537478657
  34
0.0
  50
 90.000000000000
 100
AcDbRotatedDimension
   0
LINE
   5
3C5
 100
AcDbEntity
   8
LEVEL006
 370
15
 100
AcDbLine
   6
CONTINUOUS
  62
5
  10
 334.59921775185
  20
 845.26537478657
  30
0.0
  11
 336.59921775185
  21
 845.26537478657
  31
0.0
   0
LINE
   5
3C6
 100
AcDbEntity
   8
LEVEL004
 370
20
 100
AcDbLine
   6
CONTINUOUS
  62
7
  10
 328.15705913166
  20
 826.41537478657
  30
0.0
  11
 343.04137637204
  21
 826.41537478657
  31
0.0
   0
DIMENSION
   5
3C7
 100
AcDbEntity
   8
0
 370
15
   6
CONTINUOUS
  62
8
 100
AcDbDimension
   2
*D18
  10
 335.59921775184
  20
 723.91537478657
  30
0.0
  11
 300.59921775185
  21
 723.91537478657
  31
0.0
  70
0
   1
\A1;L
   3
GMM004
 100
AcDbAlignedDimension
  13
 265.59921775185
  23
 755.41537478657
  33
0.0
  14
 335.59921775184
  24
 797.41537478657
  34
0.0
 100
AcDbRotatedDimension
   0
LINE
   5
3C8
 100
AcDbEntity
   8
LEVEL001
 370
20
 100
AcDbLine
   6
CONTINUOUS
  62
7
  10
 265.59921775185
  20
 773.41537478657
  30
0.0
  11
 265.59921775185
  21
 789.41537478657
  31
0.0
   0
LINE
   5
3C9
 100
AcDbEntity
   8
LEVEL001
 370
15
 100
AcDbLine
   6
HIDDEN
  62
2
  10
 266.79921775185
  20
 777.11537478657
  30
0.0
  11
 296.59921775185
  21
 777.11537478657
  31
0.0
   0
LINE
   5
3CA
 100
AcDbEntity
   8
LEVEL001
 370
15
 100
AcDbLine
   6
HIDDEN
  62
2
  10
 296.59921775185
  20
 777.11537478657
  30
0.0
  11
 298.59921775185
  21
 781.41537478657
  31
0.0
   0
LINE
   5
3CB
 100
AcDbEntity
   8
LEVEL001
 370
15
 100
AcDbLine
   6
HIDDEN
  62
2
  10
 291.71921775185
  20
 777.11537478657
  30
0.0
  11
 290.59921775185
  21
 776.41537478657
  31
0.0
   0
LINE
   5
3CC
 100
AcDbEntity
   8
LEVEL001
 370
15
 100
AcDbLine
   6
HIDDEN
  62
2
  10
 290.59921775185
  20
 776.41537478657
  30
0.0
  11
 266.09921775185
  21
 776.41537478657
  31
0.0
   0
LINE
   5
3CD
 100
AcDbEntity
   8
LEVEL001
 370
15
 100
AcDbLine
   6
HIDDEN
  62
2
  10
 296.59921775185
  20
 785.71537478657
  30
0.0
  11
 296.59921775185
  21
 777.11537478657
  31
0.0
   0
LINE
   5
3CE
 100
AcDbEntity
   8
LEVEL001
 370
15
 100
AcDbLine
   6
HIDDEN
  62
2
  10
 290.59921775185
  20
 786.41537478657
  30
0.0
  11
 290.59921775185
  21
 776.41537478657
  31
0.0
   0
LINE
   5
3CF
 100
AcDbEntity
   8
LEVEL001
 370
15
 100
AcDbLine
   6
HIDDEN
  62
2
  10
 266.79921775185
  20
 785.71537478657
  30
0.0
  11
 266.79921775185
  21
 777.11537478657
  31
0.0
   0
LINE
   5
3D0
 100
AcDbEntity
   8
LEVEL001
 370
15
 100
AcDbLine
   6
HIDDEN
  62
2
  10
 266.79921775185
  20
 777.11537478657
  30
0.0
  11
 265.59921775185
  21
 775.91537478657
  31
0.0
   0
LINE
   5
3D1
 100
AcDbEntity
   8
LEVEL001
 370
15
 100
AcDbLine
   6
HIDDEN
  62
2
  10
 291.71921775185
  20
 785.71537478657
  30
0.0
  11
 291.71921775185
  21
 777.11537478657
  31
0.0
   0
LINE
   5
3D2
 100
AcDbEntity
   8
LEVEL001
 370
15
 100
AcDbLine
   6
HIDDEN
  62
2
  10
 296.59921775185
  20
 785.71537478657
  30
0.0
  11
 266.79921775185
  21
 785.71537478657
  31
0.0
   0
LINE
   5
3D3
 100
AcDbEntity
   8
LEVEL001
 370
15
 100
AcDbLine
   6
HIDDEN
  62
2
  10
 266.09921775185
  20
 786.41537478657
  30
0.0
  11
 290.59921775185
  21
 786.41537478657
  31
0.0
   0
LINE
   5
3D4
 100
AcDbEntity
   8
LEVEL001
 370
15
 100
AcDbLine
   6
HIDDEN
  62
2
  10
 266.79921775185
  20
 785.71537478657
  30
0.0
  11
 265.59921775185
  21
 786.91537478657
  31
0.0
   0
LINE
   5
3D5
 100
AcDbEntity
   8
LEVEL001
 370
15
 100
AcDbLine
   6
HIDDEN
  62
2
  10
 298.59921775185
  20
 781.41537478657
  30
0.0
  11
 296.59921775185
  21
 785.71537478657
  31
0.0
   0
LINE
   5
3D6
 100
AcDbEntity
   8
LEVEL001
 370
15
 100
AcDbLine
   6
HIDDEN
  62
2
  10
 290.59921775185
  20
 786.41537478657
  30
0.0
  11
 291.71921775185
  21
 785.71537478657
  31
0.0
   0
LEADER
   5
3D7
 100
AcDbEntity
   8
0
 370
15
   6
CONTINUOUS
  62
8
 100
AcDbLeader
   3
GMM003
  73
0
  74
1
  75
0
  40
 10.000000000000
  41
 26.000000000000
  76
2
  10
 281.73141695204
  20
 786.41537478657
  30
0.0
  10
 266.00148378276
  20
 826.69857913205
  30
0.0
  77
8
 340
3D8
 213
0.0
 223
-4.0000000000000
 233
0.0
   0
MTEXT
   5
3D8
 102
{ACAD_REACTORS
 330
3D7
 102
}
 100
AcDbEntity
   8
0
 370
15
  62
8
 100
AcDbMText
  10
 240.00148378276
  20
 830.69857913205
  30
0.0
  40
 10.000000000000
  41
0.0
  71
7
  72
1
   1
\A1;Ｍ１０
   7
GMM001
   0
LINE
   5
3D9
 100
AcDbEntity
   8
LEVEL001
 370
20
 100
AcDbLine
   6
CONTINUOUS
  62
7
  10
 267.59921775185
  20
 799.41537478657
  30
0.0
  11
 265.59921775185
  21
 799.41537478657
  31
0.0
   0
LINE
   5
3DA
 100
AcDbEntity
   8
LEVEL001
 370
20
 100
AcDbLine
   6
CONTINUOUS
  62
7
  10
 265.59921775185
  20
 799.41537478657
  30
0.0
  11
 265.59921775185
  21
 763.41537478657
  31
0.0
   0
LINE
   5
3DB
 100
AcDbEntity
   8
LEVEL001
 370
20
 100
AcDbLine
   6
CONTINUOUS
  62
7
  10
 268.59921775185
  20
 764.41537478657
  30
0.0
  11
 268.59921775185
  21
 798.41537478657
  31
0.0
   0
LINE
   5
3DC
 100
AcDbEntity
   8
LEVEL001
 370
20
 100
AcDbLine
   6
CONTINUOUS
  62
7
  10
 267.59921775185
  20
 799.41537478657
  30
0.0
  11
 267.59921775185
  21
 763.41537478657
  31
0.0
   0
LINE
   5
3DD
 100
AcDbEntity
   8
LEVEL001
 370
20
 100
AcDbLine
   6
CONTINUOUS
  62
7
  10
 267.59921775185
  20
 799.41537478657
  30
0.0
  11
 268.59921775185
  21
 798.41537478657
  31
0.0
   0
LINE
   5
3DE
 100
AcDbEntity
   8
LEVEL001
 370
20
 100
AcDbLine
   6
CONTINUOUS
  62
7
  10
 265.59921775185
  20
 763.41537478657
  30
0.0
  11
 267.59921775185
  21
 763.41537478657
  31
0.0
   0
LINE
   5
3DF
 100
AcDbEntity
   8
LEVEL001
 370
20
 100
AcDbLine
   6
CONTINUOUS
  62
7
  10
 267.59921775185
  20
 763.41537478657
  30
0.0
  11
 268.59921775185
  21
 764.41537478657
  31
0.0
   0
DIMENSION
   5
3E0
 100
AcDbEntity
   8
0
 370
15
   6
CONTINUOUS
  62
8
 100
AcDbDimension
   2
*D20
  10
 268.59921775185
  20
 745.41724238131
  30
0.0
  11
 256.47500799613
  21
 745.41724238131
  31
0.0
  70
128
   3
GMM007
 100
AcDbAlignedDimension
  13
 265.59921775185
  23
 763.41537478657
  33
0.0
  14
 268.59921775185
  24
 764.41537478657
  34
0.0
 100
AcDbRotatedDimension
   0
DIMENSION
   5
3E1
 100
AcDbEntity
   8
0
 370
15
   6
CONTINUOUS
  62
8
 100
AcDbDimension
   2
*D21
  10
 244.70205710036
  20
 763.41537478657
  30
0.0
  11
 244.70205710036
  21
 781.41537478657
  31
0.0
  70
0
   3
GMM001
 100
AcDbAlignedDimension
  13
 265.59921775185
  23
 799.41537478657
  33
0.0
  14
 265.59921775185
  24
 763.41537478657
  34
0.0
  50
 270.00000000000
 100
AcDbRotatedDimension
   0
LINE
   5
3E2
 100
AcDbEntity
   8
LEVEL001
 370
20
 100
AcDbLine
   6
CONTINUOUS
  62
7
  10
 1030.0498225992
  20
 781.41537478654
  30
0.0
  11
 1030.0498225992
  21
 826.41537478654
  31
0.0
   0
LINE
   5
3E3
 100
AcDbEntity
   8
LEVEL001
 370
20
 100
AcDbLine
   6
CONTINUOUS
  62
7
  10
 1030.0498225992
  20
 826.41537478654
  30
0.0
  11
 1046.0498225992
  21
 826.41537478654
  31
0.0
   0
LINE
   5
3E4
 100
AcDbEntity
   8
LEVEL001
 370
20
 100
AcDbLine
   6
CONTINUOUS
  62
7
  10
 1046.0498225992
  20
 826.41537478654
  30
0.0
  11
 1046.0498225992
  21
 781.41537478654
  31
0.0
   0
ARC
   5
3E5
 100
AcDbEntity
   8
LEVEL001
 370
20
   6
CONTINUOUS
  62
7
 100
AcDbCircle
  10
 1038.0498225992
  20
 781.41537478654
  30
0.0
  40
 8.0000000000000
 100
AcDbArc
  50
 180.00000000000
  51
0.0
   0
LINE
   5
3E6
 100
AcDbEntity
   8
LEVEL001
 370
15
 100
AcDbLine
   6
DASHDOT
  62
8
  10
 1070.4163798246
  20
 781.41537478654
  30
0.0
  11
 1005.6832653739
  21
 781.41537478654
  31
0.0
   0
LINE
   5
3E7
 100
AcDbEntity
   8
LEVEL004
 370
20
 100
AcDbLine
   6
CONTINUOUS
  62
7
  10
 1030.7580265317
  20
 826.41537478654
  30
0.0
  11
 1045.3416186667
  21
 826.41537478654
  31
0.0
   0
CIRCLE
   5
3E8
 100
AcDbEntity
   8
LEVEL001
 370
15
 100
AcDbCircle
   6
HIDDEN
  62
2
  10
 1038.0498225992
  20
 947.86464123937
  30
0.0
  40
 8.0000000000000
   0
LINE
   5
3E9
 100
AcDbEntity
   8
LEVEL001
 370
15
 100
AcDbLine
   6
DASHDOT
  62
8
  10
 1026.0054301459
  20
 947.86464123937
  30
0.0
  11
 1050.0942150526
  21
 947.86464123937
  31
0.0
   0
ARC
   5
3EA
 100
AcDbEntity
   8
LEVEL001
 370
20
   6
CONTINUOUS
  62
7
 100
AcDbCircle
  10
 1038.0498225992
  20
 781.41537478653
  30
0.0
  40
 18.000000000000
 100
AcDbArc
  50
 116.38779996125
  51
 63.612200038763
   0
ARC
   5
3EB
 100
AcDbEntity
   8
LEVEL001
 370
20
   6
CONTINUOUS
  62
7
 100
AcDbCircle
  10
 1038.0498225992
  20
 781.41537478653
  30
0.0
  40
 17.000000000000
 100
AcDbArc
  50
 118.07248693587
  51
 61.927513064173
   0
DIMENSION
   5
3EC
 100
AcDbEntity
   8
0
 370
15
   6
CONTINUOUS
  62
8
 100
AcDbDimension
   2
*D22
  10
 1046.0498225992
  20
 745.41724238128
  30
0.0
  11
 1090.2979428999
  21
 745.41724238128
  31
0.0
  70
128
  53
0.0
   3
GMM006
 100
AcDbAlignedDimension
  13
 1030.0498225992
  23
 781.41537478654
  33
0.0
  14
 1046.0498225992
  24
 781.41537478654
  34
0.0
 100
AcDbRotatedDimension
   0
DIMENSION
   5
3ED
 100
AcDbEntity
   8
0
 370
15
   6
CONTINUOUS
  62
8
 100
AcDbDimension
   2
*D23
  10
 1056.0498225992
  20
 723.91537478654
  30
0.0
  11
 1038.0498225992
  21
 723.91537478654
  31
0.0
  70
0
   3
GMM001
 100
AcDbAlignedDimension
  13
 1020.0498225992
  23
 781.41537478654
  33
0.0
  14
 1056.0498225992
  24
 781.41537478654
  34
0.0
 100
AcDbRotatedDimension
   0
ARC
   5
3EE
 100
AcDbEntity
   8
LEVEL001
 370
20
   6
CONTINUOUS
  62
7
 100
AcDbCircle
  10
 922.59921775189
  20
 797.41537478654
  30
0.0
  40
 8.0000000000000
 100
AcDbArc
  50
 270.00000000000
  51
0.0
   0
ARC
   5
3EF
 100
AcDbEntity
   8
LEVEL001
 370
20
   6
CONTINUOUS
  62
7
 100
AcDbCircle
  10
 922.59921775189
  20
 797.41537478654
  30
0.0
  40
 24.000000000000
 100
AcDbArc
  50
 270.00000000000
  51
0.0
   0
LINE
   5
3F0
 100
AcDbEntity
   8
LEVEL001
 370
20
 100
AcDbLine
   6
CONTINUOUS
  62
7
  10
 930.59921775189
  20
 797.41537478654
  30
0.0
  11
 930.59921775189
  21
 826.41537478654
  31
0.0
   0
LINE
   5
3F1
 100
AcDbEntity
   8
LEVEL001
 370
20
 100
AcDbLine
   6
CONTINUOUS
  62
7
  10
 930.59921775189
  20
 826.41537478654
  30
0.0
  11
 946.59921775189
  21
 826.41537478654
  31
0.0
   0
LINE
   5
3F2
 100
AcDbEntity
   8
LEVEL001
 370
20
 100
AcDbLine
   6
CONTINUOUS
  62
7
  10
 946.59921775189
  20
 826.41537478654
  30
0.0
  11
 946.59921775189
  21
 797.41537478654
  31
0.0
   0
LINE
   5
3F3
 100
AcDbEntity
   8
LEVEL001
 370
20
 100
AcDbLine
   6
CONTINUOUS
  62
7
  10
 932.09921775189
  20
 826.41537478654
  30
0.0
  11
 945.09921775189
  21
 826.41537478654
  31
0.0
   0
LINE
   5
3F4
 100
AcDbEntity
   8
LEVEL001
 370
20
 100
AcDbLine
   6
CONTINUOUS
  62
7
  10
 868.59921775189
  20
 789.41537478654
  30
0.0
  11
 922.59921775189
  21
 789.41537478654
  31
0.0
   0
LINE
   5
3F5
 100
AcDbEntity
   8
LEVEL001
 370
20
 100
AcDbLine
   6
CONTINUOUS
  62
7
  10
 922.59921775189
  20
 773.41537478654
  30
0.0
  11
 868.59921775189
  21
 773.41537478654
  31
0.0
   0
ARC
   5
3F6
 100
AcDbEntity
   8
LEVEL001
 370
15
   6
DASHDOT
  62
8
 100
AcDbCircle
  10
 922.59921775188
  20
 797.41537478654
  30
0.0
  40
 16.000000000000
 100
AcDbArc
  50
 270.00000000000
  51
0.0
   0
LINE
   5
3F7
 100
AcDbEntity
   8
LEVEL001
 370
15
 100
AcDbLine
   6
DASHDOT
  62
8
  10
 922.59921775189
  20
 781.41537478654
  30
0.0
  11
 858.36610330119
  21
 781.41537478654
  31
0.0
   0
DIMENSION
   5
3F8
 100
AcDbEntity
   8
0
 370
15
   6
CONTINUOUS
  62
8
 100
AcDbDimension
   2
*D24
  10
 975.24325757544
  20
 826.41537478654
  30
0.0
  11
 975.24325757544
  21
 803.91537478654
  31
0.0
  70
0
   3
GMM001
 100
AcDbAlignedDimension
  13
 922.59921775188
  23
 781.41537478654
  33
0.0
  14
 946.59921775189
  24
 826.41537478654
  34
0.0
  50
 90.000000000000
 100
AcDbRotatedDimension
   0
LINE
   5
3F9
 100
AcDbEntity
   8
LEVEL006
 370
15
 100
AcDbLine
   6
CONTINUOUS
  62
5
  10
 937.59921775189
  20
 845.26537478654
  30
0.0
  11
 939.59921775189
  21
 845.26537478654
  31
0.0
   0
LINE
   5
3FA
 100
AcDbEntity
   8
LEVEL004
 370
20
 100
AcDbLine
   6
CONTINUOUS
  62
7
  10
 931.15705913170
  20
 826.41537478654
  30
0.0
  11
 946.04137637208
  21
 826.41537478654
  31
0.0
   0
DIMENSION
   5
3FB
 100
AcDbEntity
   8
0
 370
15
   6
CONTINUOUS
  62
8
 100
AcDbDimension
   2
*D25
  10
 938.59921775188
  20
 723.91537478654
  30
0.0
  11
 903.59921775188
  21
 723.91537478654
  31
0.0
  70
0
   1
\A1;L
   3
GMM004
 100
AcDbAlignedDimension
  13
 868.59921775189
  23
 755.41537478654
  33
0.0
  14
 938.59921775188
  24
 797.41537478654
  34
0.0
 100
AcDbRotatedDimension
   0
LINE
   5
3FC
 100
AcDbEntity
   8
LEVEL001
 370
20
 100
AcDbLine
   6
CONTINUOUS
  62
7
  10
 868.59921775189
  20
 773.41537478654
  30
0.0
  11
 868.59921775189
  21
 789.41537478654
  31
0.0
   0
LINE
   5
3FD
 100
AcDbEntity
   8
LEVEL001
 370
15
 100
AcDbLine
   6
HIDDEN
  62
2
  10
 869.79921775189
  20
 777.11537478654
  30
0.0
  11
 899.59921775189
  21
 777.11537478654
  31
0.0
   0
LINE
   5
3FE
 100
AcDbEntity
   8
LEVEL001
 370
15
 100
AcDbLine
   6
HIDDEN
  62
2
  10
 899.59921775189
  20
 777.11537478654
  30
0.0
  11
 901.59921775189
  21
 781.41537478654
  31
0.0
   0
LINE
   5
3FF
 100
AcDbEntity
   8
LEVEL001
 370
15
 100
AcDbLine
   6
HIDDEN
  62
2
  10
 894.71921775189
  20
 777.11537478654
  30
0.0
  11
 893.59921775189
  21
 776.41537478654
  31
0.0
   0
LINE
   5
400
 100
AcDbEntity
   8
LEVEL001
 370
15
 100
AcDbLine
   6
HIDDEN
  62
2
  10
 893.59921775189
  20
 776.41537478654
  30
0.0
  11
 869.09921775189
  21
 776.41537478654
  31
0.0
   0
LINE
   5
401
 100
AcDbEntity
   8
LEVEL001
 370
15
 100
AcDbLine
   6
HIDDEN
  62
2
  10
 899.59921775189
  20
 785.71537478654
  30
0.0
  11
 899.59921775189
  21
 777.11537478654
  31
0.0
   0
LINE
   5
402
 100
AcDbEntity
   8
LEVEL001
 370
15
 100
AcDbLine
   6
HIDDEN
  62
2
  10
 893.59921775189
  20
 786.41537478654
  30
0.0
  11
 893.59921775189
  21
 776.41537478654
  31
0.0
   0
LINE
   5
403
 100
AcDbEntity
   8
LEVEL001
 370
15
 100
AcDbLine
   6
HIDDEN
  62
2
  10
 869.79921775189
  20
 785.71537478654
  30
0.0
  11
 869.79921775189
  21
 777.11537478654
  31
0.0
   0
LINE
   5
404
 100
AcDbEntity
   8
LEVEL001
 370
15
 100
AcDbLine
   6
HIDDEN
  62
2
  10
 869.79921775189
  20
 777.11537478654
  30
0.0
  11
 868.59921775189
  21
 775.91537478654
  31
0.0
   0
LINE
   5
405
 100
AcDbEntity
   8
LEVEL001
 370
15
 100
AcDbLine
   6
HIDDEN
  62
2
  10
 894.71921775189
  20
 785.71537478654
  30
0.0
  11
 894.71921775189
  21
 777.11537478654
  31
0.0
   0
LINE
   5
406
 100
AcDbEntity
   8
LEVEL001
 370
15
 100
AcDbLine
   6
HIDDEN
  62
2
  10
 899.59921775189
  20
 785.71537478654
  30
0.0
  11
 869.79921775189
  21
 785.71537478654
  31
0.0
   0
LINE
   5
407
 100
AcDbEntity
   8
LEVEL001
 370
15
 100
AcDbLine
   6
HIDDEN
  62
2
  10
 869.09921775189
  20
 786.41537478654
  30
0.0
  11
 893.59921775189
  21
 786.41537478654
  31
0.0
   0
LINE
   5
408
 100
AcDbEntity
   8
LEVEL001
 370
15
 100
AcDbLine
   6
HIDDEN
  62
2
  10
 869.79921775189
  20
 785.71537478654
  30
0.0
  11
 868.59921775189
  21
 786.91537478654
  31
0.0
   0
LINE
   5
409
 100
AcDbEntity
   8
LEVEL001
 370
15
 100
AcDbLine
   6
HIDDEN
  62
2
  10
 901.59921775189
  20
 781.41537478654
  30
0.0
  11
 899.59921775189
  21
 785.71537478654
  31
0.0
   0
LINE
   5
40A
 100
AcDbEntity
   8
LEVEL001
 370
15
 100
AcDbLine
   6
HIDDEN
  62
2
  10
 893.59921775189
  20
 786.41537478654
  30
0.0
  11
 894.71921775189
  21
 785.71537478654
  31
0.0
   0
LEADER
   5
40B
 100
AcDbEntity
   8
0
 370
15
   6
CONTINUOUS
  62
8
 100
AcDbLeader
   3
GMM003
  73
0
  74
1
  75
0
  40
 10.000000000000
  41
 26.000000000000
  76
2
  10
 884.73141695208
  20
 786.41537478654
  30
0.0
  10
 869.00148378280
  20
 826.69857913202
  30
0.0
  77
8
 340
40C
 213
0.0
 223
-4.0000000000000
 233
0.0
   0
MTEXT
   5
40C
 102
{ACAD_REACTORS
 330
40B
 102
}
 100
AcDbEntity
   8
0
 370
15
  62
8
 100
AcDbMText
  10
 843.00148378280
  20
 830.69857913202
  30
0.0
  40
 10.000000000000
  41
0.0
  71
7
  72
1
   1
\A1;Ｍ１０
   7
GMM001
   0
LINE
   5
40D
 100
AcDbEntity
   8
LEVEL001
 370
20
 100
AcDbLine
   6
CONTINUOUS
  62
7
  10
 870.59921775189
  20
 799.41537478654
  30
0.0
  11
 868.59921775189
  21
 799.41537478654
  31
0.0
   0
LINE
   5
40E
 100
AcDbEntity
   8
LEVEL001
 370
20
 100
AcDbLine
   6
CONTINUOUS
  62
7
  10
 868.59921775189
  20
 799.41537478654
  30
0.0
  11
 868.59921775189
  21
 763.41537478654
  31
0.0
   0
LINE
   5
40F
 100
AcDbEntity
   8
LEVEL001
 370
20
 100
AcDbLine
   6
CONTINUOUS
  62
7
  10
 871.59921775189
  20
 764.41537478654
  30
0.0
  11
 871.59921775189
  21
 798.41537478654
  31
0.0
   0
LINE
   5
410
 100
AcDbEntity
   8
LEVEL001
 370
20
 100
AcDbLine
   6
CONTINUOUS
  62
7
  10
 870.59921775189
  20
 799.41537478654
  30
0.0
  11
 870.59921775189
  21
 763.41537478654
  31
0.0
   0
LINE
   5
411
 100
AcDbEntity
   8
LEVEL001
 370
20
 100
AcDbLine
   6
CONTINUOUS
  62
7
  10
 870.59921775189
  20
 799.41537478654
  30
0.0
  11
 871.59921775189
  21
 798.41537478654
  31
0.0
   0
LINE
   5
412
 100
AcDbEntity
   8
LEVEL001
 370
20
 100
AcDbLine
   6
CONTINUOUS
  62
7
  10
 868.59921775189
  20
 763.41537478654
  30
0.0
  11
 870.59921775189
  21
 763.41537478654
  31
0.0
   0
LINE
   5
413
 100
AcDbEntity
   8
LEVEL001
 370
20
 100
AcDbLine
   6
CONTINUOUS
  62
7
  10
 870.59921775189
  20
 763.41537478654
  30
0.0
  11
 871.59921775189
  21
 764.41537478654
  31
0.0
   0
DIMENSION
   5
414
 100
AcDbEntity
   8
0
 370
15
   6
CONTINUOUS
  62
8
 100
AcDbDimension
   2
*D27
  10
 871.59921775189
  20
 745.41724238128
  30
0.0
  11
 859.47500799617
  21
 745.41724238128
  31
0.0
  70
128
   3
GMM007
 100
AcDbAlignedDimension
  13
 868.59921775189
  23
 763.41537478654
  33
0.0
  14
 871.59921775189
  24
 764.41537478654
  34
0.0
 100
AcDbRotatedDimension
   0
DIMENSION
   5
415
 100
AcDbEntity
   8
0
 370
15
   6
CONTINUOUS
  62
8
 100
AcDbDimension
   2
*D28
  10
 847.70205710040
  20
 763.41537478654
  30
0.0
  11
 847.70205710040
  21
 781.41537478654
  31
0.0
  70
0
   3
GMM001
 100
AcDbAlignedDimension
  13
 868.59921775189
  23
 799.41537478654
  33
0.0
  14
 868.59921775189
  24
 763.41537478654
  34
0.0
  50
 270.00000000000
 100
AcDbRotatedDimension
   0
LINE
   5
416
 100
AcDbEntity
   8
0
 370
40
 100
AcDbLine
   6
CONTINUOUS
  62
3
  10
 665.00000000010
  20
 1140.0000000000
  30
0.0
  11
 665.00000000010
  21
 48.000000000020
  31
0.0
   0
MTEXT
   5
418
 100
AcDbEntity
   8
LEVEL001
 370
15
  62
8
 100
AcDbMText
  10
 1305.5062713797
  20
 838.26225769669
  30
0.0
  40
 12.000000000000
  41
0.0
  71
1
  72
1
   1
{\T1.000000;材　質／ＳＵＳ３０４}\P{\T1.000000;仕上げ／ＨＬ}\P{\T1.000000;軸　径／%%c１６・%%c１３}
   7
GMM001
  44
 0.79999984000003
   0
LINE
   5
419
 100
AcDbEntity
   8
LEVEL001
 370
20
 100
AcDbLine
   6
CONTINUOUS
  62
7
  10
 1434.2611135294
  20
 755.00000000001
  30
0.0
  11
 1584.2611135294
  21
 755.00000000001
  31
0.0
   0
LINE
   5
41A
 100
AcDbEntity
   8
LEVEL001
 370
20
 100
AcDbLine
   6
CONTINUOUS
  62
7
  10
 1434.2611135294
  20
 776.00000000001
  30
0.0
  11
 1434.2611135294
  21
 644.00000000001
  31
0.0
   0
LINE
   5
41B
 100
AcDbEntity
   8
LEVEL001
 370
20
 100
AcDbLine
   6
CONTINUOUS
  62
7
  10
 1509.2611135294
  20
 755.00000000001
  30
0.0
  11
 1509.2611135294
  21
 644.00000000001
  31
0.0
   0
LINE
   5
41C
 100
AcDbEntity
   8
LEVEL001
 370
20
 100
AcDbLine
   6
CONTINUOUS
  62
7
  10
 1584.2611135294
  20
 776.00000000001
  30
0.0
  11
 1584.2611135294
  21
 644.00000000001
  31
0.0
   0
MTEXT
   5
41E
 100
AcDbEntity
   8
LEVEL001
 370
15
  62
8
 100
AcDbMText
  10
 1471.7611135294
  20
 744.50000000001
  30
0.0
  40
 12.000000000000
  41
0.0
  71
5
  72
1
   1
\T1.000000;１６軸
   7
GMM001
  44
 0.79999984000003
   0
MTEXT
   5
420
 100
AcDbEntity
   8
LEVEL001
 370
15
  62
8
 100
AcDbMText
  10
 1546.7611135294
  20
 744.50000000001
  30
0.0
  40
 12.000000000000
  41
0.0
  71
5
  72
1
   1
\T1.000000;１３軸
   7
GMM001
  44
 0.79999984000003
   0
MTEXT
   5
422
 100
AcDbEntity
   8
LEVEL001
 370
15
  62
8
 100
AcDbMText
  10
 1471.7611135294
  20
 725.00000000001
  30
0.0
  40
 12.000000000000
  41
0.0
  71
5
  72
1
   1
\T1.000000;５８
   7
GMM001
  44
 0.79999984000003
   0
MTEXT
   5
424
 100
AcDbEntity
   8
LEVEL001
 370
15
  62
8
 100
AcDbMText
  10
 1471.7611135294
  20
 713.00000000001
  30
0.0
  40
 12.000000000000
  41
0.0
  71
5
  72
1
   1
\T1.000000;７０
   7
GMM001
  44
 0.79999984000003
   0
MTEXT
   5
426
 100
AcDbEntity
   8
LEVEL001
 370
15
  62
8
 100
AcDbMText
  10
 1471.7611135294
  20
 701.00000000001
  30
0.0
  40
 12.000000000000
  41
0.0
  71
5
  72
1
   1
\T1.000000;８０
   7
GMM001
  44
 0.79999984000003
   0
MTEXT
   5
428
 100
AcDbEntity
   8
LEVEL001
 370
15
  62
8
 100
AcDbMText
  10
 1471.7611135294
  20
 689.00000000001
  30
0.0
  40
 12.000000000000
  41
0.0
  71
5
  72
1
   1
\T1.000000;１００
   7
GMM001
  44
 0.79999984000003
   0
MTEXT
   5
42A
 100
AcDbEntity
   8
LEVEL001
 370
15
  62
8
 100
AcDbMText
  10
 1471.7611135294
  20
 665.00000000001
  30
0.0
  40
 12.000000000000
  41
0.0
  71
5
  72
1
   1
\T1.000000;１５０
   7
GMM001
  44
 0.79999984000003
   0
MTEXT
   5
42C
 100
AcDbEntity
   8
LEVEL001
 370
15
  62
8
 100
AcDbMText
  10
 1471.7611135294
  20
 653.00000000001
  30
0.0
  40
 12.000000000000
  41
0.0
  71
5
  72
1
   1
\T1.000000;２００
   7
GMM001
  44
 0.79999984000003
   0
MTEXT
   5
42E
 100
AcDbEntity
   8
LEVEL001
 370
15
  62
8
 100
AcDbMText
  10
 1471.7611135294
  20
 677.00000000001
  30
0.0
  40
 12.000000000000
  41
0.0
  71
5
  72
1
   1
\T1.000000;１２０
   7
GMM001
  44
 0.79999984000003
   0
MTEXT
   5
430
 100
AcDbEntity
   8
LEVEL001
 370
15
  62
8
 100
AcDbMText
  10
 1546.7611135294
  20
 713.00000000001
  30
0.0
  40
 12.000000000000
  41
0.0
  71
5
  72
1
   1
\T1.000000;７０
   7
GMM001
  44
 0.79999984000003
   0
MTEXT
   5
432
 100
AcDbEntity
   8
LEVEL001
 370
15
  62
8
 100
AcDbMText
  10
 1546.7611135294
  20
 725.00000000001
  30
0.0
  40
 12.000000000000
  41
0.0
  71
5
  72
1
   1
\T1.000000;５５
   7
GMM001
  44
 0.79999984000003
   0
LINE
   5
433
 100
AcDbEntity
   8
LEVEL001
 370
20
 100
AcDbLine
   6
CONTINUOUS
  62
7
  10
 1284.2611135294
  20
 776.00000000001
  30
0.0
  11
 1284.2611135294
  21
 644.00000000001
  31
0.0
   0
LINE
   5
434
 100
AcDbEntity
   8
LEVEL001
 370
20
 100
AcDbLine
   6
CONTINUOUS
  62
7
  10
 1284.2611135294
  20
 734.00000000001
  30
0.0
  11
 1584.2611135294
  21
 734.00000000001
  31
0.0
   0
LINE
   5
435
 100
AcDbEntity
   8
LEVEL001
 370
20
 100
AcDbLine
   6
CONTINUOUS
  62
7
  10
 1284.2611135294
  20
 644.00000000001
  30
0.0
  11
 1584.2611135294
  21
 644.00000000001
  31
0.0
   0
MTEXT
   5
437
 100
AcDbEntity
   8
LEVEL001
 370
15
  62
8
 100
AcDbMText
  10
 1359.2611135294
  20
 755.00000000001
  30
0.0
  40
 12.000000000000
  41
0.0
  71
5
  72
1
   1
\T1.000000;品番
   7
GMM001
  44
 0.79999984000003
   0
MTEXT
   5
439
 100
AcDbEntity
   8
LEVEL001
 370
15
  62
8
 100
AcDbMText
  10
 1509.2611135294
  20
 765.50000000001
  30
0.0
  40
 12.000000000000
  41
0.0
  71
5
  72
1
   1
\W1.000000;\T1.000000;出寸法Ｌ\W0.500000;\T1.000000;(m/m\W1.000000;\T1.000000;）
   7
GMM001
  44
 0.79999984000003
   0
LINE
   5
43A
 100
AcDbEntity
   8
LEVEL001
 370
20
 100
AcDbLine
   6
CONTINUOUS
  62
7
  10
 1284.2611135294
  20
 776.00000000001
  30
0.0
  11
 1584.2611135294
  21
 776.00000000001
  31
0.0
   0
MTEXT
   5
43C
 100
AcDbEntity
   8
LEVEL001
 370
15
  62
8
 100
AcDbMText
  10
 1359.2611135294
  20
 711.00000000001
  30
0.0
  40
 12.000000000000
  41
0.0
  71
2
  72
1
   1
{\T1.000000;ＰＩＡ２０}\P\P{\T1.000000;ＰＩＡ２５}
   7
GMM001
  44
 0.79999984000003
   0
LINE
   5
43D
 100
AcDbEntity
   8
LEVEL004
 370
20
 100
AcDbLine
   6
CONTINUOUS
  62
1
  10
 393.78650664792
  20
 403.90765407381
  30
0.0
  11
 393.78650664792
  21
 387.90765407381
  31
0.0
   0
CIRCLE
   5
43E
 100
AcDbEntity
   8
LEVEL004
 370
20
 100
AcDbCircle
   6
CONTINUOUS
  62
1
  10
 403.78650664792
  20
 398.40765407381
  30
0.0
  40
 2.5000000000000
   0
LINE
   5
43F
 100
AcDbEntity
   8
LEVEL004
 370
20
 100
AcDbLine
   6
CONTINUOUS
  62
1
  10
 395.78650664792
  20
 405.90765407381
  30
0.0
  11
 471.78650664792
  21
 405.90765407381
  31
0.0
   0
LINE
   5
440
 100
AcDbEntity
   8
LEVEL004
 370
20
 100
AcDbLine
   6
CONTINUOUS
  62
1
  10
 471.78650664792
  20
 385.90765407381
  30
0.0
  11
 395.78650664792
  21
 385.90765407381
  31
0.0
   0
ARC
   5
441
 100
AcDbEntity
   8
LEVEL004
 370
20
   6
CONTINUOUS
  62
1
 100
AcDbCircle
  10
 395.78650664792
  20
 403.90765407381
  30
0.0
  40
 2.0000000000000
 100
AcDbArc
  50
 90.000000000000
  51
 180.00000000000
   0
ARC
   5
442
 100
AcDbEntity
   8
LEVEL004
 370
20
   6
CONTINUOUS
  62
1
 100
AcDbCircle
  10
 395.78650664792
  20
 387.90765407381
  30
0.0
  40
 2.0000000000000
 100
AcDbArc
  50
 180.00000000000
  51
 270.00000000000
   0
CIRCLE
   5
443
 100
AcDbEntity
   8
LEVEL004
 370
20
 100
AcDbCircle
   6
HIDDEN
  62
1
  10
 403.78650664792
  20
 398.40765407381
  30
0.0
  40
 4.3000000000000
   0
LINE
   5
444
 100
AcDbEntity
   8
LEVEL004
 370
20
 100
AcDbLine
   6
CONTINUOUS
  62
1
  10
 473.78650664792
  20
 403.90765407381
  30
0.0
  11
 473.78650664792
  21
 387.90765407381
  31
0.0
   0
CIRCLE
   5
445
 100
AcDbEntity
   8
LEVEL004
 370
20
 100
AcDbCircle
   6
CONTINUOUS
  62
1
  10
 463.78650664792
  20
 393.40765407381
  30
0.0
  40
 2.5000000000000
   0
ARC
   5
446
 100
AcDbEntity
   8
LEVEL004
 370
20
   6
CONTINUOUS
  62
1
 100
AcDbCircle
  10
 471.78650664792
  20
 403.90765407381
  30
0.0
  40
 2.0000000000000
 100
AcDbArc
  50
0.0
  51
 90.000000000000
   0
ARC
   5
447
 100
AcDbEntity
   8
LEVEL004
 370
20
   6
CONTINUOUS
  62
1
 100
AcDbCircle
  10
 471.78650664792
  20
 387.90765407381
  30
0.0
  40
 2.0000000000000
 100
AcDbArc
  50
 270.00000000000
  51
0.0
   0
CIRCLE
   5
448
 100
AcDbEntity
   8
LEVEL004
 370
20
 100
AcDbCircle
   6
HIDDEN
  62
1
  10
 463.78650664792
  20
 393.40765407381
  30
0.0
  40
 4.3000000000000
   0
CIRCLE
   5
449
 100
AcDbEntity
   8
LEVEL007
 370
20
 100
AcDbCircle
   6
CONTINUOUS
  62
1
  10
 433.78650664792
  20
 395.90765407381
  30
0.0
  40
 6.4000000000000
   0
LINE
   5
44A
 100
AcDbEntity
   8
0
 370
15
 100
AcDbLine
   6
DASHDOT
  62
8
  10
 463.78650664792
  20
 387.98341362470
  30
0.0
  11
 463.78650664792
  21
 398.83189452293
  31
0.0
   0
LINE
   5
44B
 100
AcDbEntity
   8
0
 370
15
 100
AcDbLine
   6
DASHDOT
  62
8
  10
 469.24419865149
  20
 393.40765407381
  30
0.0
  11
 458.32881464435
  21
 393.40765407381
  31
0.0
   0
DIMENSION
   5
44C
 100
AcDbEntity
   8
0
 370
15
   6
CONTINUOUS
  62
8
 100
AcDbDimension
   2
*D29
  10
 507.66269112809
  20
 405.90765407381
  30
0.0
  11
 507.66269112809
  21
 395.90765407381
  31
0.0
  70
0
   3
GMM001
 100
AcDbAlignedDimension
  13
 471.78650664792
  23
 385.90765407381
  33
0.0
  14
 471.78650664792
  24
 405.90765407381
  34
0.0
  50
 90.000000000000
 100
AcDbRotatedDimension
   0
DIMENSION
   5
44D
 100
AcDbEntity
   8
0
 370
15
   6
CONTINUOUS
  62
8
 100
AcDbDimension
   2
*D30
  10
 473.78650664792
  20
 337.47961265843
  30
0.0
  11
 433.78650664792
  21
 337.47961265843
  31
0.0
  70
0
   3
GMM001
 100
AcDbAlignedDimension
  13
 393.78650664792
  23
 387.90765407381
  33
0.0
  14
 473.78650664792
  24
 387.90765407381
  34
0.0
 100
AcDbRotatedDimension
   0
DIMENSION
   5
44E
 100
AcDbEntity
   8
0
 370
15
   6
CONTINUOUS
  62
8
 100
AcDbDimension
   2
*D31
  10
 463.78650664792
  20
 359.97585326013
  30
0.0
  11
 433.78650664792
  21
 359.97585326013
  31
0.0
  70
0
   3
GMM001
 100
AcDbAlignedDimension
  13
 403.78650664792
  23
 392.65675482603
  33
0.0
  14
 463.78650664792
  24
 387.98341362470
  34
0.0
 100
AcDbRotatedDimension
   0
LINE
   5
44F
 100
AcDbEntity
   8
0
 370
15
 100
AcDbLine
   6
DASHDOT
  62
8
  10
 403.78650664792
  20
 392.65675482603
  30
0.0
  11
 403.78650664792
  21
 404.15855332159
  31
0.0
   0
LINE
   5
450
 100
AcDbEntity
   8
0
 370
15
 100
AcDbLine
   6
DASHDOT
  62
8
  10
 410.14017757580
  20
 398.40765407381
  30
0.0
  11
 397.43283572004
  21
 398.40765407381
  31
0.0
   0
CIRCLE
   5
451
 100
AcDbEntity
   8
LEVEL002
 370
15
 100
AcDbCircle
   6
CONTINUOUS
  62
5
  10
 433.78650664792
  20
 395.90765407381
  30
0.0
  40
 6.0000000000000
   0
LINE
   5
452
 100
AcDbEntity
   8
LEVEL002
 370
15
 100
AcDbLine
   6
CONTINUOUS
  62
5
  10
 434.23650664792
  20
 399.12634946170
  30
0.0
  11
 434.23650664792
  21
 398.20575111267
  31
0.0
   0
LINE
   5
453
 100
AcDbEntity
   8
LEVEL002
 370
15
 100
AcDbLine
   6
CONTINUOUS
  62
5
  10
 434.23650664792
  20
 393.60955703496
  30
0.0
  11
 434.23650664792
  21
 392.68895868593
  31
0.0
   0
LINE
   5
454
 100
AcDbEntity
   8
LEVEL002
 370
15
 100
AcDbLine
   6
CONTINUOUS
  62
5
  10
 433.33650664792
  20
 399.12634946170
  30
0.0
  11
 433.33650664792
  21
 398.20575111267
  31
0.0
   0
LINE
   5
455
 100
AcDbEntity
   8
LEVEL002
 370
15
 100
AcDbLine
   6
CONTINUOUS
  62
5
  10
 433.33650664792
  20
 393.60955703496
  30
0.0
  11
 433.33650664792
  21
 392.68895868593
  31
0.0
   0
LINE
   5
456
 100
AcDbEntity
   8
LEVEL002
 370
15
 100
AcDbLine
   6
CONTINUOUS
  62
5
  10
 430.56781126003
  20
 395.45765407381
  30
0.0
  11
 431.48840960906
  21
 395.45765407381
  31
0.0
   0
LINE
   5
457
 100
AcDbEntity
   8
LEVEL002
 370
15
 100
AcDbLine
   6
CONTINUOUS
  62
5
  10
 436.08460368677
  20
 395.45765407381
  30
0.0
  11
 437.00520203580
  21
 395.45765407381
  31
0.0
   0
LINE
   5
458
 100
AcDbEntity
   8
LEVEL002
 370
15
 100
AcDbLine
   6
CONTINUOUS
  62
5
  10
 430.56781126003
  20
 396.35765407381
  30
0.0
  11
 431.48840960906
  21
 396.35765407381
  31
0.0
   0
LINE
   5
459
 100
AcDbEntity
   8
LEVEL002
 370
15
 100
AcDbLine
   6
CONTINUOUS
  62
5
  10
 436.08460368677
  20
 396.35765407381
  30
0.0
  11
 437.00520203580
  21
 396.35765407381
  31
0.0
   0
ARC
   5
45A
 100
AcDbEntity
   8
LEVEL002
 370
15
   6
CONTINUOUS
  62
5
 100
AcDbCircle
  10
 433.78650664792
  20
 395.90765407381
  30
0.0
  40
 3.2500000000000
 100
AcDbArc
  50
 352.04116811846
  51
 7.9588318815447
   0
ARC
   5
45B
 100
AcDbEntity
   8
LEVEL002
 370
15
   6
CONTINUOUS
  62
5
 100
AcDbCircle
  10
 433.78650664791
  20
 395.90765407381
  30
0.0
  40
 3.2500000000000
 100
AcDbArc
  50
 82.041168118402
  51
 97.958831881483
   0
ARC
   5
45C
 100
AcDbEntity
   8
LEVEL002
 370
15
   6
CONTINUOUS
  62
5
 100
AcDbCircle
  10
 433.78650664792
  20
 395.90765407381
  30
0.0
  40
 3.2500000000000
 100
AcDbArc
  50
 172.04116811847
  51
 187.95883188153
   0
ARC
   5
45D
 100
AcDbEntity
   8
LEVEL002
 370
15
   6
CONTINUOUS
  62
5
 100
AcDbCircle
  10
 433.78650664791
  20
 395.90765407381
  30
0.0
  40
 3.2500000000000
 100
AcDbArc
  50
 262.04116811850
  51
 277.95883188155
   0
ARC
   5
45E
 100
AcDbEntity
   8
LEVEL002
 370
15
   6
CONTINUOUS
  62
5
 100
AcDbCircle
  10
 436.08460368677
  20
 393.60955703496
  30
0.0
  40
 1.8480970388563
 100
AcDbArc
  50
 89.999999999968
  51
 179.99999999998
   0
ARC
   5
45F
 100
AcDbEntity
   8
LEVEL002
 370
15
   6
CONTINUOUS
  62
5
 100
AcDbCircle
  10
 436.08460368677
  20
 398.20575111267
  30
0.0
  40
 1.8480970388563
 100
AcDbArc
  50
 180.00000000000
  51
 270.00000000003
   0
ARC
   5
460
 100
AcDbEntity
   8
LEVEL002
 370
15
   6
CONTINUOUS
  62
5
 100
AcDbCircle
  10
 431.48840960906
  20
 393.60955703496
  30
0.0
  40
 1.8480970388563
 100
AcDbArc
  50
0.0
  51
 90.000000000088
   0
ARC
   5
461
 100
AcDbEntity
   8
LEVEL002
 370
15
   6
CONTINUOUS
  62
5
 100
AcDbCircle
  10
 431.48840960906
  20
 398.20575111267
  30
0.0
  40
 1.8480970388563
 100
AcDbArc
  50
 269.99999999997
  51
0.0
   0
LINE
   5
462
 100
AcDbEntity
   8
LEVEL004
 370
20
 100
AcDbLine
   6
CONTINUOUS
  62
1
  10
 395.04982259921
  20
 955.86464123940
  30
0.0
  11
 395.04982259921
  21
 939.86464123940
  31
0.0
   0
CIRCLE
   5
463
 100
AcDbEntity
   8
LEVEL004
 370
20
 100
AcDbCircle
   6
CONTINUOUS
  62
1
  10
 405.04982259921
  20
 950.36464123940
  30
0.0
  40
 2.5000000000000
   0
LINE
   5
464
 100
AcDbEntity
   8
LEVEL004
 370
20
 100
AcDbLine
   6
CONTINUOUS
  62
1
  10
 397.04982259921
  20
 957.86464123940
  30
0.0
  11
 473.04982259921
  21
 957.86464123940
  31
0.0
   0
LINE
   5
465
 100
AcDbEntity
   8
LEVEL004
 370
20
 100
AcDbLine
   6
CONTINUOUS
  62
1
  10
 473.04982259921
  20
 937.86464123940
  30
0.0
  11
 397.04982259921
  21
 937.86464123940
  31
0.0
   0
ARC
   5
466
 100
AcDbEntity
   8
LEVEL004
 370
20
   6
CONTINUOUS
  62
1
 100
AcDbCircle
  10
 397.04982259921
  20
 955.86464123940
  30
0.0
  40
 2.0000000000000
 100
AcDbArc
  50
 90.000000000000
  51
 180.00000000000
   0
ARC
   5
467
 100
AcDbEntity
   8
LEVEL004
 370
20
   6
CONTINUOUS
  62
1
 100
AcDbCircle
  10
 397.04982259921
  20
 939.86464123940
  30
0.0
  40
 2.0000000000000
 100
AcDbArc
  50
 180.00000000000
  51
 270.00000000000
   0
CIRCLE
   5
468
 100
AcDbEntity
   8
LEVEL004
 370
20
 100
AcDbCircle
   6
HIDDEN
  62
1
  10
 405.04982259921
  20
 950.36464123940
  30
0.0
  40
 4.3000000000000
   0
LINE
   5
469
 100
AcDbEntity
   8
LEVEL004
 370
20
 100
AcDbLine
   6
CONTINUOUS
  62
1
  10
 475.04982259921
  20
 955.86464123940
  30
0.0
  11
 475.04982259921
  21
 939.86464123940
  31
0.0
   0
CIRCLE
   5
46A
 100
AcDbEntity
   8
LEVEL004
 370
20
 100
AcDbCircle
   6
CONTINUOUS
  62
1
  10
 465.04982259921
  20
 945.36464123940
  30
0.0
  40
 2.5000000000000
   0
ARC
   5
46B
 100
AcDbEntity
   8
LEVEL004
 370
20
   6
CONTINUOUS
  62
1
 100
AcDbCircle
  10
 473.04982259921
  20
 955.86464123940
  30
0.0
  40
 2.0000000000000
 100
AcDbArc
  50
0.0
  51
 90.000000000000
   0
ARC
   5
46C
 100
AcDbEntity
   8
LEVEL004
 370
20
   6
CONTINUOUS
  62
1
 100
AcDbCircle
  10
 473.04982259921
  20
 939.86464123940
  30
0.0
  40
 2.0000000000000
 100
AcDbArc
  50
 270.00000000000
  51
0.0
   0
CIRCLE
   5
46D
 100
AcDbEntity
   8
LEVEL004
 370
20
 100
AcDbCircle
   6
HIDDEN
  62
1
  10
 465.04982259921
  20
 945.36464123940
  30
0.0
  40
 4.3000000000000
   0
CIRCLE
   5
46E
 100
AcDbEntity
   8
LEVEL007
 370
20
 100
AcDbCircle
   6
CONTINUOUS
  62
1
  10
 435.04982259921
  20
 947.86464123940
  30
0.0
  40
 6.4000000000000
   0
LINE
   5
46F
 100
AcDbEntity
   8
0
 370
15
 100
AcDbLine
   6
DASHDOT
  62
8
  10
 465.04982259921
  20
 939.94040079028
  30
0.0
  11
 465.04982259921
  21
 950.78888168851
  31
0.0
   0
LINE
   5
470
 100
AcDbEntity
   8
0
 370
15
 100
AcDbLine
   6
DASHDOT
  62
8
  10
 470.50751460277
  20
 945.36464123940
  30
0.0
  11
 459.59213059564
  21
 945.36464123940
  31
0.0
   0
DIMENSION
   5
471
 100
AcDbEntity
   8
0
 370
15
   6
CONTINUOUS
  62
8
 100
AcDbDimension
   2
*D32
  10
 508.92600707938
  20
 957.86464123940
  30
0.0
  11
 508.92600707938
  21
 947.86464123940
  31
0.0
  70
0
   3
GMM001
 100
AcDbAlignedDimension
  13
 473.04982259921
  23
 937.86464123940
  33
0.0
  14
 473.04982259921
  24
 957.86464123940
  34
0.0
  50
 90.000000000000
 100
AcDbRotatedDimension
   0
DIMENSION
   5
472
 100
AcDbEntity
   8
0
 370
15
   6
CONTINUOUS
  62
8
 100
AcDbDimension
   2
*D33
  10
 475.04982259921
  20
 889.43659982402
  30
0.0
  11
 435.04982259921
  21
 889.43659982402
  31
0.0
  70
0
   3
GMM001
 100
AcDbAlignedDimension
  13
 395.04982259921
  23
 939.86464123940
  33
0.0
  14
 475.04982259921
  24
 939.86464123940
  34
0.0
 100
AcDbRotatedDimension
   0
DIMENSION
   5
473
 100
AcDbEntity
   8
0
 370
15
   6
CONTINUOUS
  62
8
 100
AcDbDimension
   2
*D34
  10
 465.04982259921
  20
 911.93284042571
  30
0.0
  11
 435.04982259921
  21
 911.93284042571
  31
0.0
  70
0
   3
GMM001
 100
AcDbAlignedDimension
  13
 405.04982259921
  23
 944.61374199162
  33
0.0
  14
 465.04982259921
  24
 939.94040079028
  34
0.0
 100
AcDbRotatedDimension
   0
LINE
   5
474
 100
AcDbEntity
   8
0
 370
15
 100
AcDbLine
   6
DASHDOT
  62
8
  10
 405.04982259921
  20
 944.61374199162
  30
0.0
  11
 405.04982259921
  21
 956.11554048718
  31
0.0
   0
LINE
   5
475
 100
AcDbEntity
   8
0
 370
15
 100
AcDbLine
   6
DASHDOT
  62
8
  10
 411.40349352709
  20
 950.36464123940
  30
0.0
  11
 398.69615167132
  21
 950.36464123940
  31
0.0
   0
CIRCLE
   5
476
 100
AcDbEntity
   8
LEVEL002
 370
15
 100
AcDbCircle
   6
CONTINUOUS
  62
5
  10
 435.04982259921
  20
 947.86464123940
  30
0.0
  40
 6.0000000000000
   0
LINE
   5
477
 100
AcDbEntity
   8
LEVEL002
 370
15
 100
AcDbLine
   6
CONTINUOUS
  62
5
  10
 435.49982259921
  20
 951.08333662728
  30
0.0
  11
 435.49982259921
  21
 950.16273827825
  31
0.0
   0
LINE
   5
478
 100
AcDbEntity
   8
LEVEL002
 370
15
 100
AcDbLine
   6
CONTINUOUS
  62
5
  10
 435.49982259921
  20
 945.56654420054
  30
0.0
  11
 435.49982259921
  21
 944.64594585151
  31
0.0
   0
LINE
   5
479
 100
AcDbEntity
   8
LEVEL002
 370
15
 100
AcDbLine
   6
CONTINUOUS
  62
5
  10
 434.59982259921
  20
 951.08333662728
  30
0.0
  11
 434.59982259921
  21
 950.16273827825
  31
0.0
   0
LINE
   5
47A
 100
AcDbEntity
   8
LEVEL002
 370
15
 100
AcDbLine
   6
CONTINUOUS
  62
5
  10
 434.59982259921
  20
 945.56654420054
  30
0.0
  11
 434.59982259921
  21
 944.64594585151
  31
0.0
   0
LINE
   5
47B
 100
AcDbEntity
   8
LEVEL002
 370
15
 100
AcDbLine
   6
CONTINUOUS
  62
5
  10
 431.83112721132
  20
 947.41464123940
  30
0.0
  11
 432.75172556035
  21
 947.41464123940
  31
0.0
   0
LINE
   5
47C
 100
AcDbEntity
   8
LEVEL002
 370
15
 100
AcDbLine
   6
CONTINUOUS
  62
5
  10
 437.34791963806
  20
 947.41464123940
  30
0.0
  11
 438.26851798709
  21
 947.41464123940
  31
0.0
   0
LINE
   5
47D
 100
AcDbEntity
   8
LEVEL002
 370
15
 100
AcDbLine
   6
CONTINUOUS
  62
5
  10
 431.83112721132
  20
 948.31464123940
  30
0.0
  11
 432.75172556035
  21
 948.31464123940
  31
0.0
   0
LINE
   5
47E
 100
AcDbEntity
   8
LEVEL002
 370
15
 100
AcDbLine
   6
CONTINUOUS
  62
5
  10
 437.34791963806
  20
 948.31464123940
  30
0.0
  11
 438.26851798709
  21
 948.31464123940
  31
0.0
   0
ARC
   5
47F
 100
AcDbEntity
   8
LEVEL002
 370
15
   6
CONTINUOUS
  62
5
 100
AcDbCircle
  10
 435.04982259921
  20
 947.86464123940
  30
0.0
  40
 3.2500000000000
 100
AcDbArc
  50
 352.04116811846
  51
 7.9588318815447
   0
ARC
   5
480
 100
AcDbEntity
   8
LEVEL002
 370
15
   6
CONTINUOUS
  62
5
 100
AcDbCircle
  10
 435.04982259920
  20
 947.86464123940
  30
0.0
  40
 3.2500000000000
 100
AcDbArc
  50
 82.041168118402
  51
 97.958831881483
   0
ARC
   5
481
 100
AcDbEntity
   8
LEVEL002
 370
15
   6
CONTINUOUS
  62
5
 100
AcDbCircle
  10
 435.04982259921
  20
 947.86464123940
  30
0.0
  40
 3.2500000000000
 100
AcDbArc
  50
 172.04116811847
  51
 187.95883188153
   0
ARC
   5
482
 100
AcDbEntity
   8
LEVEL002
 370
15
   6
CONTINUOUS
  62
5
 100
AcDbCircle
  10
 435.04982259920
  20
 947.86464123940
  30
0.0
  40
 3.2500000000000
 100
AcDbArc
  50
 262.04116811850
  51
 277.95883188155
   0
ARC
   5
483
 100
AcDbEntity
   8
LEVEL002
 370
15
   6
CONTINUOUS
  62
5
 100
AcDbCircle
  10
 437.34791963805
  20
 945.56654420054
  30
0.0
  40
 1.8480970388563
 100
AcDbArc
  50
 89.999999999968
  51
 179.99999999998
   0
ARC
   5
484
 100
AcDbEntity
   8
LEVEL002
 370
15
   6
CONTINUOUS
  62
5
 100
AcDbCircle
  10
 437.34791963805
  20
 950.16273827825
  30
0.0
  40
 1.8480970388563
 100
AcDbArc
  50
 180.00000000000
  51
 270.00000000003
   0
ARC
   5
485
 100
AcDbEntity
   8
LEVEL002
 370
15
   6
CONTINUOUS
  62
5
 100
AcDbCircle
  10
 432.75172556035
  20
 945.56654420054
  30
0.0
  40
 1.8480970388563
 100
AcDbArc
  50
0.0
  51
 90.000000000088
   0
ARC
   5
486
 100
AcDbEntity
   8
LEVEL002
 370
15
   6
CONTINUOUS
  62
5
 100
AcDbCircle
  10
 432.75172556035
  20
 950.16273827826
  30
0.0
  40
 1.8480970388563
 100
AcDbArc
  50
 269.99999999997
  51
0.0
   0
LINE
   5
487
 100
AcDbEntity
   8
LEVEL004
 370
20
 100
AcDbLine
   6
CONTINUOUS
  62
1
  10
 393.78650664791
  20
 274.45838762098
  30
0.0
  11
 473.78650664791
  21
 274.45838762098
  31
0.0
   0
LINE
   5
488
 100
AcDbEntity
   8
LEVEL004
 370
20
 100
AcDbLine
   6
CONTINUOUS
  62
1
  10
 393.78650664791
  20
 276.95838762098
  30
0.0
  11
 473.78650664791
  21
 276.95838762098
  31
0.0
   0
LINE
   5
489
 100
AcDbEntity
   8
LEVEL004
 370
20
 100
AcDbLine
   6
CONTINUOUS
  62
1
  10
 393.78650664791
  20
 274.45838762098
  30
0.0
  11
 393.78650664791
  21
 276.95838762098
  31
0.0
   0
LINE
   5
48A
 100
AcDbEntity
   8
LEVEL004
 370
20
 100
AcDbLine
   6
HIDDEN
  62
1
  10
 429.03650664791
  20
 275.20838762098
  30
0.0
  11
 438.53650664791
  21
 275.20838762098
  31
0.0
   0
LINE
   5
48B
 100
AcDbEntity
   8
LEVEL004
 370
20
 100
AcDbLine
   6
HIDDEN
  62
1
  10
 429.03650664791
  20
 275.20838762098
  30
0.0
  11
 429.03650664791
  21
 274.45838762098
  31
0.0
   0
LINE
   5
48C
 100
AcDbEntity
   8
LEVEL004
 370
20
 100
AcDbLine
   6
HIDDEN
  62
1
  10
 429.03650664791
  20
 275.20838762098
  30
0.0
  11
 427.28650664791
  21
 276.95838762098
  31
0.0
   0
LINE
   5
48D
 100
AcDbEntity
   8
LEVEL004
 370
20
 100
AcDbLine
   6
HIDDEN
  62
1
  10
 406.28650664791
  20
 276.35838762098
  30
0.0
  11
 406.28650664791
  21
 276.95838762098
  31
0.0
   0
LINE
   5
48E
 100
AcDbEntity
   8
LEVEL004
 370
20
 100
AcDbLine
   6
HIDDEN
  62
1
  10
 406.28650664791
  20
 276.35838762098
  30
0.0
  11
 408.18650664791
  21
 274.45838762098
  31
0.0
   0
LINE
   5
48F
 100
AcDbEntity
   8
LEVEL004
 370
20
 100
AcDbLine
   6
HIDDEN
  62
1
  10
 401.28650664791
  20
 276.35838762098
  30
0.0
  11
 401.28650664791
  21
 276.95838762098
  31
0.0
   0
LINE
   5
490
 100
AcDbEntity
   8
LEVEL004
 370
20
 100
AcDbLine
   6
HIDDEN
  62
1
  10
 401.28650664791
  20
 276.35838762098
  30
0.0
  11
 399.38650664791
  21
 274.45838762098
  31
0.0
   0
LINE
   5
491
 100
AcDbEntity
   8
LEVEL004
 370
20
 100
AcDbLine
   6
HIDDEN
  62
1
  10
 401.28650664791
  20
 276.35838762098
  30
0.0
  11
 406.28650664791
  21
 276.35838762098
  31
0.0
   0
LINE
   5
492
 100
AcDbEntity
   8
LEVEL004
 370
20
 100
AcDbLine
   6
CONTINUOUS
  62
1
  10
 473.78650664791
  20
 274.45838762098
  30
0.0
  11
 473.78650664791
  21
 276.95838762098
  31
0.0
   0
LINE
   5
493
 100
AcDbEntity
   8
LEVEL004
 370
20
 100
AcDbLine
   6
HIDDEN
  62
1
  10
 466.28650664791
  20
 276.35838762098
  30
0.0
  11
 466.28650664791
  21
 276.95838762098
  31
0.0
   0
LINE
   5
494
 100
AcDbEntity
   8
LEVEL004
 370
20
 100
AcDbLine
   6
HIDDEN
  62
1
  10
 466.28650664791
  20
 276.25838762098
  30
0.0
  11
 461.28650664791
  21
 276.25838762098
  31
0.0
   0
LINE
   5
495
 100
AcDbEntity
   8
LEVEL004
 370
20
 100
AcDbLine
   6
HIDDEN
  62
1
  10
 466.28650664791
  20
 276.25838762098
  30
0.0
  11
 466.28650664791
  21
 276.95838762098
  31
0.0
   0
LINE
   5
496
 100
AcDbEntity
   8
LEVEL004
 370
20
 100
AcDbLine
   6
HIDDEN
  62
1
  10
 466.28650664791
  20
 276.25838762098
  30
0.0
  11
 468.08650664791
  21
 274.45838762098
  31
0.0
   0
LINE
   5
497
 100
AcDbEntity
   8
LEVEL004
 370
20
 100
AcDbLine
   6
HIDDEN
  62
1
  10
 461.28650664791
  20
 276.25838762098
  30
0.0
  11
 459.48650664791
  21
 274.45838762098
  31
0.0
   0
LINE
   5
498
 100
AcDbEntity
   8
LEVEL004
 370
20
 100
AcDbLine
   6
HIDDEN
  62
1
  10
 461.28650664791
  20
 276.35838762098
  30
0.0
  11
 461.28650664791
  21
 276.95838762098
  31
0.0
   0
LINE
   5
499
 100
AcDbEntity
   8
LEVEL004
 370
20
 100
AcDbLine
   6
HIDDEN
  62
1
  10
 461.28650664791
  20
 276.25838762098
  30
0.0
  11
 461.28650664791
  21
 276.95838762098
  31
0.0
   0
LINE
   5
49A
 100
AcDbEntity
   8
LEVEL004
 370
20
 100
AcDbLine
   6
HIDDEN
  62
1
  10
 438.53650664791
  20
 275.20838762098
  30
0.0
  11
 438.53650664791
  21
 274.45838762098
  31
0.0
   0
LINE
   5
49B
 100
AcDbEntity
   8
LEVEL004
 370
20
 100
AcDbLine
   6
HIDDEN
  62
1
  10
 438.53650664791
  20
 275.20838762098
  30
0.0
  11
 440.28650664791
  21
 276.95838762098
  31
0.0
   0
DIMENSION
   5
49C
 100
AcDbEntity
   8
0
 370
15
   6
CONTINUOUS
  62
8
 100
AcDbDimension
   2
*D35
  10
 507.66269112808
  20
 276.95838762098
  30
0.0
  11
 507.66269112808
  21
 285.83383153853
  31
0.0
  70
128
   3
GMM008
 100
AcDbAlignedDimension
  13
 473.78650664791
  23
 274.45838762098
  33
0.0
  14
 473.78650664791
  24
 276.95838762098
  34
0.0
  50
 90.000000000000
 100
AcDbRotatedDimension
   0
LINE
   5
49D
 100
AcDbEntity
   8
LEVEL006
 370
15
 100
AcDbLine
   6
DASHDOT
  62
8
  10
 463.78650664791
  20
 273.45838762098
  30
0.0
  11
 463.78650664791
  21
 277.45838762098
  31
0.0
   0
LINE
   5
49E
 100
AcDbEntity
   8
LEVEL006
 370
15
 100
AcDbLine
   6
DASHDOT
  62
8
  10
 463.78650664791
  20
 273.45838762098
  30
0.0
  11
 463.78650664791
  21
 277.45838762098
  31
0.0
   0
DIMENSION
   5
49F
 100
AcDbEntity
   8
0
 370
15
   6
CONTINUOUS
  62
8
 100
AcDbDimension
   2
*D36
  10
 473.78650664791
  20
 296.95838762098
  30
0.0
  11
 433.78650664791
  21
 296.95838762098
  31
0.0
  70
0
   3
GMM001
 100
AcDbAlignedDimension
  13
 393.78650664791
  23
 276.95838762098
  33
0.0
  14
 473.78650664791
  24
 276.95838762098
  34
0.0
 100
AcDbRotatedDimension
   0
LINE
   5
4A0
 100
AcDbEntity
   8
LEVEL006
 370
15
 100
AcDbLine
   6
DASHDOT
  62
8
  10
 403.78650664791
  20
 273.45838762098
  30
0.0
  11
 403.78650664791
  21
 277.45838762098
  31
0.0
   0
LINE
   5
4A1
 100
AcDbEntity
   8
LEVEL004
 370
20
 100
AcDbLine
   6
CONTINUOUS
  62
1
  10
 395.04982259920
  20
 826.41537478657
  30
0.0
  11
 475.04982259920
  21
 826.41537478657
  31
0.0
   0
LINE
   5
4A2
 100
AcDbEntity
   8
LEVEL004
 370
20
 100
AcDbLine
   6
CONTINUOUS
  62
1
  10
 395.04982259920
  20
 828.91537478657
  30
0.0
  11
 475.04982259920
  21
 828.91537478657
  31
0.0
   0
LINE
   5
4A3
 100
AcDbEntity
   8
LEVEL004
 370
20
 100
AcDbLine
   6
CONTINUOUS
  62
1
  10
 395.04982259920
  20
 826.41537478657
  30
0.0
  11
 395.04982259920
  21
 828.91537478657
  31
0.0
   0
LINE
   5
4A4
 100
AcDbEntity
   8
LEVEL004
 370
20
 100
AcDbLine
   6
HIDDEN
  62
1
  10
 430.29982259920
  20
 827.16537478657
  30
0.0
  11
 439.79982259920
  21
 827.16537478657
  31
0.0
   0
LINE
   5
4A5
 100
AcDbEntity
   8
LEVEL004
 370
20
 100
AcDbLine
   6
HIDDEN
  62
1
  10
 430.29982259920
  20
 827.16537478657
  30
0.0
  11
 430.29982259920
  21
 826.41537478657
  31
0.0
   0
LINE
   5
4A6
 100
AcDbEntity
   8
LEVEL004
 370
20
 100
AcDbLine
   6
HIDDEN
  62
1
  10
 430.29982259920
  20
 827.16537478657
  30
0.0
  11
 428.54982259920
  21
 828.91537478657
  31
0.0
   0
LINE
   5
4A7
 100
AcDbEntity
   8
LEVEL004
 370
20
 100
AcDbLine
   6
HIDDEN
  62
1
  10
 407.54982259920
  20
 828.31537478657
  30
0.0
  11
 407.54982259920
  21
 828.91537478657
  31
0.0
   0
LINE
   5
4A8
 100
AcDbEntity
   8
LEVEL004
 370
20
 100
AcDbLine
   6
HIDDEN
  62
1
  10
 407.54982259920
  20
 828.31537478657
  30
0.0
  11
 409.44982259920
  21
 826.41537478657
  31
0.0
   0
LINE
   5
4A9
 100
AcDbEntity
   8
LEVEL004
 370
20
 100
AcDbLine
   6
HIDDEN
  62
1
  10
 402.54982259920
  20
 828.31537478657
  30
0.0
  11
 402.54982259920
  21
 828.91537478657
  31
0.0
   0
LINE
   5
4AA
 100
AcDbEntity
   8
LEVEL004
 370
20
 100
AcDbLine
   6
HIDDEN
  62
1
  10
 402.54982259920
  20
 828.31537478657
  30
0.0
  11
 400.64982259920
  21
 826.41537478657
  31
0.0
   0
LINE
   5
4AB
 100
AcDbEntity
   8
LEVEL004
 370
20
 100
AcDbLine
   6
HIDDEN
  62
1
  10
 402.54982259920
  20
 828.31537478657
  30
0.0
  11
 407.54982259920
  21
 828.31537478657
  31
0.0
   0
LINE
   5
4AC
 100
AcDbEntity
   8
LEVEL004
 370
20
 100
AcDbLine
   6
CONTINUOUS
  62
1
  10
 475.04982259920
  20
 826.41537478657
  30
0.0
  11
 475.04982259920
  21
 828.91537478657
  31
0.0
   0
LINE
   5
4AD
 100
AcDbEntity
   8
LEVEL004
 370
20
 100
AcDbLine
   6
HIDDEN
  62
1
  10
 467.54982259920
  20
 828.31537478657
  30
0.0
  11
 467.54982259920
  21
 828.91537478657
  31
0.0
   0
LINE
   5
4AE
 100
AcDbEntity
   8
LEVEL004
 370
20
 100
AcDbLine
   6
HIDDEN
  62
1
  10
 467.54982259920
  20
 828.21537478657
  30
0.0
  11
 462.54982259920
  21
 828.21537478657
  31
0.0
   0
LINE
   5
4AF
 100
AcDbEntity
   8
LEVEL004
 370
20
 100
AcDbLine
   6
HIDDEN
  62
1
  10
 467.54982259920
  20
 828.21537478657
  30
0.0
  11
 467.54982259920
  21
 828.91537478657
  31
0.0
   0
LINE
   5
4B0
 100
AcDbEntity
   8
LEVEL004
 370
20
 100
AcDbLine
   6
HIDDEN
  62
1
  10
 467.54982259920
  20
 828.21537478657
  30
0.0
  11
 469.34982259920
  21
 826.41537478657
  31
0.0
   0
LINE
   5
4B1
 100
AcDbEntity
   8
LEVEL004
 370
20
 100
AcDbLine
   6
HIDDEN
  62
1
  10
 462.54982259920
  20
 828.21537478657
  30
0.0
  11
 460.74982259920
  21
 826.41537478657
  31
0.0
   0
LINE
   5
4B2
 100
AcDbEntity
   8
LEVEL004
 370
20
 100
AcDbLine
   6
HIDDEN
  62
1
  10
 462.54982259920
  20
 828.31537478657
  30
0.0
  11
 462.54982259920
  21
 828.91537478657
  31
0.0
   0
LINE
   5
4B3
 100
AcDbEntity
   8
LEVEL004
 370
20
 100
AcDbLine
   6
HIDDEN
  62
1
  10
 462.54982259920
  20
 828.21537478657
  30
0.0
  11
 462.54982259920
  21
 828.91537478657
  31
0.0
   0
LINE
   5
4B4
 100
AcDbEntity
   8
LEVEL004
 370
20
 100
AcDbLine
   6
HIDDEN
  62
1
  10
 439.79982259920
  20
 827.16537478657
  30
0.0
  11
 439.79982259920
  21
 826.41537478657
  31
0.0
   0
LINE
   5
4B5
 100
AcDbEntity
   8
LEVEL004
 370
20
 100
AcDbLine
   6
HIDDEN
  62
1
  10
 439.79982259920
  20
 827.16537478657
  30
0.0
  11
 441.54982259920
  21
 828.91537478657
  31
0.0
   0
DIMENSION
   5
4B6
 100
AcDbEntity
   8
0
 370
15
   6
CONTINUOUS
  62
8
 100
AcDbDimension
   2
*D37
  10
 508.92600707937
  20
 828.91537478657
  30
0.0
  11
 508.92600707937
  21
 837.79081870412
  31
0.0
  70
128
   3
GMM008
 100
AcDbAlignedDimension
  13
 475.04982259920
  23
 826.41537478657
  33
0.0
  14
 475.04982259920
  24
 828.91537478657
  34
0.0
  50
 90.000000000000
 100
AcDbRotatedDimension
   0
LINE
   5
4B7
 100
AcDbEntity
   8
LEVEL006
 370
15
 100
AcDbLine
   6
DASHDOT
  62
8
  10
 465.04982259920
  20
 825.41537478657
  30
0.0
  11
 465.04982259920
  21
 829.41537478657
  31
0.0
   0
LINE
   5
4B8
 100
AcDbEntity
   8
LEVEL006
 370
15
 100
AcDbLine
   6
DASHDOT
  62
8
  10
 465.04982259920
  20
 825.41537478657
  30
0.0
  11
 465.04982259920
  21
 829.41537478657
  31
0.0
   0
DIMENSION
   5
4B9
 100
AcDbEntity
   8
0
 370
15
   6
CONTINUOUS
  62
8
 100
AcDbDimension
   2
*D38
  10
 475.04982259920
  20
 848.91537478657
  30
0.0
  11
 435.04982259920
  21
 848.91537478657
  31
0.0
  70
0
   3
GMM001
 100
AcDbAlignedDimension
  13
 395.04982259920
  23
 828.91537478657
  33
0.0
  14
 475.04982259920
  24
 828.91537478657
  34
0.0
 100
AcDbRotatedDimension
   0
LINE
   5
4BA
 100
AcDbEntity
   8
LEVEL006
 370
15
 100
AcDbLine
   6
DASHDOT
  62
8
  10
 405.04982259920
  20
 825.41537478657
  30
0.0
  11
 405.04982259920
  21
 829.41537478657
  31
0.0
   0
LWPOLYLINE
   5
4BB
 100
AcDbEntity
   8
0
 370
20
   6
CONTINUOUS
  62
1
 100
AcDbPolyline
  90
4
  70
1
  10
 324.33590180057
  20
 276.95838762098
  10
 324.33590180057
  20
 274.45838762098
  10
 344.33590180057
  20
 274.45838762098
  10
 344.33590180057
  20
 276.95838762098
   0
LINE
   5
4BC
 100
AcDbEntity
   8
LEVEL004
 370
20
 100
AcDbLine
   6
HIDDEN
  62
1
  10
 329.58590180057
  20
 275.20838762098
  30
0.0
  11
 339.08590180057
  21
 275.20838762098
  31
0.0
   0
LINE
   5
4BD
 100
AcDbEntity
   8
LEVEL004
 370
20
 100
AcDbLine
   6
HIDDEN
  62
1
  10
 329.58590180057
  20
 275.20838762098
  30
0.0
  11
 329.58590180057
  21
 274.45838762098
  31
0.0
   0
LINE
   5
4BE
 100
AcDbEntity
   8
LEVEL004
 370
20
 100
AcDbLine
   6
HIDDEN
  62
1
  10
 329.58590180057
  20
 275.20838762098
  30
0.0
  11
 327.83590180057
  21
 276.95838762098
  31
0.0
   0
LINE
   5
4BF
 100
AcDbEntity
   8
LEVEL004
 370
20
 100
AcDbLine
   6
HIDDEN
  62
1
  10
 339.08590180057
  20
 275.20838762098
  30
0.0
  11
 339.08590180057
  21
 274.45838762098
  31
0.0
   0
LINE
   5
4C0
 100
AcDbEntity
   8
LEVEL004
 370
20
 100
AcDbLine
   6
HIDDEN
  62
1
  10
 339.08590180057
  20
 275.20838762098
  30
0.0
  11
 340.83590180057
  21
 276.95838762098
  31
0.0
   0
LINE
   5
4C1
 100
AcDbEntity
   8
LEVEL004
 370
20
 100
AcDbLine
   6
HIDDEN
  62
1
  10
 334.33590180057
  20
 276.35838762098
  30
0.0
  11
 334.33590180057
  21
 276.95838762098
  31
0.0
   0
LINE
   5
4C2
 100
AcDbEntity
   8
LEVEL004
 370
20
 100
AcDbLine
   6
HIDDEN
  62
1
  10
 334.33590180057
  20
 276.35838762098
  30
0.0
  11
 336.23590180057
  21
 274.45838762098
  31
0.0
   0
LINE
   5
4C3
 100
AcDbEntity
   8
LEVEL004
 370
20
 100
AcDbLine
   6
HIDDEN
  62
1
  10
 329.33590180057
  20
 276.35838762098
  30
0.0
  11
 329.33590180057
  21
 276.95838762098
  31
0.0
   0
LINE
   5
4C4
 100
AcDbEntity
   8
LEVEL004
 370
20
 100
AcDbLine
   6
HIDDEN
  62
1
  10
 329.33590180057
  20
 276.35838762098
  30
0.0
  11
 327.43590180057
  21
 274.45838762098
  31
0.0
   0
LINE
   5
4C5
 100
AcDbEntity
   8
LEVEL004
 370
20
 100
AcDbLine
   6
HIDDEN
  62
1
  10
 329.33590180057
  20
 276.35838762098
  30
0.0
  11
 334.33590180057
  21
 276.35838762098
  31
0.0
   0
LINE
   5
4C6
 100
AcDbEntity
   8
LEVEL004
 370
20
 100
AcDbLine
   6
HIDDEN
  62
1
  10
 339.33590180057
  20
 276.35838762098
  30
0.0
  11
 339.33590180057
  21
 276.95838762098
  31
0.0
   0
LINE
   5
4C7
 100
AcDbEntity
   8
LEVEL004
 370
20
 100
AcDbLine
   6
HIDDEN
  62
1
  10
 339.33590180057
  20
 276.35838762098
  30
0.0
  11
 341.23590180057
  21
 274.45838762098
  31
0.0
   0
LINE
   5
4C8
 100
AcDbEntity
   8
LEVEL004
 370
20
 100
AcDbLine
   6
HIDDEN
  62
1
  10
 334.33590180057
  20
 276.35838762098
  30
0.0
  11
 334.33590180057
  21
 276.95838762098
  31
0.0
   0
LINE
   5
4C9
 100
AcDbEntity
   8
LEVEL004
 370
20
 100
AcDbLine
   6
HIDDEN
  62
1
  10
 334.33590180057
  20
 276.35838762098
  30
0.0
  11
 332.43590180057
  21
 274.45838762098
  31
0.0
   0
LINE
   5
4CA
 100
AcDbEntity
   8
LEVEL004
 370
20
 100
AcDbLine
   6
HIDDEN
  62
1
  10
 334.33590180057
  20
 276.35838762098
  30
0.0
  11
 339.33590180057
  21
 276.35838762098
  31
0.0
   0
LINE
   5
4CB
 100
AcDbEntity
   8
0
 370
20
 100
AcDbLine
   6
CONTINUOUS
  62
7
  10
 327.83590180057
  20
 274.45838762098
  30
0.0
  11
 340.83590180057
  21
 274.45838762098
  31
0.0
   0
LINE
   5
4CC
 100
AcDbEntity
   8
LEVEL006
 370
15
 100
AcDbLine
   6
DASHDOT
  62
8
  10
 336.83590180057
  20
 273.45838762098
  30
0.0
  11
 336.83590180057
  21
 277.45838762098
  31
0.0
   0
LINE
   5
4CD
 100
AcDbEntity
   8
LEVEL006
 370
15
 100
AcDbLine
   6
DASHDOT
  62
8
  10
 331.83590180057
  20
 273.45838762098
  30
0.0
  11
 331.83590180057
  21
 277.45838762098
  31
0.0
   0
DIMENSION
   5
4CE
 100
AcDbEntity
   8
0
 370
15
   6
CONTINUOUS
  62
8
 100
AcDbDimension
   2
*D39
  10
 344.33590180057
  20
 296.95838762098
  30
0.0
  11
 334.33590180057
  21
 296.95838762098
  31
0.0
  70
0
   3
GMM001
 100
AcDbAlignedDimension
  13
 324.33590180057
  23
 276.95838762098
  33
0.0
  14
 344.33590180057
  24
 276.95838762098
  34
0.0
 100
AcDbRotatedDimension
   0
LWPOLYLINE
   5
4CF
 100
AcDbEntity
   8
0
 370
20
   6
CONTINUOUS
  62
1
 100
AcDbPolyline
  90
4
  70
1
  10
 325.59921775185
  20
 828.91537478657
  10
 325.59921775185
  20
 826.41537478657
  10
 345.59921775185
  20
 826.41537478657
  10
 345.59921775185
  20
 828.91537478657
   0
LINE
   5
4D0
 100
AcDbEntity
   8
LEVEL004
 370
20
 100
AcDbLine
   6
HIDDEN
  62
1
  10
 330.84921775185
  20
 827.16537478657
  30
0.0
  11
 340.34921775185
  21
 827.16537478657
  31
0.0
   0
LINE
   5
4D1
 100
AcDbEntity
   8
LEVEL004
 370
20
 100
AcDbLine
   6
HIDDEN
  62
1
  10
 330.84921775185
  20
 827.16537478657
  30
0.0
  11
 330.84921775185
  21
 826.41537478657
  31
0.0
   0
LINE
   5
4D2
 100
AcDbEntity
   8
LEVEL004
 370
20
 100
AcDbLine
   6
HIDDEN
  62
1
  10
 330.84921775185
  20
 827.16537478657
  30
0.0
  11
 329.09921775185
  21
 828.91537478657
  31
0.0
   0
LINE
   5
4D3
 100
AcDbEntity
   8
LEVEL004
 370
20
 100
AcDbLine
   6
HIDDEN
  62
1
  10
 340.34921775185
  20
 827.16537478657
  30
0.0
  11
 340.34921775185
  21
 826.41537478657
  31
0.0
   0
LINE
   5
4D4
 100
AcDbEntity
   8
LEVEL004
 370
20
 100
AcDbLine
   6
HIDDEN
  62
1
  10
 340.34921775185
  20
 827.16537478657
  30
0.0
  11
 342.09921775185
  21
 828.91537478657
  31
0.0
   0
LINE
   5
4D5
 100
AcDbEntity
   8
LEVEL004
 370
20
 100
AcDbLine
   6
HIDDEN
  62
1
  10
 335.59921775185
  20
 828.31537478657
  30
0.0
  11
 335.59921775185
  21
 828.91537478657
  31
0.0
   0
LINE
   5
4D6
 100
AcDbEntity
   8
LEVEL004
 370
20
 100
AcDbLine
   6
HIDDEN
  62
1
  10
 335.59921775185
  20
 828.31537478657
  30
0.0
  11
 337.49921775185
  21
 826.41537478657
  31
0.0
   0
LINE
   5
4D7
 100
AcDbEntity
   8
LEVEL004
 370
20
 100
AcDbLine
   6
HIDDEN
  62
1
  10
 330.59921775185
  20
 828.31537478657
  30
0.0
  11
 330.59921775185
  21
 828.91537478657
  31
0.0
   0
LINE
   5
4D8
 100
AcDbEntity
   8
LEVEL004
 370
20
 100
AcDbLine
   6
HIDDEN
  62
1
  10
 330.59921775185
  20
 828.31537478657
  30
0.0
  11
 328.69921775185
  21
 826.41537478657
  31
0.0
   0
LINE
   5
4D9
 100
AcDbEntity
   8
LEVEL004
 370
20
 100
AcDbLine
   6
HIDDEN
  62
1
  10
 330.59921775185
  20
 828.31537478657
  30
0.0
  11
 335.59921775185
  21
 828.31537478657
  31
0.0
   0
LINE
   5
4DA
 100
AcDbEntity
   8
LEVEL004
 370
20
 100
AcDbLine
   6
HIDDEN
  62
1
  10
 340.59921775185
  20
 828.31537478657
  30
0.0
  11
 340.59921775185
  21
 828.91537478657
  31
0.0
   0
LINE
   5
4DB
 100
AcDbEntity
   8
LEVEL004
 370
20
 100
AcDbLine
   6
HIDDEN
  62
1
  10
 340.59921775185
  20
 828.31537478657
  30
0.0
  11
 342.49921775185
  21
 826.41537478657
  31
0.0
   0
LINE
   5
4DC
 100
AcDbEntity
   8
LEVEL004
 370
20
 100
AcDbLine
   6
HIDDEN
  62
1
  10
 335.59921775185
  20
 828.31537478657
  30
0.0
  11
 335.59921775185
  21
 828.91537478657
  31
0.0
   0
LINE
   5
4DD
 100
AcDbEntity
   8
LEVEL004
 370
20
 100
AcDbLine
   6
HIDDEN
  62
1
  10
 335.59921775185
  20
 828.31537478657
  30
0.0
  11
 333.69921775185
  21
 826.41537478657
  31
0.0
   0
LINE
   5
4DE
 100
AcDbEntity
   8
LEVEL004
 370
20
 100
AcDbLine
   6
HIDDEN
  62
1
  10
 335.59921775185
  20
 828.31537478657
  30
0.0
  11
 340.59921775185
  21
 828.31537478657
  31
0.0
   0
LINE
   5
4DF
 100
AcDbEntity
   8
0
 370
20
 100
AcDbLine
   6
CONTINUOUS
  62
7
  10
 329.09921775185
  20
 826.41537478657
  30
0.0
  11
 342.09921775185
  21
 826.41537478657
  31
0.0
   0
LINE
   5
4E0
 100
AcDbEntity
   8
LEVEL006
 370
15
 100
AcDbLine
   6
DASHDOT
  62
8
  10
 338.09921775185
  20
 825.41537478657
  30
0.0
  11
 338.09921775185
  21
 829.41537478657
  31
0.0
   0
LINE
   5
4E1
 100
AcDbEntity
   8
LEVEL006
 370
15
 100
AcDbLine
   6
DASHDOT
  62
8
  10
 333.09921775185
  20
 825.41537478657
  30
0.0
  11
 333.09921775185
  21
 829.41537478657
  31
0.0
   0
DIMENSION
   5
4E2
 100
AcDbEntity
   8
0
 370
15
   6
CONTINUOUS
  62
8
 100
AcDbDimension
   2
*D40
  10
 345.59921775185
  20
 848.91537478657
  30
0.0
  11
 335.59921775185
  21
 848.91537478657
  31
0.0
  70
0
   3
GMM001
 100
AcDbAlignedDimension
  13
 325.59921775185
  23
 828.91537478657
  33
0.0
  14
 345.59921775185
  24
 828.91537478657
  34
0.0
 100
AcDbRotatedDimension
   0
LINE
   5
4E3
 100
AcDbEntity
   8
LEVEL001
 370
15
 100
AcDbLine
   6
DASHDOT
  62
8
  10
 335.59921775185
  20
 841.13703440029
  30
0.0
  11
 335.59921775185
  21
 797.41537478657
  31
0.0
   0
LINE
   5
4E4
 100
AcDbEntity
   8
LEVEL001
 370
15
 100
AcDbLine
   6
DASHDOT
  62
8
  10
 435.04982259920
  20
 746.73590025112
  30
0.0
  11
 435.04982259920
  21
 841.13703440029
  31
0.0
   0
LINE
   5
4E5
 100
AcDbEntity
   8
LEVEL001
 370
15
 100
AcDbLine
   6
DASHDOT
  62
8
  10
 433.78650664791
  20
 220.54592721472
  30
0.0
  11
 433.78650664791
  21
 286.67086898196
  31
0.0
   0
LINE
   5
4E6
 100
AcDbEntity
   8
LEVEL001
 370
15
 100
AcDbLine
   6
DASHDOT
  62
8
  10
 334.33590180057
  20
 286.22976622507
  30
0.0
  11
 334.33590180057
  21
 253.95838762098
  31
0.0
   0
LINE
   5
4E7
 100
AcDbEntity
   8
LEVEL004
 370
20
 100
AcDbLine
   6
CONTINUOUS
  62
1
  10
 998.03194256103
  20
 406.40765407369
  30
0.0
  11
 998.03194256103
  21
 385.40765407369
  31
0.0
   0
LINE
   5
4E8
 100
AcDbEntity
   8
LEVEL004
 370
20
 100
AcDbLine
   6
CONTINUOUS
  62
1
  10
 1000.0319425610
  20
 408.40765407369
  30
0.0
  11
 1076.0319425610
  21
 408.40765407369
  31
0.0
   0
LINE
   5
4E9
 100
AcDbEntity
   8
LEVEL004
 370
20
 100
AcDbLine
   6
CONTINUOUS
  62
1
  10
 1076.0319425610
  20
 383.40765407369
  30
0.0
  11
 1000.0319425610
  21
 383.40765407369
  31
0.0
   0
ARC
   5
4EA
 100
AcDbEntity
   8
LEVEL004
 370
20
   6
CONTINUOUS
  62
1
 100
AcDbCircle
  10
 1000.0319425610
  20
 406.40765407369
  30
0.0
  40
 2.0000000000000
 100
AcDbArc
  50
 90.000000000000
  51
 180.00000000000
   0
ARC
   5
4EB
 100
AcDbEntity
   8
LEVEL004
 370
20
   6
CONTINUOUS
  62
1
 100
AcDbCircle
  10
 1000.0319425610
  20
 385.40765407369
  30
0.0
  40
 2.0000000000000
 100
AcDbArc
  50
 180.00000000000
  51
 270.00000000000
   0
CIRCLE
   5
4EC
 100
AcDbEntity
   8
LEVEL004
 370
20
 100
AcDbCircle
   6
CONTINUOUS
  62
1
  10
 1008.0319425610
  20
 400.90765407369
  30
0.0
  40
 2.5000000000000
   0
CIRCLE
   5
4ED
 100
AcDbEntity
   8
LEVEL004
 370
20
 100
AcDbCircle
   6
HIDDEN
  62
1
  10
 1008.0319425610
  20
 400.90765407369
  30
0.0
  40
 4.3000000000000
   0
LINE
   5
4EE
 100
AcDbEntity
   8
LEVEL004
 370
20
 100
AcDbLine
   6
CONTINUOUS
  62
1
  10
 1078.0319425610
  20
 406.40765407369
  30
0.0
  11
 1078.0319425610
  21
 385.40765407369
  31
0.0
   0
ARC
   5
4EF
 100
AcDbEntity
   8
LEVEL004
 370
20
   6
CONTINUOUS
  62
1
 100
AcDbCircle
  10
 1076.0319425610
  20
 406.40765407369
  30
0.0
  40
 2.0000000000000
 100
AcDbArc
  50
0.0
  51
 90.000000000000
   0
ARC
   5
4F0
 100
AcDbEntity
   8
LEVEL004
 370
20
   6
CONTINUOUS
  62
1
 100
AcDbCircle
  10
 1076.0319425610
  20
 385.40765407369
  30
0.0
  40
 2.0000000000000
 100
AcDbArc
  50
 270.00000000000
  51
0.0
   0
CIRCLE
   5
4F1
 100
AcDbEntity
   8
LEVEL004
 370
20
 100
AcDbCircle
   6
CONTINUOUS
  62
1
  10
 1068.0319425610
  20
 390.90765407369
  30
0.0
  40
 2.5000000000000
   0
CIRCLE
   5
4F2
 100
AcDbEntity
   8
LEVEL004
 370
20
 100
AcDbCircle
   6
HIDDEN
  62
1
  10
 1068.0319425610
  20
 390.90765407369
  30
0.0
  40
 4.3000000000000
   0
CIRCLE
   5
4F3
 100
AcDbEntity
   8
LEVEL007
 370
20
 100
AcDbCircle
   6
CONTINUOUS
  62
1
  10
 1038.0319425610
  20
 395.90765407369
  30
0.0
  40
 6.4000000000000
   0
LINE
   5
4F4
 100
AcDbEntity
   8
0
 370
15
 100
AcDbLine
   6
DASHDOT
  62
8
  10
 1068.0319425610
  20
 384.39020662151
  30
0.0
  11
 1068.0319425610
  21
 397.42510152587
  31
0.0
   0
LINE
   5
4F5
 100
AcDbEntity
   8
0
 370
15
 100
AcDbLine
   6
DASHDOT
  62
8
  10
 1074.7114231140
  20
 390.90765407369
  30
0.0
  11
 1061.3524620081
  21
 390.90765407369
  31
0.0
   0
DIMENSION
   5
4F6
 100
AcDbEntity
   8
0
 370
15
   6
CONTINUOUS
  62
8
 100
AcDbDimension
   2
*D41
  10
 1078.0319425610
  20
 338.60499643150
  30
0.0
  11
 1038.0319425610
  21
 338.60499643150
  31
0.0
  70
0
   3
GMM001
 100
AcDbAlignedDimension
  13
 998.03194256103
  23
 385.40765407369
  33
0.0
  14
 1078.0319425610
  24
 385.40765407369
  34
0.0
 100
AcDbRotatedDimension
   0
DIMENSION
   5
4F7
 100
AcDbEntity
   8
0
 370
15
   6
CONTINUOUS
  62
8
 100
AcDbDimension
   2
*D42
  10
 1068.0319425610
  20
 361.10123703320
  30
0.0
  11
 1038.0319425610
  21
 361.10123703320
  31
0.0
  70
0
   3
GMM001
 100
AcDbAlignedDimension
  13
 1008.0319425610
  23
 394.39020662151
  33
0.0
  14
 1068.0319425610
  24
 384.39020662151
  34
0.0
 100
AcDbRotatedDimension
   0
DIMENSION
   5
4F8
 100
AcDbEntity
   8
0
 370
15
   6
CONTINUOUS
  62
8
 100
AcDbDimension
   2
*D43
  10
 1111.9081270412
  20
 408.40765407369
  30
0.0
  11
 1111.9081270412
  21
 395.90765407369
  31
0.0
  70
0
   3
GMM001
 100
AcDbAlignedDimension
  13
 1076.0319425610
  23
 383.40765407369
  33
0.0
  14
 1076.0319425610
  24
 408.40765407369
  34
0.0
  50
 90.000000000000
 100
AcDbRotatedDimension
   0
CIRCLE
   5
4F9
 100
AcDbEntity
   8
LEVEL002
 370
15
 100
AcDbCircle
   6
CONTINUOUS
  62
5
  10
 1038.0319425610
  20
 395.90765407369
  30
0.0
  40
 6.0000000000000
   0
LINE
   5
4FA
 100
AcDbEntity
   8
LEVEL002
 370
15
 100
AcDbLine
   6
CONTINUOUS
  62
5
  10
 1038.4819425610
  20
 399.12634946158
  30
0.0
  11
 1038.4819425610
  21
 398.20575111255
  31
0.0
   0
LINE
   5
4FB
 100
AcDbEntity
   8
LEVEL002
 370
15
 100
AcDbLine
   6
CONTINUOUS
  62
5
  10
 1038.4819425610
  20
 393.60955703484
  30
0.0
  11
 1038.4819425610
  21
 392.68895868581
  31
0.0
   0
LINE
   5
4FC
 100
AcDbEntity
   8
LEVEL002
 370
15
 100
AcDbLine
   6
CONTINUOUS
  62
5
  10
 1037.5819425610
  20
 399.12634946158
  30
0.0
  11
 1037.5819425610
  21
 398.20575111255
  31
0.0
   0
LINE
   5
4FD
 100
AcDbEntity
   8
LEVEL002
 370
15
 100
AcDbLine
   6
CONTINUOUS
  62
5
  10
 1037.5819425610
  20
 393.60955703484
  30
0.0
  11
 1037.5819425610
  21
 392.68895868581
  31
0.0
   0
LINE
   5
4FE
 100
AcDbEntity
   8
LEVEL002
 370
15
 100
AcDbLine
   6
CONTINUOUS
  62
5
  10
 1034.8132471732
  20
 395.45765407369
  30
0.0
  11
 1035.7338455222
  21
 395.45765407369
  31
0.0
   0
LINE
   5
4FF
 100
AcDbEntity
   8
LEVEL002
 370
15
 100
AcDbLine
   6
CONTINUOUS
  62
5
  10
 1040.3300395999
  20
 395.45765407369
  30
0.0
  11
 1041.2506379489
  21
 395.45765407369
  31
0.0
   0
LINE
   5
500
 100
AcDbEntity
   8
LEVEL002
 370
15
 100
AcDbLine
   6
CONTINUOUS
  62
5
  10
 1034.8132471732
  20
 396.35765407369
  30
0.0
  11
 1035.7338455222
  21
 396.35765407369
  31
0.0
   0
LINE
   5
501
 100
AcDbEntity
   8
LEVEL002
 370
15
 100
AcDbLine
   6
CONTINUOUS
  62
5
  10
 1040.3300395999
  20
 396.35765407369
  30
0.0
  11
 1041.2506379489
  21
 396.35765407369
  31
0.0
   0
ARC
   5
502
 100
AcDbEntity
   8
LEVEL002
 370
15
   6
CONTINUOUS
  62
5
 100
AcDbCircle
  10
 1038.0319425610
  20
 395.90765407369
  30
0.0
  40
 3.2500000000000
 100
AcDbArc
  50
 352.04116811846
  51
 7.9588318815449
   0
ARC
   5
503
 100
AcDbEntity
   8
LEVEL002
 370
15
   6
CONTINUOUS
  62
5
 100
AcDbCircle
  10
 1038.0319425610
  20
 395.90765407369
  30
0.0
  40
 3.2500000000000
 100
AcDbArc
  50
 82.041168118403
  51
 97.958831881484
   0
ARC
   5
504
 100
AcDbEntity
   8
LEVEL002
 370
15
   6
CONTINUOUS
  62
5
 100
AcDbCircle
  10
 1038.0319425610
  20
 395.90765407369
  30
0.0
  40
 3.2500000000000
 100
AcDbArc
  50
 172.04116811847
  51
 187.95883188153
   0
ARC
   5
505
 100
AcDbEntity
   8
LEVEL002
 370
15
   6
CONTINUOUS
  62
5
 100
AcDbCircle
  10
 1038.0319425610
  20
 395.90765407369
  30
0.0
  40
 3.2500000000000
 100
AcDbArc
  50
 262.04116811850
  51
 277.95883188155
   0
ARC
   5
506
 100
AcDbEntity
   8
LEVEL002
 370
15
   6
CONTINUOUS
  62
5
 100
AcDbCircle
  10
 1040.3300395999
  20
 393.60955703483
  30
0.0
  40
 1.8480970388563
 100
AcDbArc
  50
 89.999999999972
  51
 179.99999999998
   0
ARC
   5
507
 100
AcDbEntity
   8
LEVEL002
 370
15
   6
CONTINUOUS
  62
5
 100
AcDbCircle
  10
 1040.3300395999
  20
 398.20575111255
  30
0.0
  40
 1.8480970388563
 100
AcDbArc
  50
 180.00000000000
  51
 270.00000000003
   0
ARC
   5
508
 100
AcDbEntity
   8
LEVEL002
 370
15
   6
CONTINUOUS
  62
5
 100
AcDbCircle
  10
 1035.7338455222
  20
 393.60955703484
  30
0.0
  40
 1.8480970388563
 100
AcDbArc
  50
0.0
  51
 90.000000000085
   0
ARC
   5
509
 100
AcDbEntity
   8
LEVEL002
 370
15
   6
CONTINUOUS
  62
5
 100
AcDbCircle
  10
 1035.7338455222
  20
 398.20575111255
  30
0.0
  40
 1.8480970388563
 100
AcDbArc
  50
 269.99999999997
  51
0.0
   0
LINE
   5
50A
 100
AcDbEntity
   8
0
 370
15
 100
AcDbLine
   6
DASHDOT
  62
8
  10
 1008.0319425610
  20
 394.39020662151
  30
0.0
  11
 1008.0319425610
  21
 407.42510152587
  31
0.0
   0
LINE
   5
50B
 100
AcDbEntity
   8
0
 370
15
 100
AcDbLine
   6
DASHDOT
  62
8
  10
 1014.7114231140
  20
 400.90765407369
  30
0.0
  11
 1001.3524620081
  21
 400.90765407369
  31
0.0
   0
LINE
   5
50C
 100
AcDbEntity
   8
LEVEL004
 370
20
 100
AcDbLine
   6
CONTINUOUS
  62
1
  10
 998.04982259923
  20
 958.36464123937
  30
0.0
  11
 998.04982259923
  21
 937.36464123937
  31
0.0
   0
LINE
   5
50D
 100
AcDbEntity
   8
LEVEL004
 370
20
 100
AcDbLine
   6
CONTINUOUS
  62
1
  10
 1000.0498225992
  20
 960.36464123937
  30
0.0
  11
 1076.0498225992
  21
 960.36464123937
  31
0.0
   0
LINE
   5
50E
 100
AcDbEntity
   8
LEVEL004
 370
20
 100
AcDbLine
   6
CONTINUOUS
  62
1
  10
 1076.0498225992
  20
 935.36464123937
  30
0.0
  11
 1000.0498225992
  21
 935.36464123937
  31
0.0
   0
ARC
   5
50F
 100
AcDbEntity
   8
LEVEL004
 370
20
   6
CONTINUOUS
  62
1
 100
AcDbCircle
  10
 1000.0498225992
  20
 958.36464123937
  30
0.0
  40
 2.0000000000000
 100
AcDbArc
  50
 90.000000000000
  51
 180.00000000000
   0
ARC
   5
510
 100
AcDbEntity
   8
LEVEL004
 370
20
   6
CONTINUOUS
  62
1
 100
AcDbCircle
  10
 1000.0498225992
  20
 937.36464123937
  30
0.0
  40
 2.0000000000000
 100
AcDbArc
  50
 180.00000000000
  51
 270.00000000000
   0
CIRCLE
   5
511
 100
AcDbEntity
   8
LEVEL004
 370
20
 100
AcDbCircle
   6
CONTINUOUS
  62
1
  10
 1008.0498225992
  20
 952.86464123937
  30
0.0
  40
 2.5000000000000
   0
CIRCLE
   5
512
 100
AcDbEntity
   8
LEVEL004
 370
20
 100
AcDbCircle
   6
HIDDEN
  62
1
  10
 1008.0498225992
  20
 952.86464123937
  30
0.0
  40
 4.3000000000000
   0
LINE
   5
513
 100
AcDbEntity
   8
LEVEL004
 370
20
 100
AcDbLine
   6
CONTINUOUS
  62
1
  10
 1078.0498225992
  20
 958.36464123937
  30
0.0
  11
 1078.0498225992
  21
 937.36464123937
  31
0.0
   0
ARC
   5
514
 100
AcDbEntity
   8
LEVEL004
 370
20
   6
CONTINUOUS
  62
1
 100
AcDbCircle
  10
 1076.0498225992
  20
 958.36464123937
  30
0.0
  40
 2.0000000000000
 100
AcDbArc
  50
0.0
  51
 90.000000000000
   0
ARC
   5
515
 100
AcDbEntity
   8
LEVEL004
 370
20
   6
CONTINUOUS
  62
1
 100
AcDbCircle
  10
 1076.0498225992
  20
 937.36464123937
  30
0.0
  40
 2.0000000000000
 100
AcDbArc
  50
 270.00000000000
  51
0.0
   0
CIRCLE
   5
516
 100
AcDbEntity
   8
LEVEL004
 370
20
 100
AcDbCircle
   6
CONTINUOUS
  62
1
  10
 1068.0498225992
  20
 942.86464123937
  30
0.0
  40
 2.5000000000000
   0
CIRCLE
   5
517
 100
AcDbEntity
   8
LEVEL004
 370
20
 100
AcDbCircle
   6
HIDDEN
  62
1
  10
 1068.0498225992
  20
 942.86464123937
  30
0.0
  40
 4.3000000000000
   0
CIRCLE
   5
518
 100
AcDbEntity
   8
LEVEL007
 370
20
 100
AcDbCircle
   6
CONTINUOUS
  62
1
  10
 1038.0498225992
  20
 947.86464123937
  30
0.0
  40
 6.4000000000000
   0
LINE
   5
519
 100
AcDbEntity
   8
0
 370
15
 100
AcDbLine
   6
DASHDOT
  62
8
  10
 1068.0498225992
  20
 936.34719378719
  30
0.0
  11
 1068.0498225992
  21
 949.38208869154
  31
0.0
   0
LINE
   5
51A
 100
AcDbEntity
   8
0
 370
15
 100
AcDbLine
   6
DASHDOT
  62
8
  10
 1074.7293031522
  20
 942.86464123937
  30
0.0
  11
 1061.3703420463
  21
 942.86464123937
  31
0.0
   0
DIMENSION
   5
51B
 100
AcDbEntity
   8
0
 370
15
   6
CONTINUOUS
  62
8
 100
AcDbDimension
   2
*D44
  10
 1078.0498225992
  20
 890.56198359718
  30
0.0
  11
 1038.0498225992
  21
 890.56198359718
  31
0.0
  70
0
   3
GMM001
 100
AcDbAlignedDimension
  13
 998.04982259923
  23
 937.36464123937
  33
0.0
  14
 1078.0498225992
  24
 937.36464123937
  34
0.0
 100
AcDbRotatedDimension
   0
DIMENSION
   5
51C
 100
AcDbEntity
   8
0
 370
15
   6
CONTINUOUS
  62
8
 100
AcDbDimension
   2
*D45
  10
 1068.0498225992
  20
 913.05822419887
  30
0.0
  11
 1038.0498225992
  21
 913.05822419887
  31
0.0
  70
0
   3
GMM001
 100
AcDbAlignedDimension
  13
 1008.0498225992
  23
 946.34719378719
  33
0.0
  14
 1068.0498225992
  24
 936.34719378719
  34
0.0
 100
AcDbRotatedDimension
   0
DIMENSION
   5
51D
 100
AcDbEntity
   8
0
 370
15
   6
CONTINUOUS
  62
8
 100
AcDbDimension
   2
*D46
  10
 1111.9260070794
  20
 960.36464123937
  30
0.0
  11
 1111.9260070794
  21
 947.86464123937
  31
0.0
  70
0
   3
GMM001
 100
AcDbAlignedDimension
  13
 1076.0498225992
  23
 935.36464123937
  33
0.0
  14
 1076.0498225992
  24
 960.36464123937
  34
0.0
  50
 90.000000000000
 100
AcDbRotatedDimension
   0
CIRCLE
   5
51E
 100
AcDbEntity
   8
LEVEL002
 370
15
 100
AcDbCircle
   6
CONTINUOUS
  62
5
  10
 1038.0498225992
  20
 947.86464123937
  30
0.0
  40
 6.0000000000000
   0
LINE
   5
51F
 100
AcDbEntity
   8
LEVEL002
 370
15
 100
AcDbLine
   6
CONTINUOUS
  62
5
  10
 1038.4998225992
  20
 951.08333662725
  30
0.0
  11
 1038.4998225992
  21
 950.16273827822
  31
0.0
   0
LINE
   5
520
 100
AcDbEntity
   8
LEVEL002
 370
15
 100
AcDbLine
   6
CONTINUOUS
  62
5
  10
 1038.4998225992
  20
 945.56654420051
  30
0.0
  11
 1038.4998225992
  21
 944.64594585148
  31
0.0
   0
LINE
   5
521
 100
AcDbEntity
   8
LEVEL002
 370
15
 100
AcDbLine
   6
CONTINUOUS
  62
5
  10
 1037.5998225992
  20
 951.08333662725
  30
0.0
  11
 1037.5998225992
  21
 950.16273827822
  31
0.0
   0
LINE
   5
522
 100
AcDbEntity
   8
LEVEL002
 370
15
 100
AcDbLine
   6
CONTINUOUS
  62
5
  10
 1037.5998225992
  20
 945.56654420051
  30
0.0
  11
 1037.5998225992
  21
 944.64594585148
  31
0.0
   0
LINE
   5
523
 100
AcDbEntity
   8
LEVEL002
 370
15
 100
AcDbLine
   6
CONTINUOUS
  62
5
  10
 1034.8311272114
  20
 947.41464123937
  30
0.0
  11
 1035.7517255604
  21
 947.41464123937
  31
0.0
   0
LINE
   5
524
 100
AcDbEntity
   8
LEVEL002
 370
15
 100
AcDbLine
   6
CONTINUOUS
  62
5
  10
 1040.3479196381
  20
 947.41464123937
  30
0.0
  11
 1041.2685179871
  21
 947.41464123937
  31
0.0
   0
LINE
   5
525
 100
AcDbEntity
   8
LEVEL002
 370
15
 100
AcDbLine
   6
CONTINUOUS
  62
5
  10
 1034.8311272114
  20
 948.31464123937
  30
0.0
  11
 1035.7517255604
  21
 948.31464123937
  31
0.0
   0
LINE
   5
526
 100
AcDbEntity
   8
LEVEL002
 370
15
 100
AcDbLine
   6
CONTINUOUS
  62
5
  10
 1040.3479196381
  20
 948.31464123937
  30
0.0
  11
 1041.2685179871
  21
 948.31464123937
  31
0.0
   0
ARC
   5
527
 100
AcDbEntity
   8
LEVEL002
 370
15
   6
CONTINUOUS
  62
5
 100
AcDbCircle
  10
 1038.0498225992
  20
 947.86464123937
  30
0.0
  40
 3.2500000000000
 100
AcDbArc
  50
 352.04116811845
  51
 7.9588318815489
   0
ARC
   5
528
 100
AcDbEntity
   8
LEVEL002
 370
15
   6
CONTINUOUS
  62
5
 100
AcDbCircle
  10
 1038.0498225992
  20
 947.86464123937
  30
0.0
  40
 3.2500000000000
 100
AcDbArc
  50
 82.041168118403
  51
 97.958831881484
   0
ARC
   5
529
 100
AcDbEntity
   8
LEVEL002
 370
15
   6
CONTINUOUS
  62
5
 100
AcDbCircle
  10
 1038.0498225992
  20
 947.86464123937
  30
0.0
  40
 3.2500000000000
 100
AcDbArc
  50
 172.04116811847
  51
 187.95883188153
   0
ARC
   5
52A
 100
AcDbEntity
   8
LEVEL002
 370
15
   6
CONTINUOUS
  62
5
 100
AcDbCircle
  10
 1038.0498225992
  20
 947.86464123937
  30
0.0
  40
 3.2500000000000
 100
AcDbArc
  50
 262.04116811853
  51
 277.95883188158
   0
ARC
   5
52B
 100
AcDbEntity
   8
LEVEL002
 370
15
   6
CONTINUOUS
  62
5
 100
AcDbCircle
  10
 1040.3479196381
  20
 945.56654420051
  30
0.0
  40
 1.8480970388563
 100
AcDbArc
  50
 89.999999999972
  51
 179.99999999998
   0
ARC
   5
52C
 100
AcDbEntity
   8
LEVEL002
 370
15
   6
CONTINUOUS
  62
5
 100
AcDbCircle
  10
 1040.3479196381
  20
 950.16273827822
  30
0.0
  40
 1.8480970388563
 100
AcDbArc
  50
 180.00000000000
  51
 270.00000000003
   0
ARC
   5
52D
 100
AcDbEntity
   8
LEVEL002
 370
15
   6
CONTINUOUS
  62
5
 100
AcDbCircle
  10
 1035.7517255604
  20
 945.56654420051
  30
0.0
  40
 1.8480970388563
 100
AcDbArc
  50
0.0
  51
 90.000000000085
   0
ARC
   5
52E
 100
AcDbEntity
   8
LEVEL002
 370
15
   6
CONTINUOUS
  62
5
 100
AcDbCircle
  10
 1035.7517255604
  20
 950.16273827822
  30
0.0
  40
 1.8480970388563
 100
AcDbArc
  50
 269.99999999997
  51
0.0
   0
LINE
   5
52F
 100
AcDbEntity
   8
0
 370
15
 100
AcDbLine
   6
DASHDOT
  62
8
  10
 1008.0498225992
  20
 946.34719378719
  30
0.0
  11
 1008.0498225992
  21
 959.38208869154
  31
0.0
   0
LINE
   5
530
 100
AcDbEntity
   8
0
 370
15
 100
AcDbLine
   6
DASHDOT
  62
8
  10
 1014.7293031522
  20
 952.86464123937
  30
0.0
  11
 1001.3703420463
  21
 952.86464123937
  31
0.0
   0
LWPOLYLINE
   5
531
 100
AcDbEntity
   8
0
 370
20
   6
CONTINUOUS
  62
1
 100
AcDbPolyline
  90
4
  70
1
  10
 926.08133771369
  20
 276.95838762086
  10
 926.08133771369
  20
 274.45838762086
  10
 951.08133771369
  20
 274.45838762086
  10
 951.08133771369
  20
 276.95838762086
   0
LINE
   5
532
 100
AcDbEntity
   8
LEVEL004
 370
20
 100
AcDbLine
   6
HIDDEN
  62
1
  10
 943.33133771369
  20
 275.20838762086
  30
0.0
  11
 933.83133771369
  21
 275.20838762086
  31
0.0
   0
LINE
   5
533
 100
AcDbEntity
   8
LEVEL004
 370
20
 100
AcDbLine
   6
HIDDEN
  62
1
  10
 933.83133771369
  20
 275.20838762086
  30
0.0
  11
 933.83133771369
  21
 274.45838762086
  31
0.0
   0
LINE
   5
534
 100
AcDbEntity
   8
LEVEL004
 370
20
 100
AcDbLine
   6
HIDDEN
  62
1
  10
 933.83133771369
  20
 275.20838762086
  30
0.0
  11
 932.08133771369
  21
 276.95838762086
  31
0.0
   0
LINE
   5
535
 100
AcDbEntity
   8
LEVEL004
 370
20
 100
AcDbLine
   6
HIDDEN
  62
1
  10
 931.08133771369
  20
 276.25838762086
  30
0.0
  11
 936.08133771369
  21
 276.25838762086
  31
0.0
   0
LINE
   5
536
 100
AcDbEntity
   8
LEVEL004
 370
20
 100
AcDbLine
   6
HIDDEN
  62
1
  10
 936.08133771369
  20
 276.25838762086
  30
0.0
  11
 936.08133771369
  21
 276.95838762086
  31
0.0
   0
LINE
   5
537
 100
AcDbEntity
   8
LEVEL004
 370
20
 100
AcDbLine
   6
HIDDEN
  62
1
  10
 936.08133771369
  20
 276.25838762086
  30
0.0
  11
 937.88133771369
  21
 274.45838762086
  31
0.0
   0
LINE
   5
538
 100
AcDbEntity
   8
LEVEL004
 370
20
 100
AcDbLine
   6
HIDDEN
  62
1
  10
 931.08133771369
  20
 276.25838762086
  30
0.0
  11
 931.08133771369
  21
 276.95838762086
  31
0.0
   0
LINE
   5
539
 100
AcDbEntity
   8
LEVEL004
 370
20
 100
AcDbLine
   6
HIDDEN
  62
1
  10
 931.08133771369
  20
 276.25838762086
  30
0.0
  11
 929.28133771369
  21
 274.45838762086
  31
0.0
   0
LINE
   5
53A
 100
AcDbEntity
   8
LEVEL004
 370
20
 100
AcDbLine
   6
HIDDEN
  62
1
  10
 943.33133771369
  20
 275.20838762086
  30
0.0
  11
 943.33133771369
  21
 274.45838762086
  31
0.0
   0
LINE
   5
53B
 100
AcDbEntity
   8
LEVEL004
 370
20
 100
AcDbLine
   6
HIDDEN
  62
1
  10
 943.33133771369
  20
 275.20838762086
  30
0.0
  11
 945.08133771369
  21
 276.95838762086
  31
0.0
   0
LINE
   5
53C
 100
AcDbEntity
   8
LEVEL004
 370
20
 100
AcDbLine
   6
HIDDEN
  62
1
  10
 941.08133771369
  20
 276.25838762086
  30
0.0
  11
 946.08133771369
  21
 276.25838762086
  31
0.0
   0
LINE
   5
53D
 100
AcDbEntity
   8
LEVEL004
 370
20
 100
AcDbLine
   6
HIDDEN
  62
1
  10
 946.08133771369
  20
 276.25838762086
  30
0.0
  11
 946.08133771369
  21
 276.95838762086
  31
0.0
   0
LINE
   5
53E
 100
AcDbEntity
   8
LEVEL004
 370
20
 100
AcDbLine
   6
HIDDEN
  62
1
  10
 946.08133771369
  20
 276.25838762086
  30
0.0
  11
 947.88133771369
  21
 274.45838762086
  31
0.0
   0
LINE
   5
53F
 100
AcDbEntity
   8
LEVEL004
 370
20
 100
AcDbLine
   6
HIDDEN
  62
1
  10
 941.08133771369
  20
 276.25838762086
  30
0.0
  11
 941.08133771369
  21
 276.95838762086
  31
0.0
   0
LINE
   5
540
 100
AcDbEntity
   8
LEVEL004
 370
20
 100
AcDbLine
   6
HIDDEN
  62
1
  10
 941.08133771369
  20
 276.25838762086
  30
0.0
  11
 939.28133771369
  21
 274.45838762086
  31
0.0
   0
DIMENSION
   5
541
 100
AcDbEntity
   8
0
 370
15
   6
CONTINUOUS
  62
8
 100
AcDbDimension
   2
*D47
  10
 951.08133771369
  20
 298.08377139405
  30
0.0
  11
 938.58133771369
  21
 298.08377139405
  31
0.0
  70
0
   3
GMM001
 100
AcDbAlignedDimension
  13
 926.08133771369
  23
 276.95838762086
  33
0.0
  14
 951.08133771369
  24
 276.95838762086
  34
0.0
 100
AcDbRotatedDimension
   0
LINE
   5
542
 100
AcDbEntity
   8
LEVEL006
 370
15
 100
AcDbLine
   6
DASHDOT
  62
8
  10
 943.58133771369
  20
 273.45838762086
  30
0.0
  11
 943.58133771369
  21
 277.45838762086
  31
0.0
   0
LINE
   5
543
 100
AcDbEntity
   8
LEVEL006
 370
15
 100
AcDbLine
   6
DASHDOT
  62
8
  10
 933.58133771369
  20
 273.45838762086
  30
0.0
  11
 933.58133771369
  21
 277.45838762086
  31
0.0
   0
LWPOLYLINE
   5
544
 100
AcDbEntity
   8
0
 370
20
   6
CONTINUOUS
  62
1
 100
AcDbPolyline
  90
4
  70
1
  10
 926.09921775189
  20
 828.91537478654
  10
 926.09921775189
  20
 826.41537478654
  10
 951.09921775189
  20
 826.41537478654
  10
 951.09921775189
  20
 828.91537478654
   0
LINE
   5
545
 100
AcDbEntity
   8
LEVEL004
 370
20
 100
AcDbLine
   6
HIDDEN
  62
1
  10
 943.34921775189
  20
 827.16537478654
  30
0.0
  11
 933.84921775189
  21
 827.16537478654
  31
0.0
   0
LINE
   5
546
 100
AcDbEntity
   8
LEVEL004
 370
20
 100
AcDbLine
   6
HIDDEN
  62
1
  10
 933.84921775189
  20
 827.16537478654
  30
0.0
  11
 933.84921775189
  21
 826.41537478654
  31
0.0
   0
LINE
   5
547
 100
AcDbEntity
   8
LEVEL004
 370
20
 100
AcDbLine
   6
HIDDEN
  62
1
  10
 933.84921775189
  20
 827.16537478654
  30
0.0
  11
 932.09921775189
  21
 828.91537478654
  31
0.0
   0
LINE
   5
548
 100
AcDbEntity
   8
LEVEL004
 370
20
 100
AcDbLine
   6
HIDDEN
  62
1
  10
 931.09921775189
  20
 828.21537478654
  30
0.0
  11
 936.09921775189
  21
 828.21537478654
  31
0.0
   0
LINE
   5
549
 100
AcDbEntity
   8
LEVEL004
 370
20
 100
AcDbLine
   6
HIDDEN
  62
1
  10
 936.09921775189
  20
 828.21537478654
  30
0.0
  11
 936.09921775189
  21
 828.91537478654
  31
0.0
   0
LINE
   5
54A
 100
AcDbEntity
   8
LEVEL004
 370
20
 100
AcDbLine
   6
HIDDEN
  62
1
  10
 936.09921775189
  20
 828.21537478654
  30
0.0
  11
 937.89921775189
  21
 826.41537478654
  31
0.0
   0
LINE
   5
54B
 100
AcDbEntity
   8
LEVEL004
 370
20
 100
AcDbLine
   6
HIDDEN
  62
1
  10
 931.09921775189
  20
 828.21537478654
  30
0.0
  11
 931.09921775189
  21
 828.91537478654
  31
0.0
   0
LINE
   5
54C
 100
AcDbEntity
   8
LEVEL004
 370
20
 100
AcDbLine
   6
HIDDEN
  62
1
  10
 931.09921775189
  20
 828.21537478654
  30
0.0
  11
 929.29921775189
  21
 826.41537478654
  31
0.0
   0
LINE
   5
54D
 100
AcDbEntity
   8
LEVEL004
 370
20
 100
AcDbLine
   6
HIDDEN
  62
1
  10
 943.34921775189
  20
 827.16537478654
  30
0.0
  11
 943.34921775189
  21
 826.41537478654
  31
0.0
   0
LINE
   5
54E
 100
AcDbEntity
   8
LEVEL004
 370
20
 100
AcDbLine
   6
HIDDEN
  62
1
  10
 943.34921775189
  20
 827.16537478654
  30
0.0
  11
 945.09921775189
  21
 828.91537478654
  31
0.0
   0
LINE
   5
54F
 100
AcDbEntity
   8
LEVEL004
 370
20
 100
AcDbLine
   6
HIDDEN
  62
1
  10
 941.09921775189
  20
 828.21537478654
  30
0.0
  11
 946.09921775189
  21
 828.21537478654
  31
0.0
   0
LINE
   5
550
 100
AcDbEntity
   8
LEVEL004
 370
20
 100
AcDbLine
   6
HIDDEN
  62
1
  10
 946.09921775189
  20
 828.21537478654
  30
0.0
  11
 946.09921775189
  21
 828.91537478654
  31
0.0
   0
LINE
   5
551
 100
AcDbEntity
   8
LEVEL004
 370
20
 100
AcDbLine
   6
HIDDEN
  62
1
  10
 946.09921775189
  20
 828.21537478654
  30
0.0
  11
 947.89921775189
  21
 826.41537478654
  31
0.0
   0
LINE
   5
552
 100
AcDbEntity
   8
LEVEL004
 370
20
 100
AcDbLine
   6
HIDDEN
  62
1
  10
 941.09921775189
  20
 828.21537478654
  30
0.0
  11
 941.09921775189
  21
 828.91537478654
  31
0.0
   0
LINE
   5
553
 100
AcDbEntity
   8
LEVEL004
 370
20
 100
AcDbLine
   6
HIDDEN
  62
1
  10
 941.09921775189
  20
 828.21537478654
  30
0.0
  11
 939.29921775189
  21
 826.41537478654
  31
0.0
   0
DIMENSION
   5
554
 100
AcDbEntity
   8
0
 370
15
   6
CONTINUOUS
  62
8
 100
AcDbDimension
   2
*D48
  10
 951.09921775189
  20
 850.04075855973
  30
0.0
  11
 938.59921775189
  21
 850.04075855973
  31
0.0
  70
0
   3
GMM001
 100
AcDbAlignedDimension
  13
 926.09921775189
  23
 828.91537478654
  33
0.0
  14
 951.09921775189
  24
 828.91537478654
  34
0.0
 100
AcDbRotatedDimension
   0
LINE
   5
555
 100
AcDbEntity
   8
LEVEL006
 370
15
 100
AcDbLine
   6
DASHDOT
  62
8
  10
 943.59921775189
  20
 825.41537478654
  30
0.0
  11
 943.59921775189
  21
 829.41537478654
  31
0.0
   0
LINE
   5
556
 100
AcDbEntity
   8
LEVEL006
 370
15
 100
AcDbLine
   6
DASHDOT
  62
8
  10
 933.59921775189
  20
 825.41537478654
  30
0.0
  11
 933.59921775189
  21
 829.41537478654
  31
0.0
   0
LINE
   5
557
 100
AcDbEntity
   8
LEVEL006
 370
15
 100
AcDbLine
   6
DASHDOT
  62
8
  10
 1008.0319425610
  20
 273.45838762086
  30
0.0
  11
 1008.0319425610
  21
 277.45838762086
  31
0.0
   0
LINE
   5
558
 100
AcDbEntity
   8
LEVEL004
 370
20
 100
AcDbLine
   6
CONTINUOUS
  62
1
  10
 998.03194256103
  20
 274.45838762086
  30
0.0
  11
 998.03194256103
  21
 276.95838762086
  31
0.0
   0
LINE
   5
559
 100
AcDbEntity
   8
LEVEL004
 370
20
 100
AcDbLine
   6
CONTINUOUS
  62
1
  10
 1078.0319425610
  20
 274.45838762086
  30
0.0
  11
 998.03194256103
  21
 274.45838762086
  31
0.0
   0
LINE
   5
55A
 100
AcDbEntity
   8
LEVEL004
 370
20
 100
AcDbLine
   6
CONTINUOUS
  62
1
  10
 1078.0319425610
  20
 276.95838762086
  30
0.0
  11
 998.03194256103
  21
 276.95838762086
  31
0.0
   0
LINE
   5
55B
 100
AcDbEntity
   8
LEVEL004
 370
20
 100
AcDbLine
   6
HIDDEN
  62
1
  10
 1005.5319425610
  20
 276.25838762086
  30
0.0
  11
 1010.5319425610
  21
 276.25838762086
  31
0.0
   0
LINE
   5
55C
 100
AcDbEntity
   8
LEVEL004
 370
20
 100
AcDbLine
   6
HIDDEN
  62
1
  10
 1010.5319425610
  20
 276.25838762086
  30
0.0
  11
 1010.5319425610
  21
 276.95838762086
  31
0.0
   0
LINE
   5
55D
 100
AcDbEntity
   8
LEVEL004
 370
20
 100
AcDbLine
   6
HIDDEN
  62
1
  10
 1010.5319425610
  20
 276.25838762086
  30
0.0
  11
 1012.3319425610
  21
 274.45838762086
  31
0.0
   0
LINE
   5
55E
 100
AcDbEntity
   8
LEVEL004
 370
20
 100
AcDbLine
   6
HIDDEN
  62
1
  10
 1005.5319425610
  20
 276.25838762086
  30
0.0
  11
 1005.5319425610
  21
 276.95838762086
  31
0.0
   0
LINE
   5
55F
 100
AcDbEntity
   8
LEVEL004
 370
20
 100
AcDbLine
   6
HIDDEN
  62
1
  10
 1005.5319425610
  20
 276.25838762086
  30
0.0
  11
 1003.7319425610
  21
 274.45838762086
  31
0.0
   0
DIMENSION
   5
560
 100
AcDbEntity
   8
0
 370
15
   6
CONTINUOUS
  62
8
 100
AcDbDimension
   2
*D49
  10
 1078.0319425610
  20
 298.08377139405
  30
0.0
  11
 1038.0319425610
  21
 298.08377139405
  31
0.0
  70
0
   3
GMM001
 100
AcDbAlignedDimension
  13
 998.03194256103
  23
 276.95838762086
  33
0.0
  14
 1078.0319425610
  24
 276.95838762086
  34
0.0
 100
AcDbRotatedDimension
   0
LINE
   5
561
 100
AcDbEntity
   8
LEVEL006
 370
15
 100
AcDbLine
   6
DASHDOT
  62
8
  10
 1068.0319425610
  20
 273.45838762086
  30
0.0
  11
 1068.0319425610
  21
 277.45838762086
  31
0.0
   0
LINE
   5
562
 100
AcDbEntity
   8
LEVEL004
 370
20
 100
AcDbLine
   6
CONTINUOUS
  62
1
  10
 1078.0319425610
  20
 274.45838762086
  30
0.0
  11
 1078.0319425610
  21
 276.95838762086
  31
0.0
   0
LINE
   5
563
 100
AcDbEntity
   8
LEVEL004
 370
20
 100
AcDbLine
   6
HIDDEN
  62
1
  10
 1070.5319425610
  20
 276.35838762086
  30
0.0
  11
 1072.4319425610
  21
 274.45838762086
  31
0.0
   0
LINE
   5
564
 100
AcDbEntity
   8
LEVEL004
 370
20
 100
AcDbLine
   6
HIDDEN
  62
1
  10
 1065.5319425610
  20
 276.35838762086
  30
0.0
  11
 1065.5319425610
  21
 276.95838762086
  31
0.0
   0
LINE
   5
565
 100
AcDbEntity
   8
LEVEL004
 370
20
 100
AcDbLine
   6
HIDDEN
  62
1
  10
 1070.5319425610
  20
 276.35838762086
  30
0.0
  11
 1065.5319425610
  21
 276.35838762086
  31
0.0
   0
LINE
   5
566
 100
AcDbEntity
   8
LEVEL004
 370
20
 100
AcDbLine
   6
HIDDEN
  62
1
  10
 1065.5319425610
  20
 276.35838762086
  30
0.0
  11
 1063.6319425610
  21
 274.45838762086
  31
0.0
   0
LINE
   5
567
 100
AcDbEntity
   8
LEVEL004
 370
20
 100
AcDbLine
   6
HIDDEN
  62
1
  10
 1070.5319425610
  20
 276.35838762086
  30
0.0
  11
 1070.5319425610
  21
 276.95838762086
  31
0.0
   0
DIMENSION
   5
568
 100
AcDbEntity
   8
0
 370
15
   6
CONTINUOUS
  62
8
 100
AcDbDimension
   2
*D50
  10
 1111.9081270412
  20
 276.95838762086
  30
0.0
  11
 1111.9081270412
  21
 285.83383153841
  31
0.0
  70
128
   3
GMM008
 100
AcDbAlignedDimension
  13
 1078.0319425610
  23
 274.45838762086
  33
0.0
  14
 1078.0319425610
  24
 276.95838762086
  34
0.0
  50
 90.000000000000
 100
AcDbRotatedDimension
   0
LINE
   5
569
 100
AcDbEntity
   8
LEVEL004
 370
20
 100
AcDbLine
   6
HIDDEN
  62
1
  10
 1042.7819425610
  20
 275.20838762086
  30
0.0
  11
 1033.2819425610
  21
 275.20838762086
  31
0.0
   0
LINE
   5
56A
 100
AcDbEntity
   8
LEVEL004
 370
20
 100
AcDbLine
   6
HIDDEN
  62
1
  10
 1033.2819425610
  20
 275.20838762086
  30
0.0
  11
 1033.2819425610
  21
 274.45838762086
  31
0.0
   0
LINE
   5
56B
 100
AcDbEntity
   8
LEVEL004
 370
20
 100
AcDbLine
   6
HIDDEN
  62
1
  10
 1033.2819425610
  20
 275.20838762086
  30
0.0
  11
 1031.5319425610
  21
 276.95838762086
  31
0.0
   0
LINE
   5
56C
 100
AcDbEntity
   8
LEVEL004
 370
20
 100
AcDbLine
   6
HIDDEN
  62
1
  10
 1042.7819425610
  20
 275.20838762086
  30
0.0
  11
 1042.7819425610
  21
 274.45838762086
  31
0.0
   0
LINE
   5
56D
 100
AcDbEntity
   8
LEVEL004
 370
20
 100
AcDbLine
   6
HIDDEN
  62
1
  10
 1042.7819425610
  20
 275.20838762086
  30
0.0
  11
 1044.5319425610
  21
 276.95838762086
  31
0.0
   0
LINE
   5
56E
 100
AcDbEntity
   8
LEVEL006
 370
15
 100
AcDbLine
   6
DASHDOT
  62
8
  10
 1008.0498225992
  20
 825.41537478654
  30
0.0
  11
 1008.0498225992
  21
 829.41537478654
  31
0.0
   0
LINE
   5
56F
 100
AcDbEntity
   8
LEVEL004
 370
20
 100
AcDbLine
   6
CONTINUOUS
  62
1
  10
 998.04982259923
  20
 826.41537478654
  30
0.0
  11
 998.04982259923
  21
 828.91537478654
  31
0.0
   0
LINE
   5
570
 100
AcDbEntity
   8
LEVEL004
 370
20
 100
AcDbLine
   6
CONTINUOUS
  62
1
  10
 1078.0498225992
  20
 826.41537478654
  30
0.0
  11
 998.04982259923
  21
 826.41537478654
  31
0.0
   0
LINE
   5
571
 100
AcDbEntity
   8
LEVEL004
 370
20
 100
AcDbLine
   6
CONTINUOUS
  62
1
  10
 1078.0498225992
  20
 828.91537478654
  30
0.0
  11
 998.04982259923
  21
 828.91537478654
  31
0.0
   0
LINE
   5
572
 100
AcDbEntity
   8
LEVEL004
 370
20
 100
AcDbLine
   6
HIDDEN
  62
1
  10
 1005.5498225992
  20
 828.21537478654
  30
0.0
  11
 1010.5498225992
  21
 828.21537478654
  31
0.0
   0
LINE
   5
573
 100
AcDbEntity
   8
LEVEL004
 370
20
 100
AcDbLine
   6
HIDDEN
  62
1
  10
 1010.5498225992
  20
 828.21537478654
  30
0.0
  11
 1010.5498225992
  21
 828.91537478654
  31
0.0
   0
LINE
   5
574
 100
AcDbEntity
   8
LEVEL004
 370
20
 100
AcDbLine
   6
HIDDEN
  62
1
  10
 1010.5498225992
  20
 828.21537478654
  30
0.0
  11
 1012.3498225992
  21
 826.41537478654
  31
0.0
   0
LINE
   5
575
 100
AcDbEntity
   8
LEVEL004
 370
20
 100
AcDbLine
   6
HIDDEN
  62
1
  10
 1005.5498225992
  20
 828.21537478654
  30
0.0
  11
 1005.5498225992
  21
 828.91537478654
  31
0.0
   0
LINE
   5
576
 100
AcDbEntity
   8
LEVEL004
 370
20
 100
AcDbLine
   6
HIDDEN
  62
1
  10
 1005.5498225992
  20
 828.21537478654
  30
0.0
  11
 1003.7498225992
  21
 826.41537478654
  31
0.0
   0
DIMENSION
   5
577
 100
AcDbEntity
   8
0
 370
15
   6
CONTINUOUS
  62
8
 100
AcDbDimension
   2
*D51
  10
 1078.0498225992
  20
 850.04075855973
  30
0.0
  11
 1038.0498225992
  21
 850.04075855973
  31
0.0
  70
0
   3
GMM001
 100
AcDbAlignedDimension
  13
 998.04982259923
  23
 828.91537478654
  33
0.0
  14
 1078.0498225992
  24
 828.91537478654
  34
0.0
 100
AcDbRotatedDimension
   0
LINE
   5
578
 100
AcDbEntity
   8
LEVEL006
 370
15
 100
AcDbLine
   6
DASHDOT
  62
8
  10
 1068.0498225992
  20
 825.41537478654
  30
0.0
  11
 1068.0498225992
  21
 829.41537478654
  31
0.0
   0
LINE
   5
579
 100
AcDbEntity
   8
LEVEL004
 370
20
 100
AcDbLine
   6
CONTINUOUS
  62
1
  10
 1078.0498225992
  20
 826.41537478654
  30
0.0
  11
 1078.0498225992
  21
 828.91537478654
  31
0.0
   0
LINE
   5
57A
 100
AcDbEntity
   8
LEVEL004
 370
20
 100
AcDbLine
   6
HIDDEN
  62
1
  10
 1070.5498225992
  20
 828.31537478654
  30
0.0
  11
 1072.4498225992
  21
 826.41537478654
  31
0.0
   0
LINE
   5
57B
 100
AcDbEntity
   8
LEVEL004
 370
20
 100
AcDbLine
   6
HIDDEN
  62
1
  10
 1065.5498225992
  20
 828.31537478654
  30
0.0
  11
 1065.5498225992
  21
 828.91537478654
  31
0.0
   0
LINE
   5
57C
 100
AcDbEntity
   8
LEVEL004
 370
20
 100
AcDbLine
   6
HIDDEN
  62
1
  10
 1070.5498225992
  20
 828.31537478654
  30
0.0
  11
 1065.5498225992
  21
 828.31537478654
  31
0.0
   0
LINE
   5
57D
 100
AcDbEntity
   8
LEVEL004
 370
20
 100
AcDbLine
   6
HIDDEN
  62
1
  10
 1065.5498225992
  20
 828.31537478654
  30
0.0
  11
 1063.6498225992
  21
 826.41537478654
  31
0.0
   0
LINE
   5
57E
 100
AcDbEntity
   8
LEVEL004
 370
20
 100
AcDbLine
   6
HIDDEN
  62
1
  10
 1070.5498225992
  20
 828.31537478654
  30
0.0
  11
 1070.5498225992
  21
 828.91537478654
  31
0.0
   0
DIMENSION
   5
57F
 100
AcDbEntity
   8
0
 370
15
   6
CONTINUOUS
  62
8
 100
AcDbDimension
   2
*D52
  10
 1111.9260070794
  20
 828.91537478654
  30
0.0
  11
 1111.9260070794
  21
 837.79081870409
  31
0.0
  70
128
   3
GMM008
 100
AcDbAlignedDimension
  13
 1078.0498225992
  23
 826.41537478654
  33
0.0
  14
 1078.0498225992
  24
 828.91537478654
  34
0.0
  50
 90.000000000000
 100
AcDbRotatedDimension
   0
LINE
   5
580
 100
AcDbEntity
   8
LEVEL004
 370
20
 100
AcDbLine
   6
HIDDEN
  62
1
  10
 1042.7998225992
  20
 827.16537478654
  30
0.0
  11
 1033.2998225992
  21
 827.16537478654
  31
0.0
   0
LINE
   5
581
 100
AcDbEntity
   8
LEVEL004
 370
20
 100
AcDbLine
   6
HIDDEN
  62
1
  10
 1033.2998225992
  20
 827.16537478654
  30
0.0
  11
 1033.2998225992
  21
 826.41537478654
  31
0.0
   0
LINE
   5
582
 100
AcDbEntity
   8
LEVEL004
 370
20
 100
AcDbLine
   6
HIDDEN
  62
1
  10
 1033.2998225992
  20
 827.16537478654
  30
0.0
  11
 1031.5498225992
  21
 828.91537478654
  31
0.0
   0
LINE
   5
583
 100
AcDbEntity
   8
LEVEL004
 370
20
 100
AcDbLine
   6
HIDDEN
  62
1
  10
 1042.7998225992
  20
 827.16537478654
  30
0.0
  11
 1042.7998225992
  21
 826.41537478654
  31
0.0
   0
LINE
   5
584
 100
AcDbEntity
   8
LEVEL004
 370
20
 100
AcDbLine
   6
HIDDEN
  62
1
  10
 1042.7998225992
  20
 827.16537478654
  30
0.0
  11
 1044.5498225992
  21
 828.91537478654
  31
0.0
   0
LINE
   5
585
 100
AcDbEntity
   8
LEVEL001
 370
15
 100
AcDbLine
   6
DASHDOT
  62
8
  10
 938.59921775189
  20
 841.74156527502
  30
0.0
  11
 938.59921775189
  21
 797.41537478654
  31
0.0
   0
LINE
   5
586
 100
AcDbEntity
   8
LEVEL001
 370
15
 100
AcDbLine
   6
DASHDOT
  62
8
  10
 1038.0498225992
  20
 746.73590025109
  30
0.0
  11
 1038.0498225992
  21
 841.74156527502
  31
0.0
   0
LINE
   5
587
 100
AcDbEntity
   8
LEVEL001
 370
15
 100
AcDbLine
   6
DASHDOT
  62
8
  10
 938.58133771369
  20
 292.56863293929
  30
0.0
  11
 938.58133771369
  21
 253.95838762086
  31
0.0
   0
LINE
   5
588
 100
AcDbEntity
   8
LEVEL001
 370
15
 100
AcDbLine
   6
DASHDOT
  62
8
  10
 1038.0319425610
  20
 220.54592721460
  30
0.0
  11
 1038.0319425610
  21
 292.56863293929
  31
0.0
   0
MTEXT
   5
58A
 100
AcDbEntity
   8
LEVEL001
 370
15
  62
8
 100
AcDbMText
  10
 1287.2799276686
  20
 624.92436335994
  30
0.0
  40
 12.000000000000
  41
0.0
  71
4
  72
1
   1
{\T1.000000;※出寸法Ｌは軸の中心までの寸法です。}\P{\T1.000000;※ネジ切りはＭ１０です。}
   7
GMM001
  44
 0.79999984000003
   0
LINE
   5
58B
 100
AcDbEntity
   8
LEVEL001
 370
20
 100
AcDbLine
   6
CONTINUOUS
  62
7
  10
 427.04982259920
  20
 1020.8646412394
  30
0.0
  11
 443.04982259920
  21
 1020.8646412394
  31
0.0
   0
LINE
   5
58C
 100
AcDbEntity
   8
LEVEL001
 370
15
 100
AcDbLine
   6
HIDDEN
  62
2
  10
 430.74982259920
  20
 1019.6646412394
  30
0.0
  11
 430.74982259920
  21
 989.86464123940
  31
0.0
   0
LINE
   5
58D
 100
AcDbEntity
   8
LEVEL001
 370
15
 100
AcDbLine
   6
HIDDEN
  62
2
  10
 430.74982259920
  20
 989.86464123940
  30
0.0
  11
 435.04982259920
  21
 987.86464123940
  31
0.0
   0
LINE
   5
58E
 100
AcDbEntity
   8
LEVEL001
 370
15
 100
AcDbLine
   6
HIDDEN
  62
2
  10
 430.74982259920
  20
 994.74464123940
  30
0.0
  11
 430.04982259920
  21
 995.86464123940
  31
0.0
   0
LINE
   5
58F
 100
AcDbEntity
   8
LEVEL001
 370
15
 100
AcDbLine
   6
HIDDEN
  62
2
  10
 430.04982259920
  20
 995.86464123940
  30
0.0
  11
 430.04982259920
  21
 1020.3646412394
  31
0.0
   0
LINE
   5
590
 100
AcDbEntity
   8
LEVEL001
 370
15
 100
AcDbLine
   6
HIDDEN
  62
2
  10
 439.34982259920
  20
 989.86464123940
  30
0.0
  11
 430.74982259920
  21
 989.86464123940
  31
0.0
   0
LINE
   5
591
 100
AcDbEntity
   8
LEVEL001
 370
15
 100
AcDbLine
   6
HIDDEN
  62
2
  10
 440.04982259920
  20
 995.86464123940
  30
0.0
  11
 430.04982259920
  21
 995.86464123940
  31
0.0
   0
LINE
   5
592
 100
AcDbEntity
   8
LEVEL001
 370
15
 100
AcDbLine
   6
HIDDEN
  62
2
  10
 439.34982259920
  20
 1019.6646412394
  30
0.0
  11
 430.74982259920
  21
 1019.6646412394
  31
0.0
   0
LINE
   5
593
 100
AcDbEntity
   8
LEVEL001
 370
15
 100
AcDbLine
   6
HIDDEN
  62
2
  10
 430.74982259920
  20
 1019.6646412394
  30
0.0
  11
 429.54982259920
  21
 1020.8646412394
  31
0.0
   0
LINE
   5
594
 100
AcDbEntity
   8
LEVEL001
 370
15
 100
AcDbLine
   6
HIDDEN
  62
2
  10
 439.34982259920
  20
 994.74464123940
  30
0.0
  11
 430.74982259920
  21
 994.74464123940
  31
0.0
   0
LINE
   5
595
 100
AcDbEntity
   8
LEVEL001
 370
15
 100
AcDbLine
   6
HIDDEN
  62
2
  10
 439.34982259920
  20
 989.86464123940
  30
0.0
  11
 439.34982259920
  21
 1019.6646412394
  31
0.0
   0
LINE
   5
596
 100
AcDbEntity
   8
LEVEL001
 370
15
 100
AcDbLine
   6
HIDDEN
  62
2
  10
 440.04982259920
  20
 1020.3646412394
  30
0.0
  11
 440.04982259920
  21
 995.86464123940
  31
0.0
   0
LINE
   5
597
 100
AcDbEntity
   8
LEVEL001
 370
15
 100
AcDbLine
   6
HIDDEN
  62
2
  10
 439.34982259920
  20
 1019.6646412394
  30
0.0
  11
 440.54982259920
  21
 1020.8646412394
  31
0.0
   0
LINE
   5
598
 100
AcDbEntity
   8
LEVEL001
 370
15
 100
AcDbLine
   6
HIDDEN
  62
2
  10
 435.04982259920
  20
 987.86464123940
  30
0.0
  11
 439.34982259920
  21
 989.86464123940
  31
0.0
   0
LINE
   5
599
 100
AcDbEntity
   8
LEVEL001
 370
15
 100
AcDbLine
   6
HIDDEN
  62
2
  10
 440.04982259920
  20
 995.86464123940
  30
0.0
  11
 439.34982259920
  21
 994.74464123940
  31
0.0
   0
LINE
   5
59A
 100
AcDbEntity
   8
LEVEL001
 370
20
 100
AcDbLine
   6
CONTINUOUS
  62
7
  10
 453.04982259920
  20
 1020.8646412394
  30
0.0
  11
 417.04982259920
  21
 1020.8646412394
  31
0.0
   0
LINE
   5
59B
 100
AcDbEntity
   8
LEVEL001
 370
20
 100
AcDbLine
   6
CONTINUOUS
  62
7
  10
 418.04982259920
  20
 1017.8646412394
  30
0.0
  11
 452.04982259920
  21
 1017.8646412394
  31
0.0
   0
LINE
   5
59C
 100
AcDbEntity
   8
LEVEL001
 370
20
 100
AcDbLine
   6
CONTINUOUS
  62
7
  10
 453.04982259920
  20
 1018.8646412394
  30
0.0
  11
 417.04982259920
  21
 1018.8646412394
  31
0.0
   0
LINE
   5
59D
 100
AcDbEntity
   8
LEVEL001
 370
20
 100
AcDbLine
   6
CONTINUOUS
  62
7
  10
 417.04982259920
  20
 1020.8646412394
  30
0.0
  11
 417.04982259920
  21
 1018.8646412394
  31
0.0
   0
LINE
   5
59E
 100
AcDbEntity
   8
LEVEL001
 370
20
 100
AcDbLine
   6
CONTINUOUS
  62
7
  10
 417.04982259920
  20
 1018.8646412394
  30
0.0
  11
 418.04982259920
  21
 1017.8646412394
  31
0.0
   0
LINE
   5
59F
 100
AcDbEntity
   8
LEVEL001
 370
20
 100
AcDbLine
   6
CONTINUOUS
  62
7
  10
 453.04982259920
  20
 1018.8646412394
  30
0.0
  11
 453.04982259920
  21
 1020.8646412394
  31
0.0
   0
LINE
   5
5A0
 100
AcDbEntity
   8
LEVEL001
 370
20
 100
AcDbLine
   6
CONTINUOUS
  62
7
  10
 453.04982259920
  20
 1018.8646412394
  30
0.0
  11
 452.04982259920
  21
 1017.8646412394
  31
0.0
   0
LINE
   5
5A1
 100
AcDbEntity
   8
LEVEL001
 370
20
 100
AcDbLine
   6
CONTINUOUS
  62
7
  10
 1030.0498225992
  20
 1020.8646412394
  30
0.0
  11
 1046.0498225992
  21
 1020.8646412394
  31
0.0
   0
LINE
   5
5A2
 100
AcDbEntity
   8
LEVEL001
 370
15
 100
AcDbLine
   6
HIDDEN
  62
2
  10
 1033.7498225992
  20
 1019.6646412394
  30
0.0
  11
 1033.7498225992
  21
 989.86464123937
  31
0.0
   0
LINE
   5
5A3
 100
AcDbEntity
   8
LEVEL001
 370
15
 100
AcDbLine
   6
HIDDEN
  62
2
  10
 1033.7498225992
  20
 989.86464123937
  30
0.0
  11
 1038.0498225992
  21
 987.86464123937
  31
0.0
   0
LINE
   5
5A4
 100
AcDbEntity
   8
LEVEL001
 370
15
 100
AcDbLine
   6
HIDDEN
  62
2
  10
 1033.7498225992
  20
 994.74464123937
  30
0.0
  11
 1033.0498225992
  21
 995.86464123937
  31
0.0
   0
LINE
   5
5A5
 100
AcDbEntity
   8
LEVEL001
 370
15
 100
AcDbLine
   6
HIDDEN
  62
2
  10
 1033.0498225992
  20
 995.86464123937
  30
0.0
  11
 1033.0498225992
  21
 1020.3646412394
  31
0.0
   0
LINE
   5
5A6
 100
AcDbEntity
   8
LEVEL001
 370
15
 100
AcDbLine
   6
HIDDEN
  62
2
  10
 1042.3498225992
  20
 989.86464123937
  30
0.0
  11
 1033.7498225992
  21
 989.86464123937
  31
0.0
   0
LINE
   5
5A7
 100
AcDbEntity
   8
LEVEL001
 370
15
 100
AcDbLine
   6
HIDDEN
  62
2
  10
 1043.0498225992
  20
 995.86464123937
  30
0.0
  11
 1033.0498225992
  21
 995.86464123937
  31
0.0
   0
LINE
   5
5A8
 100
AcDbEntity
   8
LEVEL001
 370
15
 100
AcDbLine
   6
HIDDEN
  62
2
  10
 1042.3498225992
  20
 1019.6646412394
  30
0.0
  11
 1033.7498225992
  21
 1019.6646412394
  31
0.0
   0
LINE
   5
5A9
 100
AcDbEntity
   8
LEVEL001
 370
15
 100
AcDbLine
   6
HIDDEN
  62
2
  10
 1033.7498225992
  20
 1019.6646412394
  30
0.0
  11
 1032.5498225992
  21
 1020.8646412394
  31
0.0
   0
LINE
   5
5AA
 100
AcDbEntity
   8
LEVEL001
 370
15
 100
AcDbLine
   6
HIDDEN
  62
2
  10
 1042.3498225992
  20
 994.74464123937
  30
0.0
  11
 1033.7498225992
  21
 994.74464123937
  31
0.0
   0
LINE
   5
5AB
 100
AcDbEntity
   8
LEVEL001
 370
15
 100
AcDbLine
   6
HIDDEN
  62
2
  10
 1042.3498225992
  20
 989.86464123937
  30
0.0
  11
 1042.3498225992
  21
 1019.6646412394
  31
0.0
   0
LINE
   5
5AC
 100
AcDbEntity
   8
LEVEL001
 370
15
 100
AcDbLine
   6
HIDDEN
  62
2
  10
 1043.0498225992
  20
 1020.3646412394
  30
0.0
  11
 1043.0498225992
  21
 995.86464123937
  31
0.0
   0
LINE
   5
5AD
 100
AcDbEntity
   8
LEVEL001
 370
15
 100
AcDbLine
   6
HIDDEN
  62
2
  10
 1042.3498225992
  20
 1019.6646412394
  30
0.0
  11
 1043.5498225992
  21
 1020.8646412394
  31
0.0
   0
LINE
   5
5AE
 100
AcDbEntity
   8
LEVEL001
 370
15
 100
AcDbLine
   6
HIDDEN
  62
2
  10
 1038.0498225992
  20
 987.86464123937
  30
0.0
  11
 1042.3498225992
  21
 989.86464123937
  31
0.0
   0
LINE
   5
5AF
 100
AcDbEntity
   8
LEVEL001
 370
15
 100
AcDbLine
   6
HIDDEN
  62
2
  10
 1043.0498225992
  20
 995.86464123937
  30
0.0
  11
 1042.3498225992
  21
 994.74464123937
  31
0.0
   0
LINE
   5
5B0
 100
AcDbEntity
   8
LEVEL001
 370
20
 100
AcDbLine
   6
CONTINUOUS
  62
7
  10
 1056.0498225992
  20
 1020.8646412394
  30
0.0
  11
 1020.0498225992
  21
 1020.8646412394
  31
0.0
   0
LINE
   5
5B1
 100
AcDbEntity
   8
LEVEL001
 370
20
 100
AcDbLine
   6
CONTINUOUS
  62
7
  10
 1021.0498225992
  20
 1017.8646412394
  30
0.0
  11
 1055.0498225992
  21
 1017.8646412394
  31
0.0
   0
LINE
   5
5B2
 100
AcDbEntity
   8
LEVEL001
 370
20
 100
AcDbLine
   6
CONTINUOUS
  62
7
  10
 1056.0498225992
  20
 1018.8646412394
  30
0.0
  11
 1020.0498225992
  21
 1018.8646412394
  31
0.0
   0
LINE
   5
5B3
 100
AcDbEntity
   8
LEVEL001
 370
20
 100
AcDbLine
   6
CONTINUOUS
  62
7
  10
 1020.0498225992
  20
 1020.8646412394
  30
0.0
  11
 1020.0498225992
  21
 1018.8646412394
  31
0.0
   0
LINE
   5
5B4
 100
AcDbEntity
   8
LEVEL001
 370
20
 100
AcDbLine
   6
CONTINUOUS
  62
7
  10
 1020.0498225992
  20
 1018.8646412394
  30
0.0
  11
 1021.0498225992
  21
 1017.8646412394
  31
0.0
   0
LINE
   5
5B5
 100
AcDbEntity
   8
LEVEL001
 370
20
 100
AcDbLine
   6
CONTINUOUS
  62
7
  10
 1056.0498225992
  20
 1018.8646412394
  30
0.0
  11
 1056.0498225992
  21
 1020.8646412394
  31
0.0
   0
LINE
   5
5B6
 100
AcDbEntity
   8
LEVEL001
 370
20
 100
AcDbLine
   6
CONTINUOUS
  62
7
  10
 1056.0498225992
  20
 1018.8646412394
  30
0.0
  11
 1055.0498225992
  21
 1017.8646412394
  31
0.0
   0
LINE
   5
5B7
 100
AcDbEntity
   8
LEVEL001
 370
20
 100
AcDbLine
   6
CONTINUOUS
  62
7
  10
 440.28650664791
  20
 465.90765407381
  30
0.0
  11
 427.28650664791
  21
 465.90765407381
  31
0.0
   0
LINE
   5
5B8
 100
AcDbEntity
   8
LEVEL001
 370
15
 100
AcDbLine
   6
HIDDEN
  62
2
  10
 429.48650664791
  20
 464.70765407381
  30
0.0
  11
 429.48650664791
  21
 434.90765407381
  31
0.0
   0
LINE
   5
5B9
 100
AcDbEntity
   8
LEVEL001
 370
15
 100
AcDbLine
   6
HIDDEN
  62
2
  10
 429.48650664791
  20
 434.90765407381
  30
0.0
  11
 433.78650664791
  21
 432.90765407381
  31
0.0
   0
LINE
   5
5BA
 100
AcDbEntity
   8
LEVEL001
 370
15
 100
AcDbLine
   6
HIDDEN
  62
2
  10
 429.48650664791
  20
 439.78765407381
  30
0.0
  11
 428.78650664791
  21
 440.90765407381
  31
0.0
   0
LINE
   5
5BB
 100
AcDbEntity
   8
LEVEL001
 370
15
 100
AcDbLine
   6
HIDDEN
  62
2
  10
 428.78650664791
  20
 440.90765407381
  30
0.0
  11
 428.78650664791
  21
 465.40765407381
  31
0.0
   0
LINE
   5
5BC
 100
AcDbEntity
   8
LEVEL001
 370
15
 100
AcDbLine
   6
HIDDEN
  62
2
  10
 438.08650664791
  20
 434.90765407381
  30
0.0
  11
 429.48650664791
  21
 434.90765407381
  31
0.0
   0
LINE
   5
5BD
 100
AcDbEntity
   8
LEVEL001
 370
15
 100
AcDbLine
   6
HIDDEN
  62
2
  10
 438.78650664791
  20
 440.90765407381
  30
0.0
  11
 428.78650664791
  21
 440.90765407381
  31
0.0
   0
LINE
   5
5BE
 100
AcDbEntity
   8
LEVEL001
 370
15
 100
AcDbLine
   6
HIDDEN
  62
2
  10
 438.08650664791
  20
 464.70765407381
  30
0.0
  11
 429.48650664791
  21
 464.70765407381
  31
0.0
   0
LINE
   5
5BF
 100
AcDbEntity
   8
LEVEL001
 370
15
 100
AcDbLine
   6
HIDDEN
  62
2
  10
 429.48650664791
  20
 464.70765407381
  30
0.0
  11
 428.28650664791
  21
 465.90765407381
  31
0.0
   0
LINE
   5
5C0
 100
AcDbEntity
   8
LEVEL001
 370
15
 100
AcDbLine
   6
HIDDEN
  62
2
  10
 438.08650664791
  20
 439.78765407381
  30
0.0
  11
 429.48650664791
  21
 439.78765407381
  31
0.0
   0
LINE
   5
5C1
 100
AcDbEntity
   8
LEVEL001
 370
15
 100
AcDbLine
   6
HIDDEN
  62
2
  10
 438.08650664791
  20
 434.90765407381
  30
0.0
  11
 438.08650664791
  21
 464.70765407381
  31
0.0
   0
LINE
   5
5C2
 100
AcDbEntity
   8
LEVEL001
 370
15
 100
AcDbLine
   6
HIDDEN
  62
2
  10
 438.78650664791
  20
 465.40765407381
  30
0.0
  11
 438.78650664791
  21
 440.90765407381
  31
0.0
   0
LINE
   5
5C3
 100
AcDbEntity
   8
LEVEL001
 370
15
 100
AcDbLine
   6
HIDDEN
  62
2
  10
 438.08650664791
  20
 464.70765407381
  30
0.0
  11
 439.28650664791
  21
 465.90765407381
  31
0.0
   0
LINE
   5
5C4
 100
AcDbEntity
   8
LEVEL001
 370
15
 100
AcDbLine
   6
HIDDEN
  62
2
  10
 433.78650664791
  20
 432.90765407381
  30
0.0
  11
 438.08650664791
  21
 434.90765407381
  31
0.0
   0
LINE
   5
5C5
 100
AcDbEntity
   8
LEVEL001
 370
15
 100
AcDbLine
   6
HIDDEN
  62
2
  10
 438.78650664791
  20
 440.90765407381
  30
0.0
  11
 438.08650664791
  21
 439.78765407381
  31
0.0
   0
LINE
   5
5C6
 100
AcDbEntity
   8
LEVEL001
 370
20
 100
AcDbLine
   6
CONTINUOUS
  62
7
  10
 446.78650664791
  20
 465.90765407381
  30
0.0
  11
 420.78650664791
  21
 465.90765407381
  31
0.0
   0
LINE
   5
5C7
 100
AcDbEntity
   8
LEVEL001
 370
20
 100
AcDbLine
   6
CONTINUOUS
  62
7
  10
 420.78650664791
  20
 463.90765407381
  30
0.0
  11
 446.78650664791
  21
 463.90765407381
  31
0.0
   0
LINE
   5
5C8
 100
AcDbEntity
   8
LEVEL001
 370
20
 100
AcDbLine
   6
CONTINUOUS
  62
7
  10
 420.78650664791
  20
 465.90765407381
  30
0.0
  11
 420.78650664791
  21
 463.90765407381
  31
0.0
   0
LINE
   5
5C9
 100
AcDbEntity
   8
LEVEL001
 370
20
 100
AcDbLine
   6
CONTINUOUS
  62
7
  10
 421.78650664791
  20
 462.90765407381
  30
0.0
  11
 440.88650664791
  21
 462.90765407381
  31
0.0
   0
LINE
   5
5CA
 100
AcDbEntity
   8
LEVEL001
 370
20
 100
AcDbLine
   6
CONTINUOUS
  62
7
  10
 420.78650664791
  20
 463.90765407381
  30
0.0
  11
 421.78650664791
  21
 462.90765407381
  31
0.0
   0
LINE
   5
5CB
 100
AcDbEntity
   8
LEVEL001
 370
20
 100
AcDbLine
   6
CONTINUOUS
  62
7
  10
 446.78650664791
  20
 463.90765407381
  30
0.0
  11
 445.78650664791
  21
 462.90765407381
  31
0.0
   0
LINE
   5
5CC
 100
AcDbEntity
   8
LEVEL001
 370
20
 100
AcDbLine
   6
CONTINUOUS
  62
7
  10
 440.88650664791
  20
 462.90765407381
  30
0.0
  11
 445.78650664791
  21
 462.90765407381
  31
0.0
   0
LINE
   5
5CD
 100
AcDbEntity
   8
LEVEL001
 370
20
 100
AcDbLine
   6
CONTINUOUS
  62
7
  10
 446.78650664791
  20
 463.90765407381
  30
0.0
  11
 446.78650664791
  21
 465.90765407381
  31
0.0
   0
LINE
   5
5CE
 100
AcDbEntity
   8
LEVEL001
 370
20
 100
AcDbLine
   6
CONTINUOUS
  62
7
  10
 1044.5319425610
  20
 465.90765407369
  30
0.0
  11
 1031.5319425610
  21
 465.90765407369
  31
0.0
   0
LINE
   5
5CF
 100
AcDbEntity
   8
LEVEL001
 370
15
 100
AcDbLine
   6
HIDDEN
  62
2
  10
 1033.7319425610
  20
 464.70765407369
  30
0.0
  11
 1033.7319425610
  21
 434.90765407369
  31
0.0
   0
LINE
   5
5D0
 100
AcDbEntity
   8
LEVEL001
 370
15
 100
AcDbLine
   6
HIDDEN
  62
2
  10
 1033.7319425610
  20
 434.90765407369
  30
0.0
  11
 1038.0319425610
  21
 432.90765407369
  31
0.0
   0
LINE
   5
5D1
 100
AcDbEntity
   8
LEVEL001
 370
15
 100
AcDbLine
   6
HIDDEN
  62
2
  10
 1033.7319425610
  20
 439.78765407369
  30
0.0
  11
 1033.0319425610
  21
 440.90765407369
  31
0.0
   0
LINE
   5
5D2
 100
AcDbEntity
   8
LEVEL001
 370
15
 100
AcDbLine
   6
HIDDEN
  62
2
  10
 1033.0319425610
  20
 440.90765407369
  30
0.0
  11
 1033.0319425610
  21
 465.40765407369
  31
0.0
   0
LINE
   5
5D3
 100
AcDbEntity
   8
LEVEL001
 370
15
 100
AcDbLine
   6
HIDDEN
  62
2
  10
 1042.3319425610
  20
 434.90765407369
  30
0.0
  11
 1033.7319425610
  21
 434.90765407369
  31
0.0
   0
LINE
   5
5D4
 100
AcDbEntity
   8
LEVEL001
 370
15
 100
AcDbLine
   6
HIDDEN
  62
2
  10
 1043.0319425610
  20
 440.90765407369
  30
0.0
  11
 1033.0319425610
  21
 440.90765407369
  31
0.0
   0
LINE
   5
5D5
 100
AcDbEntity
   8
LEVEL001
 370
15
 100
AcDbLine
   6
HIDDEN
  62
2
  10
 1042.3319425610
  20
 464.70765407369
  30
0.0
  11
 1033.7319425610
  21
 464.70765407369
  31
0.0
   0
LINE
   5
5D6
 100
AcDbEntity
   8
LEVEL001
 370
15
 100
AcDbLine
   6
HIDDEN
  62
2
  10
 1033.7319425610
  20
 464.70765407369
  30
0.0
  11
 1032.5319425610
  21
 465.90765407369
  31
0.0
   0
LINE
   5
5D7
 100
AcDbEntity
   8
LEVEL001
 370
15
 100
AcDbLine
   6
HIDDEN
  62
2
  10
 1042.3319425610
  20
 439.78765407369
  30
0.0
  11
 1033.7319425610
  21
 439.78765407369
  31
0.0
   0
LINE
   5
5D8
 100
AcDbEntity
   8
LEVEL001
 370
15
 100
AcDbLine
   6
HIDDEN
  62
2
  10
 1042.3319425610
  20
 434.90765407369
  30
0.0
  11
 1042.3319425610
  21
 464.70765407369
  31
0.0
   0
LINE
   5
5D9
 100
AcDbEntity
   8
LEVEL001
 370
15
 100
AcDbLine
   6
HIDDEN
  62
2
  10
 1043.0319425610
  20
 465.40765407369
  30
0.0
  11
 1043.0319425610
  21
 440.90765407369
  31
0.0
   0
LINE
   5
5DA
 100
AcDbEntity
   8
LEVEL001
 370
15
 100
AcDbLine
   6
HIDDEN
  62
2
  10
 1042.3319425610
  20
 464.70765407369
  30
0.0
  11
 1043.5319425610
  21
 465.90765407369
  31
0.0
   0
LINE
   5
5DB
 100
AcDbEntity
   8
LEVEL001
 370
15
 100
AcDbLine
   6
HIDDEN
  62
2
  10
 1038.0319425610
  20
 432.90765407369
  30
0.0
  11
 1042.3319425610
  21
 434.90765407369
  31
0.0
   0
LINE
   5
5DC
 100
AcDbEntity
   8
LEVEL001
 370
15
 100
AcDbLine
   6
HIDDEN
  62
2
  10
 1043.0319425610
  20
 440.90765407369
  30
0.0
  11
 1042.3319425610
  21
 439.78765407369
  31
0.0
   0
LINE
   5
5DD
 100
AcDbEntity
   8
LEVEL001
 370
20
 100
AcDbLine
   6
CONTINUOUS
  62
7
  10
 1051.0319425610
  20
 465.90765407369
  30
0.0
  11
 1025.0319425610
  21
 465.90765407369
  31
0.0
   0
LINE
   5
5DE
 100
AcDbEntity
   8
LEVEL001
 370
20
 100
AcDbLine
   6
CONTINUOUS
  62
7
  10
 1025.0319425610
  20
 463.90765407369
  30
0.0
  11
 1051.0319425610
  21
 463.90765407369
  31
0.0
   0
LINE
   5
5DF
 100
AcDbEntity
   8
LEVEL001
 370
20
 100
AcDbLine
   6
CONTINUOUS
  62
7
  10
 1025.0319425610
  20
 465.90765407369
  30
0.0
  11
 1025.0319425610
  21
 463.90765407369
  31
0.0
   0
LINE
   5
5E0
 100
AcDbEntity
   8
LEVEL001
 370
20
 100
AcDbLine
   6
CONTINUOUS
  62
7
  10
 1026.0319425610
  20
 462.90765407369
  30
0.0
  11
 1045.1319425610
  21
 462.90765407369
  31
0.0
   0
LINE
   5
5E1
 100
AcDbEntity
   8
LEVEL001
 370
20
 100
AcDbLine
   6
CONTINUOUS
  62
7
  10
 1025.0319425610
  20
 463.90765407369
  30
0.0
  11
 1026.0319425610
  21
 462.90765407369
  31
0.0
   0
LINE
   5
5E2
 100
AcDbEntity
   8
LEVEL001
 370
20
 100
AcDbLine
   6
CONTINUOUS
  62
7
  10
 1051.0319425610
  20
 463.90765407369
  30
0.0
  11
 1050.0319425610
  21
 462.90765407369
  31
0.0
   0
LINE
   5
5E3
 100
AcDbEntity
   8
LEVEL001
 370
20
 100
AcDbLine
   6
CONTINUOUS
  62
7
  10
 1045.1319425610
  20
 462.90765407369
  30
0.0
  11
 1050.0319425610
  21
 462.90765407369
  31
0.0
   0
LINE
   5
5E4
 100
AcDbEntity
   8
LEVEL001
 370
20
 100
AcDbLine
   6
CONTINUOUS
  62
7
  10
 1051.0319425610
  20
 463.90765407369
  30
0.0
  11
 1051.0319425610
  21
 465.90765407369
  31
0.0
   0
LINE
   5
5E5
 100
AcDbEntity
   8
LEVEL001
 370
15
 100
AcDbLine
   6
DASHDOT
  62
8
  10
 1038.0319425610
  20
 378.64802595838
  30
0.0
  11
 1038.0319425610
  21
 472.36475662288
  31
0.0
   0
LINE
   5
5E6
 100
AcDbEntity
   8
LEVEL001
 370
15
 100
AcDbLine
   6
HIDDEN
  62
2
  10
 1031.5319425610
  20
 395.90765407369
  30
0.0
  11
 1031.5319425610
  21
 408.40765407369
  31
0.0
   0
LINE
   5
5E7
 100
AcDbEntity
   8
LEVEL001
 370
15
 100
AcDbLine
   6
HIDDEN
  62
2
  10
 1044.5319425610
  20
 408.40765407369
  30
0.0
  11
 1044.5319425610
  21
 395.90765407369
  31
0.0
   0
LINE
   5
5E8
 100
AcDbEntity
   8
LEVEL001
 370
20
 100
AcDbLine
   6
CONTINUOUS
  62
7
  10
 1031.5319425610
  20
 408.40765407369
  30
0.0
  11
 1031.5319425610
  21
 465.90765407369
  31
0.0
   0
LINE
   5
5E9
 100
AcDbEntity
   8
LEVEL001
 370
20
 100
AcDbLine
   6
CONTINUOUS
  62
7
  10
 1044.5319425610
  20
 465.90765407369
  30
0.0
  11
 1044.5319425610
  21
 408.40765407369
  31
0.0
   0
LINE
   5
5EA
 100
AcDbEntity
   8
LEVEL001
 370
15
 100
AcDbLine
   6
HIDDEN
  62
2
  10
 427.28650664792
  20
 395.90765407381
  30
0.0
  11
 427.28650664792
  21
 405.90765407381
  31
0.0
   0
LINE
   5
5EB
 100
AcDbEntity
   8
LEVEL001
 370
15
 100
AcDbLine
   6
HIDDEN
  62
2
  10
 440.28650664792
  20
 405.90765407381
  30
0.0
  11
 440.28650664792
  21
 395.90765407381
  31
0.0
   0
LINE
   5
5EC
 100
AcDbEntity
   8
LEVEL001
 370
20
 100
AcDbLine
   6
CONTINUOUS
  62
7
  10
 427.28650664792
  20
 405.90765407381
  30
0.0
  11
 427.28650664792
  21
 465.90765407381
  31
0.0
   0
LINE
   5
5ED
 100
AcDbEntity
   8
LEVEL001
 370
20
 100
AcDbLine
   6
CONTINUOUS
  62
7
  10
 440.28650664792
  20
 465.90765407381
  30
0.0
  11
 440.28650664792
  21
 405.90765407381
  31
0.0
   0
LINE
   5
5EE
 100
AcDbEntity
   8
LEVEL001
 370
15
 100
AcDbLine
   6
DASHDOT
  62
8
  10
 433.78650664791
  20
 378.64802595850
  30
0.0
  11
 433.78650664791
  21
 471.58057394395
  31
0.0
   0
LINE
   5
5EF
 100
AcDbEntity
   8
LEVEL001
 370
15
 100
AcDbLine
   6
HIDDEN
  62
2
  10
 427.04982259920
  20
 947.86464123940
  30
0.0
  11
 427.04982259920
  21
 957.86464123940
  31
0.0
   0
LINE
   5
5F0
 100
AcDbEntity
   8
LEVEL001
 370
15
 100
AcDbLine
   6
HIDDEN
  62
2
  10
 443.04982259920
  20
 957.86464123940
  30
0.0
  11
 443.04982259920
  21
 947.86464123940
  31
0.0
   0
LINE
   5
5F1
 100
AcDbEntity
   8
LEVEL001
 370
20
 100
AcDbLine
   6
CONTINUOUS
  62
7
  10
 443.04982259920
  20
 1020.8646412394
  30
0.0
  11
 443.04982259920
  21
 957.86464123940
  31
0.0
   0
LINE
   5
5F2
 100
AcDbEntity
   8
LEVEL001
 370
20
 100
AcDbLine
   6
CONTINUOUS
  62
7
  10
 427.04982259920
  20
 957.86464123940
  30
0.0
  11
 427.04982259920
  21
 1020.8646412394
  31
0.0
   0
LINE
   5
5F3
 100
AcDbEntity
   8
LEVEL001
 370
15
 100
AcDbLine
   6
DASHDOT
  62
8
  10
 435.04982259920
  20
 930.60501312409
  30
0.0
  11
 435.04982259920
  21
 1027.3482647818
  31
0.0
   0
LINE
   5
5F4
 100
AcDbEntity
   8
LEVEL001
 370
15
 100
AcDbLine
   6
HIDDEN
  62
2
  10
 1030.0498225992
  20
 947.86464123937
  30
0.0
  11
 1030.0498225992
  21
 960.36464123937
  31
0.0
   0
LINE
   5
5F5
 100
AcDbEntity
   8
LEVEL001
 370
15
 100
AcDbLine
   6
HIDDEN
  62
2
  10
 1046.0498225992
  20
 960.36464123937
  30
0.0
  11
 1046.0498225992
  21
 947.86464123937
  31
0.0
   0
LINE
   5
5F6
 100
AcDbEntity
   8
LEVEL001
 370
20
 100
AcDbLine
   6
CONTINUOUS
  62
7
  10
 1030.0498225992
  20
 960.36464123937
  30
0.0
  11
 1030.0498225992
  21
 1020.8646412394
  31
0.0
   0
LINE
   5
5F7
 100
AcDbEntity
   8
LEVEL001
 370
20
 100
AcDbLine
   6
CONTINUOUS
  62
7
  10
 1046.0498225992
  20
 1020.8646412394
  30
0.0
  11
 1046.0498225992
  21
 960.36464123937
  31
0.0
   0
LINE
   5
5F8
 100
AcDbEntity
   8
LEVEL001
 370
15
 100
AcDbLine
   6
DASHDOT
  62
8
  10
 1038.0498225992
  20
 930.60501312406
  30
0.0
  11
 1038.0498225992
  21
 1025.3224595280
  31
0.0
   0
LEADER
   5
5F9
 100
AcDbEntity
   8
0
 370
15
   6
CONTINUOUS
  62
8
 100
AcDbLeader
   3
GMM003
  73
0
  74
0
  75
0
  40
 10.000000000000
  41
 62.000000000000
  76
2
  10
 467.21850699265
  20
 390.81702217527
  30
0.0
  10
 490.98655634656
  20
 361.29916153082
  30
0.0
  77
8
 340
5FA
 213
0.0
 223
-4.0000000000000
 233
0.0
   0
MTEXT
   5
5FA
 102
{ACAD_REACTORS
 330
5F9
 102
}
 100
AcDbEntity
   8
0
 370
15
  62
8
 100
AcDbMText
  10
 490.98655634656
  20
 365.29916153082
  30
0.0
  40
 10.000000000000
  41
0.0
  71
7
  72
1
   1
\A1;下穴%%c５/皿%%c８
   7
GMM001
   0
LEADER
   5
5FB
 100
AcDbEntity
   8
0
 370
15
   6
CONTINUOUS
  62
8
 100
AcDbLeader
   3
GMM003
  73
0
  74
0
  75
0
  40
 10.000000000000
  41
 62.000000000000
  76
2
  10
 1071.4639429058
  20
 388.31702217515
  30
0.0
  10
 1095.2319922597
  20
 358.79916153069
  30
0.0
  77
8
 340
5FC
 213
0.0
 223
-4.0000000000000
 233
0.0
   0
MTEXT
   5
5FC
 102
{ACAD_REACTORS
 330
5FB
 102
}
 100
AcDbEntity
   8
0
 370
15
  62
8
 100
AcDbMText
  10
 1095.2319922597
  20
 362.79916153069
  30
0.0
  40
 10.000000000000
  41
0.0
  71
7
  72
1
   1
\A1;下穴%%c５/皿%%c８
   7
GMM001
   0
LEADER
   5
5FD
 100
AcDbEntity
   8
0
 370
15
   6
CONTINUOUS
  62
8
 100
AcDbLeader
   3
GMM003
  73
0
  74
0
  75
0
  40
 10.000000000000
  41
 62.000000000000
  76
2
  10
 1071.4818229440
  20
 940.27400934083
  30
0.0
  10
 1095.2498722979
  20
 910.75614869637
  30
0.0
  77
8
 340
5FE
 213
0.0
 223
-4.0000000000000
 233
0.0
   0
MTEXT
   5
5FE
 102
{ACAD_REACTORS
 330
5FD
 102
}
 100
AcDbEntity
   8
0
 370
15
  62
8
 100
AcDbMText
  10
 1095.2498722979
  20
 914.75614869637
  30
0.0
  40
 10.000000000000
  41
0.0
  71
7
  72
1
   1
\A1;下穴%%c５/皿%%c８
   7
GMM001
   0
LEADER
   5
5FF
 100
AcDbEntity
   8
0
 370
15
   6
CONTINUOUS
  62
8
 100
AcDbLeader
   3
GMM003
  73
0
  74
0
  75
0
  40
 10.000000000000
  41
 62.000000000000
  76
2
  10
 468.48182294394
  20
 942.77400934086
  30
0.0
  10
 492.24987229784
  20
 913.25614869640
  30
0.0
  77
8
 340
600
 213
0.0
 223
-4.0000000000000
 233
0.0
   0
MTEXT
   5
600
 102
{ACAD_REACTORS
 330
5FF
 102
}
 100
AcDbEntity
   8
0
 370
15
  62
8
 100
AcDbMText
  10
 492.24987229784
  20
 917.25614869640
  30
0.0
  40
 10.000000000000
  41
0.0
  71
7
  72
1
   1
\A1;下穴%%c５/皿%%c８
   7
GMM001
   0
MTEXT
   5
602
 100
AcDbEntity
   8
LEVEL001
 370
15
  62
8
 100
AcDbMText
  10
 1573.2000000001
  20
 194.66666666668
  30
0.0
  40
 8.0000000000000
  41
0.0
  71
5
  72
1
   1
\T1.000000;平成３１年　２月　１日
   7
GMM001
  44
 0.79999984000003
   0
ENDSEC
  0
SECTION
  2
OBJECTS
  0
DICTIONARY
  5
C
100
AcDbDictionary
  3
ACAD_GROUP
350
D
  3
ACAD_MLINESTYLE
350
1B
  3
DWGPROPS
350
1C
  0
DICTIONARY
  5
D
102
{ACAD_REACTORS
330
C
102
}
100
AcDbDictionary
  0
DICTIONARY
  5
1B
102
{ACAD_REACTORS
330
C
102
}
100
AcDbDictionary
  3
STANDARD
350
1D
  0
MLINESTYLE
  5
1D
102
{ACAD_REACTORS
330
1B
102
}
100
AcDbMlineStyle
  2
STANDARD
 70
     0
  3

 62
   256
 51
90.0
 52
90.0
 71
     2
 49
0.5
 62
   256
  6
BYLAYER
 49
-0.5
 62
   256
  6
BYLAYER
   0
XRECORD
   5
1C
 102
{ACAD_REACTORS
 330
C
 102
}
 330
C
 100
AcDbXrecord
 280
1
   1
DWGPROPS COOKIE
   2
 
   3
 
   4
haruna
   6
 
   7
PIA(16軸･13軸)
   8
haruna
   9

 300
 = 
 301
 = 
 302
 = 
 303
 = 
 304
 = 
 305
 = 
 306
 = 
 307
 = 
 308
 = 
 309
 = 
  40
0.0
  41
 2458515.5000000
  42
 2458519.5000000
   1

  90
10
   0
ENDSEC
   0
EOF
