   0
SECTION
   2
HEADER
   9
$ACADVER
   1
AC1015
   9
$DWGCODEPAGE
   3
ANSI_932
   9
$LIMMIN
  10
0.0
  20
0.0
   9
$LIMMAX
  10
 1680.0000000000
  20
 1188.0000000000
   9
$EXTMIN
  10
0.0
  20
0.0
  30
0.0
   9
$EXTMAX
  10
 1680.0000000000
  20
 1188.0000000000
  30
0.0
   9
$LTSCALE
  40
 33.600000000000
   9
$HANDSEED
   5
606
   0
ENDSEC
   0
SECTION
   2
TABLES
  0
TABLE
  2
VPORT
  5
8
100
AcDbSymbolTable
 70
     1
  0
VPORT
  5
605
100
AcDbSymbolTableRecord
100
AcDbViewportTableRecord
  2
*ACTIVE
 70
     0
 10
0.0
 20
0.0
 11
1.0
 21
1.0
  12
 840.00000000000
  22
 594.00000000000
 13
0.0
 23
0.0
 14
1.0
 24
1.0
 15
0.0
 25
0.0
 16
0.0
 26
0.0
 36
1.0
 17
0.0
 27
0.0
 37
0.0
  40
 1680.0000000000
  41
 1.4787878787879
 42
50.0
 43
0.0
 44
0.0
 50
0.0
 51
0.0
 71
     0
 72
   100
 73
     1
 74
     1
 75
     0
 76
     0
 77
     0
 78
     0
  0
ENDTAB
  0
TABLE
  2
LTYPE
  5
5
100
AcDbSymbolTable
 70
    25
  0
LTYPE
  5
12
100
AcDbSymbolTableRecord
100
AcDbLinetypeTableRecord
  2
BYBLOCK
 70
     0
  3

 72
    65
 73
     0
 40
0.0
  0
LTYPE
  5
13
100
AcDbSymbolTableRecord
100
AcDbLinetypeTableRecord
  2
BYLAYER
 70
     0
  3

 72
    65
 73
     0
 40
0.0
  0
LTYPE
  5
14
100
AcDbSymbolTableRecord
100
AcDbLinetypeTableRecord
  2
CONTINUOUS
 70
     0
  3
Solid line
 72
    65
 73
     0
 40
0.0
  0
LTYPE
  5
20
100
AcDbSymbolTableRecord
100
AcDbLinetypeTableRecord
  2
BORDER
 70
     0
  3
__ __ . __ __ . __ __ . __ __ . __ __ . __ __ .
 72
    65
 73
     6
 40
1.75
 49
0.5
 74
     0
 49
-0.25
 74
     0
 49
0.5
 74
     0
 49
-0.25
 74
     0
 49
0.0
 74
     0
 49
-0.25
 74
     0
  0
LTYPE
  5
21
100
AcDbSymbolTableRecord
100
AcDbLinetypeTableRecord
  2
BORDER2
 70
     0
  3
__.__.__.__.__.__.__.__.__.__.__.__.__.__.__.__
 72
    65
 73
     6
 40
0.875
 49
0.25
 74
     0
 49
-0.125
 74
     0
 49
0.25
 74
     0
 49
-0.125
 74
     0
 49
0.0
 74
     0
 49
-0.125
 74
     0
  0
LTYPE
  5
22
100
AcDbSymbolTableRecord
100
AcDbLinetypeTableRecord
  2
BORDERX2
 70
     0
  3
____  ____  .  ____  ____  .  ____  ____  .  __
 72
    65
 73
     6
 40
3.5
 49
1.0
 74
     0
 49
-0.5
 74
     0
 49
1.0
 74
     0
 49
-0.5
 74
     0
 49
0.0
 74
     0
 49
-0.5
 74
     0
  0
LTYPE
  5
23
100
AcDbSymbolTableRecord
100
AcDbLinetypeTableRecord
  2
CENTER
 70
     0
  3
____ _ ____ _ ____ _ ____ _ ____ _ ____ _ ____ 
 72
    65
 73
     4
 40
2.0
 49
1.25
 74
     0
 49
-0.25
 74
     0
 49
0.25
 74
     0
 49
-0.25
 74
     0
  0
LTYPE
  5
24
100
AcDbSymbolTableRecord
100
AcDbLinetypeTableRecord
  2
CENTER2
 70
     0
  3
___ _ ___ _ ___ _ ___ _ ___ _ ___ _ ___ _ ___ _
 72
    65
 73
     4
 40
1.125
 49
0.75
 74
     0
 49
-0.125
 74
     0
 49
0.125
 74
     0
 49
-0.125
 74
     0
  0
LTYPE
  5
25
100
AcDbSymbolTableRecord
100
AcDbLinetypeTableRecord
  2
CENTERX2
 70
     0
  3
________  __  ________  __  ________  __  _____
 72
    65
 73
     4
 40
4.0
 49
2.5
 74
     0
 49
-0.5
 74
     0
 49
0.5
 74
     0
 49
-0.5
 74
     0
  0
LTYPE
  5
26
100
AcDbSymbolTableRecord
100
AcDbLinetypeTableRecord
  2
DASHDOT
 70
     0
  3
__ . __ . __ . __ . __ . __ . __ . __ . __ . __
 72
    65
 73
     4
 40
1.0
 49
0.5
 74
     0
 49
-0.25
 74
     0
 49
0.0
 74
     0
 49
-0.25
 74
     0
  0
LTYPE
  5
27
100
AcDbSymbolTableRecord
100
AcDbLinetypeTableRecord
  2
DASHDOT2
 70
     0
  3
_._._._._._._._._._._._._._._._._._._._._._._._
 72
    65
 73
     4
 40
0.5
 49
0.25
 74
     0
 49
-0.125
 74
     0
 49
0.0
 74
     0
 49
-0.125
 74
     0
  0
LTYPE
  5
28
100
AcDbSymbolTableRecord
100
AcDbLinetypeTableRecord
  2
DASHDOTX2
 70
     0
  3
____  .  ____  .  ____  .  ____  .  ____  .  __
 72
    65
 73
     4
 40
2.0
 49
1.0
 74
     0
 49
-0.5
 74
     0
 49
0.0
 74
     0
 49
-0.5
 74
     0
  0
LTYPE
  5
29
100
AcDbSymbolTableRecord
100
AcDbLinetypeTableRecord
  2
DASHED
 70
     0
  3
__ __ __ __ __ __ __ __ __ __ __ __ __ __ __ __
 72
    65
 73
     2
 40
0.75
 49
0.5
 74
     0
 49
-0.25
 74
     0
  0
LTYPE
  5
2A
100
AcDbSymbolTableRecord
100
AcDbLinetypeTableRecord
  2
DASHED2
 70
     0
  3
_ _ _ _ _ _ _ _ _ _ _ _ _ _ _ _ _ _ _ _ _ _ _ _
 72
    65
 73
     2
 40
0.375
 49
0.25
 74
     0
 49
-0.125
 74
     0
  0
LTYPE
  5
2B
100
AcDbSymbolTableRecord
100
AcDbLinetypeTableRecord
  2
DASHEDX2
 70
     0
  3
____  ____  ____  ____  ____  ____  ____  ____ 
 72
    65
 73
     2
 40
1.5
 49
1.0
 74
     0
 49
-0.5
 74
     0
  0
LTYPE
  5
2C
100
AcDbSymbolTableRecord
100
AcDbLinetypeTableRecord
  2
DIVIDE
 70
     0
  3
____ . . ____ . . ____ . . ____ . . ____ . . __
 72
    65
 73
     6
 40
1.25
 49
0.5
 74
     0
 49
-0.25
 74
     0
 49
0.0
 74
     0
 49
-0.25
 74
     0
 49
0.0
 74
     0
 49
-0.25
 74
     0
  0
LTYPE
  5
2D
100
AcDbSymbolTableRecord
100
AcDbLinetypeTableRecord
  2
DIVIDE2
 70
     0
  3
__..__..__..__..__..__..__..__..__..__..__..__.
 72
    65
 73
     6
 40
0.625
 49
0.25
 74
     0
 49
-0.125
 74
     0
 49
0.0
 74
     0
 49
-0.125
 74
     0
 49
0.0
 74
     0
 49
-0.125
 74
     0
  0
LTYPE
  5
2E
100
AcDbSymbolTableRecord
100
AcDbLinetypeTableRecord
  2
DIVIDEX2
 70
     0
  3
________  .  .  ________  .  .  ________  .  . 
 72
    65
 73
     6
 40
2.5
 49
1.0
 74
     0
 49
-0.5
 74
     0
 49
0.0
 74
     0
 49
-0.5
 74
     0
 49
0.0
 74
     0
 49
-0.5
 74
     0
  0
LTYPE
  5
2F
100
AcDbSymbolTableRecord
100
AcDbLinetypeTableRecord
  2
DOT
 70
     0
  3
. . . . . . . . . . . . . . . . . . . . . . . .
 72
    65
 73
     2
 40
0.25
 49
0.0
 74
     0
 49
-0.25
 74
     0
  0
LTYPE
  5
30
100
AcDbSymbolTableRecord
100
AcDbLinetypeTableRecord
  2
DOT2
 70
     0
  3
...............................................
 72
    65
 73
     2
 40
0.125
 49
0.0
 74
     0
 49
-0.125
 74
     0
  0
LTYPE
  5
31
100
AcDbSymbolTableRecord
100
AcDbLinetypeTableRecord
  2
DOTX2
 70
     0
  3
.  .  .  .  .  .  .  .  .  .  .  .  .  .  .  . 
 72
    65
 73
     2
 40
0.5
 49
0.0
 74
     0
 49
-0.5
 74
     0
  0
LTYPE
  5
32
100
AcDbSymbolTableRecord
100
AcDbLinetypeTableRecord
  2
HIDDEN
 70
     0
  3
__ __ __ __ __ __ __ __ __ __ __ __ __ __ __ __
 72
    65
 73
     2
 40
0.375
 49
0.25
 74
     0
 49
-0.125
 74
     0
  0
LTYPE
  5
33
100
AcDbSymbolTableRecord
100
AcDbLinetypeTableRecord
  2
HIDDEN2
 70
     0
  3
_ _ _ _ _ _ _ _ _ _ _ _ _ _ _ _ _ _ _ _ _ _ _ _
 72
    65
 73
     2
 40
0.1875
 49
0.125
 74
     0
 49
-0.0625
 74
     0
  0
LTYPE
  5
34
100
AcDbSymbolTableRecord
100
AcDbLinetypeTableRecord
  2
HIDDENX2
 70
     0
  3
____ ____ ____ ____ ____ ____ ____ ____ ____ __
 72
    65
 73
     2
 40
0.75
 49
0.5
 74
     0
 49
-0.25
 74
     0
  0
LTYPE
  5
35
100
AcDbSymbolTableRecord
100
AcDbLinetypeTableRecord
  2
PHANTOM
 70
     0
  3
______  __  __  ______  __  __  ______  __  __ 
 72
    65
 73
     6
 40
2.5
 49
1.25
 74
     0
 49
-0.25
 74
     0
 49
0.25
 74
     0
 49
-0.25
 74
     0
 49
0.25
 74
     0
 49
-0.25
 74
     0
  0
LTYPE
  5
36
100
AcDbSymbolTableRecord
100
AcDbLinetypeTableRecord
  2
PHANTOM2
 70
     0
  3
___ _ _ ___ _ _ ___ _ _ ___ _ _ ___ _ _ ___ _ _
 72
    65
 73
     6
 40
1.25
 49
0.625
 74
     0
 49
-0.125
 74
     0
 49
0.125
 74
     0
 49
-0.125
 74
     0
 49
0.125
 74
     0
 49
-0.125
 74
     0
  0
LTYPE
  5
37
100
AcDbSymbolTableRecord
100
AcDbLinetypeTableRecord
  2
PHANTOMX2
 70
     0
  3
____________    ____    ____    ____________   
 72
    65
 73
     6
 40
5.0
 49
2.5
 74
     0
 49
-0.5
 74
     0
 49
0.5
 74
     0
 49
-0.5
 74
     0
 49
0.5
 74
     0
 49
-0.5
 74
     0
  0
ENDTAB
   0
TABLE
   2
LAYER
   5
2
 100
AcDbSymbolTable
  70
6
   0
LAYER
   5
E
 100
AcDbSymbolTableRecord
 100
AcDbLayerTableRecord
   2
0
  70
0
  62
7
   6
CONTINUOUS
 390
30
   0
LAYER
   5
39
 100
AcDbSymbolTableRecord
 100
AcDbLayerTableRecord
   2
LEVEL001
  70
0
  62
7
   6
CONTINUOUS
 390
30
   0
LAYER
   5
3A
 100
AcDbSymbolTableRecord
 100
AcDbLayerTableRecord
   2
LEVEL002
  70
0
  62
7
   6
CONTINUOUS
 390
30
   0
LAYER
   5
3B
 100
AcDbSymbolTableRecord
 100
AcDbLayerTableRecord
   2
LEVEL004
  70
0
  62
7
   6
CONTINUOUS
 390
30
   0
LAYER
   5
3C
 100
AcDbSymbolTableRecord
 100
AcDbLayerTableRecord
   2
LEVEL006
  70
0
  62
7
   6
CONTINUOUS
 390
30
   0
LAYER
   5
3D
 100
AcDbSymbolTableRecord
 100
AcDbLayerTableRecord
   2
LEVEL007
  70
0
  62
7
   6
CONTINUOUS
 390
30
   0
ENDTAB
  0
TABLE
  2
STYLE
  5
3
100
AcDbSymbolTable
  70
4
  0
STYLE
  5
F
100
AcDbSymbolTableRecord
100
AcDbTextStyleTableRecord
  2
STANDARD
 70
     0
 40
0.0
 41
1.0
 50
0.0
 71
     0
 42
0.2
  3
TXT
  4
BIGFONT
  0
STYLE
  5
38
100
AcDbSymbolTableRecord
100
AcDbTextStyleTableRecord
  2
STANDARD1
 70
     4
 40
0.0
 41
1.0
 50
0.0
 71
     0
 42
0.2
  3
TXT
  4
BIGFONT
   0
STYLE
   5
3E
 100
AcDbSymbolTableRecord
 100
AcDbTextStyleTableRecord
   2
GMM001
  70
0
  40
0.0
  41
 1.0000000000000
  50
0.0
  71
     0
  42
1.0
   3
txt.shx
   4
bigfont.shx
   0
STYLE
   5
3F
 100
AcDbSymbolTableRecord
 100
AcDbTextStyleTableRecord
   2
GMM002
  70
0
  40
0.0
  41
 0.80000000000000
  50
0.0
  71
     0
  42
1.0
   3
txt.shx
   4
bigfont.shx
   0
ENDTAB
  0
TABLE
  2
VIEW
  5
6
100
AcDbSymbolTable
 70
     0
  0
ENDTAB
  0
TABLE
  2
UCS
  5
7
100
AcDbSymbolTable
 70
     0
  0
ENDTAB
  0
TABLE
  2
APPID
  5
9
100
AcDbSymbolTable
 70
     1
  0
APPID
  5
10
100
AcDbSymbolTableRecord
100
AcDbRegAppTableRecord
  2
ACAD
 70
     0
  0
ENDTAB
   0
TABLE
   2
DIMSTYLE
   5
A
 100
AcDbSymbolTable
  70
10
 100
AcDbDimStyleTable
  0
DIMSTYLE
105
1D
100
AcDbSymbolTableRecord
100
AcDbDimStyleTableRecord
  2
STANDARD
 70
     0
  3

  4

  5

  6

  7

 40
1.0
 41
0.18
 42
0.0625
 43
0.38
 44
0.18
 45
0.0
 46
0.0
 47
0.0
 48
0.0
140
0.18
141
0.09
142
0.0
143
25.4
144
1.0
145
0.0
146
1.0
147
0.09
 71
     0
 72
     0
 73
     1
 74
     1
 75
     0
 76
     0
 77
     0
 78
     0
170
     0
171
     2
172
     0
173
     0
174
     0
175
     0
176
     0
177
     0
178
     0
270
     2
271
     4
272
     4
273
     2
274
     2
340
F
275
     0
280
     0
281
     0
282
     0
283
     1
284
     0
285
     0
286
     0
287
     3
288
     0
   0
DIMSTYLE
 105
40
 100
AcDbSymbolTableRecord
 100
AcDbDimStyleTableRecord
   2
GMM001
  70
0
   3

   4

   5

   6

   7

  40
 1.0000000000000
  41
 8.0000000000000
  42
 4.0000000000000
  43
 32.000000000000
  44
 4.0000000000000
  45
0.0
  46
0.0
  47
0.0
  48
0.0
 140
 10.000000000000
 141
 4.0000000000000
 142
0.0
 143
 0.39400000000000E-1
 144
 1.0000000000000
 145
0.0
 146
 1.0000000000000
 147
 4.0000000000000
  71
0
  72
0
  73
0
  74
0
  75
0
  76
0
  77
3
  78
8
 170
0
 171
2
 172
1
 173
1
 174
0
 175
0
 176
8
 177
8
 178
8
 270
2
 271
6
 272
0
 273
2
 274
2
 340
3E
 275
1
 280
0
 281
0
 282
0
 283
1
 284
0
 285
0
 286
0
 287
3
 288
0
   0
DIMSTYLE
 105
41
 100
AcDbSymbolTableRecord
 100
AcDbDimStyleTableRecord
   2
GMM002
  70
0
   3

   4

   5

   6

   7
_NONE
  40
 1.0000000000000
  41
 8.0000000000000
  42
 4.0000000000000
  43
 32.000000000000
  44
 4.0000000000000
  45
0.0
  46
0.0
  47
0.0
  48
0.0
 140
 10.000000000000
 141
 4.0000000000000
 142
0.0
 143
 0.39400000000000E-1
 144
 1.0000000000000
 145
0.0
 146
 1.0000000000000
 147
 4.0000000000000
  71
0
  72
0
  73
0
  74
0
  75
0
  76
0
  77
3
  78
8
 170
0
 171
2
 172
1
 173
1
 174
0
 175
0
 176
8
 177
8
 178
8
 270
2
 271
6
 272
0
 273
2
 274
2
 340
3E
 275
1
 280
0
 281
0
 282
0
 283
1
 284
0
 285
0
 286
0
 287
3
 288
1
   0
DIMSTYLE
 105
42
 100
AcDbSymbolTableRecord
 100
AcDbDimStyleTableRecord
   2
GMM003
  70
0
   3

   4

   5

   6

   7

  40
 1.0000000000000
  41
 8.0000000000000
  42
 4.0000000000000
  43
 32.000000000000
  44
 4.0000000000000
  45
0.0
  46
0.0
  47
0.0
  48
0.0
 140
 10.000000000000
 141
 4.0000000000000
 142
0.0
 143
 0.39400000000000E-1
 144
 1.0000000000000
 145
0.0
 146
 1.0000000000000
 147
 4.0000000000000
  71
0
  72
0
  73
0
  74
0
  75
0
  76
0
  77
3
  78
8
 170
0
 171
2
 172
1
 173
1
 174
0
 175
0
 176
8
 177
8
 178
8
 270
2
 271
6
 272
0
 273
2
 274
2
 340
3E
 275
1
 280
0
 281
0
 282
0
 283
1
 284
0
 285
0
 286
0
 287
3
 288
0
   0
DIMSTYLE
 105
43
 100
AcDbSymbolTableRecord
 100
AcDbDimStyleTableRecord
   2
GMM004
  70
0
   3

   4

   5

   6

   7

  40
 1.0000000000000
  41
 8.0000000000000
  42
 4.0000000000000
  43
 32.000000000000
  44
 4.0000000000000
  45
0.0
  46
0.0
  47
0.0
  48
0.0
 140
 10.000000000000
 141
 4.0000000000000
 142
0.0
 143
 0.39400000000000E-1
 144
 1.0000000000000
 145
0.0
 146
 1.0000000000000
 147
 3.3266499582188
  71
0
  72
0
  73
0
  74
0
  75
0
  76
0
  77
3
  78
8
 170
0
 171
2
 172
1
 173
1
 174
0
 175
0
 176
8
 177
8
 178
8
 270
2
 271
6
 272
0
 273
2
 274
2
 340
3E
 275
1
 280
0
 281
0
 282
0
 283
1
 284
0
 285
0
 286
0
 287
3
 288
1
   0
DIMSTYLE
 105
44
 100
AcDbSymbolTableRecord
 100
AcDbDimStyleTableRecord
   2
GMM005
  70
0
   3

   4

   5

   6

   7

  40
 1.0000000000000
  41
 8.0000000000000
  42
 4.0000000000000
  43
 32.000000000000
  44
 4.0000000000000
  45
0.0
  46
0.0
  47
0.0
  48
0.0
 140
 10.000000000000
 141
 4.0000000000000
 142
0.0
 143
 0.39400000000000E-1
 144
 1.0000000000000
 145
0.0
 146
 1.0000000000000
 147
0.0
  71
0
  72
0
  73
0
  74
0
  75
0
  76
0
  77
1
  78
8
 170
0
 171
2
 172
1
 173
1
 174
0
 175
0
 176
8
 177
8
 178
8
 270
2
 271
6
 272
0
 273
2
 274
2
 340
3E
 275
1
 280
0
 281
0
 282
0
 283
1
 284
0
 285
0
 286
0
 287
3
 288
0
   0
DIMSTYLE
 105
45
 100
AcDbSymbolTableRecord
 100
AcDbDimStyleTableRecord
   2
GMM006
  70
0
   3

   4

   5

   6

   7

  40
 1.0000000000000
  41
 8.0000000000000
  42
 4.0000000000000
  43
 32.000000000000
  44
 4.0000000000000
  45
0.0
  46
0.0
  47
0.0
  48
0.0
 140
 10.000000000000
 141
 4.0000000000000
 142
0.0
 143
 0.39400000000000E-1
 144
 1.0000000000000
 145
0.0
 146
 1.0000000000000
 147
 2.5485937064894
  71
0
  72
0
  73
0
  74
0
  75
0
  76
0
  77
3
  78
8
 170
0
 171
2
 172
1
 173
1
 174
0
 175
0
 176
8
 177
8
 178
8
 270
2
 271
6
 272
0
 273
2
 274
2
 340
3E
 275
1
 280
0
 281
0
 282
0
 283
1
 284
0
 285
0
 286
0
 287
3
 288
1
   0
DIMSTYLE
 105
46
 100
AcDbSymbolTableRecord
 100
AcDbDimStyleTableRecord
   2
GMM007
  70
0
   3

   4

   5

   6

   7
_NONE
  40
 1.0000000000000
  41
 8.0000000000000
  42
 4.0000000000000
  43
 32.000000000000
  44
 4.0000000000000
  45
0.0
  46
0.0
  47
0.0
  48
0.0
 140
 10.000000000000
 141
 4.0000000000000
 142
0.0
 143
 0.39400000000000E-1
 144
 1.0000000000000
 145
0.0
 146
 1.0000000000000
 147
 3.2674278288326
  71
0
  72
0
  73
0
  74
0
  75
0
  76
0
  77
3
  78
8
 170
0
 171
2
 172
1
 173
1
 174
0
 175
0
 176
8
 177
8
 178
8
 270
2
 271
6
 272
0
 273
2
 274
2
 340
3E
 275
1
 280
0
 281
0
 282
0
 283
1
 284
0
 285
0
 286
0
 287
3
 288
1
   0
DIMSTYLE
 105
47
 100
AcDbSymbolTableRecord
 100
AcDbDimStyleTableRecord
   2
GMM008
  70
0
   3

   4

   5

   6

   7

  40
 1.0000000000000
  41
 8.0000000000000
  42
 4.0000000000000
  43
 32.000000000000
  44
 4.0000000000000
  45
0.0
  46
0.0
  47
0.0
  48
0.0
 140
 10.000000000000
 141
 4.0000000000000
 142
0.0
 143
 0.39400000000000E-1
 144
 1.0000000000000
 145
0.0
 146
 1.0000000000000
 147
 4.4110275689600
  71
0
  72
0
  73
0
  74
0
  75
0
  76
0
  77
3
  78
8
 170
0
 171
2
 172
1
 173
1
 174
0
 175
0
 176
8
 177
8
 178
8
 270
2
 271
6
 272
0
 273
2
 274
2
 340
3E
 275
1
 280
0
 281
0
 282
0
 283
1
 284
0
 285
0
 286
0
 287
3
 288
1
   0
ENDTAB
  0
TABLE
  2
BLOCK_RECORD
  5
1
100
AcDbSymbolTable
 70
     0
  0
BLOCK_RECORD
  5
18
100
AcDbSymbolTableRecord
100
AcDbBlockTableRecord
  2
*MODEL_SPACE
  0
BLOCK_RECORD
  5
15
100
AcDbSymbolTableRecord
100
AcDbBlockTableRecord
  2
*PAPER_SPACE
   0
BLOCK_RECORD
   5
48
 100
AcDbSymbolTableRecord
 100
AcDbBlockTableRecord
   2
*D1
   0
BLOCK_RECORD
   5
49
 100
AcDbSymbolTableRecord
 100
AcDbBlockTableRecord
   2
*D2
   0
BLOCK_RECORD
   5
4A
 100
AcDbSymbolTableRecord
 100
AcDbBlockTableRecord
   2
*D3
   0
BLOCK_RECORD
   5
4B
 100
AcDbSymbolTableRecord
 100
AcDbBlockTableRecord
   2
*D4
   0
BLOCK_RECORD
   5
4C
 100
AcDbSymbolTableRecord
 100
AcDbBlockTableRecord
   2
*D5
   0
BLOCK_RECORD
   5
4D
 100
AcDbSymbolTableRecord
 100
AcDbBlockTableRecord
   2
*D6
   0
BLOCK_RECORD
   5
4E
 100
AcDbSymbolTableRecord
 100
AcDbBlockTableRecord
   2
*D8
   0
BLOCK_RECORD
   5
4F
 100
AcDbSymbolTableRecord
 100
AcDbBlockTableRecord
   2
*D9
   0
BLOCK_RECORD
   5
50
 100
AcDbSymbolTableRecord
 100
AcDbBlockTableRecord
   2
*D10
   0
BLOCK_RECORD
   5
51
 100
AcDbSymbolTableRecord
 100
AcDbBlockTableRecord
   2
*D11
   0
BLOCK_RECORD
   5
52
 100
AcDbSymbolTableRecord
 100
AcDbBlockTableRecord
   2
*D12
   0
BLOCK_RECORD
   5
53
 100
AcDbSymbolTableRecord
 100
AcDbBlockTableRecord
   2
*D13
   0
BLOCK_RECORD
   5
54
 100
AcDbSymbolTableRecord
 100
AcDbBlockTableRecord
   2
*D15
   0
BLOCK_RECORD
   5
55
 100
AcDbSymbolTableRecord
 100
AcDbBlockTableRecord
   2
*D16
   0
BLOCK_RECORD
   5
56
 100
AcDbSymbolTableRecord
 100
AcDbBlockTableRecord
   2
*D17
   0
BLOCK_RECORD
   5
57
 100
AcDbSymbolTableRecord
 100
AcDbBlockTableRecord
   2
*D18
   0
BLOCK_RECORD
   5
58
 100
AcDbSymbolTableRecord
 100
AcDbBlockTableRecord
   2
*D19
   0
BLOCK_RECORD
   5
59
 100
AcDbSymbolTableRecord
 100
AcDbBlockTableRecord
   2
*D20
   0
BLOCK_RECORD
   5
5A
 100
AcDbSymbolTableRecord
 100
AcDbBlockTableRecord
   2
*D22
   0
BLOCK_RECORD
   5
5B
 100
AcDbSymbolTableRecord
 100
AcDbBlockTableRecord
   2
*D23
   0
BLOCK_RECORD
   5
5C
 100
AcDbSymbolTableRecord
 100
AcDbBlockTableRecord
   2
*D24
   0
BLOCK_RECORD
   5
5D
 100
AcDbSymbolTableRecord
 100
AcDbBlockTableRecord
   2
*D25
   0
BLOCK_RECORD
   5
5E
 100
AcDbSymbolTableRecord
 100
AcDbBlockTableRecord
   2
*D26
   0
BLOCK_RECORD
   5
5F
 100
AcDbSymbolTableRecord
 100
AcDbBlockTableRecord
   2
*D27
   0
BLOCK_RECORD
   5
60
 100
AcDbSymbolTableRecord
 100
AcDbBlockTableRecord
   2
*D29
   0
BLOCK_RECORD
   5
61
 100
AcDbSymbolTableRecord
 100
AcDbBlockTableRecord
   2
*D30
   0
BLOCK_RECORD
   5
62
 100
AcDbSymbolTableRecord
 100
AcDbBlockTableRecord
   2
*D31
   0
BLOCK_RECORD
   5
63
 100
AcDbSymbolTableRecord
 100
AcDbBlockTableRecord
   2
*D32
   0
BLOCK_RECORD
   5
64
 100
AcDbSymbolTableRecord
 100
AcDbBlockTableRecord
   2
*D33
   0
BLOCK_RECORD
   5
65
 100
AcDbSymbolTableRecord
 100
AcDbBlockTableRecord
   2
*D34
   0
BLOCK_RECORD
   5
66
 100
AcDbSymbolTableRecord
 100
AcDbBlockTableRecord
   2
*D35
   0
BLOCK_RECORD
   5
67
 100
AcDbSymbolTableRecord
 100
AcDbBlockTableRecord
   2
*D36
   0
BLOCK_RECORD
   5
68
 100
AcDbSymbolTableRecord
 100
AcDbBlockTableRecord
   2
*D37
   0
BLOCK_RECORD
   5
69
 100
AcDbSymbolTableRecord
 100
AcDbBlockTableRecord
   2
*D38
   0
BLOCK_RECORD
   5
6A
 100
AcDbSymbolTableRecord
 100
AcDbBlockTableRecord
   2
*D39
   0
BLOCK_RECORD
   5
6B
 100
AcDbSymbolTableRecord
 100
AcDbBlockTableRecord
   2
*D40
   0
BLOCK_RECORD
   5
6C
 100
AcDbSymbolTableRecord
 100
AcDbBlockTableRecord
   2
*D41
   0
BLOCK_RECORD
   5
6D
 100
AcDbSymbolTableRecord
 100
AcDbBlockTableRecord
   2
*D42
   0
BLOCK_RECORD
   5
6E
 100
AcDbSymbolTableRecord
 100
AcDbBlockTableRecord
   2
*D43
   0
BLOCK_RECORD
   5
6F
 100
AcDbSymbolTableRecord
 100
AcDbBlockTableRecord
   2
*D44
   0
BLOCK_RECORD
   5
70
 100
AcDbSymbolTableRecord
 100
AcDbBlockTableRecord
   2
*D45
   0
BLOCK_RECORD
   5
71
 100
AcDbSymbolTableRecord
 100
AcDbBlockTableRecord
   2
*D46
   0
BLOCK_RECORD
   5
72
 100
AcDbSymbolTableRecord
 100
AcDbBlockTableRecord
   2
*D47
   0
BLOCK_RECORD
   5
73
 100
AcDbSymbolTableRecord
 100
AcDbBlockTableRecord
   2
*D48
   0
BLOCK_RECORD
   5
74
 100
AcDbSymbolTableRecord
 100
AcDbBlockTableRecord
   2
*D49
   0
BLOCK_RECORD
   5
75
 100
AcDbSymbolTableRecord
 100
AcDbBlockTableRecord
   2
*D50
   0
BLOCK_RECORD
   5
76
 100
AcDbSymbolTableRecord
 100
AcDbBlockTableRecord
   2
*D51
   0
BLOCK_RECORD
   5
77
 100
AcDbSymbolTableRecord
 100
AcDbBlockTableRecord
   2
*D52
   0
BLOCK_RECORD
   5
78
 100
AcDbSymbolTableRecord
 100
AcDbBlockTableRecord
   2
_ARCHTICK
   0
BLOCK_RECORD
   5
79
 100
AcDbSymbolTableRecord
 100
AcDbBlockTableRecord
   2
_BOXBLANK
   0
BLOCK_RECORD
   5
7A
 100
AcDbSymbolTableRecord
 100
AcDbBlockTableRecord
   2
_BOXFILLED
   0
BLOCK_RECORD
   5
7B
 100
AcDbSymbolTableRecord
 100
AcDbBlockTableRecord
   2
_CLOSED
   0
BLOCK_RECORD
   5
7C
 100
AcDbSymbolTableRecord
 100
AcDbBlockTableRecord
   2
_CLOSEDBLANK
   0
BLOCK_RECORD
   5
7D
 100
AcDbSymbolTableRecord
 100
AcDbBlockTableRecord
   2
_DATUMBLANK
   0
BLOCK_RECORD
   5
7E
 100
AcDbSymbolTableRecord
 100
AcDbBlockTableRecord
   2
_DATUMFILLED
   0
BLOCK_RECORD
   5
7F
 100
AcDbSymbolTableRecord
 100
AcDbBlockTableRecord
   2
_DOT
   0
BLOCK_RECORD
   5
80
 100
AcDbSymbolTableRecord
 100
AcDbBlockTableRecord
   2
_DOTBLANK
   0
BLOCK_RECORD
   5
81
 100
AcDbSymbolTableRecord
 100
AcDbBlockTableRecord
   2
_DOTSMALL
   0
BLOCK_RECORD
   5
82
 100
AcDbSymbolTableRecord
 100
AcDbBlockTableRecord
   2
_INTEGRAL
   0
BLOCK_RECORD
   5
83
 100
AcDbSymbolTableRecord
 100
AcDbBlockTableRecord
   2
_NONE
   0
BLOCK_RECORD
   5
84
 100
AcDbSymbolTableRecord
 100
AcDbBlockTableRecord
   2
_OBLIQUE
   0
BLOCK_RECORD
   5
85
 100
AcDbSymbolTableRecord
 100
AcDbBlockTableRecord
   2
_OPEN
   0
BLOCK_RECORD
   5
86
 100
AcDbSymbolTableRecord
 100
AcDbBlockTableRecord
   2
_OPEN30
   0
BLOCK_RECORD
   5
87
 100
AcDbSymbolTableRecord
 100
AcDbBlockTableRecord
   2
_OPEN90
   0
BLOCK_RECORD
   5
88
 100
AcDbSymbolTableRecord
 100
AcDbBlockTableRecord
   2
_ORIGIN
   0
ENDTAB
   0
ENDSEC
  0
SECTION
  2
BLOCKS
  0
BLOCK
  5
19
100
AcDbEntity
  8
0
100
AcDbBlockBegin
  2
*MODEL_SPACE
 70
     0
 10
0.0
 20
0.0
 30
0.0
  3
*MODEL_SPACE
  1

  0
ENDBLK
  5
1A
100
AcDbEntity
  8
0
100
AcDbBlockEnd
  0
BLOCK
  5
16
100
AcDbEntity
 67
     1
  8
0
100
AcDbBlockBegin
  2
*PAPER_SPACE
 70
     0
 10
0.0
 20
0.0
 30
0.0
  3
*PAPER_SPACE
  1

  0
ENDBLK
  5
17
100
AcDbEntity
 67
     1
  8
0
100
AcDbBlockEnd
   0
BLOCK
   5
89
 100
AcDbEntity
   8
0
 100
AcDbBlockBegin
   2
_ARCHTICK
  70
0
  10
0.0
  20
0.0
  30
0.0
   3
_ARCHTICK
   0
POLYLINE
   5
8A
 100
AcDbEntity
   8
0
 370
-2
   6
BYBLOCK
  62
0
 100
AcDb2dPolyline
  66
1
  10
0.0
  20
0.0
  30
0.0
  70
1
  40
 0.15000000000000
  41
 0.15000000000000
   0
VERTEX
   5
8B
 100
AcDbEntity
   8
0
   6
BYBLOCK
  62
0
 100
AcDbVertex
 100
AcDb2dVertex
  10
-0.50000000000000
  20
-0.50000000000000
  30
0.0
  40
 0.15000000000000
  41
 0.15000000000000
   0
VERTEX
   5
8C
 100
AcDbEntity
   8
0
   6
BYBLOCK
  62
0
 100
AcDbVertex
 100
AcDb2dVertex
  10
 0.50000000000000
  20
 0.50000000000000
  30
0.0
  40
 0.15000000000000
  41
 0.15000000000000
   0
SEQEND
   5
8D
 100
AcDbEntity
   8
0
   6
BYBLOCK
  62
0
   0
ENDBLK
   5
8E
 100
AcDbEntity
   8
0
 100
AcDbBlockEnd
   0
BLOCK
   5
8F
 100
AcDbEntity
   8
0
 100
AcDbBlockBegin
   2
_OBLIQUE
  70
0
  10
0.0
  20
0.0
  30
0.0
   3
_OBLIQUE
   0
LINE
   5
90
 100
AcDbEntity
   8
0
 370
-2
 100
AcDbLine
   6
BYBLOCK
  62
0
  10
-0.50000000000000
  20
-0.50000000000000
  30
0.0
  11
 0.50000000000000
  21
 0.50000000000000
  31
0.0
   0
ENDBLK
   5
91
 100
AcDbEntity
   8
0
 100
AcDbBlockEnd
   0
BLOCK
   5
92
 100
AcDbEntity
   8
0
 100
AcDbBlockBegin
   2
_BOXBLANK
  70
0
  10
0.0
  20
0.0
  30
0.0
   3
_BOXBLANK
   0
LINE
   5
93
 100
AcDbEntity
   8
0
 370
-2
 100
AcDbLine
   6
BYBLOCK
  62
0
  10
-0.50000000000000
  20
-0.50000000000000
  30
0.0
  11
 0.50000000000000
  21
-0.50000000000000
  31
0.0
   0
LINE
   5
94
 100
AcDbEntity
   8
0
 370
-2
 100
AcDbLine
   6
BYBLOCK
  62
0
  10
 0.50000000000000
  20
-0.50000000000000
  30
0.0
  11
 0.50000000000000
  21
 0.50000000000000
  31
0.0
   0
LINE
   5
95
 100
AcDbEntity
   8
0
 370
-2
 100
AcDbLine
   6
BYBLOCK
  62
0
  10
 0.50000000000000
  20
 0.50000000000000
  30
0.0
  11
-0.50000000000000
  21
 0.50000000000000
  31
0.0
   0
LINE
   5
96
 100
AcDbEntity
   8
0
 370
-2
 100
AcDbLine
   6
BYBLOCK
  62
0
  10
-0.50000000000000
  20
 0.50000000000000
  30
0.0
  11
-0.50000000000000
  21
-0.50000000000000
  31
0.0
   0
LINE
   5
97
 100
AcDbEntity
   8
0
 370
-2
 100
AcDbLine
   6
BYBLOCK
  62
0
  10
-0.50000000000000
  20
0.0
  30
0.0
  11
-1.0000000000000
  21
0.0
  31
0.0
   0
ENDBLK
   5
98
 100
AcDbEntity
   8
0
 100
AcDbBlockEnd
   0
BLOCK
   5
99
 100
AcDbEntity
   8
0
 100
AcDbBlockBegin
   2
_BOXFILLED
  70
0
  10
0.0
  20
0.0
  30
0.0
   3
_BOXFILLED
   0
SOLID
   5
9A
 100
AcDbEntity
   8
0
 100
AcDbTrace
   6
BYBLOCK
  62
0
  10
-0.50000000000000
  20
 0.50000000000000
  30
0.0
  11
 0.50000000000000
  21
 0.50000000000000
  31
0.0
  12
-0.50000000000000
  22
-0.50000000000000
  32
0.0
  13
 0.50000000000000
  23
-0.50000000000000
  33
0.0
   0
LINE
   5
9B
 100
AcDbEntity
   8
0
 370
-2
 100
AcDbLine
   6
BYBLOCK
  62
0
  10
-0.50000000000000
  20
0.0
  30
0.0
  11
-1.0000000000000
  21
0.0
  31
0.0
   0
ENDBLK
   5
9C
 100
AcDbEntity
   8
0
 100
AcDbBlockEnd
   0
BLOCK
   5
9D
 100
AcDbEntity
   8
0
 100
AcDbBlockBegin
   2
_CLOSED
  70
0
  10
0.0
  20
0.0
  30
0.0
   3
_CLOSED
   0
LINE
   5
9E
 100
AcDbEntity
   8
0
 370
-2
 100
AcDbLine
   6
BYBLOCK
  62
0
  10
-1.0000000000000
  20
 0.16666666666667
  30
0.0
  11
0.0
  21
0.0
  31
0.0
   0
LINE
   5
9F
 100
AcDbEntity
   8
0
 370
-2
 100
AcDbLine
   6
BYBLOCK
  62
0
  10
0.0
  20
0.0
  30
0.0
  11
-1.0000000000000
  21
-0.16666666666667
  31
0.0
   0
LINE
   5
A0
 100
AcDbEntity
   8
0
 370
-2
 100
AcDbLine
   6
BYBLOCK
  62
0
  10
-1.0000000000000
  20
 0.16666666666667
  30
0.0
  11
-1.0000000000000
  21
-0.16666666666667
  31
0.0
   0
LINE
   5
A1
 100
AcDbEntity
   8
0
 370
-2
 100
AcDbLine
   6
BYBLOCK
  62
0
  10
0.0
  20
0.0
  30
0.0
  11
-1.0000000000000
  21
0.0
  31
0.0
   0
ENDBLK
   5
A2
 100
AcDbEntity
   8
0
 100
AcDbBlockEnd
   0
BLOCK
   5
A3
 100
AcDbEntity
   8
0
 100
AcDbBlockBegin
   2
_OPEN
  70
0
  10
0.0
  20
0.0
  30
0.0
   3
_OPEN
   0
LINE
   5
A4
 100
AcDbEntity
   8
0
 370
-2
 100
AcDbLine
   6
BYBLOCK
  62
0
  10
-1.0000000000000
  20
 0.16666666666667
  30
0.0
  11
0.0
  21
0.0
  31
0.0
   0
LINE
   5
A5
 100
AcDbEntity
   8
0
 370
-2
 100
AcDbLine
   6
BYBLOCK
  62
0
  10
0.0
  20
0.0
  30
0.0
  11
-1.0000000000000
  21
-0.16666666666667
  31
0.0
   0
LINE
   5
A6
 100
AcDbEntity
   8
0
 370
-2
 100
AcDbLine
   6
BYBLOCK
  62
0
  10
0.0
  20
0.0
  30
0.0
  11
-1.0000000000000
  21
0.0
  31
0.0
   0
ENDBLK
   5
A7
 100
AcDbEntity
   8
0
 100
AcDbBlockEnd
   0
BLOCK
   5
A8
 100
AcDbEntity
   8
0
 100
AcDbBlockBegin
   2
_OPEN30
  70
0
  10
0.0
  20
0.0
  30
0.0
   3
_OPEN30
   0
LINE
   5
A9
 100
AcDbEntity
   8
0
 370
-2
 100
AcDbLine
   6
BYBLOCK
  62
0
  10
-1.0000000000000
  20
 0.26794919243110
  30
0.0
  11
0.0
  21
0.0
  31
0.0
   0
LINE
   5
AA
 100
AcDbEntity
   8
0
 370
-2
 100
AcDbLine
   6
BYBLOCK
  62
0
  10
0.0
  20
0.0
  30
0.0
  11
-1.0000000000000
  21
-0.26794919243110
  31
0.0
   0
LINE
   5
AB
 100
AcDbEntity
   8
0
 370
-2
 100
AcDbLine
   6
BYBLOCK
  62
0
  10
0.0
  20
0.0
  30
0.0
  11
-1.0000000000000
  21
0.0
  31
0.0
   0
ENDBLK
   5
AC
 100
AcDbEntity
   8
0
 100
AcDbBlockEnd
   0
BLOCK
   5
AD
 100
AcDbEntity
   8
0
 100
AcDbBlockBegin
   2
_OPEN90
  70
0
  10
0.0
  20
0.0
  30
0.0
   3
_OPEN90
   0
LINE
   5
AE
 100
AcDbEntity
   8
0
 370
-2
 100
AcDbLine
   6
BYBLOCK
  62
0
  10
-0.50000000000000
  20
 0.50000000000000
  30
0.0
  11
0.0
  21
0.0
  31
0.0
   0
LINE
   5
AF
 100
AcDbEntity
   8
0
 370
-2
 100
AcDbLine
   6
BYBLOCK
  62
0
  10
0.0
  20
0.0
  30
0.0
  11
-0.50000000000000
  21
-0.50000000000000
  31
0.0
   0
LINE
   5
B0
 100
AcDbEntity
   8
0
 370
-2
 100
AcDbLine
   6
BYBLOCK
  62
0
  10
0.0
  20
0.0
  30
0.0
  11
-1.0000000000000
  21
0.0
  31
0.0
   0
ENDBLK
   5
B1
 100
AcDbEntity
   8
0
 100
AcDbBlockEnd
   0
BLOCK
   5
B2
 100
AcDbEntity
   8
0
 100
AcDbBlockBegin
   2
_CLOSEDBLANK
  70
0
  10
0.0
  20
0.0
  30
0.0
   3
_CLOSEDBLANK
   0
LINE
   5
B3
 100
AcDbEntity
   8
0
 370
-2
 100
AcDbLine
   6
BYBLOCK
  62
0
  10
-1.0000000000000
  20
 0.16666666666667
  30
0.0
  11
0.0
  21
0.0
  31
0.0
   0
LINE
   5
B4
 100
AcDbEntity
   8
0
 370
-2
 100
AcDbLine
   6
BYBLOCK
  62
0
  10
0.0
  20
0.0
  30
0.0
  11
-1.0000000000000
  21
-0.16666666666667
  31
0.0
   0
LINE
   5
B5
 100
AcDbEntity
   8
0
 370
-2
 100
AcDbLine
   6
BYBLOCK
  62
0
  10
-1.0000000000000
  20
 0.16666666666667
  30
0.0
  11
-1.0000000000000
  21
-0.16666666666667
  31
0.0
   0
ENDBLK
   5
B6
 100
AcDbEntity
   8
0
 100
AcDbBlockEnd
   0
BLOCK
   5
B7
 100
AcDbEntity
   8
0
 100
AcDbBlockBegin
   2
_DOT
  70
0
  10
0.0
  20
0.0
  30
0.0
   3
_DOT
   0
POLYLINE
   5
B8
 100
AcDbEntity
   8
0
 370
-2
   6
BYBLOCK
  62
0
 100
AcDb2dPolyline
  66
1
  10
0.0
  20
0.0
  30
0.0
  70
1
  40
 0.50000000000000
  41
 0.50000000000000
   0
VERTEX
   5
B9
 100
AcDbEntity
   8
0
   6
BYBLOCK
  62
0
 100
AcDbVertex
 100
AcDb2dVertex
  10
-0.25000000000000
  20
0.0
  30
0.0
  42
 1.0000000000000
  40
 0.50000000000000
  41
 0.50000000000000
   0
VERTEX
   5
BA
 100
AcDbEntity
   8
0
   6
BYBLOCK
  62
0
 100
AcDbVertex
 100
AcDb2dVertex
  10
 0.25000000000000
  20
0.0
  30
0.0
  42
 1.0000000000000
  40
 0.50000000000000
  41
 0.50000000000000
   0
SEQEND
   5
BB
 100
AcDbEntity
   8
0
   6
BYBLOCK
  62
0
   0
LINE
   5
BC
 100
AcDbEntity
   8
0
 370
-2
 100
AcDbLine
   6
BYBLOCK
  62
0
  10
-0.50000000000000
  20
0.0
  30
0.0
  11
-1.0000000000000
  21
0.0
  31
0.0
   0
ENDBLK
   5
BD
 100
AcDbEntity
   8
0
 100
AcDbBlockEnd
   0
BLOCK
   5
BE
 100
AcDbEntity
   8
0
 100
AcDbBlockBegin
   2
_DOTSMALL
  70
0
  10
0.0
  20
0.0
  30
0.0
   3
_DOTSMALL
   0
POLYLINE
   5
BF
 100
AcDbEntity
   8
0
 370
-2
   6
BYBLOCK
  62
0
 100
AcDb2dPolyline
  66
1
  10
0.0
  20
0.0
  30
0.0
  70
1
  40
 0.50000000000000
  41
 0.50000000000000
   0
VERTEX
   5
C0
 100
AcDbEntity
   8
0
   6
BYBLOCK
  62
0
 100
AcDbVertex
 100
AcDb2dVertex
  10
-0.62500000000000E-1
  20
0.0
  30
0.0
  42
 1.0000000000000
  40
 0.50000000000000
  41
 0.50000000000000
   0
VERTEX
   5
C1
 100
AcDbEntity
   8
0
   6
BYBLOCK
  62
0
 100
AcDbVertex
 100
AcDb2dVertex
  10
 0.62500000000000E-1
  20
0.0
  30
0.0
  42
 1.0000000000000
  40
 0.50000000000000
  41
 0.50000000000000
   0
SEQEND
   5
C2
 100
AcDbEntity
   8
0
   6
BYBLOCK
  62
0
   0
ENDBLK
   5
C3
 100
AcDbEntity
   8
0
 100
AcDbBlockEnd
   0
BLOCK
   5
C4
 100
AcDbEntity
   8
0
 100
AcDbBlockBegin
   2
_DATUMBLANK
  70
0
  10
0.0
  20
0.0
  30
0.0
   3
_DATUMBLANK
   0
LINE
   5
C5
 100
AcDbEntity
   8
0
 370
-2
 100
AcDbLine
   6
BYBLOCK
  62
0
  10
0.0
  20
 0.57735027000000
  30
0.0
  11
-1.0000000000000
  21
0.0
  31
0.0
   0
LINE
   5
C6
 100
AcDbEntity
   8
0
 370
-2
 100
AcDbLine
   6
BYBLOCK
  62
0
  10
-1.0000000000000
  20
0.0
  30
0.0
  11
0.0
  21
-0.57735027000000
  31
0.0
   0
LINE
   5
C7
 100
AcDbEntity
   8
0
 370
-2
 100
AcDbLine
   6
BYBLOCK
  62
0
  10
0.0
  20
-0.57735027000000
  30
0.0
  11
0.0
  21
 0.57735027000000
  31
0.0
   0
ENDBLK
   5
C8
 100
AcDbEntity
   8
0
 100
AcDbBlockEnd
   0
BLOCK
   5
C9
 100
AcDbEntity
   8
0
 100
AcDbBlockBegin
   2
_DATUMFILLED
  70
0
  10
0.0
  20
0.0
  30
0.0
   3
_DATUMFILLED
   0
SOLID
   5
CA
 100
AcDbEntity
   8
0
 100
AcDbTrace
   6
BYBLOCK
  62
0
  10
0.0
  20
 0.57735027000000
  30
0.0
  11
-1.0000000000000
  21
0.0
  31
0.0
  12
0.0
  22
-0.57735027000000
  32
0.0
  13
0.0
  23
-0.57735027000000
  33
0.0
   0
ENDBLK
   5
CB
 100
AcDbEntity
   8
0
 100
AcDbBlockEnd
   0
BLOCK
   5
CC
 100
AcDbEntity
   8
0
 100
AcDbBlockBegin
   2
_ORIGIN
  70
0
  10
0.0
  20
0.0
  30
0.0
   3
_ORIGIN
   0
CIRCLE
   5
CD
 100
AcDbEntity
   8
0
 370
-2
 100
AcDbCircle
   6
BYBLOCK
  62
0
  10
0.0
  20
0.0
  30
0.0
  40
 0.50000000000000
   0
LINE
   5
CE
 100
AcDbEntity
   8
0
 370
-2
 100
AcDbLine
   6
BYBLOCK
  62
0
  10
0.0
  20
0.0
  30
0.0
  11
-1.0000000000000
  21
0.0
  31
0.0
   0
ENDBLK
   5
CF
 100
AcDbEntity
   8
0
 100
AcDbBlockEnd
   0
BLOCK
   5
D0
 100
AcDbEntity
   8
0
 100
AcDbBlockBegin
   2
_NONE
  70
0
  10
0.0
  20
0.0
  30
0.0
   3
_NONE
   0
CIRCLE
   5
D1
 100
AcDbEntity
   8
0
 370
-2
 100
AcDbCircle
   6
BYBLOCK
  62
0
  10
0.0
  20
0.0
  30
0.0
  40
 0.25000000000000
   0
ENDBLK
   5
D2
 100
AcDbEntity
   8
0
 100
AcDbBlockEnd
   0
BLOCK
   5
D3
 100
AcDbEntity
   8
0
 100
AcDbBlockBegin
   2
_DOTBLANK
  70
0
  10
0.0
  20
0.0
  30
0.0
   3
_DOTBLANK
   0
CIRCLE
   5
D4
 100
AcDbEntity
   8
0
 370
-2
 100
AcDbCircle
   6
BYBLOCK
  62
0
  10
0.0
  20
0.0
  30
0.0
  40
 0.50000000000000
   0
LINE
   5
D5
 100
AcDbEntity
   8
0
 370
-2
 100
AcDbLine
   6
BYBLOCK
  62
0
  10
-0.50000000000000
  20
0.0
  30
0.0
  11
-1.0000000000000
  21
0.0
  31
0.0
   0
ENDBLK
   5
D6
 100
AcDbEntity
   8
0
 100
AcDbBlockEnd
   0
BLOCK
   5
D7
 100
AcDbEntity
   8
0
 100
AcDbBlockBegin
   2
_INTEGRAL
  70
0
  10
0.0
  20
0.0
  30
0.0
   3
_INTEGRAL
   0
ARC
   5
D8
 100
AcDbEntity
   8
0
 370
-2
   6
BYBLOCK
  62
0
 100
AcDbCircle
  10
 0.44488800000000
  20
-0.91335000000000E-1
  30
0.0
  40
 0.45416700000000
 100
AcDbArc
  50
 102.00000000000
  51
 168.00000000000
   0
ARC
   5
D9
 100
AcDbEntity
   8
0
 370
-2
   6
BYBLOCK
  62
0
 100
AcDbCircle
  10
-0.44488800000000
  20
 0.91335000000000E-1
  30
0.0
  40
 0.45416700000000
 100
AcDbArc
  50
 282.00000000000
  51
 348.00000000000
   0
ENDBLK
   5
DA
 100
AcDbEntity
   8
0
 100
AcDbBlockEnd
   0
BLOCK
   5
DB
 100
AcDbEntity
   8
0
 100
AcDbBlockBegin
   2
*D1
  70
65
  10
0.0
  20
0.0
  30
0.0
   3
*D1
   0
LINE
   5
DC
 100
AcDbEntity
   8
0
 370
15
 100
AcDbLine
   6
CONTINUOUS
  62
8
  10
 324.60013322875
  20
 796.41537478653
  30
0.0
  11
 377.24417305232
  21
 796.41537478653
  31
0.0
   0
LINE
   5
DD
 100
AcDbEntity
   8
0
 370
15
 100
AcDbLine
   6
CONTINUOUS
  62
8
  10
 348.60013322876
  20
 841.41537478653
  30
0.0
  11
 377.24417305232
  21
 841.41537478653
  31
0.0
   0
LINE
   5
DE
 100
AcDbEntity
   8
0
 370
15
 100
AcDbLine
   6
CONTINUOUS
  62
8
  10
 373.24417305232
  20
 796.41537478653
  30
0.0
  11
 373.24417305232
  21
 818.91537478653
  31
0.0
   0
LINE
   5
DF
 100
AcDbEntity
   8
0
 370
15
 100
AcDbLine
   6
CONTINUOUS
  62
8
  10
 373.24417305232
  20
 841.41537478653
  30
0.0
  11
 373.24417305232
  21
 818.91537478653
  31
0.0
   0
SOLID
   5
E0
 100
AcDbEntity
   8
0
 100
AcDbTrace
   6
CONTINUOUS
  62
8
  10
 373.24417305232
  20
 796.41537478653
  30
0.0
  11
 374.65478889798
  21
 804.41537478653
  31
0.0
  12
 371.83355720665
  22
 804.41537478653
  32
0.0
  13
 371.83355720665
  23
 804.41537478653
  33
0.0
   0
SOLID
   5
E1
 100
AcDbEntity
   8
0
 100
AcDbTrace
   6
CONTINUOUS
  62
8
  10
 373.24417305232
  20
 841.41537478653
  30
0.0
  11
 371.83355720665
  21
 833.41537478653
  31
0.0
  12
 374.65478889798
  22
 833.41537478653
  32
0.0
  13
 374.65478889798
  23
 833.41537478653
  33
0.0
   0
MTEXT
   5
E2
 100
AcDbEntity
   8
0
 370
15
  62
8
 100
AcDbMText
  10
 369.24417305232
  20
 818.91537478653
  30
0.0
  40
 10.000000000000
  41
0.0
  71
8
  72
1
   1
\A1;45
   7
GMM001
  11
0.0
  21
 1.0000000000000
  31
0.0
   0
ENDBLK
   5
E3
 100
AcDbEntity
   8
0
 100
AcDbBlockEnd
   0
BLOCK
   5
E4
 100
AcDbEntity
   8
0
 100
AcDbBlockBegin
   2
*D2
  70
65
  10
0.0
  20
0.0
  30
0.0
   3
*D2
   0
LINE
   5
E5
 100
AcDbEntity
   8
0
 370
15
 100
AcDbLine
   6
CONTINUOUS
  62
8
  10
 263.10013322876
  20
 764.91537478653
  30
0.0
  11
 263.10013322876
  21
 734.91537478653
  31
0.0
   0
LINE
   5
E6
 100
AcDbEntity
   8
0
 370
15
 100
AcDbLine
   6
CONTINUOUS
  62
8
  10
 229.70114162345
  20
 738.91537478653
  30
0.0
  11
 264.85013322876
  21
 738.91537478653
  31
0.0
   0
LINE
   5
E7
 100
AcDbEntity
   8
0
 370
15
 100
AcDbLine
   6
CONTINUOUS
  62
8
  10
 266.60013322876
  20
 738.91537478653
  30
0.0
  11
 264.85013322876
  21
 738.91537478653
  31
0.0
   0
SOLID
   5
E8
 100
AcDbEntity
   8
0
 100
AcDbTrace
   6
CONTINUOUS
  62
8
  10
 263.10013322876
  20
 738.91537478653
  30
0.0
  11
 255.10013322876
  21
 740.32599063220
  31
0.0
  12
 255.10013322876
  22
 737.50475894086
  32
0.0
  13
 255.10013322876
  23
 737.50475894086
  33
0.0
   0
MTEXT
   5
E9
 100
AcDbEntity
   8
0
 370
15
  62
8
 100
AcDbMText
  10
 240.70114162345
  20
 742.91537478653
  30
0.0
  40
 10.000000000000
  41
0.0
  71
8
  72
1
   1
\A1;3.5
   7
GMM001
   0
ENDBLK
   5
EA
 100
AcDbEntity
   8
0
 100
AcDbBlockEnd
   0
BLOCK
   5
EB
 100
AcDbEntity
   8
0
 100
AcDbBlockBegin
   2
*D3
  70
65
  10
0.0
  20
0.0
  30
0.0
   3
*D3
   0
LINE
   5
EC
 100
AcDbEntity
   8
0
 370
15
 100
AcDbLine
   6
CONTINUOUS
  62
8
  10
 266.60013322876
  20
 766.41537478653
  30
0.0
  11
 266.60013322876
  21
 734.91537478653
  31
0.0
   0
LINE
   5
ED
 100
AcDbEntity
   8
0
 370
15
 100
AcDbLine
   6
CONTINUOUS
  62
8
  10
 336.60013322875
  20
 808.41537478653
  30
0.0
  11
 336.60013322875
  21
 734.91537478653
  31
0.0
   0
LINE
   5
EE
 100
AcDbEntity
   8
0
 370
15
 100
AcDbLine
   6
CONTINUOUS
  62
8
  10
 266.60013322876
  20
 738.91537478653
  30
0.0
  11
 301.60013322876
  21
 738.91537478653
  31
0.0
   0
LINE
   5
EF
 100
AcDbEntity
   8
0
 370
15
 100
AcDbLine
   6
CONTINUOUS
  62
8
  10
 336.60013322875
  20
 738.91537478653
  30
0.0
  11
 301.60013322876
  21
 738.91537478653
  31
0.0
   0
SOLID
   5
F0
 100
AcDbEntity
   8
0
 100
AcDbTrace
   6
CONTINUOUS
  62
8
  10
 266.60013322876
  20
 738.91537478653
  30
0.0
  11
 274.60013322876
  21
 737.50475894086
  31
0.0
  12
 274.60013322876
  22
 740.32599063220
  32
0.0
  13
 274.60013322876
  23
 740.32599063220
  33
0.0
   0
SOLID
   5
F1
 100
AcDbEntity
   8
0
 100
AcDbTrace
   6
CONTINUOUS
  62
8
  10
 336.60013322875
  20
 738.91537478653
  30
0.0
  11
 328.60013322875
  21
 740.32599063220
  31
0.0
  12
 328.60013322875
  22
 737.50475894086
  32
0.0
  13
 328.60013322875
  23
 737.50475894086
  33
0.0
   0
MTEXT
   5
F2
 100
AcDbEntity
   8
0
 370
15
  62
8
 100
AcDbMText
  10
 301.60013322876
  20
 742.91537478653
  30
0.0
  40
 10.000000000000
  41
0.0
  71
8
  72
1
   1
\A1;L
   7
GMM001
   0
ENDBLK
   5
F3
 100
AcDbEntity
   8
0
 100
AcDbBlockEnd
   0
BLOCK
   5
F4
 100
AcDbEntity
   8
0
 100
AcDbBlockBegin
   2
*D4
  70
65
  10
0.0
  20
0.0
  30
0.0
   3
*D4
   0
LINE
   5
F5
 100
AcDbEntity
   8
0
 370
15
 100
AcDbLine
   6
CONTINUOUS
  62
8
  10
 428.05073807611
  20
 792.41537478653
  30
0.0
  11
 428.05073807611
  21
 734.91537478653
  31
0.0
   0
LINE
   5
F6
 100
AcDbEntity
   8
0
 370
15
 100
AcDbLine
   6
CONTINUOUS
  62
8
  10
 444.05073807611
  20
 792.41537478653
  30
0.0
  11
 444.05073807611
  21
 734.91537478653
  31
0.0
   0
LINE
   5
F7
 100
AcDbEntity
   8
0
 370
15
 100
AcDbLine
   6
CONTINUOUS
  62
8
  10
 418.05073807611
  20
 738.91537478653
  30
0.0
  11
 436.05073807611
  21
 738.91537478653
  31
0.0
   0
LINE
   5
F8
 100
AcDbEntity
   8
0
 370
15
 100
AcDbLine
   6
CONTINUOUS
  62
8
  10
 497.29885837676
  20
 738.91537478653
  30
0.0
  11
 436.05073807611
  21
 738.91537478653
  31
0.0
   0
SOLID
   5
F9
 100
AcDbEntity
   8
0
 100
AcDbTrace
   6
CONTINUOUS
  62
8
  10
 428.05073807611
  20
 738.91537478653
  30
0.0
  11
 420.05073807611
  21
 740.32599063220
  31
0.0
  12
 420.05073807611
  22
 737.50475894086
  32
0.0
  13
 420.05073807611
  23
 737.50475894086
  33
0.0
   0
SOLID
   5
FA
 100
AcDbEntity
   8
0
 100
AcDbTrace
   6
CONTINUOUS
  62
8
  10
 444.05073807611
  20
 738.91537478653
  30
0.0
  11
 452.05073807611
  21
 737.50475894086
  31
0.0
  12
 452.05073807611
  22
 740.32599063220
  32
0.0
  13
 452.05073807611
  23
 740.32599063220
  33
0.0
   0
MTEXT
   5
FB
 100
AcDbEntity
   8
0
 370
15
  62
8
 100
AcDbMText
  10
 488.29885837676
  20
 742.24202474475
  30
0.0
  40
 10.000000000000
  41
0.0
  71
8
  72
1
   1
\A1;16
   7
GMM001
   0
ENDBLK
   5
FC
 100
AcDbEntity
   8
0
 100
AcDbBlockEnd
   0
BLOCK
   5
FD
 100
AcDbEntity
   8
0
 100
AcDbBlockBegin
   2
*D5
  70
65
  10
0.0
  20
0.0
  30
0.0
   3
*D5
   0
LINE
   5
FE
 100
AcDbEntity
   8
0
 370
15
 100
AcDbLine
   6
CONTINUOUS
  62
8
  10
 408.55073807611
  20
 792.41537478653
  30
0.0
  11
 408.55073807611
  21
 704.91537478653
  31
0.0
   0
LINE
   5
FF
 100
AcDbEntity
   8
0
 370
15
 100
AcDbLine
   6
CONTINUOUS
  62
8
  10
 463.55073807611
  20
 792.41537478653
  30
0.0
  11
 463.55073807611
  21
 704.91537478653
  31
0.0
   0
LINE
   5
100
 100
AcDbEntity
   8
0
 370
15
 100
AcDbLine
   6
CONTINUOUS
  62
8
  10
 408.55073807611
  20
 708.91537478653
  30
0.0
  11
 436.05073807611
  21
 708.91537478653
  31
0.0
   0
LINE
   5
101
 100
AcDbEntity
   8
0
 370
15
 100
AcDbLine
   6
CONTINUOUS
  62
8
  10
 463.55073807611
  20
 708.91537478653
  30
0.0
  11
 436.05073807611
  21
 708.91537478653
  31
0.0
   0
SOLID
   5
102
 100
AcDbEntity
   8
0
 100
AcDbTrace
   6
CONTINUOUS
  62
8
  10
 408.55073807611
  20
 708.91537478653
  30
0.0
  11
 416.55073807611
  21
 707.50475894086
  31
0.0
  12
 416.55073807611
  22
 710.32599063220
  32
0.0
  13
 416.55073807611
  23
 710.32599063220
  33
0.0
   0
SOLID
   5
103
 100
AcDbEntity
   8
0
 100
AcDbTrace
   6
CONTINUOUS
  62
8
  10
 463.55073807611
  20
 708.91537478653
  30
0.0
  11
 455.55073807611
  21
 710.32599063220
  31
0.0
  12
 455.55073807611
  22
 707.50475894086
  32
0.0
  13
 455.55073807611
  23
 707.50475894086
  33
0.0
   0
MTEXT
   5
104
 100
AcDbEntity
   8
0
 370
15
  62
8
 100
AcDbMText
  10
 436.05073807611
  20
 712.91537478653
  30
0.0
  40
 10.000000000000
  41
0.0
  71
8
  72
1
   1
\A1;55
   7
GMM001
   0
ENDBLK
   5
105
 100
AcDbEntity
   8
0
 100
AcDbBlockEnd
   0
BLOCK
   5
106
 100
AcDbEntity
   8
0
 100
AcDbBlockBegin
   2
*D6
  70
65
  10
0.0
  20
0.0
  30
0.0
   3
*D6
   0
LINE
   5
107
 100
AcDbEntity
   8
0
 370
15
 100
AcDbLine
   6
CONTINUOUS
  62
8
  10
 259.10013322876
  20
 823.91537478653
  30
0.0
  11
 244.93629972435
  21
 823.91537478653
  31
0.0
   0
LINE
   5
108
 100
AcDbEntity
   8
0
 370
15
 100
AcDbLine
   6
CONTINUOUS
  62
8
  10
 259.10013322876
  20
 768.91537478653
  30
0.0
  11
 244.93629972435
  21
 768.91537478653
  31
0.0
   0
LINE
   5
109
 100
AcDbEntity
   8
0
 370
15
 100
AcDbLine
   6
CONTINUOUS
  62
8
  10
 248.93629972435
  20
 823.91537478653
  30
0.0
  11
 248.93629972435
  21
 796.41537478653
  31
0.0
   0
LINE
   5
10A
 100
AcDbEntity
   8
0
 370
15
 100
AcDbLine
   6
CONTINUOUS
  62
8
  10
 248.93629972435
  20
 768.91537478653
  30
0.0
  11
 248.93629972435
  21
 796.41537478653
  31
0.0
   0
SOLID
   5
10B
 100
AcDbEntity
   8
0
 100
AcDbTrace
   6
CONTINUOUS
  62
8
  10
 248.93629972435
  20
 823.91537478653
  30
0.0
  11
 247.52568387869
  21
 815.91537478653
  31
0.0
  12
 250.34691557002
  22
 815.91537478653
  32
0.0
  13
 250.34691557002
  23
 815.91537478653
  33
0.0
   0
SOLID
   5
10C
 100
AcDbEntity
   8
0
 100
AcDbTrace
   6
CONTINUOUS
  62
8
  10
 248.93629972435
  20
 768.91537478653
  30
0.0
  11
 250.34691557002
  21
 776.91537478653
  31
0.0
  12
 247.52568387869
  22
 776.91537478653
  32
0.0
  13
 247.52568387869
  23
 776.91537478653
  33
0.0
   0
MTEXT
   5
10D
 100
AcDbEntity
   8
0
 370
15
  62
8
 100
AcDbMText
  10
 244.93629972435
  20
 796.41537478653
  30
0.0
  40
 10.000000000000
  41
0.0
  71
8
  72
1
   1
\A1;55
   7
GMM001
  11
0.0
  21
 1.0000000000000
  31
0.0
   0
ENDBLK
   5
10E
 100
AcDbEntity
   8
0
 100
AcDbBlockEnd
   0
BLOCK
   5
10F
 100
AcDbEntity
   8
0
 100
AcDbBlockBegin
   2
*D8
  70
65
  10
0.0
  20
0.0
  30
0.0
   3
*D8
   0
LINE
   5
110
 100
AcDbEntity
   8
0
 370
15
 100
AcDbLine
   6
CONTINUOUS
  62
8
  10
 927.60013322881
  20
 796.41537478664
  30
0.0
  11
 980.24417305237
  21
 796.41537478664
  31
0.0
   0
LINE
   5
111
 100
AcDbEntity
   8
0
 370
15
 100
AcDbLine
   6
CONTINUOUS
  62
8
  10
 951.60013322882
  20
 841.41537478664
  30
0.0
  11
 980.24417305237
  21
 841.41537478664
  31
0.0
   0
LINE
   5
112
 100
AcDbEntity
   8
0
 370
15
 100
AcDbLine
   6
CONTINUOUS
  62
8
  10
 976.24417305237
  20
 796.41537478664
  30
0.0
  11
 976.24417305237
  21
 818.91537478664
  31
0.0
   0
LINE
   5
113
 100
AcDbEntity
   8
0
 370
15
 100
AcDbLine
   6
CONTINUOUS
  62
8
  10
 976.24417305237
  20
 841.41537478664
  30
0.0
  11
 976.24417305237
  21
 818.91537478664
  31
0.0
   0
SOLID
   5
114
 100
AcDbEntity
   8
0
 100
AcDbTrace
   6
CONTINUOUS
  62
8
  10
 976.24417305237
  20
 796.41537478664
  30
0.0
  11
 977.65478889804
  21
 804.41537478664
  31
0.0
  12
 974.83355720670
  22
 804.41537478664
  32
0.0
  13
 974.83355720670
  23
 804.41537478664
  33
0.0
   0
SOLID
   5
115
 100
AcDbEntity
   8
0
 100
AcDbTrace
   6
CONTINUOUS
  62
8
  10
 976.24417305237
  20
 841.41537478664
  30
0.0
  11
 974.83355720670
  21
 833.41537478664
  31
0.0
  12
 977.65478889804
  22
 833.41537478664
  32
0.0
  13
 977.65478889804
  23
 833.41537478664
  33
0.0
   0
MTEXT
   5
116
 100
AcDbEntity
   8
0
 370
15
  62
8
 100
AcDbMText
  10
 972.24417305237
  20
 818.91537478664
  30
0.0
  40
 10.000000000000
  41
0.0
  71
8
  72
1
   1
\A1;45
   7
GMM001
  11
0.0
  21
 1.0000000000000
  31
0.0
   0
ENDBLK
   5
117
 100
AcDbEntity
   8
0
 100
AcDbBlockEnd
   0
BLOCK
   5
118
 100
AcDbEntity
   8
0
 100
AcDbBlockBegin
   2
*D9
  70
65
  10
0.0
  20
0.0
  30
0.0
   3
*D9
   0
LINE
   5
119
 100
AcDbEntity
   8
0
 370
15
 100
AcDbLine
   6
CONTINUOUS
  62
8
  10
 866.10013322882
  20
 764.91537478664
  30
0.0
  11
 866.10013322882
  21
 734.91537478664
  31
0.0
   0
LINE
   5
11A
 100
AcDbEntity
   8
0
 370
15
 100
AcDbLine
   6
CONTINUOUS
  62
8
  10
 832.70114162350
  20
 738.91537478664
  30
0.0
  11
 867.85013322882
  21
 738.91537478664
  31
0.0
   0
LINE
   5
11B
 100
AcDbEntity
   8
0
 370
15
 100
AcDbLine
   6
CONTINUOUS
  62
8
  10
 869.60013322882
  20
 738.91537478664
  30
0.0
  11
 867.85013322882
  21
 738.91537478664
  31
0.0
   0
SOLID
   5
11C
 100
AcDbEntity
   8
0
 100
AcDbTrace
   6
CONTINUOUS
  62
8
  10
 866.10013322882
  20
 738.91537478664
  30
0.0
  11
 858.10013322882
  21
 740.32599063231
  31
0.0
  12
 858.10013322882
  22
 737.50475894098
  32
0.0
  13
 858.10013322882
  23
 737.50475894098
  33
0.0
   0
MTEXT
   5
11D
 100
AcDbEntity
   8
0
 370
15
  62
8
 100
AcDbMText
  10
 843.70114162350
  20
 742.91537478664
  30
0.0
  40
 10.000000000000
  41
0.0
  71
8
  72
1
   1
\A1;3.5
   7
GMM001
   0
ENDBLK
   5
11E
 100
AcDbEntity
   8
0
 100
AcDbBlockEnd
   0
BLOCK
   5
11F
 100
AcDbEntity
   8
0
 100
AcDbBlockBegin
   2
*D10
  70
65
  10
0.0
  20
0.0
  30
0.0
   3
*D10
   0
LINE
   5
120
 100
AcDbEntity
   8
0
 370
15
 100
AcDbLine
   6
CONTINUOUS
  62
8
  10
 869.60013322882
  20
 766.41537478664
  30
0.0
  11
 869.60013322882
  21
 734.91537478664
  31
0.0
   0
LINE
   5
121
 100
AcDbEntity
   8
0
 370
15
 100
AcDbLine
   6
CONTINUOUS
  62
8
  10
 939.60013322881
  20
 808.41537478664
  30
0.0
  11
 939.60013322881
  21
 734.91537478664
  31
0.0
   0
LINE
   5
122
 100
AcDbEntity
   8
0
 370
15
 100
AcDbLine
   6
CONTINUOUS
  62
8
  10
 869.60013322882
  20
 738.91537478664
  30
0.0
  11
 904.60013322881
  21
 738.91537478664
  31
0.0
   0
LINE
   5
123
 100
AcDbEntity
   8
0
 370
15
 100
AcDbLine
   6
CONTINUOUS
  62
8
  10
 939.60013322881
  20
 738.91537478664
  30
0.0
  11
 904.60013322881
  21
 738.91537478664
  31
0.0
   0
SOLID
   5
124
 100
AcDbEntity
   8
0
 100
AcDbTrace
   6
CONTINUOUS
  62
8
  10
 869.60013322882
  20
 738.91537478664
  30
0.0
  11
 877.60013322882
  21
 737.50475894098
  31
0.0
  12
 877.60013322882
  22
 740.32599063231
  32
0.0
  13
 877.60013322882
  23
 740.32599063231
  33
0.0
   0
SOLID
   5
125
 100
AcDbEntity
   8
0
 100
AcDbTrace
   6
CONTINUOUS
  62
8
  10
 939.60013322881
  20
 738.91537478664
  30
0.0
  11
 931.60013322881
  21
 740.32599063231
  31
0.0
  12
 931.60013322881
  22
 737.50475894098
  32
0.0
  13
 931.60013322881
  23
 737.50475894098
  33
0.0
   0
MTEXT
   5
126
 100
AcDbEntity
   8
0
 370
15
  62
8
 100
AcDbMText
  10
 904.60013322881
  20
 742.91537478664
  30
0.0
  40
 10.000000000000
  41
0.0
  71
8
  72
1
   1
\A1;L
   7
GMM001
   0
ENDBLK
   5
127
 100
AcDbEntity
   8
0
 100
AcDbBlockEnd
   0
BLOCK
   5
128
 100
AcDbEntity
   8
0
 100
AcDbBlockBegin
   2
*D11
  70
65
  10
0.0
  20
0.0
  30
0.0
   3
*D11
   0
LINE
   5
129
 100
AcDbEntity
   8
0
 370
15
 100
AcDbLine
   6
CONTINUOUS
  62
8
  10
 1031.0507380762
  20
 792.41537478664
  30
0.0
  11
 1031.0507380762
  21
 734.91537478664
  31
0.0
   0
LINE
   5
12A
 100
AcDbEntity
   8
0
 370
15
 100
AcDbLine
   6
CONTINUOUS
  62
8
  10
 1047.0507380762
  20
 792.41537478664
  30
0.0
  11
 1047.0507380762
  21
 734.91537478664
  31
0.0
   0
LINE
   5
12B
 100
AcDbEntity
   8
0
 370
15
 100
AcDbLine
   6
CONTINUOUS
  62
8
  10
 1021.0507380762
  20
 738.91537478664
  30
0.0
  11
 1039.0507380762
  21
 738.91537478664
  31
0.0
   0
LINE
   5
12C
 100
AcDbEntity
   8
0
 370
15
 100
AcDbLine
   6
CONTINUOUS
  62
8
  10
 1100.2988583768
  20
 738.91537478664
  30
0.0
  11
 1039.0507380762
  21
 738.91537478664
  31
0.0
   0
SOLID
   5
12D
 100
AcDbEntity
   8
0
 100
AcDbTrace
   6
CONTINUOUS
  62
8
  10
 1031.0507380762
  20
 738.91537478664
  30
0.0
  11
 1023.0507380762
  21
 740.32599063231
  31
0.0
  12
 1023.0507380762
  22
 737.50475894098
  32
0.0
  13
 1023.0507380762
  23
 737.50475894098
  33
0.0
   0
SOLID
   5
12E
 100
AcDbEntity
   8
0
 100
AcDbTrace
   6
CONTINUOUS
  62
8
  10
 1047.0507380762
  20
 738.91537478664
  30
0.0
  11
 1055.0507380762
  21
 737.50475894098
  31
0.0
  12
 1055.0507380762
  22
 740.32599063231
  32
0.0
  13
 1055.0507380762
  23
 740.32599063231
  33
0.0
   0
MTEXT
   5
12F
 100
AcDbEntity
   8
0
 370
15
  62
8
 100
AcDbMText
  10
 1091.2988583768
  20
 742.24202474486
  30
0.0
  40
 10.000000000000
  41
0.0
  71
8
  72
1
   1
\A1;16
   7
GMM001
   0
ENDBLK
   5
130
 100
AcDbEntity
   8
0
 100
AcDbBlockEnd
   0
BLOCK
   5
131
 100
AcDbEntity
   8
0
 100
AcDbBlockBegin
   2
*D12
  70
65
  10
0.0
  20
0.0
  30
0.0
   3
*D12
   0
LINE
   5
132
 100
AcDbEntity
   8
0
 370
15
 100
AcDbLine
   6
CONTINUOUS
  62
8
  10
 1011.5507380762
  20
 792.41537478664
  30
0.0
  11
 1011.5507380762
  21
 704.91537478664
  31
0.0
   0
LINE
   5
133
 100
AcDbEntity
   8
0
 370
15
 100
AcDbLine
   6
CONTINUOUS
  62
8
  10
 1066.5507380762
  20
 792.41537478664
  30
0.0
  11
 1066.5507380762
  21
 704.91537478664
  31
0.0
   0
LINE
   5
134
 100
AcDbEntity
   8
0
 370
15
 100
AcDbLine
   6
CONTINUOUS
  62
8
  10
 1011.5507380762
  20
 708.91537478664
  30
0.0
  11
 1039.0507380762
  21
 708.91537478664
  31
0.0
   0
LINE
   5
135
 100
AcDbEntity
   8
0
 370
15
 100
AcDbLine
   6
CONTINUOUS
  62
8
  10
 1066.5507380762
  20
 708.91537478664
  30
0.0
  11
 1039.0507380762
  21
 708.91537478664
  31
0.0
   0
SOLID
   5
136
 100
AcDbEntity
   8
0
 100
AcDbTrace
   6
CONTINUOUS
  62
8
  10
 1011.5507380762
  20
 708.91537478664
  30
0.0
  11
 1019.5507380762
  21
 707.50475894098
  31
0.0
  12
 1019.5507380762
  22
 710.32599063231
  32
0.0
  13
 1019.5507380762
  23
 710.32599063231
  33
0.0
   0
SOLID
   5
137
 100
AcDbEntity
   8
0
 100
AcDbTrace
   6
CONTINUOUS
  62
8
  10
 1066.5507380762
  20
 708.91537478664
  30
0.0
  11
 1058.5507380762
  21
 710.32599063231
  31
0.0
  12
 1058.5507380762
  22
 707.50475894098
  32
0.0
  13
 1058.5507380762
  23
 707.50475894098
  33
0.0
   0
MTEXT
   5
138
 100
AcDbEntity
   8
0
 370
15
  62
8
 100
AcDbMText
  10
 1039.0507380762
  20
 712.91537478664
  30
0.0
  40
 10.000000000000
  41
0.0
  71
8
  72
1
   1
\A1;55
   7
GMM001
   0
ENDBLK
   5
139
 100
AcDbEntity
   8
0
 100
AcDbBlockEnd
   0
BLOCK
   5
13A
 100
AcDbEntity
   8
0
 100
AcDbBlockBegin
   2
*D13
  70
65
  10
0.0
  20
0.0
  30
0.0
   3
*D13
   0
LINE
   5
13B
 100
AcDbEntity
   8
0
 370
15
 100
AcDbLine
   6
CONTINUOUS
  62
8
  10
 862.10013322882
  20
 823.91537478664
  30
0.0
  11
 847.93629972441
  21
 823.91537478664
  31
0.0
   0
LINE
   5
13C
 100
AcDbEntity
   8
0
 370
15
 100
AcDbLine
   6
CONTINUOUS
  62
8
  10
 862.10013322882
  20
 768.91537478664
  30
0.0
  11
 847.93629972441
  21
 768.91537478664
  31
0.0
   0
LINE
   5
13D
 100
AcDbEntity
   8
0
 370
15
 100
AcDbLine
   6
CONTINUOUS
  62
8
  10
 851.93629972441
  20
 823.91537478664
  30
0.0
  11
 851.93629972441
  21
 796.41537478664
  31
0.0
   0
LINE
   5
13E
 100
AcDbEntity
   8
0
 370
15
 100
AcDbLine
   6
CONTINUOUS
  62
8
  10
 851.93629972441
  20
 768.91537478664
  30
0.0
  11
 851.93629972441
  21
 796.41537478664
  31
0.0
   0
SOLID
   5
13F
 100
AcDbEntity
   8
0
 100
AcDbTrace
   6
CONTINUOUS
  62
8
  10
 851.93629972441
  20
 823.91537478664
  30
0.0
  11
 850.52568387874
  21
 815.91537478664
  31
0.0
  12
 853.34691557008
  22
 815.91537478664
  32
0.0
  13
 853.34691557008
  23
 815.91537478664
  33
0.0
   0
SOLID
   5
140
 100
AcDbEntity
   8
0
 100
AcDbTrace
   6
CONTINUOUS
  62
8
  10
 851.93629972441
  20
 768.91537478664
  30
0.0
  11
 853.34691557008
  21
 776.91537478664
  31
0.0
  12
 850.52568387874
  22
 776.91537478664
  32
0.0
  13
 850.52568387874
  23
 776.91537478664
  33
0.0
   0
MTEXT
   5
141
 100
AcDbEntity
   8
0
 370
15
  62
8
 100
AcDbMText
  10
 847.93629972441
  20
 796.41537478664
  30
0.0
  40
 10.000000000000
  41
0.0
  71
8
  72
1
   1
\A1;55
   7
GMM001
  11
0.0
  21
 1.0000000000000
  31
0.0
   0
ENDBLK
   5
142
 100
AcDbEntity
   8
0
 100
AcDbBlockEnd
   0
BLOCK
   5
143
 100
AcDbEntity
   8
0
 100
AcDbBlockBegin
   2
*D15
  70
65
  10
0.0
  20
0.0
  30
0.0
   3
*D15
   0
LINE
   5
144
 100
AcDbEntity
   8
0
 370
15
 100
AcDbLine
   6
CONTINUOUS
  62
8
  10
 325.78267631367
  20
 248.44688840742
  30
0.0
  11
 378.42671613723
  21
 248.44688840742
  31
0.0
   0
LINE
   5
145
 100
AcDbEntity
   8
0
 370
15
 100
AcDbLine
   6
CONTINUOUS
  62
8
  10
 349.78267631368
  20
 283.44688840742
  30
0.0
  11
 378.42671613723
  21
 283.44688840742
  31
0.0
   0
LINE
   5
146
 100
AcDbEntity
   8
0
 370
15
 100
AcDbLine
   6
CONTINUOUS
  62
8
  10
 374.42671613723
  20
 248.44688840742
  30
0.0
  11
 374.42671613723
  21
 265.94688840742
  31
0.0
   0
LINE
   5
147
 100
AcDbEntity
   8
0
 370
15
 100
AcDbLine
   6
CONTINUOUS
  62
8
  10
 374.42671613723
  20
 283.44688840742
  30
0.0
  11
 374.42671613723
  21
 265.94688840742
  31
0.0
   0
SOLID
   5
148
 100
AcDbEntity
   8
0
 100
AcDbTrace
   6
CONTINUOUS
  62
8
  10
 374.42671613723
  20
 248.44688840742
  30
0.0
  11
 375.83733198290
  21
 256.44688840742
  31
0.0
  12
 373.01610029156
  22
 256.44688840742
  32
0.0
  13
 373.01610029156
  23
 256.44688840742
  33
0.0
   0
SOLID
   5
149
 100
AcDbEntity
   8
0
 100
AcDbTrace
   6
CONTINUOUS
  62
8
  10
 374.42671613723
  20
 283.44688840742
  30
0.0
  11
 373.01610029156
  21
 275.44688840742
  31
0.0
  12
 375.83733198290
  22
 275.44688840742
  32
0.0
  13
 375.83733198290
  23
 275.44688840742
  33
0.0
   0
MTEXT
   5
14A
 100
AcDbEntity
   8
0
 370
15
  62
8
 100
AcDbMText
  10
 370.42671613723
  20
 265.94688840742
  30
0.0
  40
 10.000000000000
  41
0.0
  71
8
  72
1
   1
\A1;35
   7
GMM001
  11
0.0
  21
 1.0000000000000
  31
0.0
   0
ENDBLK
   5
14B
 100
AcDbEntity
   8
0
 100
AcDbBlockEnd
   0
BLOCK
   5
14C
 100
AcDbEntity
   8
0
 100
AcDbBlockBegin
   2
*D16
  70
65
  10
0.0
  20
0.0
  30
0.0
   3
*D16
   0
LINE
   5
14D
 100
AcDbEntity
   8
0
 370
15
 100
AcDbLine
   6
CONTINUOUS
  62
8
  10
 414.73328116102
  20
 244.44688840742
  30
0.0
  11
 414.73328116102
  21
 173.14390701707
  31
0.0
   0
LINE
   5
14E
 100
AcDbEntity
   8
0
 370
15
 100
AcDbLine
   6
CONTINUOUS
  62
8
  10
 459.73328116102
  20
 244.44688840742
  30
0.0
  11
 459.73328116102
  21
 173.14390701707
  31
0.0
   0
LINE
   5
14F
 100
AcDbEntity
   8
0
 370
15
 100
AcDbLine
   6
CONTINUOUS
  62
8
  10
 414.73328116102
  20
 177.14390701707
  30
0.0
  11
 437.23328116102
  21
 177.14390701707
  31
0.0
   0
LINE
   5
150
 100
AcDbEntity
   8
0
 370
15
 100
AcDbLine
   6
CONTINUOUS
  62
8
  10
 459.73328116102
  20
 177.14390701707
  30
0.0
  11
 437.23328116102
  21
 177.14390701707
  31
0.0
   0
SOLID
   5
151
 100
AcDbEntity
   8
0
 100
AcDbTrace
   6
CONTINUOUS
  62
8
  10
 414.73328116102
  20
 177.14390701707
  30
0.0
  11
 422.73328116102
  21
 175.73329117141
  31
0.0
  12
 422.73328116102
  22
 178.55452286274
  32
0.0
  13
 422.73328116102
  23
 178.55452286274
  33
0.0
   0
SOLID
   5
152
 100
AcDbEntity
   8
0
 100
AcDbTrace
   6
CONTINUOUS
  62
8
  10
 459.73328116102
  20
 177.14390701707
  30
0.0
  11
 451.73328116102
  21
 178.55452286274
  31
0.0
  12
 451.73328116102
  22
 175.73329117141
  32
0.0
  13
 451.73328116102
  23
 175.73329117141
  33
0.0
   0
MTEXT
   5
153
 100
AcDbEntity
   8
0
 370
15
  62
8
 100
AcDbMText
  10
 437.23328116102
  20
 181.14390701707
  30
0.0
  40
 10.000000000000
  41
0.0
  71
8
  72
1
   1
\A1;45
   7
GMM001
   0
ENDBLK
   5
154
 100
AcDbEntity
   8
0
 100
AcDbBlockEnd
   0
BLOCK
   5
155
 100
AcDbEntity
   8
0
 100
AcDbBlockBegin
   2
*D17
  70
65
  10
0.0
  20
0.0
  30
0.0
   3
*D17
   0
LINE
   5
156
 100
AcDbEntity
   8
0
 370
15
 100
AcDbLine
   6
CONTINUOUS
  62
8
  10
 430.73328116102
  20
 244.44688840742
  30
0.0
  11
 430.73328116102
  21
 197.74763856818
  31
0.0
   0
LINE
   5
157
 100
AcDbEntity
   8
0
 370
15
 100
AcDbLine
   6
CONTINUOUS
  62
8
  10
 443.73328116102
  20
 244.44688840742
  30
0.0
  11
 443.73328116102
  21
 197.74763856818
  31
0.0
   0
LINE
   5
158
 100
AcDbEntity
   8
0
 370
15
 100
AcDbLine
   6
CONTINUOUS
  62
8
  10
 420.73328116102
  20
 201.74763856818
  30
0.0
  11
 437.23328116102
  21
 201.74763856818
  31
0.0
   0
LINE
   5
159
 100
AcDbEntity
   8
0
 370
15
 100
AcDbLine
   6
CONTINUOUS
  62
8
  10
 478.24042267002
  20
 201.74763856818
  30
0.0
  11
 437.23328116102
  21
 201.74763856818
  31
0.0
   0
SOLID
   5
15A
 100
AcDbEntity
   8
0
 100
AcDbTrace
   6
CONTINUOUS
  62
8
  10
 430.73328116102
  20
 201.74763856818
  30
0.0
  11
 422.73328116102
  21
 203.15825441385
  31
0.0
  12
 422.73328116102
  22
 200.33702272252
  32
0.0
  13
 422.73328116102
  23
 200.33702272252
  33
0.0
   0
SOLID
   5
15B
 100
AcDbEntity
   8
0
 100
AcDbTrace
   6
CONTINUOUS
  62
8
  10
 443.73328116102
  20
 201.74763856818
  30
0.0
  11
 451.73328116102
  21
 200.33702272252
  31
0.0
  12
 451.73328116102
  22
 203.15825441385
  32
0.0
  13
 451.73328116102
  23
 203.15825441385
  33
0.0
   0
MTEXT
   5
15C
 100
AcDbEntity
   8
0
 370
15
  62
8
 100
AcDbMText
  10
 460.24042267002
  20
 204.29623227467
  30
0.0
  40
 10.000000000000
  41
0.0
  71
7
  72
1
   1
\A1;13
   7
GMM001
   0
ENDBLK
   5
15D
 100
AcDbEntity
   8
0
 100
AcDbBlockEnd
   0
BLOCK
   5
15E
 100
AcDbEntity
   8
0
 100
AcDbBlockBegin
   2
*D18
  70
65
  10
0.0
  20
0.0
  30
0.0
   3
*D18
   0
LINE
   5
15F
 100
AcDbEntity
   8
0
 370
15
 100
AcDbLine
   6
CONTINUOUS
  62
8
  10
 278.78267631368
  20
 221.94688840742
  30
0.0
  11
 278.78267631368
  21
 197.74763856818
  31
0.0
   0
LINE
   5
160
 100
AcDbEntity
   8
0
 370
15
 100
AcDbLine
   6
CONTINUOUS
  62
8
  10
 251.80099075684
  20
 201.74763856818
  30
0.0
  11
 280.78267631368
  21
 201.74763856818
  31
0.0
   0
LINE
   5
161
 100
AcDbEntity
   8
0
 370
15
 100
AcDbLine
   6
CONTINUOUS
  62
8
  10
 282.78267631368
  20
 201.74763856818
  30
0.0
  11
 280.78267631368
  21
 201.74763856818
  31
0.0
   0
SOLID
   5
162
 100
AcDbEntity
   8
0
 100
AcDbTrace
   6
CONTINUOUS
  62
8
  10
 278.78267631368
  20
 201.74763856818
  30
0.0
  11
 270.78267631368
  21
 203.15825441385
  31
0.0
  12
 270.78267631368
  22
 200.33702272252
  32
0.0
  13
 270.78267631368
  23
 200.33702272252
  33
0.0
   0
MTEXT
   5
163
 100
AcDbEntity
   8
0
 370
15
  62
8
 100
AcDbMText
  10
 273.80099075684
  20
 205.01506639702
  30
0.0
  40
 10.000000000000
  41
0.0
  71
9
  72
1
   1
\A1;3.5
   7
GMM001
   0
ENDBLK
   5
164
 100
AcDbEntity
   8
0
 100
AcDbBlockEnd
   0
BLOCK
   5
165
 100
AcDbEntity
   8
0
 100
AcDbBlockBegin
   2
*D19
  70
65
  10
0.0
  20
0.0
  30
0.0
   3
*D19
   0
LINE
   5
166
 100
AcDbEntity
   8
0
 370
15
 100
AcDbLine
   6
CONTINUOUS
  62
8
  10
 282.78267631368
  20
 223.44688840742
  30
0.0
  11
 282.78267631368
  21
 197.74763856818
  31
0.0
   0
LINE
   5
167
 100
AcDbEntity
   8
0
 370
15
 100
AcDbLine
   6
CONTINUOUS
  62
8
  10
 337.78267631368
  20
 258.94688840742
  30
0.0
  11
 337.78267631368
  21
 197.74763856818
  31
0.0
   0
LINE
   5
168
 100
AcDbEntity
   8
0
 370
15
 100
AcDbLine
   6
CONTINUOUS
  62
8
  10
 282.78267631368
  20
 201.74763856818
  30
0.0
  11
 310.28267631368
  21
 201.74763856818
  31
0.0
   0
LINE
   5
169
 100
AcDbEntity
   8
0
 370
15
 100
AcDbLine
   6
CONTINUOUS
  62
8
  10
 337.78267631368
  20
 201.74763856818
  30
0.0
  11
 310.28267631368
  21
 201.74763856818
  31
0.0
   0
SOLID
   5
16A
 100
AcDbEntity
   8
0
 100
AcDbTrace
   6
CONTINUOUS
  62
8
  10
 282.78267631368
  20
 201.74763856818
  30
0.0
  11
 290.78267631368
  21
 200.33702272252
  31
0.0
  12
 290.78267631368
  22
 203.15825441385
  32
0.0
  13
 290.78267631368
  23
 203.15825441385
  33
0.0
   0
SOLID
   5
16B
 100
AcDbEntity
   8
0
 100
AcDbTrace
   6
CONTINUOUS
  62
8
  10
 337.78267631368
  20
 201.74763856818
  30
0.0
  11
 329.78267631368
  21
 203.15825441385
  31
0.0
  12
 329.78267631368
  22
 200.33702272252
  32
0.0
  13
 329.78267631368
  23
 200.33702272252
  33
0.0
   0
MTEXT
   5
16C
 100
AcDbEntity
   8
0
 370
15
  62
8
 100
AcDbMText
  10
 310.28267631368
  20
 205.74763856818
  30
0.0
  40
 10.000000000000
  41
0.0
  71
8
  72
1
   1
\A1;L
   7
GMM001
   0
ENDBLK
   5
16D
 100
AcDbEntity
   8
0
 100
AcDbBlockEnd
   0
BLOCK
   5
16E
 100
AcDbEntity
   8
0
 100
AcDbBlockBegin
   2
*D20
  70
65
  10
0.0
  20
0.0
  30
0.0
   3
*D20
   0
LINE
   5
16F
 100
AcDbEntity
   8
0
 370
15
 100
AcDbLine
   6
CONTINUOUS
  62
8
  10
 274.78267631368
  20
 225.94688840742
  30
0.0
  11
 256.27383954546
  21
 225.94688840742
  31
0.0
   0
LINE
   5
170
 100
AcDbEntity
   8
0
 370
15
 100
AcDbLine
   6
CONTINUOUS
  62
8
  10
 274.78267631368
  20
 270.94688840742
  30
0.0
  11
 256.27383954546
  21
 270.94688840742
  31
0.0
   0
LINE
   5
171
 100
AcDbEntity
   8
0
 370
15
 100
AcDbLine
   6
CONTINUOUS
  62
8
  10
 260.27383954546
  20
 225.94688840742
  30
0.0
  11
 260.27383954546
  21
 248.44688840742
  31
0.0
   0
LINE
   5
172
 100
AcDbEntity
   8
0
 370
15
 100
AcDbLine
   6
CONTINUOUS
  62
8
  10
 260.27383954546
  20
 270.94688840742
  30
0.0
  11
 260.27383954546
  21
 248.44688840742
  31
0.0
   0
SOLID
   5
173
 100
AcDbEntity
   8
0
 100
AcDbTrace
   6
CONTINUOUS
  62
8
  10
 260.27383954546
  20
 225.94688840742
  30
0.0
  11
 261.68445539113
  21
 233.94688840742
  31
0.0
  12
 258.86322369980
  22
 233.94688840742
  32
0.0
  13
 258.86322369980
  23
 233.94688840742
  33
0.0
   0
SOLID
   5
174
 100
AcDbEntity
   8
0
 100
AcDbTrace
   6
CONTINUOUS
  62
8
  10
 260.27383954546
  20
 270.94688840742
  30
0.0
  11
 258.86322369980
  21
 262.94688840742
  31
0.0
  12
 261.68445539113
  22
 262.94688840742
  32
0.0
  13
 261.68445539113
  23
 262.94688840742
  33
0.0
   0
MTEXT
   5
175
 100
AcDbEntity
   8
0
 370
15
  62
8
 100
AcDbMText
  10
 256.27383954546
  20
 248.44688840742
  30
0.0
  40
 10.000000000000
  41
0.0
  71
8
  72
1
   1
\A1;45
   7
GMM001
  11
0.0
  21
 1.0000000000000
  31
0.0
   0
ENDBLK
   5
176
 100
AcDbEntity
   8
0
 100
AcDbBlockEnd
   0
BLOCK
   5
177
 100
AcDbEntity
   8
0
 100
AcDbBlockBegin
   2
*D22
  70
65
  10
0.0
  20
0.0
  30
0.0
   3
*D22
   0
LINE
   5
178
 100
AcDbEntity
   8
0
 370
15
 100
AcDbLine
   6
CONTINUOUS
  62
8
  10
 931.26841409836
  20
 248.44688840738
  30
0.0
  11
 983.91245392192
  21
 248.44688840738
  31
0.0
   0
LINE
   5
179
 100
AcDbEntity
   8
0
 370
15
 100
AcDbLine
   6
CONTINUOUS
  62
8
  10
 955.26841409837
  20
 283.44688840738
  30
0.0
  11
 983.91245392192
  21
 283.44688840738
  31
0.0
   0
LINE
   5
17A
 100
AcDbEntity
   8
0
 370
15
 100
AcDbLine
   6
CONTINUOUS
  62
8
  10
 979.91245392192
  20
 248.44688840738
  30
0.0
  11
 979.91245392192
  21
 265.94688840738
  31
0.0
   0
LINE
   5
17B
 100
AcDbEntity
   8
0
 370
15
 100
AcDbLine
   6
CONTINUOUS
  62
8
  10
 979.91245392192
  20
 283.44688840738
  30
0.0
  11
 979.91245392192
  21
 265.94688840738
  31
0.0
   0
SOLID
   5
17C
 100
AcDbEntity
   8
0
 100
AcDbTrace
   6
CONTINUOUS
  62
8
  10
 979.91245392192
  20
 248.44688840738
  30
0.0
  11
 981.32306976759
  21
 256.44688840738
  31
0.0
  12
 978.50183807626
  22
 256.44688840738
  32
0.0
  13
 978.50183807626
  23
 256.44688840738
  33
0.0
   0
SOLID
   5
17D
 100
AcDbEntity
   8
0
 100
AcDbTrace
   6
CONTINUOUS
  62
8
  10
 979.91245392192
  20
 283.44688840738
  30
0.0
  11
 978.50183807626
  21
 275.44688840738
  31
0.0
  12
 981.32306976759
  22
 275.44688840738
  32
0.0
  13
 981.32306976759
  23
 275.44688840738
  33
0.0
   0
MTEXT
   5
17E
 100
AcDbEntity
   8
0
 370
15
  62
8
 100
AcDbMText
  10
 975.91245392192
  20
 265.94688840738
  30
0.0
  40
 10.000000000000
  41
0.0
  71
8
  72
1
   1
\A1;35
   7
GMM001
  11
0.0
  21
 1.0000000000000
  31
0.0
   0
ENDBLK
   5
17F
 100
AcDbEntity
   8
0
 100
AcDbBlockEnd
   0
BLOCK
   5
180
 100
AcDbEntity
   8
0
 100
AcDbBlockBegin
   2
*D23
  70
65
  10
0.0
  20
0.0
  30
0.0
   3
*D23
   0
LINE
   5
181
 100
AcDbEntity
   8
0
 370
15
 100
AcDbLine
   6
CONTINUOUS
  62
8
  10
 1020.2190189457
  20
 244.44688840738
  30
0.0
  11
 1020.2190189457
  21
 173.14390701704
  31
0.0
   0
LINE
   5
182
 100
AcDbEntity
   8
0
 370
15
 100
AcDbLine
   6
CONTINUOUS
  62
8
  10
 1065.2190189457
  20
 244.44688840738
  30
0.0
  11
 1065.2190189457
  21
 173.14390701704
  31
0.0
   0
LINE
   5
183
 100
AcDbEntity
   8
0
 370
15
 100
AcDbLine
   6
CONTINUOUS
  62
8
  10
 1020.2190189457
  20
 177.14390701704
  30
0.0
  11
 1042.7190189457
  21
 177.14390701704
  31
0.0
   0
LINE
   5
184
 100
AcDbEntity
   8
0
 370
15
 100
AcDbLine
   6
CONTINUOUS
  62
8
  10
 1065.2190189457
  20
 177.14390701704
  30
0.0
  11
 1042.7190189457
  21
 177.14390701704
  31
0.0
   0
SOLID
   5
185
 100
AcDbEntity
   8
0
 100
AcDbTrace
   6
CONTINUOUS
  62
8
  10
 1020.2190189457
  20
 177.14390701704
  30
0.0
  11
 1028.2190189457
  21
 175.73329117137
  31
0.0
  12
 1028.2190189457
  22
 178.55452286270
  32
0.0
  13
 1028.2190189457
  23
 178.55452286270
  33
0.0
   0
SOLID
   5
186
 100
AcDbEntity
   8
0
 100
AcDbTrace
   6
CONTINUOUS
  62
8
  10
 1065.2190189457
  20
 177.14390701704
  30
0.0
  11
 1057.2190189457
  21
 178.55452286270
  31
0.0
  12
 1057.2190189457
  22
 175.73329117137
  32
0.0
  13
 1057.2190189457
  23
 175.73329117137
  33
0.0
   0
MTEXT
   5
187
 100
AcDbEntity
   8
0
 370
15
  62
8
 100
AcDbMText
  10
 1042.7190189457
  20
 181.14390701704
  30
0.0
  40
 10.000000000000
  41
0.0
  71
8
  72
1
   1
\A1;45
   7
GMM001
   0
ENDBLK
   5
188
 100
AcDbEntity
   8
0
 100
AcDbBlockEnd
   0
BLOCK
   5
189
 100
AcDbEntity
   8
0
 100
AcDbBlockBegin
   2
*D24
  70
65
  10
0.0
  20
0.0
  30
0.0
   3
*D24
   0
LINE
   5
18A
 100
AcDbEntity
   8
0
 370
15
 100
AcDbLine
   6
CONTINUOUS
  62
8
  10
 1036.2190189457
  20
 244.44688840738
  30
0.0
  11
 1036.2190189457
  21
 197.74763856815
  31
0.0
   0
LINE
   5
18B
 100
AcDbEntity
   8
0
 370
15
 100
AcDbLine
   6
CONTINUOUS
  62
8
  10
 1049.2190189457
  20
 244.44688840738
  30
0.0
  11
 1049.2190189457
  21
 197.74763856815
  31
0.0
   0
LINE
   5
18C
 100
AcDbEntity
   8
0
 370
15
 100
AcDbLine
   6
CONTINUOUS
  62
8
  10
 1026.2190189457
  20
 201.74763856815
  30
0.0
  11
 1042.7190189457
  21
 201.74763856815
  31
0.0
   0
LINE
   5
18D
 100
AcDbEntity
   8
0
 370
15
 100
AcDbLine
   6
CONTINUOUS
  62
8
  10
 1083.7261604547
  20
 201.74763856815
  30
0.0
  11
 1042.7190189457
  21
 201.74763856815
  31
0.0
   0
SOLID
   5
18E
 100
AcDbEntity
   8
0
 100
AcDbTrace
   6
CONTINUOUS
  62
8
  10
 1036.2190189457
  20
 201.74763856815
  30
0.0
  11
 1028.2190189457
  21
 203.15825441382
  31
0.0
  12
 1028.2190189457
  22
 200.33702272248
  32
0.0
  13
 1028.2190189457
  23
 200.33702272248
  33
0.0
   0
SOLID
   5
18F
 100
AcDbEntity
   8
0
 100
AcDbTrace
   6
CONTINUOUS
  62
8
  10
 1049.2190189457
  20
 201.74763856815
  30
0.0
  11
 1057.2190189457
  21
 200.33702272248
  31
0.0
  12
 1057.2190189457
  22
 203.15825441382
  32
0.0
  13
 1057.2190189457
  23
 203.15825441382
  33
0.0
   0
MTEXT
   5
190
 100
AcDbEntity
   8
0
 370
15
  62
8
 100
AcDbMText
  10
 1065.7261604547
  20
 204.29623227464
  30
0.0
  40
 10.000000000000
  41
0.0
  71
7
  72
1
   1
\A1;13
   7
GMM001
   0
ENDBLK
   5
191
 100
AcDbEntity
   8
0
 100
AcDbBlockEnd
   0
BLOCK
   5
192
 100
AcDbEntity
   8
0
 100
AcDbBlockBegin
   2
*D25
  70
65
  10
0.0
  20
0.0
  30
0.0
   3
*D25
   0
LINE
   5
193
 100
AcDbEntity
   8
0
 370
15
 100
AcDbLine
   6
CONTINUOUS
  62
8
  10
 884.26841409837
  20
 221.94688840738
  30
0.0
  11
 884.26841409837
  21
 197.74763856815
  31
0.0
   0
LINE
   5
194
 100
AcDbEntity
   8
0
 370
15
 100
AcDbLine
   6
CONTINUOUS
  62
8
  10
 857.28672854153
  20
 201.74763856815
  30
0.0
  11
 886.26841409837
  21
 201.74763856815
  31
0.0
   0
LINE
   5
195
 100
AcDbEntity
   8
0
 370
15
 100
AcDbLine
   6
CONTINUOUS
  62
8
  10
 888.26841409837
  20
 201.74763856815
  30
0.0
  11
 886.26841409837
  21
 201.74763856815
  31
0.0
   0
SOLID
   5
196
 100
AcDbEntity
   8
0
 100
AcDbTrace
   6
CONTINUOUS
  62
8
  10
 884.26841409837
  20
 201.74763856815
  30
0.0
  11
 876.26841409837
  21
 203.15825441382
  31
0.0
  12
 876.26841409837
  22
 200.33702272248
  32
0.0
  13
 876.26841409837
  23
 200.33702272248
  33
0.0
   0
MTEXT
   5
197
 100
AcDbEntity
   8
0
 370
15
  62
8
 100
AcDbMText
  10
 879.28672854153
  20
 205.01506639698
  30
0.0
  40
 10.000000000000
  41
0.0
  71
9
  72
1
   1
\A1;3.5
   7
GMM001
   0
ENDBLK
   5
198
 100
AcDbEntity
   8
0
 100
AcDbBlockEnd
   0
BLOCK
   5
199
 100
AcDbEntity
   8
0
 100
AcDbBlockBegin
   2
*D26
  70
65
  10
0.0
  20
0.0
  30
0.0
   3
*D26
   0
LINE
   5
19A
 100
AcDbEntity
   8
0
 370
15
 100
AcDbLine
   6
CONTINUOUS
  62
8
  10
 888.26841409837
  20
 223.44688840738
  30
0.0
  11
 888.26841409837
  21
 197.74763856815
  31
0.0
   0
LINE
   5
19B
 100
AcDbEntity
   8
0
 370
15
 100
AcDbLine
   6
CONTINUOUS
  62
8
  10
 943.26841409837
  20
 258.94688840738
  30
0.0
  11
 943.26841409837
  21
 197.74763856815
  31
0.0
   0
LINE
   5
19C
 100
AcDbEntity
   8
0
 370
15
 100
AcDbLine
   6
CONTINUOUS
  62
8
  10
 888.26841409837
  20
 201.74763856815
  30
0.0
  11
 915.76841409837
  21
 201.74763856815
  31
0.0
   0
LINE
   5
19D
 100
AcDbEntity
   8
0
 370
15
 100
AcDbLine
   6
CONTINUOUS
  62
8
  10
 943.26841409837
  20
 201.74763856815
  30
0.0
  11
 915.76841409837
  21
 201.74763856815
  31
0.0
   0
SOLID
   5
19E
 100
AcDbEntity
   8
0
 100
AcDbTrace
   6
CONTINUOUS
  62
8
  10
 888.26841409837
  20
 201.74763856815
  30
0.0
  11
 896.26841409837
  21
 200.33702272248
  31
0.0
  12
 896.26841409837
  22
 203.15825441382
  32
0.0
  13
 896.26841409837
  23
 203.15825441382
  33
0.0
   0
SOLID
   5
19F
 100
AcDbEntity
   8
0
 100
AcDbTrace
   6
CONTINUOUS
  62
8
  10
 943.26841409837
  20
 201.74763856815
  30
0.0
  11
 935.26841409837
  21
 203.15825441382
  31
0.0
  12
 935.26841409837
  22
 200.33702272248
  32
0.0
  13
 935.26841409837
  23
 200.33702272248
  33
0.0
   0
MTEXT
   5
1A0
 100
AcDbEntity
   8
0
 370
15
  62
8
 100
AcDbMText
  10
 915.76841409837
  20
 205.74763856815
  30
0.0
  40
 10.000000000000
  41
0.0
  71
8
  72
1
   1
\A1;L
   7
GMM001
   0
ENDBLK
   5
1A1
 100
AcDbEntity
   8
0
 100
AcDbBlockEnd
   0
BLOCK
   5
1A2
 100
AcDbEntity
   8
0
 100
AcDbBlockBegin
   2
*D27
  70
65
  10
0.0
  20
0.0
  30
0.0
   3
*D27
   0
LINE
   5
1A3
 100
AcDbEntity
   8
0
 370
15
 100
AcDbLine
   6
CONTINUOUS
  62
8
  10
 880.26841409837
  20
 225.94688840738
  30
0.0
  11
 861.75957733016
  21
 225.94688840738
  31
0.0
   0
LINE
   5
1A4
 100
AcDbEntity
   8
0
 370
15
 100
AcDbLine
   6
CONTINUOUS
  62
8
  10
 880.26841409837
  20
 270.94688840738
  30
0.0
  11
 861.75957733016
  21
 270.94688840738
  31
0.0
   0
LINE
   5
1A5
 100
AcDbEntity
   8
0
 370
15
 100
AcDbLine
   6
CONTINUOUS
  62
8
  10
 865.75957733016
  20
 225.94688840738
  30
0.0
  11
 865.75957733016
  21
 248.44688840738
  31
0.0
   0
LINE
   5
1A6
 100
AcDbEntity
   8
0
 370
15
 100
AcDbLine
   6
CONTINUOUS
  62
8
  10
 865.75957733016
  20
 270.94688840738
  30
0.0
  11
 865.75957733016
  21
 248.44688840738
  31
0.0
   0
SOLID
   5
1A7
 100
AcDbEntity
   8
0
 100
AcDbTrace
   6
CONTINUOUS
  62
8
  10
 865.75957733016
  20
 225.94688840738
  30
0.0
  11
 867.17019317582
  21
 233.94688840738
  31
0.0
  12
 864.34896148449
  22
 233.94688840738
  32
0.0
  13
 864.34896148449
  23
 233.94688840738
  33
0.0
   0
SOLID
   5
1A8
 100
AcDbEntity
   8
0
 100
AcDbTrace
   6
CONTINUOUS
  62
8
  10
 865.75957733016
  20
 270.94688840738
  30
0.0
  11
 864.34896148449
  21
 262.94688840738
  31
0.0
  12
 867.17019317582
  22
 262.94688840738
  32
0.0
  13
 867.17019317582
  23
 262.94688840738
  33
0.0
   0
MTEXT
   5
1A9
 100
AcDbEntity
   8
0
 370
15
  62
8
 100
AcDbMText
  10
 861.75957733016
  20
 248.44688840738
  30
0.0
  40
 10.000000000000
  41
0.0
  71
8
  72
1
   1
\A1;45
   7
GMM001
  11
0.0
  21
 1.0000000000000
  31
0.0
   0
ENDBLK
   5
1AA
 100
AcDbEntity
   8
0
 100
AcDbBlockEnd
   0
BLOCK
   5
1AB
 100
AcDbEntity
   8
0
 100
AcDbBlockBegin
   2
*D29
  70
65
  10
0.0
  20
0.0
  30
0.0
   3
*D29
   0
LINE
   5
1AC
 100
AcDbEntity
   8
0
 370
15
 100
AcDbLine
   6
CONTINUOUS
  62
8
  10
 479.23328116103
  20
 394.89615486025
  30
0.0
  11
 515.10946564121
  21
 394.89615486025
  31
0.0
   0
LINE
   5
1AD
 100
AcDbEntity
   8
0
 370
15
 100
AcDbLine
   6
CONTINUOUS
  62
8
  10
 479.23328116103
  20
 414.89615486025
  30
0.0
  11
 515.10946564121
  21
 414.89615486025
  31
0.0
   0
LINE
   5
1AE
 100
AcDbEntity
   8
0
 370
15
 100
AcDbLine
   6
CONTINUOUS
  62
8
  10
 511.10946564121
  20
 394.89615486025
  30
0.0
  11
 511.10946564121
  21
 404.89615486025
  31
0.0
   0
LINE
   5
1AF
 100
AcDbEntity
   8
0
 370
15
 100
AcDbLine
   6
CONTINUOUS
  62
8
  10
 511.10946564121
  20
 414.89615486025
  30
0.0
  11
 511.10946564121
  21
 404.89615486025
  31
0.0
   0
SOLID
   5
1B0
 100
AcDbEntity
   8
0
 100
AcDbTrace
   6
CONTINUOUS
  62
8
  10
 511.10946564121
  20
 394.89615486025
  30
0.0
  11
 512.52008148687
  21
 402.89615486025
  31
0.0
  12
 509.69884979554
  22
 402.89615486025
  32
0.0
  13
 509.69884979554
  23
 402.89615486025
  33
0.0
   0
SOLID
   5
1B1
 100
AcDbEntity
   8
0
 100
AcDbTrace
   6
CONTINUOUS
  62
8
  10
 511.10946564121
  20
 414.89615486025
  30
0.0
  11
 509.69884979554
  21
 406.89615486025
  31
0.0
  12
 512.52008148687
  22
 406.89615486025
  32
0.0
  13
 512.52008148687
  23
 406.89615486025
  33
0.0
   0
MTEXT
   5
1B2
 100
AcDbEntity
   8
0
 370
15
  62
8
 100
AcDbMText
  10
 507.10946564121
  20
 404.89615486025
  30
0.0
  40
 10.000000000000
  41
0.0
  71
8
  72
1
   1
\A1;20
   7
GMM001
  11
0.0
  21
 1.0000000000000
  31
0.0
   0
ENDBLK
   5
1B3
 100
AcDbEntity
   8
0
 100
AcDbBlockEnd
   0
BLOCK
   5
1B4
 100
AcDbEntity
   8
0
 100
AcDbBlockBegin
   2
*D30
  70
65
  10
0.0
  20
0.0
  30
0.0
   3
*D30
   0
LINE
   5
1B5
 100
AcDbEntity
   8
0
 370
15
 100
AcDbLine
   6
CONTINUOUS
  62
8
  10
 397.23328116103
  20
 392.89615486025
  30
0.0
  11
 397.23328116103
  21
 342.46811344487
  31
0.0
   0
LINE
   5
1B6
 100
AcDbEntity
   8
0
 370
15
 100
AcDbLine
   6
CONTINUOUS
  62
8
  10
 477.23328116103
  20
 392.89615486025
  30
0.0
  11
 477.23328116103
  21
 342.46811344487
  31
0.0
   0
LINE
   5
1B7
 100
AcDbEntity
   8
0
 370
15
 100
AcDbLine
   6
CONTINUOUS
  62
8
  10
 397.23328116103
  20
 346.46811344487
  30
0.0
  11
 437.23328116103
  21
 346.46811344487
  31
0.0
   0
LINE
   5
1B8
 100
AcDbEntity
   8
0
 370
15
 100
AcDbLine
   6
CONTINUOUS
  62
8
  10
 477.23328116103
  20
 346.46811344487
  30
0.0
  11
 437.23328116103
  21
 346.46811344487
  31
0.0
   0
SOLID
   5
1B9
 100
AcDbEntity
   8
0
 100
AcDbTrace
   6
CONTINUOUS
  62
8
  10
 397.23328116103
  20
 346.46811344487
  30
0.0
  11
 405.23328116103
  21
 345.05749759920
  31
0.0
  12
 405.23328116103
  22
 347.87872929053
  32
0.0
  13
 405.23328116103
  23
 347.87872929053
  33
0.0
   0
SOLID
   5
1BA
 100
AcDbEntity
   8
0
 100
AcDbTrace
   6
CONTINUOUS
  62
8
  10
 477.23328116103
  20
 346.46811344487
  30
0.0
  11
 469.23328116103
  21
 347.87872929053
  31
0.0
  12
 469.23328116103
  22
 345.05749759920
  32
0.0
  13
 469.23328116103
  23
 345.05749759920
  33
0.0
   0
MTEXT
   5
1BB
 100
AcDbEntity
   8
0
 370
15
  62
8
 100
AcDbMText
  10
 437.23328116103
  20
 350.46811344487
  30
0.0
  40
 10.000000000000
  41
0.0
  71
8
  72
1
   1
\A1;80
   7
GMM001
   0
ENDBLK
   5
1BC
 100
AcDbEntity
   8
0
 100
AcDbBlockEnd
   0
BLOCK
   5
1BD
 100
AcDbEntity
   8
0
 100
AcDbBlockBegin
   2
*D31
  70
65
  10
0.0
  20
0.0
  30
0.0
   3
*D31
   0
LINE
   5
1BE
 100
AcDbEntity
   8
0
 370
15
 100
AcDbLine
   6
CONTINUOUS
  62
8
  10
 407.23328116103
  20
 397.64525561246
  30
0.0
  11
 407.23328116103
  21
 364.96435404656
  31
0.0
   0
LINE
   5
1BF
 100
AcDbEntity
   8
0
 370
15
 100
AcDbLine
   6
CONTINUOUS
  62
8
  10
 467.23328116103
  20
 392.97191441113
  30
0.0
  11
 467.23328116103
  21
 364.96435404656
  31
0.0
   0
LINE
   5
1C0
 100
AcDbEntity
   8
0
 370
15
 100
AcDbLine
   6
CONTINUOUS
  62
8
  10
 407.23328116103
  20
 368.96435404656
  30
0.0
  11
 437.23328116103
  21
 368.96435404656
  31
0.0
   0
LINE
   5
1C1
 100
AcDbEntity
   8
0
 370
15
 100
AcDbLine
   6
CONTINUOUS
  62
8
  10
 467.23328116103
  20
 368.96435404656
  30
0.0
  11
 437.23328116103
  21
 368.96435404656
  31
0.0
   0
SOLID
   5
1C2
 100
AcDbEntity
   8
0
 100
AcDbTrace
   6
CONTINUOUS
  62
8
  10
 407.23328116103
  20
 368.96435404656
  30
0.0
  11
 415.23328116103
  21
 367.55373820089
  31
0.0
  12
 415.23328116103
  22
 370.37496989223
  32
0.0
  13
 415.23328116103
  23
 370.37496989223
  33
0.0
   0
SOLID
   5
1C3
 100
AcDbEntity
   8
0
 100
AcDbTrace
   6
CONTINUOUS
  62
8
  10
 467.23328116103
  20
 368.96435404656
  30
0.0
  11
 459.23328116103
  21
 370.37496989223
  31
0.0
  12
 459.23328116103
  22
 367.55373820089
  32
0.0
  13
 459.23328116103
  23
 367.55373820089
  33
0.0
   0
MTEXT
   5
1C4
 100
AcDbEntity
   8
0
 370
15
  62
8
 100
AcDbMText
  10
 437.23328116103
  20
 372.96435404656
  30
0.0
  40
 10.000000000000
  41
0.0
  71
8
  72
1
   1
\A1;60
   7
GMM001
   0
ENDBLK
   5
1C5
 100
AcDbEntity
   8
0
 100
AcDbBlockEnd
   0
BLOCK
   5
1C6
 100
AcDbEntity
   8
0
 100
AcDbBlockBegin
   2
*D32
  70
65
  10
0.0
  20
0.0
  30
0.0
   3
*D32
   0
LINE
   5
1C7
 100
AcDbEntity
   8
0
 370
15
 100
AcDbLine
   6
CONTINUOUS
  62
8
  10
 478.05073807612
  20
 952.86464123936
  30
0.0
  11
 513.92692255629
  21
 952.86464123936
  31
0.0
   0
LINE
   5
1C8
 100
AcDbEntity
   8
0
 370
15
 100
AcDbLine
   6
CONTINUOUS
  62
8
  10
 478.05073807612
  20
 972.86464123936
  30
0.0
  11
 513.92692255629
  21
 972.86464123936
  31
0.0
   0
LINE
   5
1C9
 100
AcDbEntity
   8
0
 370
15
 100
AcDbLine
   6
CONTINUOUS
  62
8
  10
 509.92692255629
  20
 952.86464123936
  30
0.0
  11
 509.92692255629
  21
 962.86464123936
  31
0.0
   0
LINE
   5
1CA
 100
AcDbEntity
   8
0
 370
15
 100
AcDbLine
   6
CONTINUOUS
  62
8
  10
 509.92692255629
  20
 972.86464123936
  30
0.0
  11
 509.92692255629
  21
 962.86464123936
  31
0.0
   0
SOLID
   5
1CB
 100
AcDbEntity
   8
0
 100
AcDbTrace
   6
CONTINUOUS
  62
8
  10
 509.92692255629
  20
 952.86464123936
  30
0.0
  11
 511.33753840196
  21
 960.86464123936
  31
0.0
  12
 508.51630671062
  22
 960.86464123936
  32
0.0
  13
 508.51630671062
  23
 960.86464123936
  33
0.0
   0
SOLID
   5
1CC
 100
AcDbEntity
   8
0
 100
AcDbTrace
   6
CONTINUOUS
  62
8
  10
 509.92692255629
  20
 972.86464123936
  30
0.0
  11
 508.51630671062
  21
 964.86464123936
  31
0.0
  12
 511.33753840196
  22
 964.86464123936
  32
0.0
  13
 511.33753840196
  23
 964.86464123936
  33
0.0
   0
MTEXT
   5
1CD
 100
AcDbEntity
   8
0
 370
15
  62
8
 100
AcDbMText
  10
 505.92692255629
  20
 962.86464123936
  30
0.0
  40
 10.000000000000
  41
0.0
  71
8
  72
1
   1
\A1;20
   7
GMM001
  11
0.0
  21
 1.0000000000000
  31
0.0
   0
ENDBLK
   5
1CE
 100
AcDbEntity
   8
0
 100
AcDbBlockEnd
   0
BLOCK
   5
1CF
 100
AcDbEntity
   8
0
 100
AcDbBlockBegin
   2
*D33
  70
65
  10
0.0
  20
0.0
  30
0.0
   3
*D33
   0
LINE
   5
1D0
 100
AcDbEntity
   8
0
 370
15
 100
AcDbLine
   6
CONTINUOUS
  62
8
  10
 396.05073807612
  20
 950.86464123936
  30
0.0
  11
 396.05073807612
  21
 900.43659982398
  31
0.0
   0
LINE
   5
1D1
 100
AcDbEntity
   8
0
 370
15
 100
AcDbLine
   6
CONTINUOUS
  62
8
  10
 476.05073807612
  20
 950.86464123936
  30
0.0
  11
 476.05073807612
  21
 900.43659982398
  31
0.0
   0
LINE
   5
1D2
 100
AcDbEntity
   8
0
 370
15
 100
AcDbLine
   6
CONTINUOUS
  62
8
  10
 396.05073807612
  20
 904.43659982398
  30
0.0
  11
 436.05073807612
  21
 904.43659982398
  31
0.0
   0
LINE
   5
1D3
 100
AcDbEntity
   8
0
 370
15
 100
AcDbLine
   6
CONTINUOUS
  62
8
  10
 476.05073807612
  20
 904.43659982398
  30
0.0
  11
 436.05073807612
  21
 904.43659982398
  31
0.0
   0
SOLID
   5
1D4
 100
AcDbEntity
   8
0
 100
AcDbTrace
   6
CONTINUOUS
  62
8
  10
 396.05073807612
  20
 904.43659982398
  30
0.0
  11
 404.05073807612
  21
 903.02598397831
  31
0.0
  12
 404.05073807612
  22
 905.84721566965
  32
0.0
  13
 404.05073807612
  23
 905.84721566965
  33
0.0
   0
SOLID
   5
1D5
 100
AcDbEntity
   8
0
 100
AcDbTrace
   6
CONTINUOUS
  62
8
  10
 476.05073807612
  20
 904.43659982398
  30
0.0
  11
 468.05073807612
  21
 905.84721566965
  31
0.0
  12
 468.05073807612
  22
 903.02598397831
  32
0.0
  13
 468.05073807612
  23
 903.02598397831
  33
0.0
   0
MTEXT
   5
1D6
 100
AcDbEntity
   8
0
 370
15
  62
8
 100
AcDbMText
  10
 436.05073807612
  20
 908.43659982398
  30
0.0
  40
 10.000000000000
  41
0.0
  71
8
  72
1
   1
\A1;80
   7
GMM001
   0
ENDBLK
   5
1D7
 100
AcDbEntity
   8
0
 100
AcDbBlockEnd
   0
BLOCK
   5
1D8
 100
AcDbEntity
   8
0
 100
AcDbBlockBegin
   2
*D34
  70
65
  10
0.0
  20
0.0
  30
0.0
   3
*D34
   0
LINE
   5
1D9
 100
AcDbEntity
   8
0
 370
15
 100
AcDbLine
   6
CONTINUOUS
  62
8
  10
 406.05073807612
  20
 955.61374199157
  30
0.0
  11
 406.05073807612
  21
 922.93284042567
  31
0.0
   0
LINE
   5
1DA
 100
AcDbEntity
   8
0
 370
15
 100
AcDbLine
   6
CONTINUOUS
  62
8
  10
 466.05073807612
  20
 950.94040079024
  30
0.0
  11
 466.05073807612
  21
 922.93284042567
  31
0.0
   0
LINE
   5
1DB
 100
AcDbEntity
   8
0
 370
15
 100
AcDbLine
   6
CONTINUOUS
  62
8
  10
 406.05073807612
  20
 926.93284042567
  30
0.0
  11
 436.05073807612
  21
 926.93284042567
  31
0.0
   0
LINE
   5
1DC
 100
AcDbEntity
   8
0
 370
15
 100
AcDbLine
   6
CONTINUOUS
  62
8
  10
 466.05073807612
  20
 926.93284042567
  30
0.0
  11
 436.05073807612
  21
 926.93284042567
  31
0.0
   0
SOLID
   5
1DD
 100
AcDbEntity
   8
0
 100
AcDbTrace
   6
CONTINUOUS
  62
8
  10
 406.05073807612
  20
 926.93284042567
  30
0.0
  11
 414.05073807612
  21
 925.52222458000
  31
0.0
  12
 414.05073807612
  22
 928.34345627134
  32
0.0
  13
 414.05073807612
  23
 928.34345627134
  33
0.0
   0
SOLID
   5
1DE
 100
AcDbEntity
   8
0
 100
AcDbTrace
   6
CONTINUOUS
  62
8
  10
 466.05073807612
  20
 926.93284042567
  30
0.0
  11
 458.05073807612
  21
 928.34345627134
  31
0.0
  12
 458.05073807612
  22
 925.52222458000
  32
0.0
  13
 458.05073807612
  23
 925.52222458000
  33
0.0
   0
MTEXT
   5
1DF
 100
AcDbEntity
   8
0
 370
15
  62
8
 100
AcDbMText
  10
 436.05073807612
  20
 930.93284042567
  30
0.0
  40
 10.000000000000
  41
0.0
  71
8
  72
1
   1
\A1;60
   7
GMM001
   0
ENDBLK
   5
1E0
 100
AcDbEntity
   8
0
 100
AcDbBlockEnd
   0
BLOCK
   5
1E1
 100
AcDbEntity
   8
0
 100
AcDbBlockBegin
   2
*D35
  70
65
  10
0.0
  20
0.0
  30
0.0
   3
*D35
   0
LINE
   5
1E2
 100
AcDbEntity
   8
0
 370
15
 100
AcDbLine
   6
CONTINUOUS
  62
8
  10
 481.23328116102
  20
 283.44688840742
  30
0.0
  11
 515.10946564120
  21
 283.44688840742
  31
0.0
   0
LINE
   5
1E3
 100
AcDbEntity
   8
0
 370
15
 100
AcDbLine
   6
CONTINUOUS
  62
8
  10
 481.23328116102
  20
 285.94688840742
  30
0.0
  11
 515.10946564120
  21
 285.94688840742
  31
0.0
   0
LINE
   5
1E4
 100
AcDbEntity
   8
0
 370
15
 100
AcDbLine
   6
CONTINUOUS
  62
8
  10
 511.10946564120
  20
 273.44688840742
  30
0.0
  11
 511.10946564120
  21
 284.69688840742
  31
0.0
   0
LINE
   5
1E5
 100
AcDbEntity
   8
0
 370
15
 100
AcDbLine
   6
CONTINUOUS
  62
8
  10
 511.10946564120
  20
 316.82233232497
  30
0.0
  11
 511.10946564120
  21
 284.69688840742
  31
0.0
   0
SOLID
   5
1E6
 100
AcDbEntity
   8
0
 100
AcDbTrace
   6
CONTINUOUS
  62
8
  10
 511.10946564120
  20
 283.44688840742
  30
0.0
  11
 509.69884979553
  21
 275.44688840742
  31
0.0
  12
 512.52008148686
  22
 275.44688840742
  32
0.0
  13
 512.52008148686
  23
 275.44688840742
  33
0.0
   0
SOLID
   5
1E7
 100
AcDbEntity
   8
0
 100
AcDbTrace
   6
CONTINUOUS
  62
8
  10
 511.10946564120
  20
 285.94688840742
  30
0.0
  11
 512.52008148686
  21
 293.94688840742
  31
0.0
  12
 509.69884979553
  22
 293.94688840742
  32
0.0
  13
 509.69884979553
  23
 293.94688840742
  33
0.0
   0
MTEXT
   5
1E8
 100
AcDbEntity
   8
0
 370
15
  62
8
 100
AcDbMText
  10
 506.69843807224
  20
 294.82233232497
  30
0.0
  40
 10.000000000000
  41
0.0
  71
7
  72
1
   1
\A1;2.5
   7
GMM001
  11
0.0
  21
 1.0000000000000
  31
0.0
   0
ENDBLK
   5
1E9
 100
AcDbEntity
   8
0
 100
AcDbBlockEnd
   0
BLOCK
   5
1EA
 100
AcDbEntity
   8
0
 100
AcDbBlockBegin
   2
*D36
  70
65
  10
0.0
  20
0.0
  30
0.0
   3
*D36
   0
LINE
   5
1EB
 100
AcDbEntity
   8
0
 370
15
 100
AcDbLine
   6
CONTINUOUS
  62
8
  10
 397.23328116102
  20
 289.94688840742
  30
0.0
  11
 397.23328116102
  21
 309.94688840742
  31
0.0
   0
LINE
   5
1EC
 100
AcDbEntity
   8
0
 370
15
 100
AcDbLine
   6
CONTINUOUS
  62
8
  10
 477.23328116102
  20
 289.94688840742
  30
0.0
  11
 477.23328116102
  21
 309.94688840742
  31
0.0
   0
LINE
   5
1ED
 100
AcDbEntity
   8
0
 370
15
 100
AcDbLine
   6
CONTINUOUS
  62
8
  10
 397.23328116102
  20
 305.94688840742
  30
0.0
  11
 437.23328116102
  21
 305.94688840742
  31
0.0
   0
LINE
   5
1EE
 100
AcDbEntity
   8
0
 370
15
 100
AcDbLine
   6
CONTINUOUS
  62
8
  10
 477.23328116102
  20
 305.94688840742
  30
0.0
  11
 437.23328116102
  21
 305.94688840742
  31
0.0
   0
SOLID
   5
1EF
 100
AcDbEntity
   8
0
 100
AcDbTrace
   6
CONTINUOUS
  62
8
  10
 397.23328116102
  20
 305.94688840742
  30
0.0
  11
 405.23328116102
  21
 304.53627256175
  31
0.0
  12
 405.23328116102
  22
 307.35750425309
  32
0.0
  13
 405.23328116102
  23
 307.35750425309
  33
0.0
   0
SOLID
   5
1F0
 100
AcDbEntity
   8
0
 100
AcDbTrace
   6
CONTINUOUS
  62
8
  10
 477.23328116102
  20
 305.94688840742
  30
0.0
  11
 469.23328116102
  21
 307.35750425309
  31
0.0
  12
 469.23328116102
  22
 304.53627256175
  32
0.0
  13
 469.23328116102
  23
 304.53627256175
  33
0.0
   0
MTEXT
   5
1F1
 100
AcDbEntity
   8
0
 370
15
  62
8
 100
AcDbMText
  10
 437.23328116102
  20
 309.94688840742
  30
0.0
  40
 10.000000000000
  41
0.0
  71
8
  72
1
   1
\A1;80
   7
GMM001
   0
ENDBLK
   5
1F2
 100
AcDbEntity
   8
0
 100
AcDbBlockEnd
   0
BLOCK
   5
1F3
 100
AcDbEntity
   8
0
 100
AcDbBlockBegin
   2
*D37
  70
65
  10
0.0
  20
0.0
  30
0.0
   3
*D37
   0
LINE
   5
1F4
 100
AcDbEntity
   8
0
 370
15
 100
AcDbLine
   6
CONTINUOUS
  62
8
  10
 480.05073807611
  20
 841.41537478653
  30
0.0
  11
 513.92692255628
  21
 841.41537478653
  31
0.0
   0
LINE
   5
1F5
 100
AcDbEntity
   8
0
 370
15
 100
AcDbLine
   6
CONTINUOUS
  62
8
  10
 480.05073807611
  20
 843.91537478653
  30
0.0
  11
 513.92692255628
  21
 843.91537478653
  31
0.0
   0
LINE
   5
1F6
 100
AcDbEntity
   8
0
 370
15
 100
AcDbLine
   6
CONTINUOUS
  62
8
  10
 509.92692255628
  20
 831.41537478653
  30
0.0
  11
 509.92692255628
  21
 842.66537478653
  31
0.0
   0
LINE
   5
1F7
 100
AcDbEntity
   8
0
 370
15
 100
AcDbLine
   6
CONTINUOUS
  62
8
  10
 509.92692255628
  20
 874.79081870408
  30
0.0
  11
 509.92692255628
  21
 842.66537478653
  31
0.0
   0
SOLID
   5
1F8
 100
AcDbEntity
   8
0
 100
AcDbTrace
   6
CONTINUOUS
  62
8
  10
 509.92692255628
  20
 841.41537478653
  30
0.0
  11
 508.51630671061
  21
 833.41537478653
  31
0.0
  12
 511.33753840195
  22
 833.41537478653
  32
0.0
  13
 511.33753840195
  23
 833.41537478653
  33
0.0
   0
SOLID
   5
1F9
 100
AcDbEntity
   8
0
 100
AcDbTrace
   6
CONTINUOUS
  62
8
  10
 509.92692255628
  20
 843.91537478653
  30
0.0
  11
 511.33753840195
  21
 851.91537478653
  31
0.0
  12
 508.51630671061
  22
 851.91537478653
  32
0.0
  13
 508.51630671061
  23
 851.91537478653
  33
0.0
   0
MTEXT
   5
1FA
 100
AcDbEntity
   8
0
 370
15
  62
8
 100
AcDbMText
  10
 505.51589498732
  20
 852.79081870408
  30
0.0
  40
 10.000000000000
  41
0.0
  71
7
  72
1
   1
\A1;2.5
   7
GMM001
  11
0.0
  21
 1.0000000000000
  31
0.0
   0
ENDBLK
   5
1FB
 100
AcDbEntity
   8
0
 100
AcDbBlockEnd
   0
BLOCK
   5
1FC
 100
AcDbEntity
   8
0
 100
AcDbBlockBegin
   2
*D38
  70
65
  10
0.0
  20
0.0
  30
0.0
   3
*D38
   0
LINE
   5
1FD
 100
AcDbEntity
   8
0
 370
15
 100
AcDbLine
   6
CONTINUOUS
  62
8
  10
 396.05073807611
  20
 847.91537478653
  30
0.0
  11
 396.05073807611
  21
 867.91537478653
  31
0.0
   0
LINE
   5
1FE
 100
AcDbEntity
   8
0
 370
15
 100
AcDbLine
   6
CONTINUOUS
  62
8
  10
 476.05073807611
  20
 847.91537478653
  30
0.0
  11
 476.05073807611
  21
 867.91537478653
  31
0.0
   0
LINE
   5
1FF
 100
AcDbEntity
   8
0
 370
15
 100
AcDbLine
   6
CONTINUOUS
  62
8
  10
 396.05073807611
  20
 863.91537478653
  30
0.0
  11
 436.05073807611
  21
 863.91537478653
  31
0.0
   0
LINE
   5
200
 100
AcDbEntity
   8
0
 370
15
 100
AcDbLine
   6
CONTINUOUS
  62
8
  10
 476.05073807611
  20
 863.91537478653
  30
0.0
  11
 436.05073807611
  21
 863.91537478653
  31
0.0
   0
SOLID
   5
201
 100
AcDbEntity
   8
0
 100
AcDbTrace
   6
CONTINUOUS
  62
8
  10
 396.05073807611
  20
 863.91537478653
  30
0.0
  11
 404.05073807611
  21
 862.50475894086
  31
0.0
  12
 404.05073807611
  22
 865.32599063220
  32
0.0
  13
 404.05073807611
  23
 865.32599063220
  33
0.0
   0
SOLID
   5
202
 100
AcDbEntity
   8
0
 100
AcDbTrace
   6
CONTINUOUS
  62
8
  10
 476.05073807611
  20
 863.91537478653
  30
0.0
  11
 468.05073807611
  21
 865.32599063220
  31
0.0
  12
 468.05073807611
  22
 862.50475894086
  32
0.0
  13
 468.05073807611
  23
 862.50475894086
  33
0.0
   0
MTEXT
   5
203
 100
AcDbEntity
   8
0
 370
15
  62
8
 100
AcDbMText
  10
 436.05073807611
  20
 867.91537478653
  30
0.0
  40
 10.000000000000
  41
0.0
  71
8
  72
1
   1
\A1;80
   7
GMM001
   0
ENDBLK
   5
204
 100
AcDbEntity
   8
0
 100
AcDbBlockEnd
   0
BLOCK
   5
205
 100
AcDbEntity
   8
0
 100
AcDbBlockBegin
   2
*D39
  70
65
  10
0.0
  20
0.0
  30
0.0
   3
*D39
   0
LINE
   5
206
 100
AcDbEntity
   8
0
 370
15
 100
AcDbLine
   6
CONTINUOUS
  62
8
  10
 327.78267631368
  20
 289.94688840742
  30
0.0
  11
 327.78267631368
  21
 309.94688840742
  31
0.0
   0
LINE
   5
207
 100
AcDbEntity
   8
0
 370
15
 100
AcDbLine
   6
CONTINUOUS
  62
8
  10
 347.78267631368
  20
 289.94688840742
  30
0.0
  11
 347.78267631368
  21
 309.94688840742
  31
0.0
   0
LINE
   5
208
 100
AcDbEntity
   8
0
 370
15
 100
AcDbLine
   6
CONTINUOUS
  62
8
  10
 327.78267631368
  20
 305.94688840742
  30
0.0
  11
 337.78267631368
  21
 305.94688840742
  31
0.0
   0
LINE
   5
209
 100
AcDbEntity
   8
0
 370
15
 100
AcDbLine
   6
CONTINUOUS
  62
8
  10
 347.78267631368
  20
 305.94688840742
  30
0.0
  11
 337.78267631368
  21
 305.94688840742
  31
0.0
   0
SOLID
   5
20A
 100
AcDbEntity
   8
0
 100
AcDbTrace
   6
CONTINUOUS
  62
8
  10
 327.78267631368
  20
 305.94688840742
  30
0.0
  11
 335.78267631368
  21
 304.53627256175
  31
0.0
  12
 335.78267631368
  22
 307.35750425309
  32
0.0
  13
 335.78267631368
  23
 307.35750425309
  33
0.0
   0
SOLID
   5
20B
 100
AcDbEntity
   8
0
 100
AcDbTrace
   6
CONTINUOUS
  62
8
  10
 347.78267631368
  20
 305.94688840742
  30
0.0
  11
 339.78267631368
  21
 307.35750425309
  31
0.0
  12
 339.78267631368
  22
 304.53627256175
  32
0.0
  13
 339.78267631368
  23
 304.53627256175
  33
0.0
   0
MTEXT
   5
20C
 100
AcDbEntity
   8
0
 370
15
  62
8
 100
AcDbMText
  10
 337.78267631368
  20
 309.94688840742
  30
0.0
  40
 10.000000000000
  41
0.0
  71
8
  72
1
   1
\A1;20
   7
GMM001
   0
ENDBLK
   5
20D
 100
AcDbEntity
   8
0
 100
AcDbBlockEnd
   0
BLOCK
   5
20E
 100
AcDbEntity
   8
0
 100
AcDbBlockBegin
   2
*D40
  70
65
  10
0.0
  20
0.0
  30
0.0
   3
*D40
   0
LINE
   5
20F
 100
AcDbEntity
   8
0
 370
15
 100
AcDbLine
   6
CONTINUOUS
  62
8
  10
 326.60013322876
  20
 847.91537478653
  30
0.0
  11
 326.60013322876
  21
 867.91537478653
  31
0.0
   0
LINE
   5
210
 100
AcDbEntity
   8
0
 370
15
 100
AcDbLine
   6
CONTINUOUS
  62
8
  10
 346.60013322876
  20
 847.91537478653
  30
0.0
  11
 346.60013322876
  21
 867.91537478653
  31
0.0
   0
LINE
   5
211
 100
AcDbEntity
   8
0
 370
15
 100
AcDbLine
   6
CONTINUOUS
  62
8
  10
 326.60013322876
  20
 863.91537478653
  30
0.0
  11
 336.60013322876
  21
 863.91537478653
  31
0.0
   0
LINE
   5
212
 100
AcDbEntity
   8
0
 370
15
 100
AcDbLine
   6
CONTINUOUS
  62
8
  10
 346.60013322876
  20
 863.91537478653
  30
0.0
  11
 336.60013322876
  21
 863.91537478653
  31
0.0
   0
SOLID
   5
213
 100
AcDbEntity
   8
0
 100
AcDbTrace
   6
CONTINUOUS
  62
8
  10
 326.60013322876
  20
 863.91537478653
  30
0.0
  11
 334.60013322876
  21
 862.50475894086
  31
0.0
  12
 334.60013322876
  22
 865.32599063220
  32
0.0
  13
 334.60013322876
  23
 865.32599063220
  33
0.0
   0
SOLID
   5
214
 100
AcDbEntity
   8
0
 100
AcDbTrace
   6
CONTINUOUS
  62
8
  10
 346.60013322876
  20
 863.91537478653
  30
0.0
  11
 338.60013322876
  21
 865.32599063220
  31
0.0
  12
 338.60013322876
  22
 862.50475894086
  32
0.0
  13
 338.60013322876
  23
 862.50475894086
  33
0.0
   0
MTEXT
   5
215
 100
AcDbEntity
   8
0
 370
15
  62
8
 100
AcDbMText
  10
 336.60013322876
  20
 867.91537478653
  30
0.0
  40
 10.000000000000
  41
0.0
  71
8
  72
1
   1
\A1;20
   7
GMM001
   0
ENDBLK
   5
216
 100
AcDbEntity
   8
0
 100
AcDbBlockEnd
   0
BLOCK
   5
217
 100
AcDbEntity
   8
0
 100
AcDbBlockBegin
   2
*D41
  70
65
  10
0.0
  20
0.0
  30
0.0
   3
*D41
   0
LINE
   5
218
 100
AcDbEntity
   8
0
 370
15
 100
AcDbLine
   6
CONTINUOUS
  62
8
  10
 1002.7190189457
  20
 390.39615486021
  30
0.0
  11
 1002.7190189457
  21
 343.59349721802
  31
0.0
   0
LINE
   5
219
 100
AcDbEntity
   8
0
 370
15
 100
AcDbLine
   6
CONTINUOUS
  62
8
  10
 1082.7190189457
  20
 390.39615486021
  30
0.0
  11
 1082.7190189457
  21
 343.59349721802
  31
0.0
   0
LINE
   5
21A
 100
AcDbEntity
   8
0
 370
15
 100
AcDbLine
   6
CONTINUOUS
  62
8
  10
 1002.7190189457
  20
 347.59349721802
  30
0.0
  11
 1042.7190189457
  21
 347.59349721802
  31
0.0
   0
LINE
   5
21B
 100
AcDbEntity
   8
0
 370
15
 100
AcDbLine
   6
CONTINUOUS
  62
8
  10
 1082.7190189457
  20
 347.59349721802
  30
0.0
  11
 1042.7190189457
  21
 347.59349721802
  31
0.0
   0
SOLID
   5
21C
 100
AcDbEntity
   8
0
 100
AcDbTrace
   6
CONTINUOUS
  62
8
  10
 1002.7190189457
  20
 347.59349721802
  30
0.0
  11
 1010.7190189457
  21
 346.18288137235
  31
0.0
  12
 1010.7190189457
  22
 349.00411306369
  32
0.0
  13
 1010.7190189457
  23
 349.00411306369
  33
0.0
   0
SOLID
   5
21D
 100
AcDbEntity
   8
0
 100
AcDbTrace
   6
CONTINUOUS
  62
8
  10
 1082.7190189457
  20
 347.59349721802
  30
0.0
  11
 1074.7190189457
  21
 349.00411306369
  31
0.0
  12
 1074.7190189457
  22
 346.18288137235
  32
0.0
  13
 1074.7190189457
  23
 346.18288137235
  33
0.0
   0
MTEXT
   5
21E
 100
AcDbEntity
   8
0
 370
15
  62
8
 100
AcDbMText
  10
 1042.7190189457
  20
 351.59349721802
  30
0.0
  40
 10.000000000000
  41
0.0
  71
8
  72
1
   1
\A1;80
   7
GMM001
   0
ENDBLK
   5
21F
 100
AcDbEntity
   8
0
 100
AcDbBlockEnd
   0
BLOCK
   5
220
 100
AcDbEntity
   8
0
 100
AcDbBlockBegin
   2
*D42
  70
65
  10
0.0
  20
0.0
  30
0.0
   3
*D42
   0
LINE
   5
221
 100
AcDbEntity
   8
0
 370
15
 100
AcDbLine
   6
CONTINUOUS
  62
8
  10
 1012.7190189457
  20
 399.37870740803
  30
0.0
  11
 1012.7190189457
  21
 366.08973781971
  31
0.0
   0
LINE
   5
222
 100
AcDbEntity
   8
0
 370
15
 100
AcDbLine
   6
CONTINUOUS
  62
8
  10
 1072.7190189457
  20
 389.37870740803
  30
0.0
  11
 1072.7190189457
  21
 366.08973781971
  31
0.0
   0
LINE
   5
223
 100
AcDbEntity
   8
0
 370
15
 100
AcDbLine
   6
CONTINUOUS
  62
8
  10
 1012.7190189457
  20
 370.08973781971
  30
0.0
  11
 1042.7190189457
  21
 370.08973781971
  31
0.0
   0
LINE
   5
224
 100
AcDbEntity
   8
0
 370
15
 100
AcDbLine
   6
CONTINUOUS
  62
8
  10
 1072.7190189457
  20
 370.08973781971
  30
0.0
  11
 1042.7190189457
  21
 370.08973781971
  31
0.0
   0
SOLID
   5
225
 100
AcDbEntity
   8
0
 100
AcDbTrace
   6
CONTINUOUS
  62
8
  10
 1012.7190189457
  20
 370.08973781971
  30
0.0
  11
 1020.7190189457
  21
 368.67912197405
  31
0.0
  12
 1020.7190189457
  22
 371.50035366538
  32
0.0
  13
 1020.7190189457
  23
 371.50035366538
  33
0.0
   0
SOLID
   5
226
 100
AcDbEntity
   8
0
 100
AcDbTrace
   6
CONTINUOUS
  62
8
  10
 1072.7190189457
  20
 370.08973781971
  30
0.0
  11
 1064.7190189457
  21
 371.50035366538
  31
0.0
  12
 1064.7190189457
  22
 368.67912197405
  32
0.0
  13
 1064.7190189457
  23
 368.67912197405
  33
0.0
   0
MTEXT
   5
227
 100
AcDbEntity
   8
0
 370
15
  62
8
 100
AcDbMText
  10
 1042.7190189457
  20
 374.08973781971
  30
0.0
  40
 10.000000000000
  41
0.0
  71
8
  72
1
   1
\A1;60
   7
GMM001
   0
ENDBLK
   5
228
 100
AcDbEntity
   8
0
 100
AcDbBlockEnd
   0
BLOCK
   5
229
 100
AcDbEntity
   8
0
 100
AcDbBlockBegin
   2
*D43
  70
65
  10
0.0
  20
0.0
  30
0.0
   3
*D43
   0
LINE
   5
22A
 100
AcDbEntity
   8
0
 370
15
 100
AcDbLine
   6
CONTINUOUS
  62
8
  10
 1084.7190189457
  20
 392.39615486021
  30
0.0
  11
 1120.5952034259
  21
 392.39615486021
  31
0.0
   0
LINE
   5
22B
 100
AcDbEntity
   8
0
 370
15
 100
AcDbLine
   6
CONTINUOUS
  62
8
  10
 1084.7190189457
  20
 417.39615486021
  30
0.0
  11
 1120.5952034259
  21
 417.39615486021
  31
0.0
   0
LINE
   5
22C
 100
AcDbEntity
   8
0
 370
15
 100
AcDbLine
   6
CONTINUOUS
  62
8
  10
 1116.5952034259
  20
 392.39615486021
  30
0.0
  11
 1116.5952034259
  21
 404.89615486021
  31
0.0
   0
LINE
   5
22D
 100
AcDbEntity
   8
0
 370
15
 100
AcDbLine
   6
CONTINUOUS
  62
8
  10
 1116.5952034259
  20
 417.39615486021
  30
0.0
  11
 1116.5952034259
  21
 404.89615486021
  31
0.0
   0
SOLID
   5
22E
 100
AcDbEntity
   8
0
 100
AcDbTrace
   6
CONTINUOUS
  62
8
  10
 1116.5952034259
  20
 392.39615486021
  30
0.0
  11
 1118.0058192716
  21
 400.39615486021
  31
0.0
  12
 1115.1845875802
  22
 400.39615486021
  32
0.0
  13
 1115.1845875802
  23
 400.39615486021
  33
0.0
   0
SOLID
   5
22F
 100
AcDbEntity
   8
0
 100
AcDbTrace
   6
CONTINUOUS
  62
8
  10
 1116.5952034259
  20
 417.39615486021
  30
0.0
  11
 1115.1845875802
  21
 409.39615486021
  31
0.0
  12
 1118.0058192716
  22
 409.39615486021
  32
0.0
  13
 1118.0058192716
  23
 409.39615486021
  33
0.0
   0
MTEXT
   5
230
 100
AcDbEntity
   8
0
 370
15
  62
8
 100
AcDbMText
  10
 1112.5952034259
  20
 404.89615486021
  30
0.0
  40
 10.000000000000
  41
0.0
  71
8
  72
1
   1
\A1;25
   7
GMM001
  11
0.0
  21
 1.0000000000000
  31
0.0
   0
ENDBLK
   5
231
 100
AcDbEntity
   8
0
 100
AcDbBlockEnd
   0
BLOCK
   5
232
 100
AcDbEntity
   8
0
 100
AcDbBlockBegin
   2
*D44
  70
65
  10
0.0
  20
0.0
  30
0.0
   3
*D44
   0
LINE
   5
233
 100
AcDbEntity
   8
0
 370
15
 100
AcDbLine
   6
CONTINUOUS
  62
8
  10
 999.05073807616
  20
 948.36464123947
  30
0.0
  11
 999.05073807616
  21
 901.56198359728
  31
0.0
   0
LINE
   5
234
 100
AcDbEntity
   8
0
 370
15
 100
AcDbLine
   6
CONTINUOUS
  62
8
  10
 1079.0507380762
  20
 948.36464123947
  30
0.0
  11
 1079.0507380762
  21
 901.56198359728
  31
0.0
   0
LINE
   5
235
 100
AcDbEntity
   8
0
 370
15
 100
AcDbLine
   6
CONTINUOUS
  62
8
  10
 999.05073807616
  20
 905.56198359728
  30
0.0
  11
 1039.0507380762
  21
 905.56198359728
  31
0.0
   0
LINE
   5
236
 100
AcDbEntity
   8
0
 370
15
 100
AcDbLine
   6
CONTINUOUS
  62
8
  10
 1079.0507380762
  20
 905.56198359728
  30
0.0
  11
 1039.0507380762
  21
 905.56198359728
  31
0.0
   0
SOLID
   5
237
 100
AcDbEntity
   8
0
 100
AcDbTrace
   6
CONTINUOUS
  62
8
  10
 999.05073807616
  20
 905.56198359728
  30
0.0
  11
 1007.0507380762
  21
 904.15136775161
  31
0.0
  12
 1007.0507380762
  22
 906.97259944295
  32
0.0
  13
 1007.0507380762
  23
 906.97259944295
  33
0.0
   0
SOLID
   5
238
 100
AcDbEntity
   8
0
 100
AcDbTrace
   6
CONTINUOUS
  62
8
  10
 1079.0507380762
  20
 905.56198359728
  30
0.0
  11
 1071.0507380762
  21
 906.97259944295
  31
0.0
  12
 1071.0507380762
  22
 904.15136775161
  32
0.0
  13
 1071.0507380762
  23
 904.15136775161
  33
0.0
   0
MTEXT
   5
239
 100
AcDbEntity
   8
0
 370
15
  62
8
 100
AcDbMText
  10
 1039.0507380762
  20
 909.56198359728
  30
0.0
  40
 10.000000000000
  41
0.0
  71
8
  72
1
   1
\A1;80
   7
GMM001
   0
ENDBLK
   5
23A
 100
AcDbEntity
   8
0
 100
AcDbBlockEnd
   0
BLOCK
   5
23B
 100
AcDbEntity
   8
0
 100
AcDbBlockBegin
   2
*D45
  70
65
  10
0.0
  20
0.0
  30
0.0
   3
*D45
   0
LINE
   5
23C
 100
AcDbEntity
   8
0
 370
15
 100
AcDbLine
   6
CONTINUOUS
  62
8
  10
 1009.0507380762
  20
 957.34719378729
  30
0.0
  11
 1009.0507380762
  21
 924.05822419897
  31
0.0
   0
LINE
   5
23D
 100
AcDbEntity
   8
0
 370
15
 100
AcDbLine
   6
CONTINUOUS
  62
8
  10
 1069.0507380762
  20
 947.34719378729
  30
0.0
  11
 1069.0507380762
  21
 924.05822419897
  31
0.0
   0
LINE
   5
23E
 100
AcDbEntity
   8
0
 370
15
 100
AcDbLine
   6
CONTINUOUS
  62
8
  10
 1009.0507380762
  20
 928.05822419897
  30
0.0
  11
 1039.0507380762
  21
 928.05822419897
  31
0.0
   0
LINE
   5
23F
 100
AcDbEntity
   8
0
 370
15
 100
AcDbLine
   6
CONTINUOUS
  62
8
  10
 1069.0507380762
  20
 928.05822419897
  30
0.0
  11
 1039.0507380762
  21
 928.05822419897
  31
0.0
   0
SOLID
   5
240
 100
AcDbEntity
   8
0
 100
AcDbTrace
   6
CONTINUOUS
  62
8
  10
 1009.0507380762
  20
 928.05822419897
  30
0.0
  11
 1017.0507380762
  21
 926.64760835331
  31
0.0
  12
 1017.0507380762
  22
 929.46884004464
  32
0.0
  13
 1017.0507380762
  23
 929.46884004464
  33
0.0
   0
SOLID
   5
241
 100
AcDbEntity
   8
0
 100
AcDbTrace
   6
CONTINUOUS
  62
8
  10
 1069.0507380762
  20
 928.05822419897
  30
0.0
  11
 1061.0507380762
  21
 929.46884004464
  31
0.0
  12
 1061.0507380762
  22
 926.64760835331
  32
0.0
  13
 1061.0507380762
  23
 926.64760835331
  33
0.0
   0
MTEXT
   5
242
 100
AcDbEntity
   8
0
 370
15
  62
8
 100
AcDbMText
  10
 1039.0507380762
  20
 932.05822419897
  30
0.0
  40
 10.000000000000
  41
0.0
  71
8
  72
1
   1
\A1;60
   7
GMM001
   0
ENDBLK
   5
243
 100
AcDbEntity
   8
0
 100
AcDbBlockEnd
   0
BLOCK
   5
244
 100
AcDbEntity
   8
0
 100
AcDbBlockBegin
   2
*D46
  70
65
  10
0.0
  20
0.0
  30
0.0
   3
*D46
   0
LINE
   5
245
 100
AcDbEntity
   8
0
 370
15
 100
AcDbLine
   6
CONTINUOUS
  62
8
  10
 1081.0507380762
  20
 950.36464123947
  30
0.0
  11
 1116.9269225563
  21
 950.36464123947
  31
0.0
   0
LINE
   5
246
 100
AcDbEntity
   8
0
 370
15
 100
AcDbLine
   6
CONTINUOUS
  62
8
  10
 1081.0507380762
  20
 975.36464123947
  30
0.0
  11
 1116.9269225563
  21
 975.36464123947
  31
0.0
   0
LINE
   5
247
 100
AcDbEntity
   8
0
 370
15
 100
AcDbLine
   6
CONTINUOUS
  62
8
  10
 1112.9269225563
  20
 950.36464123947
  30
0.0
  11
 1112.9269225563
  21
 962.86464123947
  31
0.0
   0
LINE
   5
248
 100
AcDbEntity
   8
0
 370
15
 100
AcDbLine
   6
CONTINUOUS
  62
8
  10
 1112.9269225563
  20
 975.36464123947
  30
0.0
  11
 1112.9269225563
  21
 962.86464123947
  31
0.0
   0
SOLID
   5
249
 100
AcDbEntity
   8
0
 100
AcDbTrace
   6
CONTINUOUS
  62
8
  10
 1112.9269225563
  20
 950.36464123947
  30
0.0
  11
 1114.3375384020
  21
 958.36464123947
  31
0.0
  12
 1111.5163067107
  22
 958.36464123947
  32
0.0
  13
 1111.5163067107
  23
 958.36464123947
  33
0.0
   0
SOLID
   5
24A
 100
AcDbEntity
   8
0
 100
AcDbTrace
   6
CONTINUOUS
  62
8
  10
 1112.9269225563
  20
 975.36464123947
  30
0.0
  11
 1111.5163067107
  21
 967.36464123947
  31
0.0
  12
 1114.3375384020
  22
 967.36464123947
  32
0.0
  13
 1114.3375384020
  23
 967.36464123947
  33
0.0
   0
MTEXT
   5
24B
 100
AcDbEntity
   8
0
 370
15
  62
8
 100
AcDbMText
  10
 1108.9269225563
  20
 962.86464123947
  30
0.0
  40
 10.000000000000
  41
0.0
  71
8
  72
1
   1
\A1;25
   7
GMM001
  11
0.0
  21
 1.0000000000000
  31
0.0
   0
ENDBLK
   5
24C
 100
AcDbEntity
   8
0
 100
AcDbBlockEnd
   0
BLOCK
   5
24D
 100
AcDbEntity
   8
0
 100
AcDbBlockBegin
   2
*D47
  70
65
  10
0.0
  20
0.0
  30
0.0
   3
*D47
   0
LINE
   5
24E
 100
AcDbEntity
   8
0
 370
15
 100
AcDbLine
   6
CONTINUOUS
  62
8
  10
 930.76841409837
  20
 289.94688840738
  30
0.0
  11
 930.76841409837
  21
 311.07227218057
  31
0.0
   0
LINE
   5
24F
 100
AcDbEntity
   8
0
 370
15
 100
AcDbLine
   6
CONTINUOUS
  62
8
  10
 955.76841409837
  20
 289.94688840738
  30
0.0
  11
 955.76841409837
  21
 311.07227218057
  31
0.0
   0
LINE
   5
250
 100
AcDbEntity
   8
0
 370
15
 100
AcDbLine
   6
CONTINUOUS
  62
8
  10
 930.76841409837
  20
 307.07227218057
  30
0.0
  11
 943.26841409837
  21
 307.07227218057
  31
0.0
   0
LINE
   5
251
 100
AcDbEntity
   8
0
 370
15
 100
AcDbLine
   6
CONTINUOUS
  62
8
  10
 955.76841409837
  20
 307.07227218057
  30
0.0
  11
 943.26841409837
  21
 307.07227218057
  31
0.0
   0
SOLID
   5
252
 100
AcDbEntity
   8
0
 100
AcDbTrace
   6
CONTINUOUS
  62
8
  10
 930.76841409837
  20
 307.07227218057
  30
0.0
  11
 938.76841409837
  21
 305.66165633490
  31
0.0
  12
 938.76841409837
  22
 308.48288802624
  32
0.0
  13
 938.76841409837
  23
 308.48288802624
  33
0.0
   0
SOLID
   5
253
 100
AcDbEntity
   8
0
 100
AcDbTrace
   6
CONTINUOUS
  62
8
  10
 955.76841409837
  20
 307.07227218057
  30
0.0
  11
 947.76841409837
  21
 308.48288802624
  31
0.0
  12
 947.76841409837
  22
 305.66165633490
  32
0.0
  13
 947.76841409837
  23
 305.66165633490
  33
0.0
   0
MTEXT
   5
254
 100
AcDbEntity
   8
0
 370
15
  62
8
 100
AcDbMText
  10
 943.26841409837
  20
 311.07227218057
  30
0.0
  40
 10.000000000000
  41
0.0
  71
8
  72
1
   1
\A1;25
   7
GMM001
   0
ENDBLK
   5
255
 100
AcDbEntity
   8
0
 100
AcDbBlockEnd
   0
BLOCK
   5
256
 100
AcDbEntity
   8
0
 100
AcDbBlockBegin
   2
*D48
  70
65
  10
0.0
  20
0.0
  30
0.0
   3
*D48
   0
LINE
   5
257
 100
AcDbEntity
   8
0
 370
15
 100
AcDbLine
   6
CONTINUOUS
  62
8
  10
 927.10013322882
  20
 847.91537478664
  30
0.0
  11
 927.10013322882
  21
 869.04075855983
  31
0.0
   0
LINE
   5
258
 100
AcDbEntity
   8
0
 370
15
 100
AcDbLine
   6
CONTINUOUS
  62
8
  10
 952.10013322882
  20
 847.91537478664
  30
0.0
  11
 952.10013322882
  21
 869.04075855983
  31
0.0
   0
LINE
   5
259
 100
AcDbEntity
   8
0
 370
15
 100
AcDbLine
   6
CONTINUOUS
  62
8
  10
 927.10013322882
  20
 865.04075855983
  30
0.0
  11
 939.60013322882
  21
 865.04075855983
  31
0.0
   0
LINE
   5
25A
 100
AcDbEntity
   8
0
 370
15
 100
AcDbLine
   6
CONTINUOUS
  62
8
  10
 952.10013322882
  20
 865.04075855983
  30
0.0
  11
 939.60013322882
  21
 865.04075855983
  31
0.0
   0
SOLID
   5
25B
 100
AcDbEntity
   8
0
 100
AcDbTrace
   6
CONTINUOUS
  62
8
  10
 927.10013322882
  20
 865.04075855983
  30
0.0
  11
 935.10013322882
  21
 863.63014271416
  31
0.0
  12
 935.10013322882
  22
 866.45137440550
  32
0.0
  13
 935.10013322882
  23
 866.45137440550
  33
0.0
   0
SOLID
   5
25C
 100
AcDbEntity
   8
0
 100
AcDbTrace
   6
CONTINUOUS
  62
8
  10
 952.10013322882
  20
 865.04075855983
  30
0.0
  11
 944.10013322882
  21
 866.45137440550
  31
0.0
  12
 944.10013322882
  22
 863.63014271416
  32
0.0
  13
 944.10013322882
  23
 863.63014271416
  33
0.0
   0
MTEXT
   5
25D
 100
AcDbEntity
   8
0
 370
15
  62
8
 100
AcDbMText
  10
 939.60013322882
  20
 869.04075855983
  30
0.0
  40
 10.000000000000
  41
0.0
  71
8
  72
1
   1
\A1;25
   7
GMM001
   0
ENDBLK
   5
25E
 100
AcDbEntity
   8
0
 100
AcDbBlockEnd
   0
BLOCK
   5
25F
 100
AcDbEntity
   8
0
 100
AcDbBlockBegin
   2
*D49
  70
65
  10
0.0
  20
0.0
  30
0.0
   3
*D49
   0
LINE
   5
260
 100
AcDbEntity
   8
0
 370
15
 100
AcDbLine
   6
CONTINUOUS
  62
8
  10
 1002.7190189457
  20
 289.94688840738
  30
0.0
  11
 1002.7190189457
  21
 311.07227218057
  31
0.0
   0
LINE
   5
261
 100
AcDbEntity
   8
0
 370
15
 100
AcDbLine
   6
CONTINUOUS
  62
8
  10
 1082.7190189457
  20
 289.94688840738
  30
0.0
  11
 1082.7190189457
  21
 311.07227218057
  31
0.0
   0
LINE
   5
262
 100
AcDbEntity
   8
0
 370
15
 100
AcDbLine
   6
CONTINUOUS
  62
8
  10
 1002.7190189457
  20
 307.07227218057
  30
0.0
  11
 1042.7190189457
  21
 307.07227218057
  31
0.0
   0
LINE
   5
263
 100
AcDbEntity
   8
0
 370
15
 100
AcDbLine
   6
CONTINUOUS
  62
8
  10
 1082.7190189457
  20
 307.07227218057
  30
0.0
  11
 1042.7190189457
  21
 307.07227218057
  31
0.0
   0
SOLID
   5
264
 100
AcDbEntity
   8
0
 100
AcDbTrace
   6
CONTINUOUS
  62
8
  10
 1002.7190189457
  20
 307.07227218057
  30
0.0
  11
 1010.7190189457
  21
 305.66165633490
  31
0.0
  12
 1010.7190189457
  22
 308.48288802624
  32
0.0
  13
 1010.7190189457
  23
 308.48288802624
  33
0.0
   0
SOLID
   5
265
 100
AcDbEntity
   8
0
 100
AcDbTrace
   6
CONTINUOUS
  62
8
  10
 1082.7190189457
  20
 307.07227218057
  30
0.0
  11
 1074.7190189457
  21
 308.48288802624
  31
0.0
  12
 1074.7190189457
  22
 305.66165633490
  32
0.0
  13
 1074.7190189457
  23
 305.66165633490
  33
0.0
   0
MTEXT
   5
266
 100
AcDbEntity
   8
0
 370
15
  62
8
 100
AcDbMText
  10
 1042.7190189457
  20
 311.07227218057
  30
0.0
  40
 10.000000000000
  41
0.0
  71
8
  72
1
   1
\A1;80
   7
GMM001
   0
ENDBLK
   5
267
 100
AcDbEntity
   8
0
 100
AcDbBlockEnd
   0
BLOCK
   5
268
 100
AcDbEntity
   8
0
 100
AcDbBlockBegin
   2
*D50
  70
65
  10
0.0
  20
0.0
  30
0.0
   3
*D50
   0
LINE
   5
269
 100
AcDbEntity
   8
0
 370
15
 100
AcDbLine
   6
CONTINUOUS
  62
8
  10
 1086.7190189457
  20
 283.44688840738
  30
0.0
  11
 1120.5952034259
  21
 283.44688840738
  31
0.0
   0
LINE
   5
26A
 100
AcDbEntity
   8
0
 370
15
 100
AcDbLine
   6
CONTINUOUS
  62
8
  10
 1086.7190189457
  20
 285.94688840738
  30
0.0
  11
 1120.5952034259
  21
 285.94688840738
  31
0.0
   0
LINE
   5
26B
 100
AcDbEntity
   8
0
 370
15
 100
AcDbLine
   6
CONTINUOUS
  62
8
  10
 1116.5952034259
  20
 273.44688840738
  30
0.0
  11
 1116.5952034259
  21
 284.69688840738
  31
0.0
   0
LINE
   5
26C
 100
AcDbEntity
   8
0
 370
15
 100
AcDbLine
   6
CONTINUOUS
  62
8
  10
 1116.5952034259
  20
 316.82233232493
  30
0.0
  11
 1116.5952034259
  21
 284.69688840738
  31
0.0
   0
SOLID
   5
26D
 100
AcDbEntity
   8
0
 100
AcDbTrace
   6
CONTINUOUS
  62
8
  10
 1116.5952034259
  20
 283.44688840738
  30
0.0
  11
 1115.1845875802
  21
 275.44688840738
  31
0.0
  12
 1118.0058192716
  22
 275.44688840738
  32
0.0
  13
 1118.0058192716
  23
 275.44688840738
  33
0.0
   0
SOLID
   5
26E
 100
AcDbEntity
   8
0
 100
AcDbTrace
   6
CONTINUOUS
  62
8
  10
 1116.5952034259
  20
 285.94688840738
  30
0.0
  11
 1118.0058192716
  21
 293.94688840738
  31
0.0
  12
 1115.1845875802
  22
 293.94688840738
  32
0.0
  13
 1115.1845875802
  23
 293.94688840738
  33
0.0
   0
MTEXT
   5
26F
 100
AcDbEntity
   8
0
 370
15
  62
8
 100
AcDbMText
  10
 1112.1841758569
  20
 294.82233232493
  30
0.0
  40
 10.000000000000
  41
0.0
  71
7
  72
1
   1
\A1;2.5
   7
GMM001
  11
0.0
  21
 1.0000000000000
  31
0.0
   0
ENDBLK
   5
270
 100
AcDbEntity
   8
0
 100
AcDbBlockEnd
   0
BLOCK
   5
271
 100
AcDbEntity
   8
0
 100
AcDbBlockBegin
   2
*D51
  70
65
  10
0.0
  20
0.0
  30
0.0
   3
*D51
   0
LINE
   5
272
 100
AcDbEntity
   8
0
 370
15
 100
AcDbLine
   6
CONTINUOUS
  62
8
  10
 999.05073807616
  20
 847.91537478664
  30
0.0
  11
 999.05073807616
  21
 869.04075855983
  31
0.0
   0
LINE
   5
273
 100
AcDbEntity
   8
0
 370
15
 100
AcDbLine
   6
CONTINUOUS
  62
8
  10
 1079.0507380762
  20
 847.91537478664
  30
0.0
  11
 1079.0507380762
  21
 869.04075855983
  31
0.0
   0
LINE
   5
274
 100
AcDbEntity
   8
0
 370
15
 100
AcDbLine
   6
CONTINUOUS
  62
8
  10
 999.05073807616
  20
 865.04075855983
  30
0.0
  11
 1039.0507380762
  21
 865.04075855983
  31
0.0
   0
LINE
   5
275
 100
AcDbEntity
   8
0
 370
15
 100
AcDbLine
   6
CONTINUOUS
  62
8
  10
 1079.0507380762
  20
 865.04075855983
  30
0.0
  11
 1039.0507380762
  21
 865.04075855983
  31
0.0
   0
SOLID
   5
276
 100
AcDbEntity
   8
0
 100
AcDbTrace
   6
CONTINUOUS
  62
8
  10
 999.05073807616
  20
 865.04075855983
  30
0.0
  11
 1007.0507380762
  21
 863.63014271416
  31
0.0
  12
 1007.0507380762
  22
 866.45137440550
  32
0.0
  13
 1007.0507380762
  23
 866.45137440550
  33
0.0
   0
SOLID
   5
277
 100
AcDbEntity
   8
0
 100
AcDbTrace
   6
CONTINUOUS
  62
8
  10
 1079.0507380762
  20
 865.04075855983
  30
0.0
  11
 1071.0507380762
  21
 866.45137440550
  31
0.0
  12
 1071.0507380762
  22
 863.63014271416
  32
0.0
  13
 1071.0507380762
  23
 863.63014271416
  33
0.0
   0
MTEXT
   5
278
 100
AcDbEntity
   8
0
 370
15
  62
8
 100
AcDbMText
  10
 1039.0507380762
  20
 869.04075855983
  30
0.0
  40
 10.000000000000
  41
0.0
  71
8
  72
1
   1
\A1;80
   7
GMM001
   0
ENDBLK
   5
279
 100
AcDbEntity
   8
0
 100
AcDbBlockEnd
   0
BLOCK
   5
27A
 100
AcDbEntity
   8
0
 100
AcDbBlockBegin
   2
*D52
  70
65
  10
0.0
  20
0.0
  30
0.0
   3
*D52
   0
LINE
   5
27B
 100
AcDbEntity
   8
0
 370
15
 100
AcDbLine
   6
CONTINUOUS
  62
8
  10
 1083.0507380762
  20
 841.41537478664
  30
0.0
  11
 1116.9269225563
  21
 841.41537478664
  31
0.0
   0
LINE
   5
27C
 100
AcDbEntity
   8
0
 370
15
 100
AcDbLine
   6
CONTINUOUS
  62
8
  10
 1083.0507380762
  20
 843.91537478664
  30
0.0
  11
 1116.9269225563
  21
 843.91537478664
  31
0.0
   0
LINE
   5
27D
 100
AcDbEntity
   8
0
 370
15
 100
AcDbLine
   6
CONTINUOUS
  62
8
  10
 1112.9269225563
  20
 831.41537478664
  30
0.0
  11
 1112.9269225563
  21
 842.66537478664
  31
0.0
   0
LINE
   5
27E
 100
AcDbEntity
   8
0
 370
15
 100
AcDbLine
   6
CONTINUOUS
  62
8
  10
 1112.9269225563
  20
 874.79081870419
  30
0.0
  11
 1112.9269225563
  21
 842.66537478664
  31
0.0
   0
SOLID
   5
27F
 100
AcDbEntity
   8
0
 100
AcDbTrace
   6
CONTINUOUS
  62
8
  10
 1112.9269225563
  20
 841.41537478664
  30
0.0
  11
 1111.5163067107
  21
 833.41537478664
  31
0.0
  12
 1114.3375384020
  22
 833.41537478664
  32
0.0
  13
 1114.3375384020
  23
 833.41537478664
  33
0.0
   0
SOLID
   5
280
 100
AcDbEntity
   8
0
 100
AcDbTrace
   6
CONTINUOUS
  62
8
  10
 1112.9269225563
  20
 843.91537478664
  30
0.0
  11
 1114.3375384020
  21
 851.91537478664
  31
0.0
  12
 1111.5163067107
  22
 851.91537478664
  32
0.0
  13
 1111.5163067107
  23
 851.91537478664
  33
0.0
   0
MTEXT
   5
281
 100
AcDbEntity
   8
0
 370
15
  62
8
 100
AcDbMText
  10
 1108.5158949874
  20
 852.79081870419
  30
0.0
  40
 10.000000000000
  41
0.0
  71
7
  72
1
   1
\A1;2.5
   7
GMM001
  11
0.0
  21
 1.0000000000000
  31
0.0
   0
ENDBLK
   5
282
 100
AcDbEntity
   8
0
 100
AcDbBlockEnd
   0
ENDSEC
   0
SECTION
   2
ENTITIES
   0
LINE
   5
283
 100
AcDbEntity
   8
LEVEL001
 370
40
 100
AcDbLine
   6
CONTINUOUS
  62
3
  10
 1268.0000000001
  20
 1027.0000000000
  30
0.0
  11
 1618.0000000001
  21
 1027.0000000000
  31
0.0
   0
LINE
   5
284
 100
AcDbEntity
   8
LEVEL001
 370
40
 100
AcDbLine
   6
CONTINUOUS
  62
3
  10
 1268.0000000001
  20
 947.00000000001
  30
0.0
  11
 1618.0000000001
  21
 947.00000000001
  31
0.0
   0
LINE
   5
285
 100
AcDbEntity
   8
LEVEL001
 370
40
 100
AcDbLine
   6
CONTINUOUS
  62
3
  10
 1268.0000000001
  20
 867.00000000001
  30
0.0
  11
 1618.0000000001
  21
 867.00000000001
  31
0.0
   0
LINE
   5
286
 100
AcDbEntity
   8
LEVEL001
 370
40
 100
AcDbLine
   6
CONTINUOUS
  62
3
  10
 1468.0000000001
  20
 208.00000000001
  30
0.0
  11
 1468.0000000001
  21
 48.000000000009
  31
0.0
   0
LINE
   5
287
 100
AcDbEntity
   8
LEVEL001
 370
40
 100
AcDbLine
   6
CONTINUOUS
  62
3
  10
 1268.0000000001
  20
 288.00000000001
  30
0.0
  11
 1618.0000000001
  21
 288.00000000001
  31
0.0
   0
LINE
   5
288
 100
AcDbEntity
   8
LEVEL001
 370
40
 100
AcDbLine
   6
CONTINUOUS
  62
3
  10
 1268.0000000001
  20
 208.00000000001
  30
0.0
  11
 1618.0000000001
  21
 208.00000000001
  31
0.0
   0
LINE
   5
289
 100
AcDbEntity
   8
LEVEL001
 370
40
 100
AcDbLine
   6
CONTINUOUS
  62
3
  10
 1268.0000000001
  20
 128.00000000001
  30
0.0
  11
 1618.0000000001
  21
 128.00000000001
  31
0.0
   0
LINE
   5
28A
 100
AcDbEntity
   8
LEVEL001
 370
40
 100
AcDbLine
   6
CONTINUOUS
  62
3
  10
 1468.0000000001
  20
 181.33333333334
  30
0.0
  11
 1618.0000000001
  21
 181.33333333334
  31
0.0
   0
LINE
   5
28B
 100
AcDbEntity
   8
LEVEL001
 370
40
 100
AcDbLine
   6
CONTINUOUS
  62
3
  10
 1468.0000000001
  20
 154.66666666668
  30
0.0
  11
 1618.0000000001
  21
 154.66666666668
  31
0.0
   0
LINE
   5
28C
 100
AcDbEntity
   8
LEVEL001
 370
40
 100
AcDbLine
   6
CONTINUOUS
  62
3
  10
 1409.8800000003
  20
 1087.3400000000
  30
0.0
  11
 1386.8400000003
  21
 1087.3400000000
  31
0.0
   0
LINE
   5
28D
 100
AcDbEntity
   8
LEVEL001
 370
40
 100
AcDbLine
   6
CONTINUOUS
  62
3
  10
 1386.8400000003
  20
 1087.3400000000
  30
0.0
  11
 1386.8400000003
  21
 1052.7800000000
  31
0.0
   0
LINE
   5
28E
 100
AcDbEntity
   8
LEVEL001
 370
40
 100
AcDbLine
   6
CONTINUOUS
  62
3
  10
 1386.8400000003
  20
 1052.7800000000
  30
0.0
  11
 1398.3600000003
  21
 1052.7800000000
  31
0.0
   0
LINE
   5
28F
 100
AcDbEntity
   8
LEVEL001
 370
40
 100
AcDbLine
   6
CONTINUOUS
  62
3
  10
 1398.3600000003
  20
 1052.7800000000
  30
0.0
  11
 1398.3600000003
  21
 1058.5400000000
  31
0.0
   0
LINE
   5
290
 100
AcDbEntity
   8
LEVEL001
 370
40
 100
AcDbLine
   6
CONTINUOUS
  62
3
  10
 1398.3600000003
  20
 1058.5400000000
  30
0.0
  11
 1409.8800000003
  21
 1058.5400000000
  31
0.0
   0
ARC
   5
291
 100
AcDbEntity
   8
LEVEL001
 370
40
   6
CONTINUOUS
  62
3
 100
AcDbCircle
  10
 1409.8800000003
  20
 1072.9400000000
  30
0.0
  40
 14.400000000000
 100
AcDbArc
  50
 270.00000000000
  51
 90.000000000000
   0
LINE
   5
292
 100
AcDbEntity
   8
LEVEL001
 370
40
 100
AcDbLine
   6
CONTINUOUS
  62
3
  10
 1398.3600000003
  20
 1070.0600000000
  30
0.0
  11
 1409.8800000003
  21
 1070.0600000000
  31
0.0
   0
ARC
   5
293
 100
AcDbEntity
   8
LEVEL001
 370
40
   6
CONTINUOUS
  62
3
 100
AcDbCircle
  10
 1409.8800000003
  20
 1072.9400000000
  30
0.0
  40
 2.8800000000000
 100
AcDbArc
  50
 270.00000000000
  51
 90.000000000000
   0
LINE
   5
294
 100
AcDbEntity
   8
LEVEL001
 370
40
 100
AcDbLine
   6
CONTINUOUS
  62
3
  10
 1409.8800000003
  20
 1075.8200000000
  30
0.0
  11
 1398.3600000003
  21
 1075.8200000000
  31
0.0
   0
LINE
   5
295
 100
AcDbEntity
   8
LEVEL001
 370
40
 100
AcDbLine
   6
CONTINUOUS
  62
3
  10
 1398.3600000003
  20
 1075.8200000000
  30
0.0
  11
 1398.3600000003
  21
 1070.0600000000
  31
0.0
   0
LINE
   5
296
 100
AcDbEntity
   8
LEVEL001
 370
40
 100
AcDbLine
   6
CONTINUOUS
  62
3
  10
 1415.6400000003
  20
 1052.7800000000
  30
0.0
  11
 1438.6800000003
  21
 1087.3400000000
  31
0.0
   0
LINE
   5
297
 100
AcDbEntity
   8
LEVEL001
 370
40
 100
AcDbLine
   6
CONTINUOUS
  62
3
  10
 1438.6800000003
  20
 1087.3400000000
  30
0.0
  11
 1467.4800000003
  21
 1087.3400000000
  31
0.0
   0
LINE
   5
298
 100
AcDbEntity
   8
LEVEL001
 370
40
 100
AcDbLine
   6
CONTINUOUS
  62
3
  10
 1467.4800000003
  20
 1087.3400000000
  30
0.0
  11
 1467.4800000003
  21
 1064.3000000000
  31
0.0
   0
LINE
   5
299
 100
AcDbEntity
   8
LEVEL001
 370
40
 100
AcDbLine
   6
CONTINUOUS
  62
3
  10
 1467.4800000003
  20
 1064.3000000000
  30
0.0
  11
 1484.7600000003
  21
 1064.3000000000
  31
0.0
   0
LINE
   5
29A
 100
AcDbEntity
   8
LEVEL001
 370
40
 100
AcDbLine
   6
CONTINUOUS
  62
3
  10
 1484.7600000003
  20
 1064.3000000000
  30
0.0
  11
 1484.7600000003
  21
 1075.8200000000
  31
0.0
   0
LINE
   5
29B
 100
AcDbEntity
   8
LEVEL001
 370
40
 100
AcDbLine
   6
CONTINUOUS
  62
3
  10
 1484.7600000003
  20
 1075.8200000000
  30
0.0
  11
 1473.2400000003
  21
 1075.8200000000
  31
0.0
   0
LINE
   5
29C
 100
AcDbEntity
   8
LEVEL001
 370
40
 100
AcDbLine
   6
CONTINUOUS
  62
3
  10
 1473.2400000003
  20
 1075.8200000000
  30
0.0
  11
 1473.2400000003
  21
 1087.3400000000
  31
0.0
   0
LINE
   5
29D
 100
AcDbEntity
   8
LEVEL001
 370
40
 100
AcDbLine
   6
CONTINUOUS
  62
3
  10
 1473.2400000003
  20
 1087.3400000000
  30
0.0
  11
 1542.3600000003
  21
 1087.3400000000
  31
0.0
   0
LINE
   5
29E
 100
AcDbEntity
   8
LEVEL001
 370
40
 100
AcDbLine
   6
CONTINUOUS
  62
3
  10
 1542.3600000003
  20
 1087.3400000000
  30
0.0
  11
 1542.3600000003
  21
 1075.8200000000
  31
0.0
   0
LINE
   5
29F
 100
AcDbEntity
   8
LEVEL001
 370
40
 100
AcDbLine
   6
CONTINUOUS
  62
3
  10
 1542.3600000003
  20
 1075.8200000000
  30
0.0
  11
 1519.3200000003
  21
 1075.8200000000
  31
0.0
   0
LINE
   5
2A0
 100
AcDbEntity
   8
LEVEL001
 370
40
 100
AcDbLine
   6
CONTINUOUS
  62
3
  10
 1519.3200000003
  20
 1075.8200000000
  30
0.0
  11
 1519.3200000003
  21
 1072.9400000000
  31
0.0
   0
LINE
   5
2A1
 100
AcDbEntity
   8
LEVEL001
 370
40
 100
AcDbLine
   6
CONTINUOUS
  62
3
  10
 1519.3200000003
  20
 1072.9400000000
  30
0.0
  11
 1539.4800000003
  21
 1072.9400000000
  31
0.0
   0
LINE
   5
2A2
 100
AcDbEntity
   8
LEVEL001
 370
40
 100
AcDbLine
   6
CONTINUOUS
  62
3
  10
 1539.4800000003
  20
 1072.9400000000
  30
0.0
  11
 1539.4800000003
  21
 1067.1800000000
  31
0.0
   0
LINE
   5
2A3
 100
AcDbEntity
   8
LEVEL001
 370
40
 100
AcDbLine
   6
CONTINUOUS
  62
3
  10
 1539.4800000003
  20
 1067.1800000000
  30
0.0
  11
 1519.3200000003
  21
 1067.1800000000
  31
0.0
   0
LINE
   5
2A4
 100
AcDbEntity
   8
LEVEL001
 370
40
 100
AcDbLine
   6
CONTINUOUS
  62
3
  10
 1519.3200000003
  20
 1067.1800000000
  30
0.0
  11
 1519.3200000003
  21
 1064.3000000000
  31
0.0
   0
LINE
   5
2A5
 100
AcDbEntity
   8
LEVEL001
 370
40
 100
AcDbLine
   6
CONTINUOUS
  62
3
  10
 1519.3200000003
  20
 1064.3000000000
  30
0.0
  11
 1542.3600000003
  21
 1064.3000000000
  31
0.0
   0
LINE
   5
2A6
 100
AcDbEntity
   8
LEVEL001
 370
40
 100
AcDbLine
   6
CONTINUOUS
  62
3
  10
 1542.3600000003
  20
 1064.3000000000
  30
0.0
  11
 1542.3600000003
  21
 1052.7800000000
  31
0.0
   0
LINE
   5
2A7
 100
AcDbEntity
   8
LEVEL001
 370
40
 100
AcDbLine
   6
CONTINUOUS
  62
3
  10
 1542.3600000003
  20
 1052.7800000000
  30
0.0
  11
 1507.8000000003
  21
 1052.7800000000
  31
0.0
   0
LINE
   5
2A8
 100
AcDbEntity
   8
LEVEL001
 370
40
 100
AcDbLine
   6
CONTINUOUS
  62
3
  10
 1507.8000000003
  20
 1052.7800000000
  30
0.0
  11
 1507.8000000003
  21
 1075.8200000000
  31
0.0
   0
LINE
   5
2A9
 100
AcDbEntity
   8
LEVEL001
 370
40
 100
AcDbLine
   6
CONTINUOUS
  62
3
  10
 1507.8000000003
  20
 1075.8200000000
  30
0.0
  11
 1496.2800000003
  21
 1075.8200000000
  31
0.0
   0
LINE
   5
2AA
 100
AcDbEntity
   8
LEVEL001
 370
40
 100
AcDbLine
   6
CONTINUOUS
  62
3
  10
 1496.2800000003
  20
 1075.8200000000
  30
0.0
  11
 1496.2800000003
  21
 1052.7800000000
  31
0.0
   0
LINE
   5
2AB
 100
AcDbEntity
   8
LEVEL001
 370
40
 100
AcDbLine
   6
CONTINUOUS
  62
3
  10
 1496.2800000003
  20
 1052.7800000000
  30
0.0
  11
 1455.9600000003
  21
 1052.7800000000
  31
0.0
   0
LINE
   5
2AC
 100
AcDbEntity
   8
LEVEL001
 370
40
 100
AcDbLine
   6
CONTINUOUS
  62
3
  10
 1455.9600000003
  20
 1052.7800000000
  30
0.0
  11
 1455.9600000003
  21
 1087.3400000000
  31
0.0
   0
LINE
   5
2AD
 100
AcDbEntity
   8
LEVEL001
 370
40
 100
AcDbLine
   6
CONTINUOUS
  62
3
  10
 1455.9600000003
  20
 1087.3400000000
  30
0.0
  11
 1432.9200000003
  21
 1052.7800000000
  31
0.0
   0
LINE
   5
2AE
 100
AcDbEntity
   8
LEVEL001
 370
40
 100
AcDbLine
   6
CONTINUOUS
  62
3
  10
 1432.9200000003
  20
 1052.7800000000
  30
0.0
  11
 1415.6400000003
  21
 1052.7800000000
  31
0.0
   0
LINE
   5
2AF
 100
AcDbEntity
   8
LEVEL001
 370
40
 100
AcDbLine
   6
CONTINUOUS
  62
3
  10
 1452.1200000003
  20
 1074.6573415511
  30
0.0
  11
 1437.5351056329
  21
 1052.7800000000
  31
0.0
   0
LINE
   5
2B0
 100
AcDbEntity
   8
LEVEL001
 370
40
 100
AcDbLine
   6
CONTINUOUS
  62
3
  10
 1437.5351056329
  20
 1052.7800000000
  30
0.0
  11
 1452.1200000003
  21
 1052.7800000000
  31
0.0
   0
LINE
   5
2B1
 100
AcDbEntity
   8
LEVEL001
 370
40
 100
AcDbLine
   6
CONTINUOUS
  62
3
  10
 1452.1200000003
  20
 1052.7800000000
  30
0.0
  11
 1452.1200000003
  21
 1074.6573415511
  31
0.0
   0
ARC
   5
2B2
 100
AcDbEntity
   8
LEVEL001
 370
40
   6
CONTINUOUS
  62
3
 100
AcDbCircle
  10
 1559.6400000003
  20
 1070.0600000000
  30
0.0
  40
 17.280000000000
 100
AcDbArc
  50
 90.000000000000
  51
 270.00000000000
   0
ARC
   5
2B3
 100
AcDbEntity
   8
LEVEL001
 370
40
   6
CONTINUOUS
  62
3
 100
AcDbCircle
  10
 1559.6400000003
  20
 1070.0600000000
  30
0.0
  40
 5.7600000000000
 100
AcDbArc
  50
 90.000000000000
  51
 270.00000000000
   0
LINE
   5
2B4
 100
AcDbEntity
   8
LEVEL001
 370
40
 100
AcDbLine
   6
CONTINUOUS
  62
3
  10
 1559.6400000003
  20
 1087.3400000000
  30
0.0
  11
 1576.9200000003
  21
 1087.3400000000
  31
0.0
   0
LINE
   5
2B5
 100
AcDbEntity
   8
LEVEL001
 370
40
 100
AcDbLine
   6
CONTINUOUS
  62
3
  10
 1576.9200000003
  20
 1087.3400000000
  30
0.0
  11
 1576.9200000003
  21
 1075.8200000000
  31
0.0
   0
LINE
   5
2B6
 100
AcDbEntity
   8
LEVEL001
 370
40
 100
AcDbLine
   6
CONTINUOUS
  62
3
  10
 1576.9200000003
  20
 1075.8200000000
  30
0.0
  11
 1559.6400000003
  21
 1075.8200000000
  31
0.0
   0
LINE
   5
2B7
 100
AcDbEntity
   8
LEVEL001
 370
40
 100
AcDbLine
   6
CONTINUOUS
  62
3
  10
 1386.8400000003
  20
 1087.3400000000
  30
0.0
  11
 1386.8400000003
  21
 1052.7800000000
  31
0.0
   0
LINE
   5
2B8
 100
AcDbEntity
   8
LEVEL001
 370
40
 100
AcDbLine
   6
CONTINUOUS
  62
3
  10
 1386.8400000003
  20
 1052.7800000000
  30
0.0
  11
 1398.3600000003
  21
 1052.7800000000
  31
0.0
   0
LINE
   5
2B9
 100
AcDbEntity
   8
LEVEL001
 370
40
 100
AcDbLine
   6
CONTINUOUS
  62
3
  10
 1398.3600000003
  20
 1052.7800000000
  30
0.0
  11
 1398.3600000003
  21
 1058.5400000000
  31
0.0
   0
LINE
   5
2BA
 100
AcDbEntity
   8
LEVEL001
 370
40
 100
AcDbLine
   6
CONTINUOUS
  62
3
  10
 1398.3600000003
  20
 1058.5400000000
  30
0.0
  11
 1409.8800000003
  21
 1058.5400000000
  31
0.0
   0
ARC
   5
2BB
 100
AcDbEntity
   8
LEVEL001
 370
40
   6
CONTINUOUS
  62
3
 100
AcDbCircle
  10
 1409.8800000003
  20
 1072.9400000000
  30
0.0
  40
 14.400000000000
 100
AcDbArc
  50
 270.00000000000
  51
 90.000000000000
   0
LINE
   5
2BC
 100
AcDbEntity
   8
LEVEL001
 370
40
 100
AcDbLine
   6
CONTINUOUS
  62
3
  10
 1409.8800000003
  20
 1087.3400000000
  30
0.0
  11
 1386.8400000003
  21
 1087.3400000000
  31
0.0
   0
LINE
   5
2BD
 100
AcDbEntity
   8
LEVEL001
 370
40
 100
AcDbLine
   6
CONTINUOUS
  62
3
  10
 1398.3600000003
  20
 1075.8200000000
  30
0.0
  11
 1398.3600000003
  21
 1070.0600000000
  31
0.0
   0
LINE
   5
2BE
 100
AcDbEntity
   8
LEVEL001
 370
40
 100
AcDbLine
   6
CONTINUOUS
  62
3
  10
 1398.3600000003
  20
 1070.0600000000
  30
0.0
  11
 1409.8800000003
  21
 1070.0600000000
  31
0.0
   0
ARC
   5
2BF
 100
AcDbEntity
   8
LEVEL001
 370
40
   6
CONTINUOUS
  62
3
 100
AcDbCircle
  10
 1409.8800000003
  20
 1072.9400000000
  30
0.0
  40
 2.8800000000000
 100
AcDbArc
  50
 270.00000000000
  51
 90.000000000000
   0
LINE
   5
2C0
 100
AcDbEntity
   8
LEVEL001
 370
40
 100
AcDbLine
   6
CONTINUOUS
  62
3
  10
 1409.8800000003
  20
 1075.8200000000
  30
0.0
  11
 1398.3600000003
  21
 1075.8200000000
  31
0.0
   0
LINE
   5
2C1
 100
AcDbEntity
   8
LEVEL001
 370
40
 100
AcDbLine
   6
CONTINUOUS
  62
3
  10
 1438.6800000003
  20
 1087.3400000000
  30
0.0
  11
 1415.6400000003
  21
 1052.7800000000
  31
0.0
   0
LINE
   5
2C2
 100
AcDbEntity
   8
LEVEL001
 370
40
 100
AcDbLine
   6
CONTINUOUS
  62
3
  10
 1415.6400000003
  20
 1052.7800000000
  30
0.0
  11
 1432.9200000003
  21
 1052.7800000000
  31
0.0
   0
LINE
   5
2C3
 100
AcDbEntity
   8
LEVEL001
 370
40
 100
AcDbLine
   6
CONTINUOUS
  62
3
  10
 1432.9200000003
  20
 1052.7800000000
  30
0.0
  11
 1455.9600000003
  21
 1087.3400000000
  31
0.0
   0
LINE
   5
2C4
 100
AcDbEntity
   8
LEVEL001
 370
40
 100
AcDbLine
   6
CONTINUOUS
  62
3
  10
 1455.9600000003
  20
 1087.3400000000
  30
0.0
  11
 1438.6800000003
  21
 1087.3400000000
  31
0.0
   0
LINE
   5
2C5
 100
AcDbEntity
   8
LEVEL001
 370
40
 100
AcDbLine
   6
CONTINUOUS
  62
3
  10
 1452.1200000003
  20
 1052.7800000000
  30
0.0
  11
 1452.1200000003
  21
 1074.6573415511
  31
0.0
   0
LINE
   5
2C6
 100
AcDbEntity
   8
LEVEL001
 370
40
 100
AcDbLine
   6
CONTINUOUS
  62
3
  10
 1452.1200000003
  20
 1074.6573415511
  30
0.0
  11
 1437.5351056329
  21
 1052.7800000000
  31
0.0
   0
LINE
   5
2C7
 100
AcDbEntity
   8
LEVEL001
 370
40
 100
AcDbLine
   6
CONTINUOUS
  62
3
  10
 1437.5351056329
  20
 1052.7800000000
  30
0.0
  11
 1452.1200000003
  21
 1052.7800000000
  31
0.0
   0
LINE
   5
2C8
 100
AcDbEntity
   8
LEVEL001
 370
40
 100
AcDbLine
   6
CONTINUOUS
  62
3
  10
 1455.9600000003
  20
 1052.7800000000
  30
0.0
  11
 1496.2800000003
  21
 1052.7800000000
  31
0.0
   0
LINE
   5
2C9
 100
AcDbEntity
   8
LEVEL001
 370
40
 100
AcDbLine
   6
CONTINUOUS
  62
3
  10
 1496.2800000003
  20
 1052.7800000000
  30
0.0
  11
 1496.2800000003
  21
 1075.8200000000
  31
0.0
   0
LINE
   5
2CA
 100
AcDbEntity
   8
LEVEL001
 370
40
 100
AcDbLine
   6
CONTINUOUS
  62
3
  10
 1496.2800000003
  20
 1075.8200000000
  30
0.0
  11
 1507.8000000003
  21
 1075.8200000000
  31
0.0
   0
LINE
   5
2CB
 100
AcDbEntity
   8
LEVEL001
 370
40
 100
AcDbLine
   6
CONTINUOUS
  62
3
  10
 1507.8000000003
  20
 1075.8200000000
  30
0.0
  11
 1507.8000000003
  21
 1052.7800000000
  31
0.0
   0
LINE
   5
2CC
 100
AcDbEntity
   8
LEVEL001
 370
40
 100
AcDbLine
   6
CONTINUOUS
  62
3
  10
 1507.8000000003
  20
 1052.7800000000
  30
0.0
  11
 1542.3600000003
  21
 1052.7800000000
  31
0.0
   0
LINE
   5
2CD
 100
AcDbEntity
   8
LEVEL001
 370
40
 100
AcDbLine
   6
CONTINUOUS
  62
3
  10
 1542.3600000003
  20
 1052.7800000000
  30
0.0
  11
 1542.3600000003
  21
 1064.3000000000
  31
0.0
   0
LINE
   5
2CE
 100
AcDbEntity
   8
LEVEL001
 370
40
 100
AcDbLine
   6
CONTINUOUS
  62
3
  10
 1542.3600000003
  20
 1064.3000000000
  30
0.0
  11
 1519.3200000003
  21
 1064.3000000000
  31
0.0
   0
LINE
   5
2CF
 100
AcDbEntity
   8
LEVEL001
 370
40
 100
AcDbLine
   6
CONTINUOUS
  62
3
  10
 1519.3200000003
  20
 1064.3000000000
  30
0.0
  11
 1519.3200000003
  21
 1067.1800000000
  31
0.0
   0
LINE
   5
2D0
 100
AcDbEntity
   8
LEVEL001
 370
40
 100
AcDbLine
   6
CONTINUOUS
  62
3
  10
 1519.3200000003
  20
 1067.1800000000
  30
0.0
  11
 1539.4800000003
  21
 1067.1800000000
  31
0.0
   0
LINE
   5
2D1
 100
AcDbEntity
   8
LEVEL001
 370
40
 100
AcDbLine
   6
CONTINUOUS
  62
3
  10
 1539.4800000003
  20
 1067.1800000000
  30
0.0
  11
 1539.4800000003
  21
 1072.9400000000
  31
0.0
   0
LINE
   5
2D2
 100
AcDbEntity
   8
LEVEL001
 370
40
 100
AcDbLine
   6
CONTINUOUS
  62
3
  10
 1539.4800000003
  20
 1072.9400000000
  30
0.0
  11
 1519.3200000003
  21
 1072.9400000000
  31
0.0
   0
LINE
   5
2D3
 100
AcDbEntity
   8
LEVEL001
 370
40
 100
AcDbLine
   6
CONTINUOUS
  62
3
  10
 1519.3200000003
  20
 1072.9400000000
  30
0.0
  11
 1519.3200000003
  21
 1075.8200000000
  31
0.0
   0
LINE
   5
2D4
 100
AcDbEntity
   8
LEVEL001
 370
40
 100
AcDbLine
   6
CONTINUOUS
  62
3
  10
 1519.3200000003
  20
 1075.8200000000
  30
0.0
  11
 1542.3600000003
  21
 1075.8200000000
  31
0.0
   0
LINE
   5
2D5
 100
AcDbEntity
   8
LEVEL001
 370
40
 100
AcDbLine
   6
CONTINUOUS
  62
3
  10
 1542.3600000003
  20
 1075.8200000000
  30
0.0
  11
 1542.3600000003
  21
 1087.3400000000
  31
0.0
   0
LINE
   5
2D6
 100
AcDbEntity
   8
LEVEL001
 370
40
 100
AcDbLine
   6
CONTINUOUS
  62
3
  10
 1542.3600000003
  20
 1087.3400000000
  30
0.0
  11
 1473.2400000003
  21
 1087.3400000000
  31
0.0
   0
LINE
   5
2D7
 100
AcDbEntity
   8
LEVEL001
 370
40
 100
AcDbLine
   6
CONTINUOUS
  62
3
  10
 1473.2400000003
  20
 1087.3400000000
  30
0.0
  11
 1473.2400000003
  21
 1075.8200000000
  31
0.0
   0
LINE
   5
2D8
 100
AcDbEntity
   8
LEVEL001
 370
40
 100
AcDbLine
   6
CONTINUOUS
  62
3
  10
 1473.2400000003
  20
 1075.8200000000
  30
0.0
  11
 1484.7600000003
  21
 1075.8200000000
  31
0.0
   0
LINE
   5
2D9
 100
AcDbEntity
   8
LEVEL001
 370
40
 100
AcDbLine
   6
CONTINUOUS
  62
3
  10
 1484.7600000003
  20
 1075.8200000000
  30
0.0
  11
 1484.7600000003
  21
 1064.3000000000
  31
0.0
   0
LINE
   5
2DA
 100
AcDbEntity
   8
LEVEL001
 370
40
 100
AcDbLine
   6
CONTINUOUS
  62
3
  10
 1484.7600000003
  20
 1064.3000000000
  30
0.0
  11
 1467.4800000003
  21
 1064.3000000000
  31
0.0
   0
LINE
   5
2DB
 100
AcDbEntity
   8
LEVEL001
 370
40
 100
AcDbLine
   6
CONTINUOUS
  62
3
  10
 1467.4800000003
  20
 1064.3000000000
  30
0.0
  11
 1467.4800000003
  21
 1087.3400000000
  31
0.0
   0
LINE
   5
2DC
 100
AcDbEntity
   8
LEVEL001
 370
40
 100
AcDbLine
   6
CONTINUOUS
  62
3
  10
 1467.4800000003
  20
 1087.3400000000
  30
0.0
  11
 1455.9600000003
  21
 1087.3400000000
  31
0.0
   0
LINE
   5
2DD
 100
AcDbEntity
   8
LEVEL001
 370
40
 100
AcDbLine
   6
CONTINUOUS
  62
3
  10
 1455.9600000003
  20
 1087.3400000000
  30
0.0
  11
 1455.9600000003
  21
 1052.7800000000
  31
0.0
   0
LINE
   5
2DE
 100
AcDbEntity
   8
LEVEL001
 370
40
 100
AcDbLine
   6
CONTINUOUS
  62
3
  10
 1559.6400000003
  20
 1052.7800000000
  30
0.0
  11
 1576.9200000003
  21
 1052.7800000000
  31
0.0
   0
LINE
   5
2DF
 100
AcDbEntity
   8
LEVEL001
 370
40
 100
AcDbLine
   6
CONTINUOUS
  62
3
  10
 1576.9200000003
  20
 1052.7800000000
  30
0.0
  11
 1576.9200000003
  21
 1064.3000000000
  31
0.0
   0
LINE
   5
2E0
 100
AcDbEntity
   8
LEVEL001
 370
40
 100
AcDbLine
   6
CONTINUOUS
  62
3
  10
 1576.9200000003
  20
 1064.3000000000
  30
0.0
  11
 1559.6400000003
  21
 1064.3000000000
  31
0.0
   0
ARC
   5
2E1
 100
AcDbEntity
   8
LEVEL001
 370
40
   6
CONTINUOUS
  62
3
 100
AcDbCircle
  10
 1559.6400000003
  20
 1070.0600000000
  30
0.0
  40
 5.7600000000000
 100
AcDbArc
  50
 90.000000000000
  51
 270.00000000000
   0
LINE
   5
2E2
 100
AcDbEntity
   8
LEVEL001
 370
40
 100
AcDbLine
   6
CONTINUOUS
  62
3
  10
 1559.6400000003
  20
 1075.8200000000
  30
0.0
  11
 1576.9200000003
  21
 1075.8200000000
  31
0.0
   0
LINE
   5
2E3
 100
AcDbEntity
   8
LEVEL001
 370
40
 100
AcDbLine
   6
CONTINUOUS
  62
3
  10
 1576.9200000003
  20
 1075.8200000000
  30
0.0
  11
 1576.9200000003
  21
 1087.3400000000
  31
0.0
   0
LINE
   5
2E4
 100
AcDbEntity
   8
LEVEL001
 370
40
 100
AcDbLine
   6
CONTINUOUS
  62
3
  10
 1576.9200000003
  20
 1087.3400000000
  30
0.0
  11
 1559.6400000003
  21
 1087.3400000000
  31
0.0
   0
ARC
   5
2E5
 100
AcDbEntity
   8
LEVEL001
 370
40
   6
CONTINUOUS
  62
3
 100
AcDbCircle
  10
 1559.6400000003
  20
 1070.0600000000
  30
0.0
  40
 17.280000000000
 100
AcDbArc
  50
 90.000000000000
  51
 270.00000000000
   0
LINE
   5
2E6
 100
AcDbEntity
   8
LEVEL001
 370
40
 100
AcDbLine
   6
CONTINUOUS
  62
3
  10
 1375.3200000003
  20
 1060.4600000000
  30
0.0
  11
 1360.9200000003
  21
 1083.5000000000
  31
0.0
   0
LINE
   5
2E7
 100
AcDbEntity
   8
LEVEL001
 370
40
 100
AcDbLine
   6
CONTINUOUS
  62
3
  10
 1360.9200000003
  20
 1083.5000000000
  30
0.0
  11
 1375.3200000003
  21
 1083.5000000000
  31
0.0
   0
LINE
   5
2E8
 100
AcDbEntity
   8
LEVEL001
 370
40
 100
AcDbLine
   6
CONTINUOUS
  62
3
  10
 1375.3200000003
  20
 1083.5000000000
  30
0.0
  11
 1375.3200000003
  21
 1060.4600000000
  31
0.0
   0
LINE
   5
2E9
 100
AcDbEntity
   8
LEVEL001
 370
40
 100
AcDbLine
   6
CONTINUOUS
  62
3
  10
 1360.9200000003
  20
 1083.5000000000
  30
0.0
  11
 1375.3200000003
  21
 1060.4600000000
  31
0.0
   0
LINE
   5
2EA
 100
AcDbEntity
   8
LEVEL001
 370
40
 100
AcDbLine
   6
CONTINUOUS
  62
3
  10
 1375.3200000003
  20
 1060.4600000000
  30
0.0
  11
 1375.3200000003
  21
 1083.5000000000
  31
0.0
   0
LINE
   5
2EB
 100
AcDbEntity
   8
LEVEL001
 370
40
 100
AcDbLine
   6
CONTINUOUS
  62
3
  10
 1375.3200000003
  20
 1083.5000000000
  30
0.0
  11
 1360.9200000003
  21
 1083.5000000000
  31
0.0
   0
LINE
   5
2EC
 100
AcDbEntity
   8
LEVEL001
 370
40
 100
AcDbLine
   6
CONTINUOUS
  62
3
  10
 1329.5600000003
  20
 1114.2200000000
  30
0.0
  11
 1309.0800000003
  21
 1083.5000000000
  31
0.0
   0
LINE
   5
2ED
 100
AcDbEntity
   8
LEVEL001
 370
40
 100
AcDbLine
   6
CONTINUOUS
  62
3
  10
 1309.0800000003
  20
 1083.5000000000
  30
0.0
  11
 1329.5600000003
  21
 1052.7800000000
  31
0.0
   0
LINE
   5
2EE
 100
AcDbEntity
   8
LEVEL001
 370
40
 100
AcDbLine
   6
CONTINUOUS
  62
3
  10
 1346.8400000003
  20
 1052.7800000000
  30
0.0
  11
 1326.3600000003
  21
 1083.5000000000
  31
0.0
   0
LINE
   5
2EF
 100
AcDbEntity
   8
LEVEL001
 370
40
 100
AcDbLine
   6
CONTINUOUS
  62
3
  10
 1326.3600000003
  20
 1083.5000000000
  30
0.0
  11
 1346.8400000003
  21
 1114.2200000000
  31
0.0
   0
LINE
   5
2F0
 100
AcDbEntity
   8
LEVEL001
 370
40
 100
AcDbLine
   6
CONTINUOUS
  62
3
  10
 1355.4800000003
  20
 1114.2200000000
  30
0.0
  11
 1335.0000000003
  21
 1083.5000000000
  31
0.0
   0
LINE
   5
2F1
 100
AcDbEntity
   8
LEVEL001
 370
40
 100
AcDbLine
   6
CONTINUOUS
  62
3
  10
 1335.0000000003
  20
 1083.5000000000
  30
0.0
  11
 1355.4800000003
  21
 1052.7800000000
  31
0.0
   0
LINE
   5
2F2
 100
AcDbEntity
   8
LEVEL001
 370
40
 100
AcDbLine
   6
CONTINUOUS
  62
3
  10
 1372.7600000003
  20
 1052.7800000000
  30
0.0
  11
 1352.2800000003
  21
 1083.5000000000
  31
0.0
   0
LINE
   5
2F3
 100
AcDbEntity
   8
LEVEL001
 370
40
 100
AcDbLine
   6
CONTINUOUS
  62
3
  10
 1352.2800000003
  20
 1083.5000000000
  30
0.0
  11
 1372.7600000003
  21
 1114.2200000000
  31
0.0
   0
LINE
   5
2F4
 100
AcDbEntity
   8
LEVEL001
 370
40
 100
AcDbLine
   6
CONTINUOUS
  62
3
  10
 1329.5600000003
  20
 1052.7800000000
  30
0.0
  11
 1309.0800000003
  21
 1083.5000000000
  31
0.0
   0
LINE
   5
2F5
 100
AcDbEntity
   8
LEVEL001
 370
40
 100
AcDbLine
   6
CONTINUOUS
  62
3
  10
 1309.0800000003
  20
 1083.5000000000
  30
0.0
  11
 1329.5600000003
  21
 1114.2200000000
  31
0.0
   0
LINE
   5
2F6
 100
AcDbEntity
   8
LEVEL001
 370
40
 100
AcDbLine
   6
CONTINUOUS
  62
3
  10
 1329.5600000003
  20
 1114.2200000000
  30
0.0
  11
 1346.8400000003
  21
 1114.2200000000
  31
0.0
   0
LINE
   5
2F7
 100
AcDbEntity
   8
LEVEL001
 370
40
 100
AcDbLine
   6
CONTINUOUS
  62
3
  10
 1346.8400000003
  20
 1114.2200000000
  30
0.0
  11
 1326.3600000003
  21
 1083.5000000000
  31
0.0
   0
LINE
   5
2F8
 100
AcDbEntity
   8
LEVEL001
 370
40
 100
AcDbLine
   6
CONTINUOUS
  62
3
  10
 1326.3600000003
  20
 1083.5000000000
  30
0.0
  11
 1346.8400000003
  21
 1052.7800000000
  31
0.0
   0
LINE
   5
2F9
 100
AcDbEntity
   8
LEVEL001
 370
40
 100
AcDbLine
   6
CONTINUOUS
  62
3
  10
 1346.8400000003
  20
 1052.7800000000
  30
0.0
  11
 1329.5600000003
  21
 1052.7800000000
  31
0.0
   0
LINE
   5
2FA
 100
AcDbEntity
   8
LEVEL001
 370
40
 100
AcDbLine
   6
CONTINUOUS
  62
3
  10
 1355.4800000003
  20
 1052.7800000000
  30
0.0
  11
 1335.0000000003
  21
 1083.5000000000
  31
0.0
   0
LINE
   5
2FB
 100
AcDbEntity
   8
LEVEL001
 370
40
 100
AcDbLine
   6
CONTINUOUS
  62
3
  10
 1335.0000000003
  20
 1083.5000000000
  30
0.0
  11
 1355.4800000003
  21
 1114.2200000000
  31
0.0
   0
LINE
   5
2FC
 100
AcDbEntity
   8
LEVEL001
 370
40
 100
AcDbLine
   6
CONTINUOUS
  62
3
  10
 1355.4800000003
  20
 1114.2200000000
  30
0.0
  11
 1372.7600000003
  21
 1114.2200000000
  31
0.0
   0
LINE
   5
2FD
 100
AcDbEntity
   8
LEVEL001
 370
40
 100
AcDbLine
   6
CONTINUOUS
  62
3
  10
 1372.7600000003
  20
 1114.2200000000
  30
0.0
  11
 1352.2800000003
  21
 1083.5000000000
  31
0.0
   0
LINE
   5
2FE
 100
AcDbEntity
   8
LEVEL001
 370
40
 100
AcDbLine
   6
CONTINUOUS
  62
3
  10
 1352.2800000003
  20
 1083.5000000000
  30
0.0
  11
 1372.7600000003
  21
 1052.7800000000
  31
0.0
   0
LINE
   5
2FF
 100
AcDbEntity
   8
LEVEL001
 370
40
 100
AcDbLine
   6
CONTINUOUS
  62
3
  10
 1372.7600000003
  20
 1052.7800000000
  30
0.0
  11
 1355.4800000003
  21
 1052.7800000000
  31
0.0
   0
LINE
   5
300
 100
AcDbEntity
   8
LEVEL001
 370
40
 100
AcDbLine
   6
CONTINUOUS
  62
3
  10
 1268.0000000001
  20
 333.38360969059
  30
0.0
  11
 1618.0000000001
  21
 333.38360969059
  31
0.0
   0
HATCH
   5
301
 100
AcDbEntity
   8
0
  62
1
 100
AcDbHatch
  10
0.0
  20
0.0
  30
0.0
 210
0.0
 220
0.0
 230
 1.0000000000000
   2
SOLID
  70
1
  71
1
  91
1
  92
1
  93
6
  72
1
  10
 1326.3600000003
  20
 1083.5000000000
  11
 1346.8400000003
  21
 1052.7800000000
  72
1
  10
 1346.8400000003
  20
 1052.7800000000
  11
 1329.5600000003
  21
 1052.7800000000
  72
1
  10
 1329.5600000003
  20
 1052.7800000000
  11
 1309.0800000003
  21
 1083.5000000000
  72
1
  10
 1309.0800000003
  20
 1083.5000000000
  11
 1329.5600000003
  21
 1114.2200000000
  72
1
  10
 1329.5600000003
  20
 1114.2200000000
  11
 1346.8400000003
  21
 1114.2200000000
  72
1
  10
 1346.8400000003
  20
 1114.2200000000
  11
 1326.3600000003
  21
 1083.5000000000
  97
1
 330

  75
0
  76
1
  98
1
  10
0.0
  20
0.0
   0
HATCH
   5
302
 100
AcDbEntity
   8
0
  62
1
 100
AcDbHatch
  10
0.0
  20
0.0
  30
0.0
 210
0.0
 220
0.0
 230
 1.0000000000000
   2
SOLID
  70
1
  71
1
  91
1
  92
1
  93
6
  72
1
  10
 1355.4800000003
  20
 1114.2200000000
  11
 1372.7600000003
  21
 1114.2200000000
  72
1
  10
 1372.7600000003
  20
 1114.2200000000
  11
 1352.2800000003
  21
 1083.5000000000
  72
1
  10
 1352.2800000003
  20
 1083.5000000000
  11
 1372.7600000003
  21
 1052.7800000000
  72
1
  10
 1372.7600000003
  20
 1052.7800000000
  11
 1355.4800000003
  21
 1052.7800000000
  72
1
  10
 1355.4800000003
  20
 1052.7800000000
  11
 1335.0000000003
  21
 1083.5000000000
  72
1
  10
 1335.0000000003
  20
 1083.5000000000
  11
 1355.4800000003
  21
 1114.2200000000
  97
1
 330

  75
0
  76
1
  98
1
  10
0.0
  20
0.0
   0
HATCH
   5
303
 100
AcDbEntity
   8
0
  62
1
 100
AcDbHatch
  10
0.0
  20
0.0
  30
0.0
 210
0.0
 220
0.0
 230
 1.0000000000000
   2
SOLID
  70
1
  71
1
  91
1
  92
1
  93
3
  72
1
  10
 1360.9200000003
  20
 1083.5000000000
  11
 1375.3200000003
  21
 1083.5000000000
  72
1
  10
 1375.3200000003
  20
 1083.5000000000
  11
 1375.3200000003
  21
 1060.4600000000
  72
1
  10
 1375.3200000003
  20
 1060.4600000000
  11
 1360.9200000003
  21
 1083.5000000000
  97
1
 330

  75
0
  76
1
  98
1
  10
0.0
  20
0.0
   0
HATCH
   5
304
 100
AcDbEntity
   8
0
  62
1
 100
AcDbHatch
  10
0.0
  20
0.0
  30
0.0
 210
0.0
 220
0.0
 230
 1.0000000000000
   2
SOLID
  70
1
  71
1
  91
2
  92
1
  93
6
  72
2
  10
 1409.8800000003
  20
 1072.9400000000
  40
 14.400000000000
  50
 270.00000000000
  51
 90.000000000000
  73
0
  72
1
  10
 1409.8800000003
  20
 1058.5400000000
  11
 1398.3600000003
  21
 1058.5400000000
  72
1
  10
 1398.3600000003
  20
 1058.5400000000
  11
 1398.3600000003
  21
 1052.7800000000
  72
1
  10
 1398.3600000003
  20
 1052.7800000000
  11
 1386.8400000003
  21
 1052.7800000000
  72
1
  10
 1386.8400000003
  20
 1052.7800000000
  11
 1386.8400000003
  21
 1087.3400000000
  72
1
  10
 1386.8400000003
  20
 1087.3400000000
  11
 1409.8800000003
  21
 1087.3400000000
  97
1
 330

  92
16
  93
4
  72
2
  10
 1409.8800000003
  20
 1072.9400000000
  40
 2.8800000000000
  50
 270.00000000000
  51
 90.000000000000
  73
1
  72
1
  10
 1409.8800000003
  20
 1075.8200000000
  11
 1398.3600000003
  21
 1075.8200000000
  72
1
  10
 1398.3600000003
  20
 1075.8200000000
  11
 1398.3600000003
  21
 1070.0600000000
  72
1
  10
 1398.3600000003
  20
 1070.0600000000
  11
 1409.8800000003
  21
 1070.0600000000
  97
1
 330

  75
0
  76
1
  98
1
  10
0.0
  20
0.0
   0
HATCH
   5
305
 100
AcDbEntity
   8
0
  62
1
 100
AcDbHatch
  10
0.0
  20
0.0
  30
0.0
 210
0.0
 220
0.0
 230
 1.0000000000000
   2
SOLID
  70
1
  71
1
  91
1
  92
1
  93
4
  72
1
  10
 1438.6800000003
  20
 1087.3400000000
  11
 1455.9600000003
  21
 1087.3400000000
  72
1
  10
 1455.9600000003
  20
 1087.3400000000
  11
 1432.9200000003
  21
 1052.7800000000
  72
1
  10
 1432.9200000003
  20
 1052.7800000000
  11
 1415.6400000003
  21
 1052.7800000000
  72
1
  10
 1415.6400000003
  20
 1052.7800000000
  11
 1438.6800000003
  21
 1087.3400000000
  97
1
 330

  75
0
  76
1
  98
1
  10
0.0
  20
0.0
   0
HATCH
   5
306
 100
AcDbEntity
   8
0
  62
1
 100
AcDbHatch
  10
0.0
  20
0.0
  30
0.0
 210
0.0
 220
0.0
 230
 1.0000000000000
   2
SOLID
  70
1
  71
1
  91
1
  92
1
  93
3
  72
1
  10
 1437.5351056329
  20
 1052.7800000000
  11
 1452.1200000003
  21
 1074.6573415511
  72
1
  10
 1452.1200000003
  20
 1074.6573415511
  11
 1452.1200000003
  21
 1052.7800000000
  72
1
  10
 1452.1200000003
  20
 1052.7800000000
  11
 1437.5351056329
  21
 1052.7800000000
  97
1
 330

  75
0
  76
1
  98
1
  10
0.0
  20
0.0
   0
HATCH
   5
307
 100
AcDbEntity
   8
0
  62
1
 100
AcDbHatch
  10
0.0
  20
0.0
  30
0.0
 210
0.0
 220
0.0
 230
 1.0000000000000
   2
SOLID
  70
1
  71
1
  91
1
  92
1
  93
22
  72
1
  10
 1519.3200000003
  20
 1064.3000000000
  11
 1542.3600000003
  21
 1064.3000000000
  72
1
  10
 1542.3600000003
  20
 1064.3000000000
  11
 1542.3600000003
  21
 1052.7800000000
  72
1
  10
 1542.3600000003
  20
 1052.7800000000
  11
 1507.8000000003
  21
 1052.7800000000
  72
1
  10
 1507.8000000003
  20
 1052.7800000000
  11
 1507.8000000003
  21
 1075.8200000000
  72
1
  10
 1507.8000000003
  20
 1075.8200000000
  11
 1496.2800000003
  21
 1075.8200000000
  72
1
  10
 1496.2800000003
  20
 1075.8200000000
  11
 1496.2800000003
  21
 1052.7800000000
  72
1
  10
 1496.2800000003
  20
 1052.7800000000
  11
 1455.9600000003
  21
 1052.7800000000
  72
1
  10
 1455.9600000003
  20
 1052.7800000000
  11
 1455.9600000003
  21
 1087.3400000000
  72
1
  10
 1455.9600000003
  20
 1087.3400000000
  11
 1467.4800000003
  21
 1087.3400000000
  72
1
  10
 1467.4800000003
  20
 1087.3400000000
  11
 1467.4800000003
  21
 1064.3000000000
  72
1
  10
 1467.4800000003
  20
 1064.3000000000
  11
 1484.7600000003
  21
 1064.3000000000
  72
1
  10
 1484.7600000003
  20
 1064.3000000000
  11
 1484.7600000003
  21
 1075.8200000000
  72
1
  10
 1484.7600000003
  20
 1075.8200000000
  11
 1473.2400000003
  21
 1075.8200000000
  72
1
  10
 1473.2400000003
  20
 1075.8200000000
  11
 1473.2400000003
  21
 1087.3400000000
  72
1
  10
 1473.2400000003
  20
 1087.3400000000
  11
 1542.3600000003
  21
 1087.3400000000
  72
1
  10
 1542.3600000003
  20
 1087.3400000000
  11
 1542.3600000003
  21
 1075.8200000000
  72
1
  10
 1542.3600000003
  20
 1075.8200000000
  11
 1519.3200000003
  21
 1075.8200000000
  72
1
  10
 1519.3200000003
  20
 1075.8200000000
  11
 1519.3200000003
  21
 1072.9400000000
  72
1
  10
 1519.3200000003
  20
 1072.9400000000
  11
 1539.4800000003
  21
 1072.9400000000
  72
1
  10
 1539.4800000003
  20
 1072.9400000000
  11
 1539.4800000003
  21
 1067.1800000000
  72
1
  10
 1539.4800000003
  20
 1067.1800000000
  11
 1519.3200000003
  21
 1067.1800000000
  72
1
  10
 1519.3200000003
  20
 1067.1800000000
  11
 1519.3200000003
  21
 1064.3000000000
  97
1
 330

  75
0
  76
1
  98
1
  10
0.0
  20
0.0
   0
HATCH
   5
308
 100
AcDbEntity
   8
0
  62
1
 100
AcDbHatch
  10
0.0
  20
0.0
  30
0.0
 210
0.0
 220
0.0
 230
 1.0000000000000
   2
SOLID
  70
1
  71
1
  91
1
  92
1
  93
8
  72
1
  10
 1559.6400000003
  20
 1087.3400000000
  11
 1576.9200000003
  21
 1087.3400000000
  72
1
  10
 1576.9200000003
  20
 1087.3400000000
  11
 1576.9200000003
  21
 1075.8200000000
  72
1
  10
 1576.9200000003
  20
 1075.8200000000
  11
 1559.6400000003
  21
 1075.8200000000
  72
2
  10
 1559.6400000003
  20
 1070.0600000000
  40
 5.7600000000000
  50
 90.000000000000
  51
 270.00000000000
  73
1
  72
1
  10
 1559.6400000003
  20
 1064.3000000000
  11
 1576.9200000003
  21
 1064.3000000000
  72
1
  10
 1576.9200000003
  20
 1064.3000000000
  11
 1576.9200000003
  21
 1052.7800000000
  72
1
  10
 1576.9200000003
  20
 1052.7800000000
  11
 1559.6400000003
  21
 1052.7800000000
  72
2
  10
 1559.6400000003
  20
 1070.0600000000
  40
 17.280000000000
  50
 90.000000000000
  51
 270.00000000000
  73
0
  97
1
 330

  75
0
  76
1
  98
1
  10
0.0
  20
0.0
   0
LINE
   5
309
 100
AcDbEntity
   8
LEVEL001
 370
50
 100
AcDbLine
   6
CONTINUOUS
  62
4
  10
 1268.0000000001
  20
 1140.0000000000
  30
0.0
  11
 1268.0000000001
  21
 48.000000000020
  31
0.0
   0
LINE
   5
30A
 100
AcDbEntity
   8
LEVEL001
 370
50
 100
AcDbLine
   6
CONTINUOUS
  62
4
  10
 1268.0000000001
  20
 1140.0000000000
  30
0.0
  11
 1268.0000000001
  21
 48.000000000009
  31
0.0
   0
LINE
   5
30B
 100
AcDbEntity
   8
LEVEL001
 370
50
 100
AcDbLine
   6
CONTINUOUS
  62
4
  10
 1618.0000000001
  20
 48.000000000009
  30
0.0
  11
 1618.0000000001
  21
 1140.0000000000
  31
0.0
   0
LINE
   5
30C
 100
AcDbEntity
   8
LEVEL001
 370
50
 100
AcDbLine
   6
CONTINUOUS
  62
4
  10
 1618.0000000001
  20
 1140.0000000000
  30
0.0
  11
 62.000000000102
  21
 1140.0000000000
  31
0.0
   0
LINE
   5
30D
 100
AcDbEntity
   8
LEVEL001
 370
50
 100
AcDbLine
   6
CONTINUOUS
  62
4
  10
 62.000000000102
  20
 1140.0000000000
  30
0.0
  11
 62.000000000102
  21
 48.000000000020
  31
0.0
   0
LINE
   5
30E
 100
AcDbEntity
   8
LEVEL001
 370
50
 100
AcDbLine
   6
CONTINUOUS
  62
4
  10
 62.000000000102
  20
 48.000000000020
  30
0.0
  11
 1618.0000000001
  21
 48.000000000020
  31
0.0
   0
MTEXT
   5
310
 100
AcDbEntity
   8
LEVEL001
 370
20
  62
7
 100
AcDbMText
  10
 1386.8400000003
  20
 1093.1000000000
  30
0.0
  40
 12.000000000000
  41
0.0
  71
7
  72
1
   1
\T1.000000;ケージーパルテック株式会社
   7
GMM001
  44
 0.79999984000003
   0
MTEXT
   5
312
 100
AcDbEntity
   8
LEVEL001
 370
15
  62
8
 100
AcDbMText
  10
 1499.2000000001
  20
 194.66666666668
  30
0.0
  40
 11.200000000000
  41
0.0
  71
5
  72
1
   1
\T1.000000;作成日付：
   7
GMM002
  44
 0.79999984000003
   0
MTEXT
   5
314
 100
AcDbEntity
   8
LEVEL001
 370
15
  62
8
 100
AcDbMText
  10
 1499.2000000001
  20
 168.00000000001
  30
0.0
  40
 11.200000000000
  41
0.0
  71
5
  72
1
   1
\T1.000000;変更日付：
   7
GMM002
  44
 0.79999984000003
   0
MTEXT
   5
316
 100
AcDbEntity
   8
LEVEL001
 370
15
  62
8
 100
AcDbMText
  10
 1443.0000000001
  20
 248.00000000001
  30
0.0
  40
 15.000000000000
  41
0.0
  71
5
  72
1
   1
\T1.000000;三面図
   7
GMM002
  44
 0.79999984000003
   0
MTEXT
   5
318
 100
AcDbEntity
   8
LEVEL001
 370
15
  62
8
 100
AcDbMText
  10
 1276.7858875373
  20
 312.89545107619
  30
0.0
  40
 12.000000000000
  41
0.0
  71
7
  72
1
   1
\T1.000000;※本製品は予告無しに変更する事があります。
   7
GMM002
  44
 0.79999984000003
   0
LINE
   5
319
 100
AcDbEntity
   8
0
 370
15
 100
AcDbLine
   6
DOT
  62
2
  10
 1680.0000000000
  20
 1188.0000000000
  30
0.0
  11
0.0
  21
 1188.0000000000
  31
0.0
   0
LINE
   5
31A
 100
AcDbEntity
   8
0
 370
15
 100
AcDbLine
   6
DOT
  62
2
  10
0.0
  20
0.0
  30
0.0
  11
 1680.0000000000
  21
0.0
  31
0.0
   0
LINE
   5
31B
 100
AcDbEntity
   8
0
 370
15
 100
AcDbLine
   6
DOT
  62
2
  10
0.0
  20
 1188.0000000000
  30
0.0
  11
0.0
  21
0.0
  31
0.0
   0
MTEXT
   5
31D
 100
AcDbEntity
   8
LEVEL001
 370
15
  62
8
 100
AcDbMText
  10
 1293.2000000001
  20
 1012.0000000000
  30
0.0
  40
 12.000000000000
  41
0.0
  71
5
  72
1
   1
\T1.000000;商品名：
   7
GMM001
  44
 0.79999984000003
   0
MTEXT
   5
31F
 100
AcDbEntity
   8
LEVEL001
 370
15
  62
8
 100
AcDbMText
  10
 1287.2000000001
  20
 932.00000000001
  30
0.0
  40
 12.000000000000
  41
0.0
  71
5
  72
1
   1
\T1.000000;形式：
   7
GMM001
  44
 0.79999984000003
   0
MTEXT
   5
321
 100
AcDbEntity
   8
LEVEL001
 370
15
  62
8
 100
AcDbMText
  10
 1287.2000000001
  20
 852.00000000001
  30
0.0
  40
 12.000000000000
  41
0.0
  71
5
  72
1
   1
\T1.000000;仕様：
   7
GMM001
  44
 0.79999984000003
   0
MTEXT
   5
323
 100
AcDbEntity
   8
LEVEL001
 370
15
  62
8
 100
AcDbMText
  10
 1299.2000000001
  20
 273.00000000001
  30
0.0
  40
 12.000000000000
  41
0.0
  71
5
  72
1
   1
\T1.000000;図面名称：
   7
GMM001
  44
 0.79999984000003
   0
MTEXT
   5
325
 100
AcDbEntity
   8
LEVEL001
 370
15
  62
8
 100
AcDbMText
  10
 1287.2000000001
  20
 193.00000000001
  30
0.0
  40
 12.000000000000
  41
0.0
  71
5
  72
1
   1
\T1.000000;縮尺：
   7
GMM001
  44
 0.79999984000003
   0
MTEXT
   5
327
 100
AcDbEntity
   8
LEVEL001
 370
15
  62
8
 100
AcDbMText
  10
 1305.2000000001
  20
 114.88614091451
  30
0.0
  40
 12.000000000000
  41
0.0
  71
5
  72
1
   1
\T1.000000;用紙サイズ：
   7
GMM001
  44
 0.79999984000003
   0
MTEXT
   5
329
 100
AcDbEntity
   8
LEVEL001
 370
15
  62
8
 100
AcDbMText
  10
 1505.2000000001
  20
 113.00000000001
  30
0.0
  40
 12.000000000000
  41
0.0
  71
5
  72
1
   1
\T1.000000;ファイル名：
   7
GMM001
  44
 0.79999984000003
   0
MTEXT
   5
32B
 100
AcDbEntity
   8
LEVEL001
 370
15
  62
8
 100
AcDbMText
  10
 1335.0000000001
  20
 978.00000000001
  30
0.0
  40
 18.000000000000
  41
0.0
  71
7
  72
1
   1
\T1.000000;手摺金具　Ｌ型　Ｐタイプ
   7
GMM001
  44
 0.79999984000003
   0
MTEXT
   5
32D
 100
AcDbEntity
   8
LEVEL001
 370
15
  62
8
 100
AcDbMText
  10
 1368.0000000001
  20
 168.00000000001
  30
0.0
  40
 15.000000000000
  41
0.0
  71
5
  72
1
   1
\T1.000000;Ｓ＝１：４
   7
GMM001
  44
 0.79999984000003
   0
MTEXT
   5
32F
 100
AcDbEntity
   8
LEVEL001
 370
15
  62
8
 100
AcDbMText
  10
 1368.0000000001
  20
 88.000000000009
  30
0.0
  40
 15.000000000000
  41
0.0
  71
5
  72
1
   1
\T1.000000;Ａ３
   7
GMM001
  44
 0.79999984000003
   0
MTEXT
   5
331
 100
AcDbEntity
   8
LEVEL001
 370
15
  62
8
 100
AcDbMText
  10
 1573.2000000001
  20
 141.33333333334
  30
0.0
  40
 8.0000000000000
  41
0.0
  71
5
  72
1
   1
\T1.000000;平成　　年　　月　　日
   7
GMM001
  44
 0.79999984000003
   0
MTEXT
   5
333
 100
AcDbEntity
   8
LEVEL001
 370
15
  62
8
 100
AcDbMText
  10
 1573.2000000001
  20
 168.00000000001
  30
0.0
  40
 8.0000000000000
  41
0.0
  71
5
  72
1
   1
\T1.000000;平成　　年　　月　　日
   7
GMM001
  44
 0.79999984000003
   0
LINE
   5
334
 100
AcDbEntity
   8
0
 370
15
 100
AcDbLine
   6
DOT
  62
2
  10
 1680.0000000000
  20
 1188.0000000000
  30
0.0
  11
 1680.0000000000
  21
0.0
  31
0.0
   0
MTEXT
   5
336
 100
AcDbEntity
   8
0
 370
15
  62
8
 100
AcDbMText
  10
-418.75647742605
  20
 1132.5945415873
  30
0.0
  40
 100.00000000000
  41
0.0
  71
4
  72
1
   1
\T1.000000;ＰＩＫ
   7
GMM001
  44
 0.79999984000003
   0
MTEXT
   5
338
 100
AcDbEntity
   8
LEVEL001
 370
15
  62
8
 100
AcDbMText
  10
 1278.5000000001
  20
 900.00000000001
  30
0.0
  40
 14.000000000000
  41
0.0
  71
7
  72
1
   1
\W1.000000;\T1.000000;平受固定アンカー座\W0.500000;\T1.000000; \W1.000000;\T1.000000;ＰＩＫ（１６軸）／（１３軸）
   7
GMM001
  44
 0.79999984000003
   0
MTEXT
   5
33A
 100
AcDbEntity
   8
LEVEL001
 370
15
  62
8
 100
AcDbMText
  10
 1305.5062713797
  20
 838.26225769669
  30
0.0
  40
 12.000000000000
  41
0.0
  71
1
  72
1
   1
{\T1.000000;材　質／ＳＵＳ３０４}\P{\T1.000000;仕上げ／ＨＬ}\P{\T1.000000;軸　径／%%c１６・%%c１３}
   7
GMM001
  44
 0.79999984000003
   0
LINE
   5
33B
 100
AcDbEntity
   8
LEVEL001
 370
20
 100
AcDbLine
   6
CONTINUOUS
  62
7
  10
 1434.2611135294
  20
 755.00000000001
  30
0.0
  11
 1584.2611135294
  21
 755.00000000001
  31
0.0
   0
LINE
   5
33C
 100
AcDbEntity
   8
LEVEL001
 370
20
 100
AcDbLine
   6
CONTINUOUS
  62
7
  10
 1434.2611135294
  20
 776.00000000001
  30
0.0
  11
 1434.2611135294
  21
 644.00000000001
  31
0.0
   0
LINE
   5
33D
 100
AcDbEntity
   8
LEVEL001
 370
20
 100
AcDbLine
   6
CONTINUOUS
  62
7
  10
 1509.2611135294
  20
 755.00000000001
  30
0.0
  11
 1509.2611135294
  21
 644.00000000001
  31
0.0
   0
LINE
   5
33E
 100
AcDbEntity
   8
LEVEL001
 370
20
 100
AcDbLine
   6
CONTINUOUS
  62
7
  10
 1584.2611135294
  20
 776.00000000001
  30
0.0
  11
 1584.2611135294
  21
 644.00000000001
  31
0.0
   0
MTEXT
   5
340
 100
AcDbEntity
   8
LEVEL001
 370
15
  62
8
 100
AcDbMText
  10
 1471.7611135294
  20
 744.50000000001
  30
0.0
  40
 12.000000000000
  41
0.0
  71
5
  72
1
   1
\T1.000000;１６軸
   7
GMM001
  44
 0.79999984000003
   0
MTEXT
   5
342
 100
AcDbEntity
   8
LEVEL001
 370
15
  62
8
 100
AcDbMText
  10
 1546.7611135294
  20
 744.50000000001
  30
0.0
  40
 12.000000000000
  41
0.0
  71
5
  72
1
   1
\T1.000000;１３軸
   7
GMM001
  44
 0.79999984000003
   0
MTEXT
   5
344
 100
AcDbEntity
   8
LEVEL001
 370
15
  62
8
 100
AcDbMText
  10
 1471.7611135294
  20
 725.00000000001
  30
0.0
  40
 12.000000000000
  41
0.0
  71
5
  72
1
   1
\T1.000000;５８
   7
GMM001
  44
 0.79999984000003
   0
MTEXT
   5
346
 100
AcDbEntity
   8
LEVEL001
 370
15
  62
8
 100
AcDbMText
  10
 1471.7611135294
  20
 713.00000000001
  30
0.0
  40
 12.000000000000
  41
0.0
  71
5
  72
1
   1
\T1.000000;７０
   7
GMM001
  44
 0.79999984000003
   0
MTEXT
   5
348
 100
AcDbEntity
   8
LEVEL001
 370
15
  62
8
 100
AcDbMText
  10
 1471.7611135294
  20
 701.00000000001
  30
0.0
  40
 12.000000000000
  41
0.0
  71
5
  72
1
   1
\T1.000000;８０
   7
GMM001
  44
 0.79999984000003
   0
MTEXT
   5
34A
 100
AcDbEntity
   8
LEVEL001
 370
15
  62
8
 100
AcDbMText
  10
 1471.7611135294
  20
 689.00000000001
  30
0.0
  40
 12.000000000000
  41
0.0
  71
5
  72
1
   1
\T1.000000;１００
   7
GMM001
  44
 0.79999984000003
   0
MTEXT
   5
34C
 100
AcDbEntity
   8
LEVEL001
 370
15
  62
8
 100
AcDbMText
  10
 1471.7611135294
  20
 665.00000000001
  30
0.0
  40
 12.000000000000
  41
0.0
  71
5
  72
1
   1
\T1.000000;１５０
   7
GMM001
  44
 0.79999984000003
   0
MTEXT
   5
34E
 100
AcDbEntity
   8
LEVEL001
 370
15
  62
8
 100
AcDbMText
  10
 1471.7611135294
  20
 653.00000000001
  30
0.0
  40
 12.000000000000
  41
0.0
  71
5
  72
1
   1
\T1.000000;２００
   7
GMM001
  44
 0.79999984000003
   0
MTEXT
   5
350
 100
AcDbEntity
   8
LEVEL001
 370
15
  62
8
 100
AcDbMText
  10
 1471.7611135294
  20
 677.00000000001
  30
0.0
  40
 12.000000000000
  41
0.0
  71
5
  72
1
   1
\T1.000000;１２０
   7
GMM001
  44
 0.79999984000003
   0
MTEXT
   5
352
 100
AcDbEntity
   8
LEVEL001
 370
15
  62
8
 100
AcDbMText
  10
 1546.7611135294
  20
 713.00000000001
  30
0.0
  40
 12.000000000000
  41
0.0
  71
5
  72
1
   1
\T1.000000;７０
   7
GMM001
  44
 0.79999984000003
   0
MTEXT
   5
354
 100
AcDbEntity
   8
LEVEL001
 370
15
  62
8
 100
AcDbMText
  10
 1546.7611135294
  20
 725.00000000001
  30
0.0
  40
 12.000000000000
  41
0.0
  71
5
  72
1
   1
\T1.000000;５５
   7
GMM001
  44
 0.79999984000003
   0
LINE
   5
355
 100
AcDbEntity
   8
LEVEL001
 370
20
 100
AcDbLine
   6
CONTINUOUS
  62
7
  10
 1284.2611135294
  20
 776.00000000001
  30
0.0
  11
 1284.2611135294
  21
 644.00000000001
  31
0.0
   0
LINE
   5
356
 100
AcDbEntity
   8
LEVEL001
 370
20
 100
AcDbLine
   6
CONTINUOUS
  62
7
  10
 1284.2611135294
  20
 734.00000000001
  30
0.0
  11
 1584.2611135294
  21
 734.00000000001
  31
0.0
   0
LINE
   5
357
 100
AcDbEntity
   8
LEVEL001
 370
20
 100
AcDbLine
   6
CONTINUOUS
  62
7
  10
 1284.2611135294
  20
 644.00000000001
  30
0.0
  11
 1584.2611135294
  21
 644.00000000001
  31
0.0
   0
MTEXT
   5
359
 100
AcDbEntity
   8
LEVEL001
 370
15
  62
8
 100
AcDbMText
  10
 1359.2611135294
  20
 755.00000000001
  30
0.0
  40
 12.000000000000
  41
0.0
  71
5
  72
1
   1
\T1.000000;品番
   7
GMM001
  44
 0.79999984000003
   0
MTEXT
   5
35B
 100
AcDbEntity
   8
LEVEL001
 370
15
  62
8
 100
AcDbMText
  10
 1509.2611135294
  20
 765.50000000001
  30
0.0
  40
 12.000000000000
  41
0.0
  71
5
  72
1
   1
\W1.000000;\T1.000000;出寸法Ｌ\W0.500000;\T1.000000;(m/m\W1.000000;\T1.000000;）
   7
GMM001
  44
 0.79999984000003
   0
LINE
   5
35C
 100
AcDbEntity
   8
LEVEL001
 370
20
 100
AcDbLine
   6
CONTINUOUS
  62
7
  10
 1284.2611135294
  20
 776.00000000001
  30
0.0
  11
 1584.2611135294
  21
 776.00000000001
  31
0.0
   0
MTEXT
   5
35E
 100
AcDbEntity
   8
LEVEL001
 370
15
  62
8
 100
AcDbMText
  10
 1543.0000000001
  20
 88.000000000010
  30
0.0
  40
 10.000000000000
  41
0.0
  71
2
  72
1
   1
{\W1.000000;\T1.000000;手摺金具－ＰＩＫ}\P{\W1.000000;\T1.000000;　　　　　\W0.500000;\T1.000000;(\W1.000000;\T1.000000;１６軸\W0.500000;\T1.000000;)(\W1.000000;\T1.000000;１３軸\W0.500000;\T1.000000;)}
   7
GMM001
  44
 0.79999984000003
   0
MTEXT
   5
360
 100
AcDbEntity
   8
LEVEL001
 370
15
  62
8
 100
AcDbMText
  10
 1359.2611135294
  20
 711.00000000001
  30
0.0
  40
 12.000000000000
  41
0.0
  71
2
  72
1
   1
{\T1.000000;ＰＩＫ２０}\P\P{\T1.000000;ＰＩＫ２５}
   7
GMM001
  44
 0.79999984000003
   0
LINE
   5
361
 100
AcDbEntity
   8
0
 370
40
 100
AcDbLine
   6
CONTINUOUS
  62
3
  10
 62.000000000102
  20
 596.25076754632
  30
0.0
  11
 1268.0000000001
  21
 596.25076754632
  31
0.0
   0
LINE
   5
362
 100
AcDbEntity
   8
0
 370
40
 100
AcDbLine
   6
CONTINUOUS
  62
3
  10
 665.00000000010
  20
 1140.0000000000
  30
0.0
  11
 665.00000000010
  21
 48.000000000020
  31
0.0
   0
MTEXT
   5
364
 100
AcDbEntity
   8
LEVEL001
 370
15
  62
8
 100
AcDbMText
  10
 63.200000000103
  20
 1122.2507675463
  30
0.0
  40
 12.000000000000
  41
0.0
  71
4
  72
1
   1
\T1.000000;　ＰＩＫ２０（１６軸）
   7
GMM001
  44
 0.79999984000003
   0
MTEXT
   5
366
 100
AcDbEntity
   8
LEVEL001
 370
15
  62
8
 100
AcDbMText
  10
 666.20000000010
  20
 1122.2507675463
  30
0.0
  40
 12.000000000000
  41
0.0
  71
4
  72
1
   1
\T1.000000;　ＰＩＫ２５（１６軸）
   7
GMM001
  44
 0.79999984000003
   0
MTEXT
   5
368
 100
AcDbEntity
   8
LEVEL001
 370
15
  62
8
 100
AcDbMText
  10
 63.200000000103
  20
 576.25076754632
  30
0.0
  40
 12.000000000000
  41
0.0
  71
4
  72
1
   1
\T1.000000;　ＰＩＫ２０（１３軸）
   7
GMM001
  44
 0.79999984000003
   0
MTEXT
   5
36A
 100
AcDbEntity
   8
LEVEL001
 370
15
  62
8
 100
AcDbMText
  10
 666.20000000010
  20
 576.25076754632
  30
0.0
  40
 12.000000000000
  41
0.0
  71
4
  72
1
   1
\T1.000000;　ＰＩＫ２５（１３軸）
   7
GMM001
  44
 0.79999984000003
   0
CIRCLE
   5
36B
 100
AcDbEntity
   8
LEVEL001
 370
15
 100
AcDbCircle
   6
HIDDEN
  62
2
  10
 436.05073807611
  20
 962.86464123936
  30
0.0
  40
 8.0000000000000
   0
LINE
   5
36C
 100
AcDbEntity
   8
LEVEL001
 370
15
 100
AcDbLine
   6
DASHDOT
  62
8
  10
 424.00634562273
  20
 962.86464123936
  30
0.0
  11
 448.09513052949
  21
 962.86464123936
  31
0.0
   0
ARC
   5
36D
 100
AcDbEntity
   8
LEVEL001
 370
20
   6
CONTINUOUS
  62
7
 100
AcDbCircle
  10
 320.60013322876
  20
 812.41537478653
  30
0.0
  40
 8.0000000000000
 100
AcDbArc
  50
 270.00000000000
  51
0.0
   0
ARC
   5
36E
 100
AcDbEntity
   8
LEVEL001
 370
20
   6
CONTINUOUS
  62
7
 100
AcDbCircle
  10
 320.60013322876
  20
 812.41537478653
  30
0.0
  40
 24.000000000000
 100
AcDbArc
  50
 270.00000000000
  51
0.0
   0
LINE
   5
36F
 100
AcDbEntity
   8
LEVEL001
 370
20
 100
AcDbLine
   6
CONTINUOUS
  62
7
  10
 328.60013322876
  20
 812.41537478653
  30
0.0
  11
 328.60013322876
  21
 841.41537478653
  31
0.0
   0
LINE
   5
370
 100
AcDbEntity
   8
LEVEL001
 370
20
 100
AcDbLine
   6
CONTINUOUS
  62
7
  10
 328.60013322876
  20
 841.41537478653
  30
0.0
  11
 344.60013322876
  21
 841.41537478653
  31
0.0
   0
LINE
   5
371
 100
AcDbEntity
   8
LEVEL001
 370
20
 100
AcDbLine
   6
CONTINUOUS
  62
7
  10
 344.60013322876
  20
 841.41537478653
  30
0.0
  11
 344.60013322876
  21
 812.41537478653
  31
0.0
   0
LINE
   5
372
 100
AcDbEntity
   8
LEVEL001
 370
20
 100
AcDbLine
   6
CONTINUOUS
  62
7
  10
 330.10013322876
  20
 841.41537478653
  30
0.0
  11
 343.10013322876
  21
 841.41537478653
  31
0.0
   0
LINE
   5
373
 100
AcDbEntity
   8
LEVEL001
 370
20
 100
AcDbLine
   6
CONTINUOUS
  62
7
  10
 265.10013322876
  20
 823.91537478653
  30
0.0
  11
 265.10013322876
  21
 768.91537478653
  31
0.0
   0
LINE
   5
374
 100
AcDbEntity
   8
LEVEL001
 370
20
 100
AcDbLine
   6
CONTINUOUS
  62
7
  10
 265.10013322876
  20
 768.91537478653
  30
0.0
  11
 266.60013322876
  21
 770.41537478653
  31
0.0
   0
LINE
   5
375
 100
AcDbEntity
   8
LEVEL001
 370
20
 100
AcDbLine
   6
CONTINUOUS
  62
7
  10
 266.60013322876
  20
 770.41537478653
  30
0.0
  11
 266.60013322876
  21
 822.41537478653
  31
0.0
   0
LINE
   5
376
 100
AcDbEntity
   8
LEVEL001
 370
20
 100
AcDbLine
   6
CONTINUOUS
  62
7
  10
 266.60013322876
  20
 822.41537478653
  30
0.0
  11
 265.10013322876
  21
 823.91537478653
  31
0.0
   0
LINE
   5
377
 100
AcDbEntity
   8
LEVEL001
 370
20
 100
AcDbLine
   6
CONTINUOUS
  62
7
  10
 266.60013322876
  20
 804.41537478653
  30
0.0
  11
 320.60013322876
  21
 804.41537478653
  31
0.0
   0
LINE
   5
378
 100
AcDbEntity
   8
LEVEL001
 370
20
 100
AcDbLine
   6
CONTINUOUS
  62
7
  10
 320.60013322876
  20
 788.41537478653
  30
0.0
  11
 266.60013322876
  21
 788.41537478653
  31
0.0
   0
LINE
   5
379
 100
AcDbEntity
   8
LEVEL001
 370
20
 100
AcDbLine
   6
CONTINUOUS
  62
7
  10
 263.10013322876
  20
 823.91537478653
  30
0.0
  11
 263.10013322876
  21
 768.91537478653
  31
0.0
   0
LINE
   5
37A
 100
AcDbEntity
   8
LEVEL001
 370
20
 100
AcDbLine
   6
CONTINUOUS
  62
7
  10
 263.10013322876
  20
 768.91537478653
  30
0.0
  11
 265.10013322876
  21
 768.91537478653
  31
0.0
   0
LINE
   5
37B
 100
AcDbEntity
   8
LEVEL001
 370
20
 100
AcDbLine
   6
CONTINUOUS
  62
7
  10
 265.10013322876
  20
 823.91537478653
  30
0.0
  11
 263.10013322876
  21
 823.91537478653
  31
0.0
   0
ARC
   5
37C
 100
AcDbEntity
   8
LEVEL001
 370
15
   6
DASHDOT
  62
8
 100
AcDbCircle
  10
 320.60013322875
  20
 812.41537478653
  30
0.0
  40
 16.000000000000
 100
AcDbArc
  50
 270.00000000000
  51
0.0
   0
LINE
   5
37D
 100
AcDbEntity
   8
LEVEL001
 370
15
 100
AcDbLine
   6
DASHDOT
  62
8
  10
 320.60013322876
  20
 796.41537478653
  30
0.0
  11
 256.36701877806
  21
 796.41537478653
  31
0.0
   0
DIMENSION
   5
37E
 100
AcDbEntity
   8
0
 370
15
   6
CONTINUOUS
  62
8
 100
AcDbDimension
   2
*D1
  10
 373.24417305232
  20
 841.41537478653
  30
0.0
  11
 373.24417305232
  21
 818.91537478653
  31
0.0
  70
0
   3
GMM001
 100
AcDbAlignedDimension
  13
 320.60013322875
  23
 796.41537478653
  33
0.0
  14
 344.60013322876
  24
 841.41537478653
  34
0.0
  50
 90.000000000000
 100
AcDbRotatedDimension
   0
DIMENSION
   5
37F
 100
AcDbEntity
   8
0
 370
15
   6
CONTINUOUS
  62
8
 100
AcDbDimension
   2
*D2
  10
 266.60013322876
  20
 738.91537478653
  30
0.0
  11
 240.70114162345
  21
 738.91537478653
  31
0.0
  70
128
   3
GMM002
 100
AcDbAlignedDimension
  13
 263.10013322876
  23
 768.91537478653
  33
0.0
  14
 266.60013322876
  24
 770.41537478653
  34
0.0
 100
AcDbRotatedDimension
   0
DIMENSION
   5
380
 100
AcDbEntity
   8
0
 370
15
   6
CONTINUOUS
  62
8
 100
AcDbDimension
   2
*D3
  10
 336.60013322875
  20
 738.91537478653
  30
0.0
  11
 301.60013322876
  21
 738.91537478653
  31
0.0
  70
0
   1
\A1;L
   3
GMM003
 100
AcDbAlignedDimension
  13
 266.60013322876
  23
 770.41537478653
  33
0.0
  14
 336.60013322875
  24
 812.41537478653
  34
0.0
 100
AcDbRotatedDimension
   0
LINE
   5
381
 100
AcDbEntity
   8
LEVEL004
 370
20
 100
AcDbLine
   6
CONTINUOUS
  62
7
  10
 329.15797460857
  20
 841.41537478653
  30
0.0
  11
 344.04229184896
  21
 841.41537478653
  31
0.0
   0
LINE
   5
382
 100
AcDbEntity
   8
LEVEL001
 370
20
 100
AcDbLine
   6
CONTINUOUS
  62
7
  10
 428.05073807611
  20
 796.41537478653
  30
0.0
  11
 428.05073807611
  21
 841.41537478653
  31
0.0
   0
LINE
   5
383
 100
AcDbEntity
   8
LEVEL001
 370
20
 100
AcDbLine
   6
CONTINUOUS
  62
7
  10
 428.05073807611
  20
 841.41537478653
  30
0.0
  11
 444.05073807611
  21
 841.41537478653
  31
0.0
   0
LINE
   5
384
 100
AcDbEntity
   8
LEVEL001
 370
20
 100
AcDbLine
   6
CONTINUOUS
  62
7
  10
 444.05073807611
  20
 841.41537478653
  30
0.0
  11
 444.05073807611
  21
 796.41537478653
  31
0.0
   0
ARC
   5
385
 100
AcDbEntity
   8
LEVEL001
 370
20
   6
CONTINUOUS
  62
7
 100
AcDbCircle
  10
 436.05073807611
  20
 796.41537478653
  30
0.0
  40
 8.0000000000000
 100
AcDbArc
  50
 180.00000000000
  51
0.0
   0
ARC
   5
386
 100
AcDbEntity
   8
LEVEL001
 370
20
   6
CONTINUOUS
  62
7
 100
AcDbCircle
  10
 436.05073807611
  20
 796.41537478653
  30
0.0
  40
 27.500000000000
 100
AcDbArc
  50
 106.91238980342
  51
 73.087610196568
   0
ARC
   5
387
 100
AcDbEntity
   8
LEVEL001
 370
20
   6
CONTINUOUS
  62
7
 100
AcDbCircle
  10
 436.05073807611
  20
 796.41537478653
  30
0.0
  40
 26.000000000000
 100
AcDbArc
  50
 107.92021313939
  51
 72.079786860595
   0
LINE
   5
388
 100
AcDbEntity
   8
LEVEL001
 370
15
 100
AcDbLine
   6
DASHDOT
  62
8
  10
 468.41729530146
  20
 796.41537478653
  30
0.0
  11
 403.68418085076
  21
 796.41537478653
  31
0.0
   0
DIMENSION
   5
389
 100
AcDbEntity
   8
0
 370
15
   6
CONTINUOUS
  62
8
 100
AcDbDimension
   2
*D4
  10
 444.05073807611
  20
 738.91537478653
  30
0.0
  11
 488.29885837676
  21
 738.91537478653
  31
0.0
  70
128
  53
0.0
   3
GMM004
 100
AcDbAlignedDimension
  13
 428.05073807611
  23
 796.41537478653
  33
0.0
  14
 444.05073807611
  24
 796.41537478653
  34
0.0
 100
AcDbRotatedDimension
   0
DIMENSION
   5
38A
 100
AcDbEntity
   8
0
 370
15
   6
CONTINUOUS
  62
8
 100
AcDbDimension
   2
*D5
  10
 463.55073807611
  20
 708.91537478653
  30
0.0
  11
 436.05073807611
  21
 708.91537478653
  31
0.0
  70
0
   3
GMM001
 100
AcDbAlignedDimension
  13
 408.55073807611
  23
 796.41537478653
  33
0.0
  14
 463.55073807611
  24
 796.41537478653
  34
0.0
 100
AcDbRotatedDimension
   0
LINE
   5
38B
 100
AcDbEntity
   8
LEVEL004
 370
20
 100
AcDbLine
   6
CONTINUOUS
  62
7
  10
 428.75894200861
  20
 841.41537478653
  30
0.0
  11
 443.34253414361
  21
 841.41537478653
  31
0.0
   0
DIMENSION
   5
38C
 100
AcDbEntity
   8
0
 370
15
   6
CONTINUOUS
  62
8
 100
AcDbDimension
   2
*D6
  10
 248.93629972435
  20
 768.91537478653
  30
0.0
  11
 248.93629972435
  21
 796.41537478653
  31
0.0
  70
0
   3
GMM001
 100
AcDbAlignedDimension
  13
 263.10013322876
  23
 823.91537478653
  33
0.0
  14
 263.10013322876
  24
 768.91537478653
  34
0.0
  50
 270.00000000000
 100
AcDbRotatedDimension
   0
LINE
   5
38D
 100
AcDbEntity
   8
LEVEL001
 370
15
 100
AcDbLine
   6
HIDDEN
  62
2
  10
 267.80013322876
  20
 792.11537478653
  30
0.0
  11
 297.60013322876
  21
 792.11537478653
  31
0.0
   0
LINE
   5
38E
 100
AcDbEntity
   8
LEVEL001
 370
15
 100
AcDbLine
   6
HIDDEN
  62
2
  10
 297.60013322876
  20
 792.11537478653
  30
0.0
  11
 299.60013322876
  21
 796.41537478653
  31
0.0
   0
LINE
   5
38F
 100
AcDbEntity
   8
LEVEL001
 370
15
 100
AcDbLine
   6
HIDDEN
  62
2
  10
 292.72013322876
  20
 792.11537478653
  30
0.0
  11
 291.60013322876
  21
 791.41537478653
  31
0.0
   0
LINE
   5
390
 100
AcDbEntity
   8
LEVEL001
 370
15
 100
AcDbLine
   6
HIDDEN
  62
2
  10
 291.60013322876
  20
 791.41537478653
  30
0.0
  11
 267.10013322876
  21
 791.41537478653
  31
0.0
   0
LINE
   5
391
 100
AcDbEntity
   8
LEVEL001
 370
15
 100
AcDbLine
   6
HIDDEN
  62
2
  10
 297.60013322876
  20
 800.71537478653
  30
0.0
  11
 297.60013322876
  21
 792.11537478653
  31
0.0
   0
LINE
   5
392
 100
AcDbEntity
   8
LEVEL001
 370
15
 100
AcDbLine
   6
HIDDEN
  62
2
  10
 291.60013322876
  20
 801.41537478653
  30
0.0
  11
 291.60013322876
  21
 791.41537478653
  31
0.0
   0
LINE
   5
393
 100
AcDbEntity
   8
LEVEL001
 370
15
 100
AcDbLine
   6
HIDDEN
  62
2
  10
 267.80013322876
  20
 800.71537478653
  30
0.0
  11
 267.80013322876
  21
 792.11537478653
  31
0.0
   0
LINE
   5
394
 100
AcDbEntity
   8
LEVEL001
 370
15
 100
AcDbLine
   6
HIDDEN
  62
2
  10
 267.80013322876
  20
 792.11537478653
  30
0.0
  11
 266.60013322876
  21
 790.91537478653
  31
0.0
   0
LINE
   5
395
 100
AcDbEntity
   8
LEVEL001
 370
15
 100
AcDbLine
   6
HIDDEN
  62
2
  10
 292.72013322876
  20
 800.71537478653
  30
0.0
  11
 292.72013322876
  21
 792.11537478653
  31
0.0
   0
LINE
   5
396
 100
AcDbEntity
   8
LEVEL001
 370
15
 100
AcDbLine
   6
HIDDEN
  62
2
  10
 297.60013322876
  20
 800.71537478653
  30
0.0
  11
 267.80013322876
  21
 800.71537478653
  31
0.0
   0
LINE
   5
397
 100
AcDbEntity
   8
LEVEL001
 370
15
 100
AcDbLine
   6
HIDDEN
  62
2
  10
 267.10013322876
  20
 801.41537478653
  30
0.0
  11
 291.60013322876
  21
 801.41537478653
  31
0.0
   0
LINE
   5
398
 100
AcDbEntity
   8
LEVEL001
 370
15
 100
AcDbLine
   6
HIDDEN
  62
2
  10
 267.80013322876
  20
 800.71537478653
  30
0.0
  11
 266.60013322876
  21
 801.91537478653
  31
0.0
   0
LINE
   5
399
 100
AcDbEntity
   8
LEVEL001
 370
15
 100
AcDbLine
   6
HIDDEN
  62
2
  10
 299.60013322876
  20
 796.41537478653
  30
0.0
  11
 297.60013322876
  21
 800.71537478653
  31
0.0
   0
LINE
   5
39A
 100
AcDbEntity
   8
LEVEL001
 370
15
 100
AcDbLine
   6
HIDDEN
  62
2
  10
 291.60013322876
  20
 801.41537478653
  30
0.0
  11
 292.72013322876
  21
 800.71537478653
  31
0.0
   0
LINE
   5
39B
 100
AcDbEntity
   8
LEVEL001
 370
15
 100
AcDbLine
   6
HIDDEN
  62
2
  10
 266.60013322876
  20
 801.56537478658
  30
0.0
  11
 263.10013322876
  21
 801.56537478658
  31
0.0
   0
LINE
   5
39C
 100
AcDbEntity
   8
LEVEL001
 370
15
 100
AcDbLine
   6
HIDDEN
  62
2
  10
 266.60013322876
  20
 791.26537478647
  30
0.0
  11
 263.10013322876
  21
 791.26537478647
  31
0.0
   0
LEADER
   5
39D
 100
AcDbEntity
   8
0
 370
15
   6
CONTINUOUS
  62
8
 100
AcDbLeader
   3
GMM005
  73
0
  74
1
  75
0
  40
 10.000000000000
  41
 26.000000000000
  76
2
  10
 282.73233242895
  20
 801.41537478653
  30
0.0
  10
 267.00239925967
  20
 841.69857913201
  30
0.0
  77
8
 340
39E
 213
0.0
 223
-4.0000000000000
 233
0.0
   0
MTEXT
   5
39E
 102
{ACAD_REACTORS
 330
39D
 102
}
 100
AcDbEntity
   8
0
 370
15
  62
8
 100
AcDbMText
  10
 241.00239925967
  20
 845.69857913201
  30
0.0
  40
 10.000000000000
  41
0.0
  71
7
  72
1
   1
\A1;Ｍ１０
   7
GMM001
   0
CIRCLE
   5
39F
 100
AcDbEntity
   8
LEVEL001
 370
15
 100
AcDbCircle
   6
HIDDEN
  62
2
  10
 1039.0507380762
  20
 962.86464123947
  30
0.0
  40
 8.0000000000000
   0
LINE
   5
3A0
 100
AcDbEntity
   8
LEVEL001
 370
15
 100
AcDbLine
   6
DASHDOT
  62
8
  10
 1027.0063456228
  20
 962.86464123947
  30
0.0
  11
 1051.0951305295
  21
 962.86464123947
  31
0.0
   0
ARC
   5
3A1
 100
AcDbEntity
   8
LEVEL001
 370
20
   6
CONTINUOUS
  62
7
 100
AcDbCircle
  10
 923.60013322882
  20
 812.41537478664
  30
0.0
  40
 8.0000000000000
 100
AcDbArc
  50
 270.00000000000
  51
0.0
   0
ARC
   5
3A2
 100
AcDbEntity
   8
LEVEL001
 370
20
   6
CONTINUOUS
  62
7
 100
AcDbCircle
  10
 923.60013322882
  20
 812.41537478664
  30
0.0
  40
 24.000000000000
 100
AcDbArc
  50
 270.00000000000
  51
0.0
   0
LINE
   5
3A3
 100
AcDbEntity
   8
LEVEL001
 370
20
 100
AcDbLine
   6
CONTINUOUS
  62
7
  10
 931.60013322882
  20
 812.41537478664
  30
0.0
  11
 931.60013322882
  21
 841.41537478664
  31
0.0
   0
LINE
   5
3A4
 100
AcDbEntity
   8
LEVEL001
 370
20
 100
AcDbLine
   6
CONTINUOUS
  62
7
  10
 931.60013322882
  20
 841.41537478664
  30
0.0
  11
 947.60013322882
  21
 841.41537478664
  31
0.0
   0
LINE
   5
3A5
 100
AcDbEntity
   8
LEVEL001
 370
20
 100
AcDbLine
   6
CONTINUOUS
  62
7
  10
 947.60013322882
  20
 841.41537478664
  30
0.0
  11
 947.60013322882
  21
 812.41537478664
  31
0.0
   0
LINE
   5
3A6
 100
AcDbEntity
   8
LEVEL001
 370
20
 100
AcDbLine
   6
CONTINUOUS
  62
7
  10
 933.10013322882
  20
 841.41537478664
  30
0.0
  11
 946.10013322882
  21
 841.41537478664
  31
0.0
   0
LINE
   5
3A7
 100
AcDbEntity
   8
LEVEL001
 370
20
 100
AcDbLine
   6
CONTINUOUS
  62
7
  10
 868.10013322882
  20
 823.91537478664
  30
0.0
  11
 868.10013322882
  21
 768.91537478664
  31
0.0
   0
LINE
   5
3A8
 100
AcDbEntity
   8
LEVEL001
 370
20
 100
AcDbLine
   6
CONTINUOUS
  62
7
  10
 868.10013322882
  20
 768.91537478664
  30
0.0
  11
 869.60013322882
  21
 770.41537478664
  31
0.0
   0
LINE
   5
3A9
 100
AcDbEntity
   8
LEVEL001
 370
20
 100
AcDbLine
   6
CONTINUOUS
  62
7
  10
 869.60013322882
  20
 770.41537478664
  30
0.0
  11
 869.60013322882
  21
 822.41537478664
  31
0.0
   0
LINE
   5
3AA
 100
AcDbEntity
   8
LEVEL001
 370
20
 100
AcDbLine
   6
CONTINUOUS
  62
7
  10
 869.60013322882
  20
 822.41537478664
  30
0.0
  11
 868.10013322882
  21
 823.91537478664
  31
0.0
   0
LINE
   5
3AB
 100
AcDbEntity
   8
LEVEL001
 370
20
 100
AcDbLine
   6
CONTINUOUS
  62
7
  10
 869.60013322882
  20
 804.41537478664
  30
0.0
  11
 923.60013322882
  21
 804.41537478664
  31
0.0
   0
LINE
   5
3AC
 100
AcDbEntity
   8
LEVEL001
 370
20
 100
AcDbLine
   6
CONTINUOUS
  62
7
  10
 923.60013322882
  20
 788.41537478664
  30
0.0
  11
 869.60013322882
  21
 788.41537478664
  31
0.0
   0
LINE
   5
3AD
 100
AcDbEntity
   8
LEVEL001
 370
20
 100
AcDbLine
   6
CONTINUOUS
  62
7
  10
 866.10013322882
  20
 823.91537478664
  30
0.0
  11
 866.10013322882
  21
 768.91537478664
  31
0.0
   0
LINE
   5
3AE
 100
AcDbEntity
   8
LEVEL001
 370
20
 100
AcDbLine
   6
CONTINUOUS
  62
7
  10
 866.10013322882
  20
 768.91537478664
  30
0.0
  11
 868.10013322882
  21
 768.91537478664
  31
0.0
   0
LINE
   5
3AF
 100
AcDbEntity
   8
LEVEL001
 370
20
 100
AcDbLine
   6
CONTINUOUS
  62
7
  10
 868.10013322882
  20
 823.91537478664
  30
0.0
  11
 866.10013322882
  21
 823.91537478664
  31
0.0
   0
ARC
   5
3B0
 100
AcDbEntity
   8
LEVEL001
 370
15
   6
DASHDOT
  62
8
 100
AcDbCircle
  10
 923.60013322881
  20
 812.41537478664
  30
0.0
  40
 16.000000000000
 100
AcDbArc
  50
 270.00000000000
  51
0.0
   0
LINE
   5
3B1
 100
AcDbEntity
   8
LEVEL001
 370
15
 100
AcDbLine
   6
DASHDOT
  62
8
  10
 923.60013322882
  20
 796.41537478664
  30
0.0
  11
 859.36701877812
  21
 796.41537478664
  31
0.0
   0
DIMENSION
   5
3B2
 100
AcDbEntity
   8
0
 370
15
   6
CONTINUOUS
  62
8
 100
AcDbDimension
   2
*D8
  10
 976.24417305237
  20
 841.41537478664
  30
0.0
  11
 976.24417305237
  21
 818.91537478664
  31
0.0
  70
0
   3
GMM001
 100
AcDbAlignedDimension
  13
 923.60013322881
  23
 796.41537478664
  33
0.0
  14
 947.60013322882
  24
 841.41537478664
  34
0.0
  50
 90.000000000000
 100
AcDbRotatedDimension
   0
DIMENSION
   5
3B3
 100
AcDbEntity
   8
0
 370
15
   6
CONTINUOUS
  62
8
 100
AcDbDimension
   2
*D9
  10
 869.60013322882
  20
 738.91537478664
  30
0.0
  11
 843.70114162350
  21
 738.91537478664
  31
0.0
  70
128
   3
GMM002
 100
AcDbAlignedDimension
  13
 866.10013322882
  23
 768.91537478664
  33
0.0
  14
 869.60013322882
  24
 770.41537478664
  34
0.0
 100
AcDbRotatedDimension
   0
DIMENSION
   5
3B4
 100
AcDbEntity
   8
0
 370
15
   6
CONTINUOUS
  62
8
 100
AcDbDimension
   2
*D10
  10
 939.60013322881
  20
 738.91537478664
  30
0.0
  11
 904.60013322881
  21
 738.91537478664
  31
0.0
  70
0
   1
\A1;L
   3
GMM003
 100
AcDbAlignedDimension
  13
 869.60013322882
  23
 770.41537478664
  33
0.0
  14
 939.60013322881
  24
 812.41537478664
  34
0.0
 100
AcDbRotatedDimension
   0
LINE
   5
3B5
 100
AcDbEntity
   8
LEVEL004
 370
20
 100
AcDbLine
   6
CONTINUOUS
  62
7
  10
 932.15797460862
  20
 841.41537478664
  30
0.0
  11
 947.04229184901
  21
 841.41537478664
  31
0.0
   0
LINE
   5
3B6
 100
AcDbEntity
   8
LEVEL001
 370
20
 100
AcDbLine
   6
CONTINUOUS
  62
7
  10
 1031.0507380762
  20
 796.41537478664
  30
0.0
  11
 1031.0507380762
  21
 841.41537478664
  31
0.0
   0
LINE
   5
3B7
 100
AcDbEntity
   8
LEVEL001
 370
20
 100
AcDbLine
   6
CONTINUOUS
  62
7
  10
 1031.0507380762
  20
 841.41537478664
  30
0.0
  11
 1047.0507380762
  21
 841.41537478664
  31
0.0
   0
LINE
   5
3B8
 100
AcDbEntity
   8
LEVEL001
 370
20
 100
AcDbLine
   6
CONTINUOUS
  62
7
  10
 1047.0507380762
  20
 841.41537478664
  30
0.0
  11
 1047.0507380762
  21
 796.41537478664
  31
0.0
   0
ARC
   5
3B9
 100
AcDbEntity
   8
LEVEL001
 370
20
   6
CONTINUOUS
  62
7
 100
AcDbCircle
  10
 1039.0507380762
  20
 796.41537478664
  30
0.0
  40
 8.0000000000000
 100
AcDbArc
  50
 180.00000000000
  51
0.0
   0
ARC
   5
3BA
 100
AcDbEntity
   8
LEVEL001
 370
20
   6
CONTINUOUS
  62
7
 100
AcDbCircle
  10
 1039.0507380762
  20
 796.41537478664
  30
0.0
  40
 27.500000000000
 100
AcDbArc
  50
 106.91238980342
  51
 73.087610196568
   0
ARC
   5
3BB
 100
AcDbEntity
   8
LEVEL001
 370
20
   6
CONTINUOUS
  62
7
 100
AcDbCircle
  10
 1039.0507380762
  20
 796.41537478664
  30
0.0
  40
 26.000000000000
 100
AcDbArc
  50
 107.92021313939
  51
 72.079786860596
   0
LINE
   5
3BC
 100
AcDbEntity
   8
LEVEL001
 370
15
 100
AcDbLine
   6
DASHDOT
  62
8
  10
 1071.4172953015
  20
 796.41537478664
  30
0.0
  11
 1006.6841808508
  21
 796.41537478664
  31
0.0
   0
DIMENSION
   5
3BD
 100
AcDbEntity
   8
0
 370
15
   6
CONTINUOUS
  62
8
 100
AcDbDimension
   2
*D11
  10
 1047.0507380762
  20
 738.91537478664
  30
0.0
  11
 1091.2988583768
  21
 738.91537478664
  31
0.0
  70
128
  53
0.0
   3
GMM004
 100
AcDbAlignedDimension
  13
 1031.0507380762
  23
 796.41537478664
  33
0.0
  14
 1047.0507380762
  24
 796.41537478664
  34
0.0
 100
AcDbRotatedDimension
   0
DIMENSION
   5
3BE
 100
AcDbEntity
   8
0
 370
15
   6
CONTINUOUS
  62
8
 100
AcDbDimension
   2
*D12
  10
 1066.5507380762
  20
 708.91537478664
  30
0.0
  11
 1039.0507380762
  21
 708.91537478664
  31
0.0
  70
0
   3
GMM001
 100
AcDbAlignedDimension
  13
 1011.5507380762
  23
 796.41537478664
  33
0.0
  14
 1066.5507380762
  24
 796.41537478664
  34
0.0
 100
AcDbRotatedDimension
   0
LINE
   5
3BF
 100
AcDbEntity
   8
LEVEL004
 370
20
 100
AcDbLine
   6
CONTINUOUS
  62
7
  10
 1031.7589420087
  20
 841.41537478664
  30
0.0
  11
 1046.3425341437
  21
 841.41537478664
  31
0.0
   0
DIMENSION
   5
3C0
 100
AcDbEntity
   8
0
 370
15
   6
CONTINUOUS
  62
8
 100
AcDbDimension
   2
*D13
  10
 851.93629972441
  20
 768.91537478664
  30
0.0
  11
 851.93629972441
  21
 796.41537478664
  31
0.0
  70
0
   3
GMM001
 100
AcDbAlignedDimension
  13
 866.10013322882
  23
 823.91537478664
  33
0.0
  14
 866.10013322882
  24
 768.91537478664
  34
0.0
  50
 270.00000000000
 100
AcDbRotatedDimension
   0
LINE
   5
3C1
 100
AcDbEntity
   8
LEVEL001
 370
15
 100
AcDbLine
   6
HIDDEN
  62
2
  10
 870.80013322881
  20
 792.11537478664
  30
0.0
  11
 900.60013322882
  21
 792.11537478664
  31
0.0
   0
LINE
   5
3C2
 100
AcDbEntity
   8
LEVEL001
 370
15
 100
AcDbLine
   6
HIDDEN
  62
2
  10
 900.60013322882
  20
 792.11537478664
  30
0.0
  11
 902.60013322882
  21
 796.41537478664
  31
0.0
   0
LINE
   5
3C3
 100
AcDbEntity
   8
LEVEL001
 370
15
 100
AcDbLine
   6
HIDDEN
  62
2
  10
 895.72013322882
  20
 792.11537478664
  30
0.0
  11
 894.60013322882
  21
 791.41537478664
  31
0.0
   0
LINE
   5
3C4
 100
AcDbEntity
   8
LEVEL001
 370
15
 100
AcDbLine
   6
HIDDEN
  62
2
  10
 894.60013322882
  20
 791.41537478664
  30
0.0
  11
 870.10013322882
  21
 791.41537478664
  31
0.0
   0
LINE
   5
3C5
 100
AcDbEntity
   8
LEVEL001
 370
15
 100
AcDbLine
   6
HIDDEN
  62
2
  10
 900.60013322882
  20
 800.71537478664
  30
0.0
  11
 900.60013322882
  21
 792.11537478664
  31
0.0
   0
LINE
   5
3C6
 100
AcDbEntity
   8
LEVEL001
 370
15
 100
AcDbLine
   6
HIDDEN
  62
2
  10
 894.60013322882
  20
 801.41537478664
  30
0.0
  11
 894.60013322882
  21
 791.41537478664
  31
0.0
   0
LINE
   5
3C7
 100
AcDbEntity
   8
LEVEL001
 370
15
 100
AcDbLine
   6
HIDDEN
  62
2
  10
 870.80013322881
  20
 800.71537478664
  30
0.0
  11
 870.80013322881
  21
 792.11537478664
  31
0.0
   0
LINE
   5
3C8
 100
AcDbEntity
   8
LEVEL001
 370
15
 100
AcDbLine
   6
HIDDEN
  62
2
  10
 870.80013322881
  20
 792.11537478664
  30
0.0
  11
 869.60013322882
  21
 790.91537478664
  31
0.0
   0
LINE
   5
3C9
 100
AcDbEntity
   8
LEVEL001
 370
15
 100
AcDbLine
   6
HIDDEN
  62
2
  10
 895.72013322882
  20
 800.71537478664
  30
0.0
  11
 895.72013322882
  21
 792.11537478664
  31
0.0
   0
LINE
   5
3CA
 100
AcDbEntity
   8
LEVEL001
 370
15
 100
AcDbLine
   6
HIDDEN
  62
2
  10
 900.60013322882
  20
 800.71537478664
  30
0.0
  11
 870.80013322881
  21
 800.71537478664
  31
0.0
   0
LINE
   5
3CB
 100
AcDbEntity
   8
LEVEL001
 370
15
 100
AcDbLine
   6
HIDDEN
  62
2
  10
 870.10013322882
  20
 801.41537478664
  30
0.0
  11
 894.60013322882
  21
 801.41537478664
  31
0.0
   0
LINE
   5
3CC
 100
AcDbEntity
   8
LEVEL001
 370
15
 100
AcDbLine
   6
HIDDEN
  62
2
  10
 870.80013322881
  20
 800.71537478664
  30
0.0
  11
 869.60013322882
  21
 801.91537478664
  31
0.0
   0
LINE
   5
3CD
 100
AcDbEntity
   8
LEVEL001
 370
15
 100
AcDbLine
   6
HIDDEN
  62
2
  10
 902.60013322882
  20
 796.41537478664
  30
0.0
  11
 900.60013322882
  21
 800.71537478664
  31
0.0
   0
LINE
   5
3CE
 100
AcDbEntity
   8
LEVEL001
 370
15
 100
AcDbLine
   6
HIDDEN
  62
2
  10
 894.60013322882
  20
 801.41537478664
  30
0.0
  11
 895.72013322882
  21
 800.71537478664
  31
0.0
   0
LINE
   5
3CF
 100
AcDbEntity
   8
LEVEL001
 370
15
 100
AcDbLine
   6
HIDDEN
  62
2
  10
 869.60013322882
  20
 801.56537478669
  30
0.0
  11
 866.10013322882
  21
 801.56537478669
  31
0.0
   0
LINE
   5
3D0
 100
AcDbEntity
   8
LEVEL001
 370
15
 100
AcDbLine
   6
HIDDEN
  62
2
  10
 869.60013322882
  20
 791.26537478658
  30
0.0
  11
 866.10013322882
  21
 791.26537478658
  31
0.0
   0
LEADER
   5
3D1
 100
AcDbEntity
   8
0
 370
15
   6
CONTINUOUS
  62
8
 100
AcDbLeader
   3
GMM005
  73
0
  74
1
  75
0
  40
 10.000000000000
  41
 26.000000000000
  76
2
  10
 885.73233242901
  20
 801.41537478664
  30
0.0
  10
 870.00239925973
  20
 841.69857913212
  30
0.0
  77
8
 340
3D2
 213
0.0
 223
-4.0000000000000
 233
0.0
   0
MTEXT
   5
3D2
 102
{ACAD_REACTORS
 330
3D1
 102
}
 100
AcDbEntity
   8
0
 370
15
  62
8
 100
AcDbMText
  10
 844.00239925973
  20
 845.69857913212
  30
0.0
  40
 10.000000000000
  41
0.0
  71
7
  72
1
   1
\A1;Ｍ１０
   7
GMM001
   0
LINE
   5
3D3
 100
AcDbEntity
   8
LEVEL001
 370
15
 100
AcDbLine
   6
DASHDOT
  62
8
  10
 425.18888870765
  20
 404.89615486025
  30
0.0
  11
 449.27767361440
  21
 404.89615486025
  31
0.0
   0
CIRCLE
   5
3D4
 100
AcDbEntity
   8
LEVEL001
 370
15
 100
AcDbCircle
   6
HIDDEN
  62
2
  10
 437.23328116102
  20
 404.89615486025
  30
0.0
  40
 6.5000000000000
   0
LINE
   5
3D5
 100
AcDbEntity
   8
LEVEL001
 370
20
 100
AcDbLine
   6
CONTINUOUS
  62
7
  10
 331.28267631368
  20
 283.44688840742
  30
0.0
  11
 344.28267631368
  21
 283.44688840742
  31
0.0
   0
LINE
   5
3D6
 100
AcDbEntity
   8
LEVEL001
 370
15
 100
AcDbLine
   6
DASHDOT
  62
8
  10
 323.28267631368
  20
 248.44688840742
  30
0.0
  11
 270.93847201105
  21
 248.44688840742
  31
0.0
   0
ARC
   5
3D7
 100
AcDbEntity
   8
LEVEL001
 370
15
   6
DASHDOT
  62
8
 100
AcDbCircle
  10
 323.28267631368
  20
 262.94688840742
  30
0.0
  40
 14.500000000000
 100
AcDbArc
  50
 270.00000000000
  51
0.0
   0
DIMENSION
   5
3D8
 100
AcDbEntity
   8
0
 370
15
   6
CONTINUOUS
  62
8
 100
AcDbDimension
   2
*D15
  10
 374.42671613723
  20
 283.44688840742
  30
0.0
  11
 374.42671613723
  21
 265.94688840742
  31
0.0
  70
0
   3
GMM001
 100
AcDbAlignedDimension
  13
 321.78267631367
  23
 248.44688840742
  33
0.0
  14
 345.78267631368
  24
 283.44688840742
  34
0.0
  50
 90.000000000000
 100
AcDbRotatedDimension
   0
LINE
   5
3D9
 100
AcDbEntity
   8
0
 370
15
 100
AcDbLine
   6
DASHDOT
  62
8
  10
 405.98478357226
  20
 248.44688840742
  30
0.0
  11
 468.48177874979
  21
 248.44688840742
  31
0.0
   0
DIMENSION
   5
3DA
 100
AcDbEntity
   8
0
 370
15
   6
CONTINUOUS
  62
8
 100
AcDbDimension
   2
*D16
  10
 459.73328116102
  20
 177.14390701707
  30
0.0
  11
 437.23328116102
  21
 177.14390701707
  31
0.0
  70
0
   3
GMM001
 100
AcDbAlignedDimension
  13
 414.73328116102
  23
 248.44688840742
  33
0.0
  14
 459.73328116102
  24
 248.44688840742
  34
0.0
 100
AcDbRotatedDimension
   0
DIMENSION
   5
3DB
 100
AcDbEntity
   8
0
 370
15
   6
CONTINUOUS
  62
8
 100
AcDbDimension
   2
*D17
  10
 443.73328116102
  20
 201.74763856818
  30
0.0
  11
 460.24042267002
  21
 201.74763856818
  31
0.0
  70
128
   3
GMM006
 100
AcDbAlignedDimension
  13
 430.73328116102
  23
 248.44688840742
  33
0.0
  14
 443.73328116102
  24
 248.44688840742
  34
0.0
 100
AcDbRotatedDimension
   0
DIMENSION
   5
3DC
 100
AcDbEntity
   8
0
 370
15
   6
CONTINUOUS
  62
8
 100
AcDbDimension
   2
*D18
  10
 282.78267631368
  20
 201.74763856818
  30
0.0
  11
 273.80099075684
  21
 201.74763856818
  31
0.0
  70
128
   1
\A1;3.5
   3
GMM007
 100
AcDbAlignedDimension
  13
 278.78267631368
  23
 225.94688840742
  33
0.0
  14
 282.78267631368
  24
 227.44688840742
  34
0.0
 100
AcDbRotatedDimension
   0
DIMENSION
   5
3DD
 100
AcDbEntity
   8
0
 370
15
   6
CONTINUOUS
  62
8
 100
AcDbDimension
   2
*D19
  10
 337.78267631368
  20
 201.74763856818
  30
0.0
  11
 310.28267631368
  21
 201.74763856818
  31
0.0
  70
0
   1
\A1;L
   3
GMM003
 100
AcDbAlignedDimension
  13
 282.78267631368
  23
 227.44688840742
  33
0.0
  14
 337.78267631368
  24
 262.94688840742
  34
0.0
 100
AcDbRotatedDimension
   0
DIMENSION
   5
3DE
 100
AcDbEntity
   8
0
 370
15
   6
CONTINUOUS
  62
8
 100
AcDbDimension
   2
*D20
  10
 260.27383954546
  20
 270.94688840742
  30
0.0
  11
 260.27383954546
  21
 248.44688840742
  31
0.0
  70
0
   3
GMM001
 100
AcDbAlignedDimension
  13
 278.78267631368
  23
 225.94688840742
  33
0.0
  14
 278.78267631368
  24
 270.94688840742
  34
0.0
  50
 90.000000000000
 100
AcDbRotatedDimension
   0
ARC
   5
3DF
 100
AcDbEntity
   8
LEVEL001
 370
20
   6
CONTINUOUS
  62
7
 100
AcDbCircle
  10
 323.28267631368
  20
 262.94688840742
  30
0.0
  40
 21.000000000000
 100
AcDbArc
  50
 270.00000000000
  51
0.0
   0
ARC
   5
3E0
 100
AcDbEntity
   8
LEVEL001
 370
20
   6
CONTINUOUS
  62
7
 100
AcDbCircle
  10
 323.28267631368
  20
 262.94688840742
  30
0.0
  40
 8.0000000000000
 100
AcDbArc
  50
 270.00000000000
  51
0.0
   0
LINE
   5
3E1
 100
AcDbEntity
   8
LEVEL001
 370
20
 100
AcDbLine
   6
CONTINUOUS
  62
7
  10
 323.28267631368
  20
 254.94688840742
  30
0.0
  11
 282.78267631368
  21
 254.94688840742
  31
0.0
   0
LINE
   5
3E2
 100
AcDbEntity
   8
LEVEL001
 370
20
 100
AcDbLine
   6
CONTINUOUS
  62
7
  10
 282.78267631368
  20
 241.94688840742
  30
0.0
  11
 323.28267631368
  21
 241.94688840742
  31
0.0
   0
LINE
   5
3E3
 100
AcDbEntity
   8
LEVEL001
 370
20
 100
AcDbLine
   6
CONTINUOUS
  62
7
  10
 282.78267631368
  20
 254.94688840742
  30
0.0
  11
 282.78267631368
  21
 269.44688840742
  31
0.0
   0
LINE
   5
3E4
 100
AcDbEntity
   8
LEVEL001
 370
20
 100
AcDbLine
   6
CONTINUOUS
  62
7
  10
 278.78267631368
  20
 270.94688840742
  30
0.0
  11
 281.28267631368
  21
 270.94688840742
  31
0.0
   0
LINE
   5
3E5
 100
AcDbEntity
   8
LEVEL001
 370
20
 100
AcDbLine
   6
CONTINUOUS
  62
7
  10
 281.28267631368
  20
 270.94688840742
  30
0.0
  11
 282.78267631368
  21
 269.44688840742
  31
0.0
   0
LINE
   5
3E6
 100
AcDbEntity
   8
LEVEL001
 370
20
 100
AcDbLine
   6
CONTINUOUS
  62
7
  10
 281.28267631368
  20
 270.94688840742
  30
0.0
  11
 281.28267631368
  21
 225.94688840742
  31
0.0
   0
LINE
   5
3E7
 100
AcDbEntity
   8
LEVEL001
 370
20
 100
AcDbLine
   6
CONTINUOUS
  62
7
  10
 282.78267631368
  20
 227.44688840742
  30
0.0
  11
 282.78267631368
  21
 241.94688840742
  31
0.0
   0
LINE
   5
3E8
 100
AcDbEntity
   8
LEVEL001
 370
20
 100
AcDbLine
   6
CONTINUOUS
  62
7
  10
 278.78267631368
  20
 225.94688840742
  30
0.0
  11
 281.28267631368
  21
 225.94688840742
  31
0.0
   0
LINE
   5
3E9
 100
AcDbEntity
   8
LEVEL001
 370
20
 100
AcDbLine
   6
CONTINUOUS
  62
7
  10
 281.28267631368
  20
 225.94688840742
  30
0.0
  11
 282.78267631368
  21
 227.44688840742
  31
0.0
   0
LINE
   5
3EA
 100
AcDbEntity
   8
LEVEL001
 370
20
 100
AcDbLine
   6
CONTINUOUS
  62
7
  10
 278.78267631368
  20
 270.94688840742
  30
0.0
  11
 278.78267631368
  21
 225.94688840742
  31
0.0
   0
LINE
   5
3EB
 100
AcDbEntity
   8
LEVEL001
 370
20
 100
AcDbLine
   6
CONTINUOUS
  62
7
  10
 282.78267631368
  20
 254.94688840742
  30
0.0
  11
 282.78267631368
  21
 241.94688840742
  31
0.0
   0
LINE
   5
3EC
 100
AcDbEntity
   8
LEVEL001
 370
20
 100
AcDbLine
   6
CONTINUOUS
  62
7
  10
 344.28267631368
  20
 262.94688840742
  30
0.0
  11
 344.28267631368
  21
 283.44688840742
  31
0.0
   0
LINE
   5
3ED
 100
AcDbEntity
   8
LEVEL001
 370
20
 100
AcDbLine
   6
CONTINUOUS
  62
7
  10
 331.28267631368
  20
 283.44688840742
  30
0.0
  11
 331.28267631368
  21
 262.94688840742
  31
0.0
   0
LINE
   5
3EE
 100
AcDbEntity
   8
LEVEL001
 370
20
 100
AcDbLine
   6
CONTINUOUS
  62
7
  10
 443.73328116102
  20
 248.44688840742
  30
0.0
  11
 443.73328116102
  21
 283.44688840742
  31
0.0
   0
ARC
   5
3EF
 100
AcDbEntity
   8
LEVEL001
 370
20
   6
CONTINUOUS
  62
7
 100
AcDbCircle
  10
 437.23328116102
  20
 248.44688840742
  30
0.0
  40
 6.5000000000000
 100
AcDbArc
  50
 180.00000000000
  51
0.0
   0
LINE
   5
3F0
 100
AcDbEntity
   8
LEVEL001
 370
20
 100
AcDbLine
   6
CONTINUOUS
  62
7
  10
 430.73328116102
  20
 283.44688840742
  30
0.0
  11
 430.73328116102
  21
 248.44688840742
  31
0.0
   0
ARC
   5
3F1
 100
AcDbEntity
   8
LEVEL001
 370
20
   6
CONTINUOUS
  62
7
 100
AcDbCircle
  10
 437.23328116102
  20
 248.44688840742
  30
0.0
  40
 22.500000000000
 100
AcDbArc
  50
 106.79144711459
  51
 73.208552885411
   0
ARC
   5
3F2
 100
AcDbEntity
   8
LEVEL001
 370
20
   6
CONTINUOUS
  62
7
 100
AcDbCircle
  10
 437.23328116102
  20
 248.44688840742
  30
0.0
  40
 21.000000000000
 100
AcDbArc
  50
 108.03053539334
  51
 71.969464606662
   0
LINE
   5
3F3
 100
AcDbEntity
   8
LEVEL001
 370
15
 100
AcDbLine
   6
HIDDEN
  62
2
  10
 283.48267631368
  20
 244.14688840742
  30
0.0
  11
 313.28267631368
  21
 244.14688840742
  31
0.0
   0
LINE
   5
3F4
 100
AcDbEntity
   8
LEVEL001
 370
15
 100
AcDbLine
   6
HIDDEN
  62
2
  10
 313.28267631368
  20
 244.14688840742
  30
0.0
  11
 315.28267631368
  21
 248.44688840742
  31
0.0
   0
LINE
   5
3F5
 100
AcDbEntity
   8
LEVEL001
 370
15
 100
AcDbLine
   6
HIDDEN
  62
2
  10
 308.40267631368
  20
 244.14688840742
  30
0.0
  11
 307.28267631368
  21
 243.44688840742
  31
0.0
   0
LINE
   5
3F6
 100
AcDbEntity
   8
LEVEL001
 370
15
 100
AcDbLine
   6
HIDDEN
  62
2
  10
 307.28267631368
  20
 243.44688840742
  30
0.0
  11
 282.78267631368
  21
 243.44688840742
  31
0.0
   0
LINE
   5
3F7
 100
AcDbEntity
   8
LEVEL001
 370
15
 100
AcDbLine
   6
HIDDEN
  62
2
  10
 313.28267631368
  20
 252.74688840742
  30
0.0
  11
 313.28267631368
  21
 244.14688840742
  31
0.0
   0
LINE
   5
3F8
 100
AcDbEntity
   8
LEVEL001
 370
15
 100
AcDbLine
   6
HIDDEN
  62
2
  10
 307.28267631368
  20
 253.44688840742
  30
0.0
  11
 307.28267631368
  21
 243.44688840742
  31
0.0
   0
LINE
   5
3F9
 100
AcDbEntity
   8
LEVEL001
 370
15
 100
AcDbLine
   6
HIDDEN
  62
2
  10
 283.48267631368
  20
 252.74688840742
  30
0.0
  11
 283.48267631368
  21
 244.14688840742
  31
0.0
   0
LINE
   5
3FA
 100
AcDbEntity
   8
LEVEL001
 370
15
 100
AcDbLine
   6
HIDDEN
  62
2
  10
 283.48267631368
  20
 244.14688840742
  30
0.0
  11
 282.28267631368
  21
 242.94688840742
  31
0.0
   0
LINE
   5
3FB
 100
AcDbEntity
   8
LEVEL001
 370
15
 100
AcDbLine
   6
HIDDEN
  62
2
  10
 308.40267631368
  20
 252.74688840742
  30
0.0
  11
 308.40267631368
  21
 244.14688840742
  31
0.0
   0
LINE
   5
3FC
 100
AcDbEntity
   8
LEVEL001
 370
15
 100
AcDbLine
   6
HIDDEN
  62
2
  10
 313.28267631368
  20
 252.74688840742
  30
0.0
  11
 283.48267631368
  21
 252.74688840742
  31
0.0
   0
LINE
   5
3FD
 100
AcDbEntity
   8
LEVEL001
 370
15
 100
AcDbLine
   6
HIDDEN
  62
2
  10
 282.78267631368
  20
 253.44688840742
  30
0.0
  11
 307.28267631368
  21
 253.44688840742
  31
0.0
   0
LINE
   5
3FE
 100
AcDbEntity
   8
LEVEL001
 370
15
 100
AcDbLine
   6
HIDDEN
  62
2
  10
 283.48267631368
  20
 252.74688840742
  30
0.0
  11
 282.28267631368
  21
 253.94688840742
  31
0.0
   0
LINE
   5
3FF
 100
AcDbEntity
   8
LEVEL001
 370
15
 100
AcDbLine
   6
HIDDEN
  62
2
  10
 315.28267631368
  20
 248.44688840742
  30
0.0
  11
 313.28267631368
  21
 252.74688840742
  31
0.0
   0
LINE
   5
400
 100
AcDbEntity
   8
LEVEL001
 370
15
 100
AcDbLine
   6
HIDDEN
  62
2
  10
 307.28267631368
  20
 253.44688840742
  30
0.0
  11
 308.40267631368
  21
 252.74688840742
  31
0.0
   0
LINE
   5
401
 100
AcDbEntity
   8
LEVEL001
 370
15
 100
AcDbLine
   6
HIDDEN
  62
2
  10
 282.28267631368
  20
 253.59688840747
  30
0.0
  11
 278.78267631368
  21
 253.59688840747
  31
0.0
   0
LINE
   5
402
 100
AcDbEntity
   8
LEVEL001
 370
15
 100
AcDbLine
   6
HIDDEN
  62
2
  10
 282.28267631368
  20
 243.29688840736
  30
0.0
  11
 278.78267631368
  21
 243.29688840736
  31
0.0
   0
LEADER
   5
403
 100
AcDbEntity
   8
0
 370
15
   6
CONTINUOUS
  62
8
 100
AcDbLeader
   3
GMM005
  73
0
  74
1
  75
0
  40
 10.000000000000
  41
 26.000000000000
  76
2
  10
 298.41487551387
  20
 253.44688840742
  30
0.0
  10
 282.68494234459
  20
 293.73009275290
  30
0.0
  77
8
 340
404
 213
0.0
 223
-4.0000000000000
 233
0.0
   0
MTEXT
   5
404
 102
{ACAD_REACTORS
 330
403
 102
}
 100
AcDbEntity
   8
0
 370
15
  62
8
 100
AcDbMText
  10
 256.68494234459
  20
 297.73009275290
  30
0.0
  40
 10.000000000000
  41
0.0
  71
7
  72
1
   1
\A1;Ｍ１０
   7
GMM001
   0
LINE
   5
405
 100
AcDbEntity
   8
0
 370
20
 100
AcDbLine
   6
CONTINUOUS
  62
7
  10
 430.73328116102
  20
 283.44688840742
  30
0.0
  11
 443.73328116102
  21
 283.44688840742
  31
0.0
   0
LINE
   5
406
 100
AcDbEntity
   8
LEVEL001
 370
15
 100
AcDbLine
   6
DASHDOT
  62
8
  10
 1030.6746264923
  20
 404.89615486021
  30
0.0
  11
 1054.7634113991
  21
 404.89615486021
  31
0.0
   0
CIRCLE
   5
407
 100
AcDbEntity
   8
LEVEL001
 370
15
 100
AcDbCircle
   6
HIDDEN
  62
2
  10
 1042.7190189457
  20
 404.89615486021
  30
0.0
  40
 6.5000000000000
   0
LINE
   5
408
 100
AcDbEntity
   8
LEVEL001
 370
20
 100
AcDbLine
   6
CONTINUOUS
  62
7
  10
 936.76841409837
  20
 283.44688840738
  30
0.0
  11
 949.76841409837
  21
 283.44688840738
  31
0.0
   0
LINE
   5
409
 100
AcDbEntity
   8
LEVEL001
 370
15
 100
AcDbLine
   6
DASHDOT
  62
8
  10
 928.76841409837
  20
 248.44688840738
  30
0.0
  11
 876.42420979574
  21
 248.44688840738
  31
0.0
   0
ARC
   5
40A
 100
AcDbEntity
   8
LEVEL001
 370
15
   6
DASHDOT
  62
8
 100
AcDbCircle
  10
 928.76841409837
  20
 262.94688840738
  30
0.0
  40
 14.500000000000
 100
AcDbArc
  50
 270.00000000000
  51
0.0
   0
DIMENSION
   5
40B
 100
AcDbEntity
   8
0
 370
15
   6
CONTINUOUS
  62
8
 100
AcDbDimension
   2
*D22
  10
 979.91245392192
  20
 283.44688840738
  30
0.0
  11
 979.91245392192
  21
 265.94688840738
  31
0.0
  70
0
   3
GMM001
 100
AcDbAlignedDimension
  13
 927.26841409836
  23
 248.44688840738
  33
0.0
  14
 951.26841409837
  24
 283.44688840738
  34
0.0
  50
 90.000000000000
 100
AcDbRotatedDimension
   0
LINE
   5
40C
 100
AcDbEntity
   8
0
 370
15
 100
AcDbLine
   6
DASHDOT
  62
8
  10
 1011.4705213569
  20
 248.44688840738
  30
0.0
  11
 1073.9675165345
  21
 248.44688840738
  31
0.0
   0
DIMENSION
   5
40D
 100
AcDbEntity
   8
0
 370
15
   6
CONTINUOUS
  62
8
 100
AcDbDimension
   2
*D23
  10
 1065.2190189457
  20
 177.14390701704
  30
0.0
  11
 1042.7190189457
  21
 177.14390701704
  31
0.0
  70
0
   3
GMM001
 100
AcDbAlignedDimension
  13
 1020.2190189457
  23
 248.44688840738
  33
0.0
  14
 1065.2190189457
  24
 248.44688840738
  34
0.0
 100
AcDbRotatedDimension
   0
DIMENSION
   5
40E
 100
AcDbEntity
   8
0
 370
15
   6
CONTINUOUS
  62
8
 100
AcDbDimension
   2
*D24
  10
 1049.2190189457
  20
 201.74763856815
  30
0.0
  11
 1065.7261604547
  21
 201.74763856815
  31
0.0
  70
128
   3
GMM006
 100
AcDbAlignedDimension
  13
 1036.2190189457
  23
 248.44688840738
  33
0.0
  14
 1049.2190189457
  24
 248.44688840738
  34
0.0
 100
AcDbRotatedDimension
   0
DIMENSION
   5
40F
 100
AcDbEntity
   8
0
 370
15
   6
CONTINUOUS
  62
8
 100
AcDbDimension
   2
*D25
  10
 888.26841409837
  20
 201.74763856815
  30
0.0
  11
 879.28672854153
  21
 201.74763856815
  31
0.0
  70
128
   1
\A1;3.5
   3
GMM007
 100
AcDbAlignedDimension
  13
 884.26841409837
  23
 225.94688840738
  33
0.0
  14
 888.26841409837
  24
 227.44688840738
  34
0.0
 100
AcDbRotatedDimension
   0
DIMENSION
   5
410
 100
AcDbEntity
   8
0
 370
15
   6
CONTINUOUS
  62
8
 100
AcDbDimension
   2
*D26
  10
 943.26841409837
  20
 201.74763856815
  30
0.0
  11
 915.76841409837
  21
 201.74763856815
  31
0.0
  70
0
   1
\A1;L
   3
GMM003
 100
AcDbAlignedDimension
  13
 888.26841409837
  23
 227.44688840738
  33
0.0
  14
 943.26841409837
  24
 262.94688840738
  34
0.0
 100
AcDbRotatedDimension
   0
DIMENSION
   5
411
 100
AcDbEntity
   8
0
 370
15
   6
CONTINUOUS
  62
8
 100
AcDbDimension
   2
*D27
  10
 865.75957733016
  20
 270.94688840738
  30
0.0
  11
 865.75957733016
  21
 248.44688840738
  31
0.0
  70
0
   3
GMM001
 100
AcDbAlignedDimension
  13
 884.26841409837
  23
 225.94688840738
  33
0.0
  14
 884.26841409837
  24
 270.94688840738
  34
0.0
  50
 90.000000000000
 100
AcDbRotatedDimension
   0
ARC
   5
412
 100
AcDbEntity
   8
LEVEL001
 370
20
   6
CONTINUOUS
  62
7
 100
AcDbCircle
  10
 928.76841409837
  20
 262.94688840738
  30
0.0
  40
 21.000000000000
 100
AcDbArc
  50
 270.00000000000
  51
0.0
   0
ARC
   5
413
 100
AcDbEntity
   8
LEVEL001
 370
20
   6
CONTINUOUS
  62
7
 100
AcDbCircle
  10
 928.76841409837
  20
 262.94688840738
  30
0.0
  40
 8.0000000000000
 100
AcDbArc
  50
 270.00000000000
  51
0.0
   0
LINE
   5
414
 100
AcDbEntity
   8
LEVEL001
 370
20
 100
AcDbLine
   6
CONTINUOUS
  62
7
  10
 928.76841409837
  20
 254.94688840738
  30
0.0
  11
 888.26841409837
  21
 254.94688840738
  31
0.0
   0
LINE
   5
415
 100
AcDbEntity
   8
LEVEL001
 370
20
 100
AcDbLine
   6
CONTINUOUS
  62
7
  10
 888.26841409837
  20
 241.94688840738
  30
0.0
  11
 928.76841409837
  21
 241.94688840738
  31
0.0
   0
LINE
   5
416
 100
AcDbEntity
   8
LEVEL001
 370
20
 100
AcDbLine
   6
CONTINUOUS
  62
7
  10
 888.26841409837
  20
 254.94688840738
  30
0.0
  11
 888.26841409837
  21
 269.44688840738
  31
0.0
   0
LINE
   5
417
 100
AcDbEntity
   8
LEVEL001
 370
20
 100
AcDbLine
   6
CONTINUOUS
  62
7
  10
 884.26841409837
  20
 270.94688840738
  30
0.0
  11
 886.76841409837
  21
 270.94688840738
  31
0.0
   0
LINE
   5
418
 100
AcDbEntity
   8
LEVEL001
 370
20
 100
AcDbLine
   6
CONTINUOUS
  62
7
  10
 886.76841409837
  20
 270.94688840738
  30
0.0
  11
 888.26841409837
  21
 269.44688840738
  31
0.0
   0
LINE
   5
419
 100
AcDbEntity
   8
LEVEL001
 370
20
 100
AcDbLine
   6
CONTINUOUS
  62
7
  10
 886.76841409837
  20
 270.94688840738
  30
0.0
  11
 886.76841409837
  21
 225.94688840738
  31
0.0
   0
LINE
   5
41A
 100
AcDbEntity
   8
LEVEL001
 370
20
 100
AcDbLine
   6
CONTINUOUS
  62
7
  10
 888.26841409837
  20
 227.44688840738
  30
0.0
  11
 888.26841409837
  21
 241.94688840738
  31
0.0
   0
LINE
   5
41B
 100
AcDbEntity
   8
LEVEL001
 370
20
 100
AcDbLine
   6
CONTINUOUS
  62
7
  10
 884.26841409837
  20
 225.94688840738
  30
0.0
  11
 886.76841409837
  21
 225.94688840738
  31
0.0
   0
LINE
   5
41C
 100
AcDbEntity
   8
LEVEL001
 370
20
 100
AcDbLine
   6
CONTINUOUS
  62
7
  10
 886.76841409837
  20
 225.94688840738
  30
0.0
  11
 888.26841409837
  21
 227.44688840738
  31
0.0
   0
LINE
   5
41D
 100
AcDbEntity
   8
LEVEL001
 370
20
 100
AcDbLine
   6
CONTINUOUS
  62
7
  10
 884.26841409837
  20
 270.94688840738
  30
0.0
  11
 884.26841409837
  21
 225.94688840738
  31
0.0
   0
LINE
   5
41E
 100
AcDbEntity
   8
LEVEL001
 370
20
 100
AcDbLine
   6
CONTINUOUS
  62
7
  10
 888.26841409837
  20
 254.94688840738
  30
0.0
  11
 888.26841409837
  21
 241.94688840738
  31
0.0
   0
LINE
   5
41F
 100
AcDbEntity
   8
LEVEL001
 370
20
 100
AcDbLine
   6
CONTINUOUS
  62
7
  10
 949.76841409837
  20
 262.94688840738
  30
0.0
  11
 949.76841409837
  21
 283.44688840738
  31
0.0
   0
LINE
   5
420
 100
AcDbEntity
   8
LEVEL001
 370
20
 100
AcDbLine
   6
CONTINUOUS
  62
7
  10
 936.76841409837
  20
 283.44688840738
  30
0.0
  11
 936.76841409837
  21
 262.94688840738
  31
0.0
   0
LINE
   5
421
 100
AcDbEntity
   8
LEVEL001
 370
20
 100
AcDbLine
   6
CONTINUOUS
  62
7
  10
 1049.2190189457
  20
 248.44688840738
  30
0.0
  11
 1049.2190189457
  21
 283.44688840738
  31
0.0
   0
ARC
   5
422
 100
AcDbEntity
   8
LEVEL001
 370
20
   6
CONTINUOUS
  62
7
 100
AcDbCircle
  10
 1042.7190189457
  20
 248.44688840738
  30
0.0
  40
 6.5000000000000
 100
AcDbArc
  50
 180.00000000000
  51
0.0
   0
LINE
   5
423
 100
AcDbEntity
   8
LEVEL001
 370
20
 100
AcDbLine
   6
CONTINUOUS
  62
7
  10
 1036.2190189457
  20
 283.44688840738
  30
0.0
  11
 1036.2190189457
  21
 248.44688840738
  31
0.0
   0
ARC
   5
424
 100
AcDbEntity
   8
LEVEL001
 370
20
   6
CONTINUOUS
  62
7
 100
AcDbCircle
  10
 1042.7190189457
  20
 248.44688840738
  30
0.0
  40
 22.500000000000
 100
AcDbArc
  50
 106.79144711459
  51
 73.208552885411
   0
ARC
   5
425
 100
AcDbEntity
   8
LEVEL001
 370
20
   6
CONTINUOUS
  62
7
 100
AcDbCircle
  10
 1042.7190189457
  20
 248.44688840738
  30
0.0
  40
 21.000000000000
 100
AcDbArc
  50
 108.03053539334
  51
 71.969464606662
   0
LINE
   5
426
 100
AcDbEntity
   8
LEVEL001
 370
15
 100
AcDbLine
   6
HIDDEN
  62
2
  10
 888.96841409837
  20
 244.14688840738
  30
0.0
  11
 918.76841409837
  21
 244.14688840738
  31
0.0
   0
LINE
   5
427
 100
AcDbEntity
   8
LEVEL001
 370
15
 100
AcDbLine
   6
HIDDEN
  62
2
  10
 918.76841409837
  20
 244.14688840738
  30
0.0
  11
 920.76841409837
  21
 248.44688840738
  31
0.0
   0
LINE
   5
428
 100
AcDbEntity
   8
LEVEL001
 370
15
 100
AcDbLine
   6
HIDDEN
  62
2
  10
 913.88841409837
  20
 244.14688840738
  30
0.0
  11
 912.76841409837
  21
 243.44688840738
  31
0.0
   0
LINE
   5
429
 100
AcDbEntity
   8
LEVEL001
 370
15
 100
AcDbLine
   6
HIDDEN
  62
2
  10
 912.76841409837
  20
 243.44688840738
  30
0.0
  11
 888.26841409837
  21
 243.44688840738
  31
0.0
   0
LINE
   5
42A
 100
AcDbEntity
   8
LEVEL001
 370
15
 100
AcDbLine
   6
HIDDEN
  62
2
  10
 918.76841409837
  20
 252.74688840738
  30
0.0
  11
 918.76841409837
  21
 244.14688840738
  31
0.0
   0
LINE
   5
42B
 100
AcDbEntity
   8
LEVEL001
 370
15
 100
AcDbLine
   6
HIDDEN
  62
2
  10
 912.76841409837
  20
 253.44688840738
  30
0.0
  11
 912.76841409837
  21
 243.44688840738
  31
0.0
   0
LINE
   5
42C
 100
AcDbEntity
   8
LEVEL001
 370
15
 100
AcDbLine
   6
HIDDEN
  62
2
  10
 888.96841409837
  20
 252.74688840738
  30
0.0
  11
 888.96841409837
  21
 244.14688840738
  31
0.0
   0
LINE
   5
42D
 100
AcDbEntity
   8
LEVEL001
 370
15
 100
AcDbLine
   6
HIDDEN
  62
2
  10
 888.96841409837
  20
 244.14688840738
  30
0.0
  11
 887.76841409837
  21
 242.94688840738
  31
0.0
   0
LINE
   5
42E
 100
AcDbEntity
   8
LEVEL001
 370
15
 100
AcDbLine
   6
HIDDEN
  62
2
  10
 913.88841409837
  20
 252.74688840738
  30
0.0
  11
 913.88841409837
  21
 244.14688840738
  31
0.0
   0
LINE
   5
42F
 100
AcDbEntity
   8
LEVEL001
 370
15
 100
AcDbLine
   6
HIDDEN
  62
2
  10
 918.76841409837
  20
 252.74688840738
  30
0.0
  11
 888.96841409837
  21
 252.74688840738
  31
0.0
   0
LINE
   5
430
 100
AcDbEntity
   8
LEVEL001
 370
15
 100
AcDbLine
   6
HIDDEN
  62
2
  10
 888.26841409837
  20
 253.44688840738
  30
0.0
  11
 912.76841409837
  21
 253.44688840738
  31
0.0
   0
LINE
   5
431
 100
AcDbEntity
   8
LEVEL001
 370
15
 100
AcDbLine
   6
HIDDEN
  62
2
  10
 888.96841409837
  20
 252.74688840738
  30
0.0
  11
 887.76841409837
  21
 253.94688840738
  31
0.0
   0
LINE
   5
432
 100
AcDbEntity
   8
LEVEL001
 370
15
 100
AcDbLine
   6
HIDDEN
  62
2
  10
 920.76841409837
  20
 248.44688840738
  30
0.0
  11
 918.76841409837
  21
 252.74688840738
  31
0.0
   0
LINE
   5
433
 100
AcDbEntity
   8
LEVEL001
 370
15
 100
AcDbLine
   6
HIDDEN
  62
2
  10
 912.76841409837
  20
 253.44688840738
  30
0.0
  11
 913.88841409837
  21
 252.74688840738
  31
0.0
   0
LINE
   5
434
 100
AcDbEntity
   8
LEVEL001
 370
15
 100
AcDbLine
   6
HIDDEN
  62
2
  10
 887.76841409837
  20
 253.59688840743
  30
0.0
  11
 884.26841409837
  21
 253.59688840743
  31
0.0
   0
LINE
   5
435
 100
AcDbEntity
   8
LEVEL001
 370
15
 100
AcDbLine
   6
HIDDEN
  62
2
  10
 887.76841409837
  20
 243.29688840732
  30
0.0
  11
 884.26841409837
  21
 243.29688840732
  31
0.0
   0
LEADER
   5
436
 100
AcDbEntity
   8
0
 370
15
   6
CONTINUOUS
  62
8
 100
AcDbLeader
   3
GMM005
  73
0
  74
1
  75
0
  40
 10.000000000000
  41
 26.000000000000
  76
2
  10
 903.90061329856
  20
 253.44688840738
  30
0.0
  10
 888.17068012928
  20
 293.73009275286
  30
0.0
  77
8
 340
437
 213
0.0
 223
-4.0000000000000
 233
0.0
   0
MTEXT
   5
437
 102
{ACAD_REACTORS
 330
436
 102
}
 100
AcDbEntity
   8
0
 370
15
  62
8
 100
AcDbMText
  10
 862.17068012928
  20
 297.73009275286
  30
0.0
  40
 10.000000000000
  41
0.0
  71
7
  72
1
   1
\A1;Ｍ１０
   7
GMM001
   0
LINE
   5
438
 100
AcDbEntity
   8
0
 370
20
 100
AcDbLine
   6
CONTINUOUS
  62
7
  10
 1036.2190189457
  20
 283.44688840738
  30
0.0
  11
 1049.2190189457
  21
 283.44688840738
  31
0.0
   0
LINE
   5
439
 100
AcDbEntity
   8
LEVEL004
 370
20
 100
AcDbLine
   6
CONTINUOUS
  62
1
  10
 397.23328116103
  20
 412.89615486025
  30
0.0
  11
 397.23328116103
  21
 396.89615486025
  31
0.0
   0
CIRCLE
   5
43A
 100
AcDbEntity
   8
LEVEL004
 370
20
 100
AcDbCircle
   6
CONTINUOUS
  62
1
  10
 407.23328116103
  20
 407.39615486025
  30
0.0
  40
 2.5000000000000
   0
LINE
   5
43B
 100
AcDbEntity
   8
LEVEL004
 370
20
 100
AcDbLine
   6
CONTINUOUS
  62
1
  10
 399.23328116103
  20
 414.89615486025
  30
0.0
  11
 475.23328116103
  21
 414.89615486025
  31
0.0
   0
LINE
   5
43C
 100
AcDbEntity
   8
LEVEL004
 370
20
 100
AcDbLine
   6
CONTINUOUS
  62
1
  10
 475.23328116103
  20
 394.89615486025
  30
0.0
  11
 399.23328116103
  21
 394.89615486025
  31
0.0
   0
ARC
   5
43D
 100
AcDbEntity
   8
LEVEL004
 370
20
   6
CONTINUOUS
  62
1
 100
AcDbCircle
  10
 399.23328116103
  20
 412.89615486025
  30
0.0
  40
 2.0000000000000
 100
AcDbArc
  50
 90.000000000000
  51
 180.00000000000
   0
ARC
   5
43E
 100
AcDbEntity
   8
LEVEL004
 370
20
   6
CONTINUOUS
  62
1
 100
AcDbCircle
  10
 399.23328116103
  20
 396.89615486025
  30
0.0
  40
 2.0000000000000
 100
AcDbArc
  50
 180.00000000000
  51
 270.00000000000
   0
CIRCLE
   5
43F
 100
AcDbEntity
   8
LEVEL004
 370
20
 100
AcDbCircle
   6
HIDDEN
  62
1
  10
 407.23328116103
  20
 407.39615486025
  30
0.0
  40
 4.3000000000000
   0
LINE
   5
440
 100
AcDbEntity
   8
LEVEL004
 370
20
 100
AcDbLine
   6
CONTINUOUS
  62
1
  10
 477.23328116103
  20
 412.89615486025
  30
0.0
  11
 477.23328116103
  21
 396.89615486025
  31
0.0
   0
CIRCLE
   5
441
 100
AcDbEntity
   8
LEVEL004
 370
20
 100
AcDbCircle
   6
CONTINUOUS
  62
1
  10
 467.23328116103
  20
 402.39615486025
  30
0.0
  40
 2.5000000000000
   0
ARC
   5
442
 100
AcDbEntity
   8
LEVEL004
 370
20
   6
CONTINUOUS
  62
1
 100
AcDbCircle
  10
 475.23328116103
  20
 412.89615486025
  30
0.0
  40
 2.0000000000000
 100
AcDbArc
  50
0.0
  51
 90.000000000000
   0
ARC
   5
443
 100
AcDbEntity
   8
LEVEL004
 370
20
   6
CONTINUOUS
  62
1
 100
AcDbCircle
  10
 475.23328116103
  20
 396.89615486025
  30
0.0
  40
 2.0000000000000
 100
AcDbArc
  50
 270.00000000000
  51
0.0
   0
CIRCLE
   5
444
 100
AcDbEntity
   8
LEVEL004
 370
20
 100
AcDbCircle
   6
HIDDEN
  62
1
  10
 467.23328116103
  20
 402.39615486025
  30
0.0
  40
 4.3000000000000
   0
CIRCLE
   5
445
 100
AcDbEntity
   8
LEVEL007
 370
20
 100
AcDbCircle
   6
CONTINUOUS
  62
1
  10
 437.23328116103
  20
 404.89615486025
  30
0.0
  40
 6.4000000000000
   0
LINE
   5
446
 100
AcDbEntity
   8
0
 370
15
 100
AcDbLine
   6
DASHDOT
  62
8
  10
 467.23328116103
  20
 396.97191441113
  30
0.0
  11
 467.23328116103
  21
 407.82039530936
  31
0.0
   0
LINE
   5
447
 100
AcDbEntity
   8
0
 370
15
 100
AcDbLine
   6
DASHDOT
  62
8
  10
 472.69097316460
  20
 402.39615486025
  30
0.0
  11
 461.77558915747
  21
 402.39615486025
  31
0.0
   0
DIMENSION
   5
448
 100
AcDbEntity
   8
0
 370
15
   6
CONTINUOUS
  62
8
 100
AcDbDimension
   2
*D29
  10
 511.10946564121
  20
 414.89615486025
  30
0.0
  11
 511.10946564121
  21
 404.89615486025
  31
0.0
  70
0
   3
GMM001
 100
AcDbAlignedDimension
  13
 475.23328116103
  23
 394.89615486025
  33
0.0
  14
 475.23328116103
  24
 414.89615486025
  34
0.0
  50
 90.000000000000
 100
AcDbRotatedDimension
   0
DIMENSION
   5
449
 100
AcDbEntity
   8
0
 370
15
   6
CONTINUOUS
  62
8
 100
AcDbDimension
   2
*D30
  10
 477.23328116103
  20
 346.46811344487
  30
0.0
  11
 437.23328116103
  21
 346.46811344487
  31
0.0
  70
0
   3
GMM001
 100
AcDbAlignedDimension
  13
 397.23328116103
  23
 396.89615486025
  33
0.0
  14
 477.23328116103
  24
 396.89615486025
  34
0.0
 100
AcDbRotatedDimension
   0
DIMENSION
   5
44A
 100
AcDbEntity
   8
0
 370
15
   6
CONTINUOUS
  62
8
 100
AcDbDimension
   2
*D31
  10
 467.23328116103
  20
 368.96435404656
  30
0.0
  11
 437.23328116103
  21
 368.96435404656
  31
0.0
  70
0
   3
GMM001
 100
AcDbAlignedDimension
  13
 407.23328116103
  23
 401.64525561246
  33
0.0
  14
 467.23328116103
  24
 396.97191441113
  34
0.0
 100
AcDbRotatedDimension
   0
LINE
   5
44B
 100
AcDbEntity
   8
0
 370
15
 100
AcDbLine
   6
DASHDOT
  62
8
  10
 407.23328116103
  20
 401.64525561246
  30
0.0
  11
 407.23328116103
  21
 413.14705410803
  31
0.0
   0
LINE
   5
44C
 100
AcDbEntity
   8
0
 370
15
 100
AcDbLine
   6
DASHDOT
  62
8
  10
 413.58695208892
  20
 407.39615486025
  30
0.0
  11
 400.87961023315
  21
 407.39615486025
  31
0.0
   0
CIRCLE
   5
44D
 100
AcDbEntity
   8
LEVEL002
 370
15
 100
AcDbCircle
   6
CONTINUOUS
  62
5
  10
 437.23328116103
  20
 404.89615486025
  30
0.0
  40
 6.0000000000000
   0
LINE
   5
44E
 100
AcDbEntity
   8
LEVEL002
 370
15
 100
AcDbLine
   6
CONTINUOUS
  62
5
  10
 437.68328116103
  20
 408.11485024813
  30
0.0
  11
 437.68328116103
  21
 407.19425189910
  31
0.0
   0
LINE
   5
44F
 100
AcDbEntity
   8
LEVEL002
 370
15
 100
AcDbLine
   6
CONTINUOUS
  62
5
  10
 437.68328116103
  20
 402.59805782139
  30
0.0
  11
 437.68328116103
  21
 401.67745947236
  31
0.0
   0
LINE
   5
450
 100
AcDbEntity
   8
LEVEL002
 370
15
 100
AcDbLine
   6
CONTINUOUS
  62
5
  10
 436.78328116104
  20
 408.11485024813
  30
0.0
  11
 436.78328116104
  21
 407.19425189910
  31
0.0
   0
LINE
   5
451
 100
AcDbEntity
   8
LEVEL002
 370
15
 100
AcDbLine
   6
CONTINUOUS
  62
5
  10
 436.78328116104
  20
 402.59805782139
  30
0.0
  11
 436.78328116104
  21
 401.67745947236
  31
0.0
   0
LINE
   5
452
 100
AcDbEntity
   8
LEVEL002
 370
15
 100
AcDbLine
   6
CONTINUOUS
  62
5
  10
 434.01458577314
  20
 404.44615486025
  30
0.0
  11
 434.93518412217
  21
 404.44615486025
  31
0.0
   0
LINE
   5
453
 100
AcDbEntity
   8
LEVEL002
 370
15
 100
AcDbLine
   6
CONTINUOUS
  62
5
  10
 439.53137819988
  20
 404.44615486025
  30
0.0
  11
 440.45197654891
  21
 404.44615486025
  31
0.0
   0
LINE
   5
454
 100
AcDbEntity
   8
LEVEL002
 370
15
 100
AcDbLine
   6
CONTINUOUS
  62
5
  10
 434.01458577314
  20
 405.34615486025
  30
0.0
  11
 434.93518412217
  21
 405.34615486025
  31
0.0
   0
LINE
   5
455
 100
AcDbEntity
   8
LEVEL002
 370
15
 100
AcDbLine
   6
CONTINUOUS
  62
5
  10
 439.53137819988
  20
 405.34615486025
  30
0.0
  11
 440.45197654891
  21
 405.34615486025
  31
0.0
   0
ARC
   5
456
 100
AcDbEntity
   8
LEVEL002
 370
15
   6
CONTINUOUS
  62
5
 100
AcDbCircle
  10
 437.23328116103
  20
 404.89615486025
  30
0.0
  40
 3.2500000000000
 100
AcDbArc
  50
 352.04116811846
  51
 7.9588318815447
   0
ARC
   5
457
 100
AcDbEntity
   8
LEVEL002
 370
15
   6
CONTINUOUS
  62
5
 100
AcDbCircle
  10
 437.23328116102
  20
 404.89615486025
  30
0.0
  40
 3.2500000000000
 100
AcDbArc
  50
 82.041168118402
  51
 97.958831881483
   0
ARC
   5
458
 100
AcDbEntity
   8
LEVEL002
 370
15
   6
CONTINUOUS
  62
5
 100
AcDbCircle
  10
 437.23328116103
  20
 404.89615486025
  30
0.0
  40
 3.2500000000000
 100
AcDbArc
  50
 172.04116811847
  51
 187.95883188153
   0
ARC
   5
459
 100
AcDbEntity
   8
LEVEL002
 370
15
   6
CONTINUOUS
  62
5
 100
AcDbCircle
  10
 437.23328116103
  20
 404.89615486025
  30
0.0
  40
 3.2500000000000
 100
AcDbArc
  50
 262.04116811850
  51
 277.95883188155
   0
ARC
   5
45A
 100
AcDbEntity
   8
LEVEL002
 370
15
   6
CONTINUOUS
  62
5
 100
AcDbCircle
  10
 439.53137819988
  20
 402.59805782139
  30
0.0
  40
 1.8480970388563
 100
AcDbArc
  50
 89.999999999968
  51
 179.99999999998
   0
ARC
   5
45B
 100
AcDbEntity
   8
LEVEL002
 370
15
   6
CONTINUOUS
  62
5
 100
AcDbCircle
  10
 439.53137819988
  20
 407.19425189910
  30
0.0
  40
 1.8480970388563
 100
AcDbArc
  50
 180.00000000000
  51
 270.00000000003
   0
ARC
   5
45C
 100
AcDbEntity
   8
LEVEL002
 370
15
   6
CONTINUOUS
  62
5
 100
AcDbCircle
  10
 434.93518412218
  20
 402.59805782139
  30
0.0
  40
 1.8480970388563
 100
AcDbArc
  50
0.0
  51
 90.000000000088
   0
ARC
   5
45D
 100
AcDbEntity
   8
LEVEL002
 370
15
   6
CONTINUOUS
  62
5
 100
AcDbCircle
  10
 434.93518412218
  20
 407.19425189910
  30
0.0
  40
 1.8480970388563
 100
AcDbArc
  50
 269.99999999997
  51
0.0
   0
LINE
   5
45E
 100
AcDbEntity
   8
LEVEL004
 370
20
 100
AcDbLine
   6
CONTINUOUS
  62
1
  10
 396.05073807612
  20
 970.86464123936
  30
0.0
  11
 396.05073807612
  21
 954.86464123936
  31
0.0
   0
CIRCLE
   5
45F
 100
AcDbEntity
   8
LEVEL004
 370
20
 100
AcDbCircle
   6
CONTINUOUS
  62
1
  10
 406.05073807612
  20
 965.36464123936
  30
0.0
  40
 2.5000000000000
   0
LINE
   5
460
 100
AcDbEntity
   8
LEVEL004
 370
20
 100
AcDbLine
   6
CONTINUOUS
  62
1
  10
 398.05073807612
  20
 972.86464123936
  30
0.0
  11
 474.05073807612
  21
 972.86464123936
  31
0.0
   0
LINE
   5
461
 100
AcDbEntity
   8
LEVEL004
 370
20
 100
AcDbLine
   6
CONTINUOUS
  62
1
  10
 474.05073807612
  20
 952.86464123936
  30
0.0
  11
 398.05073807612
  21
 952.86464123936
  31
0.0
   0
ARC
   5
462
 100
AcDbEntity
   8
LEVEL004
 370
20
   6
CONTINUOUS
  62
1
 100
AcDbCircle
  10
 398.05073807612
  20
 970.86464123936
  30
0.0
  40
 2.0000000000000
 100
AcDbArc
  50
 90.000000000000
  51
 180.00000000000
   0
ARC
   5
463
 100
AcDbEntity
   8
LEVEL004
 370
20
   6
CONTINUOUS
  62
1
 100
AcDbCircle
  10
 398.05073807612
  20
 954.86464123936
  30
0.0
  40
 2.0000000000000
 100
AcDbArc
  50
 180.00000000000
  51
 270.00000000000
   0
CIRCLE
   5
464
 100
AcDbEntity
   8
LEVEL004
 370
20
 100
AcDbCircle
   6
HIDDEN
  62
1
  10
 406.05073807612
  20
 965.36464123936
  30
0.0
  40
 4.3000000000000
   0
LINE
   5
465
 100
AcDbEntity
   8
LEVEL004
 370
20
 100
AcDbLine
   6
CONTINUOUS
  62
1
  10
 476.05073807612
  20
 970.86464123936
  30
0.0
  11
 476.05073807612
  21
 954.86464123936
  31
0.0
   0
CIRCLE
   5
466
 100
AcDbEntity
   8
LEVEL004
 370
20
 100
AcDbCircle
   6
CONTINUOUS
  62
1
  10
 466.05073807612
  20
 960.36464123936
  30
0.0
  40
 2.5000000000000
   0
ARC
   5
467
 100
AcDbEntity
   8
LEVEL004
 370
20
   6
CONTINUOUS
  62
1
 100
AcDbCircle
  10
 474.05073807612
  20
 970.86464123936
  30
0.0
  40
 2.0000000000000
 100
AcDbArc
  50
0.0
  51
 90.000000000000
   0
ARC
   5
468
 100
AcDbEntity
   8
LEVEL004
 370
20
   6
CONTINUOUS
  62
1
 100
AcDbCircle
  10
 474.05073807612
  20
 954.86464123936
  30
0.0
  40
 2.0000000000000
 100
AcDbArc
  50
 270.00000000000
  51
0.0
   0
CIRCLE
   5
469
 100
AcDbEntity
   8
LEVEL004
 370
20
 100
AcDbCircle
   6
HIDDEN
  62
1
  10
 466.05073807612
  20
 960.36464123936
  30
0.0
  40
 4.3000000000000
   0
CIRCLE
   5
46A
 100
AcDbEntity
   8
LEVEL007
 370
20
 100
AcDbCircle
   6
CONTINUOUS
  62
1
  10
 436.05073807612
  20
 962.86464123936
  30
0.0
  40
 6.4000000000000
   0
LINE
   5
46B
 100
AcDbEntity
   8
0
 370
15
 100
AcDbLine
   6
DASHDOT
  62
8
  10
 466.05073807612
  20
 954.94040079024
  30
0.0
  11
 466.05073807612
  21
 965.78888168847
  31
0.0
   0
LINE
   5
46C
 100
AcDbEntity
   8
0
 370
15
 100
AcDbLine
   6
DASHDOT
  62
8
  10
 471.50843007968
  20
 960.36464123936
  30
0.0
  11
 460.59304607255
  21
 960.36464123936
  31
0.0
   0
DIMENSION
   5
46D
 100
AcDbEntity
   8
0
 370
15
   6
CONTINUOUS
  62
8
 100
AcDbDimension
   2
*D32
  10
 509.92692255629
  20
 972.86464123936
  30
0.0
  11
 509.92692255629
  21
 962.86464123936
  31
0.0
  70
0
   3
GMM001
 100
AcDbAlignedDimension
  13
 474.05073807612
  23
 952.86464123936
  33
0.0
  14
 474.05073807612
  24
 972.86464123936
  34
0.0
  50
 90.000000000000
 100
AcDbRotatedDimension
   0
DIMENSION
   5
46E
 100
AcDbEntity
   8
0
 370
15
   6
CONTINUOUS
  62
8
 100
AcDbDimension
   2
*D33
  10
 476.05073807612
  20
 904.43659982398
  30
0.0
  11
 436.05073807612
  21
 904.43659982398
  31
0.0
  70
0
   3
GMM001
 100
AcDbAlignedDimension
  13
 396.05073807612
  23
 954.86464123936
  33
0.0
  14
 476.05073807612
  24
 954.86464123936
  34
0.0
 100
AcDbRotatedDimension
   0
DIMENSION
   5
46F
 100
AcDbEntity
   8
0
 370
15
   6
CONTINUOUS
  62
8
 100
AcDbDimension
   2
*D34
  10
 466.05073807612
  20
 926.93284042567
  30
0.0
  11
 436.05073807612
  21
 926.93284042567
  31
0.0
  70
0
   3
GMM001
 100
AcDbAlignedDimension
  13
 406.05073807612
  23
 959.61374199157
  33
0.0
  14
 466.05073807612
  24
 954.94040079024
  34
0.0
 100
AcDbRotatedDimension
   0
LINE
   5
470
 100
AcDbEntity
   8
0
 370
15
 100
AcDbLine
   6
DASHDOT
  62
8
  10
 406.05073807612
  20
 959.61374199157
  30
0.0
  11
 406.05073807612
  21
 971.11554048714
  31
0.0
   0
LINE
   5
471
 100
AcDbEntity
   8
0
 370
15
 100
AcDbLine
   6
DASHDOT
  62
8
  10
 412.40440900400
  20
 965.36464123936
  30
0.0
  11
 399.69706714823
  21
 965.36464123936
  31
0.0
   0
CIRCLE
   5
472
 100
AcDbEntity
   8
LEVEL002
 370
15
 100
AcDbCircle
   6
CONTINUOUS
  62
5
  10
 436.05073807612
  20
 962.86464123936
  30
0.0
  40
 6.0000000000000
   0
LINE
   5
473
 100
AcDbEntity
   8
LEVEL002
 370
15
 100
AcDbLine
   6
CONTINUOUS
  62
5
  10
 436.50073807612
  20
 966.08333662724
  30
0.0
  11
 436.50073807612
  21
 965.16273827821
  31
0.0
   0
LINE
   5
474
 100
AcDbEntity
   8
LEVEL002
 370
15
 100
AcDbLine
   6
CONTINUOUS
  62
5
  10
 436.50073807612
  20
 960.56654420050
  30
0.0
  11
 436.50073807612
  21
 959.64594585147
  31
0.0
   0
LINE
   5
475
 100
AcDbEntity
   8
LEVEL002
 370
15
 100
AcDbLine
   6
CONTINUOUS
  62
5
  10
 435.60073807612
  20
 966.08333662724
  30
0.0
  11
 435.60073807612
  21
 965.16273827821
  31
0.0
   0
LINE
   5
476
 100
AcDbEntity
   8
LEVEL002
 370
15
 100
AcDbLine
   6
CONTINUOUS
  62
5
  10
 435.60073807612
  20
 960.56654420050
  30
0.0
  11
 435.60073807612
  21
 959.64594585147
  31
0.0
   0
LINE
   5
477
 100
AcDbEntity
   8
LEVEL002
 370
15
 100
AcDbLine
   6
CONTINUOUS
  62
5
  10
 432.83204268823
  20
 962.41464123936
  30
0.0
  11
 433.75264103726
  21
 962.41464123936
  31
0.0
   0
LINE
   5
478
 100
AcDbEntity
   8
LEVEL002
 370
15
 100
AcDbLine
   6
CONTINUOUS
  62
5
  10
 438.34883511497
  20
 962.41464123936
  30
0.0
  11
 439.26943346400
  21
 962.41464123936
  31
0.0
   0
LINE
   5
479
 100
AcDbEntity
   8
LEVEL002
 370
15
 100
AcDbLine
   6
CONTINUOUS
  62
5
  10
 432.83204268823
  20
 963.31464123936
  30
0.0
  11
 433.75264103726
  21
 963.31464123936
  31
0.0
   0
LINE
   5
47A
 100
AcDbEntity
   8
LEVEL002
 370
15
 100
AcDbLine
   6
CONTINUOUS
  62
5
  10
 438.34883511497
  20
 963.31464123936
  30
0.0
  11
 439.26943346400
  21
 963.31464123936
  31
0.0
   0
ARC
   5
47B
 100
AcDbEntity
   8
LEVEL002
 370
15
   6
CONTINUOUS
  62
5
 100
AcDbCircle
  10
 436.05073807612
  20
 962.86464123936
  30
0.0
  40
 3.2500000000000
 100
AcDbArc
  50
 352.04116811846
  51
 7.9588318815447
   0
ARC
   5
47C
 100
AcDbEntity
   8
LEVEL002
 370
15
   6
CONTINUOUS
  62
5
 100
AcDbCircle
  10
 436.05073807611
  20
 962.86464123936
  30
0.0
  40
 3.2500000000000
 100
AcDbArc
  50
 82.041168118402
  51
 97.958831881483
   0
ARC
   5
47D
 100
AcDbEntity
   8
LEVEL002
 370
15
   6
CONTINUOUS
  62
5
 100
AcDbCircle
  10
 436.05073807612
  20
 962.86464123936
  30
0.0
  40
 3.2500000000000
 100
AcDbArc
  50
 172.04116811847
  51
 187.95883188153
   0
ARC
   5
47E
 100
AcDbEntity
   8
LEVEL002
 370
15
   6
CONTINUOUS
  62
5
 100
AcDbCircle
  10
 436.05073807611
  20
 962.86464123936
  30
0.0
  40
 3.2500000000000
 100
AcDbArc
  50
 262.04116811850
  51
 277.95883188155
   0
ARC
   5
47F
 100
AcDbEntity
   8
LEVEL002
 370
15
   6
CONTINUOUS
  62
5
 100
AcDbCircle
  10
 438.34883511497
  20
 960.56654420050
  30
0.0
  40
 1.8480970388563
 100
AcDbArc
  50
 89.999999999968
  51
 179.99999999998
   0
ARC
   5
480
 100
AcDbEntity
   8
LEVEL002
 370
15
   6
CONTINUOUS
  62
5
 100
AcDbCircle
  10
 438.34883511497
  20
 965.16273827821
  30
0.0
  40
 1.8480970388563
 100
AcDbArc
  50
 180.00000000000
  51
 270.00000000003
   0
ARC
   5
481
 100
AcDbEntity
   8
LEVEL002
 370
15
   6
CONTINUOUS
  62
5
 100
AcDbCircle
  10
 433.75264103726
  20
 960.56654420050
  30
0.0
  40
 1.8480970388563
 100
AcDbArc
  50
0.0
  51
 90.000000000088
   0
ARC
   5
482
 100
AcDbEntity
   8
LEVEL002
 370
15
   6
CONTINUOUS
  62
5
 100
AcDbCircle
  10
 433.75264103726
  20
 965.16273827821
  30
0.0
  40
 1.8480970388563
 100
AcDbArc
  50
 269.99999999997
  51
0.0
   0
LINE
   5
483
 100
AcDbEntity
   8
LEVEL004
 370
20
 100
AcDbLine
   6
CONTINUOUS
  62
1
  10
 397.23328116102
  20
 283.44688840742
  30
0.0
  11
 477.23328116102
  21
 283.44688840742
  31
0.0
   0
LINE
   5
484
 100
AcDbEntity
   8
LEVEL004
 370
20
 100
AcDbLine
   6
CONTINUOUS
  62
1
  10
 397.23328116102
  20
 285.94688840742
  30
0.0
  11
 477.23328116102
  21
 285.94688840742
  31
0.0
   0
LINE
   5
485
 100
AcDbEntity
   8
LEVEL004
 370
20
 100
AcDbLine
   6
CONTINUOUS
  62
1
  10
 397.23328116102
  20
 283.44688840742
  30
0.0
  11
 397.23328116102
  21
 285.94688840742
  31
0.0
   0
LINE
   5
486
 100
AcDbEntity
   8
LEVEL004
 370
20
 100
AcDbLine
   6
HIDDEN
  62
1
  10
 432.48328116102
  20
 284.19688840742
  30
0.0
  11
 441.98328116102
  21
 284.19688840742
  31
0.0
   0
LINE
   5
487
 100
AcDbEntity
   8
LEVEL004
 370
20
 100
AcDbLine
   6
HIDDEN
  62
1
  10
 432.48328116102
  20
 284.19688840742
  30
0.0
  11
 432.48328116102
  21
 283.44688840742
  31
0.0
   0
LINE
   5
488
 100
AcDbEntity
   8
LEVEL004
 370
20
 100
AcDbLine
   6
HIDDEN
  62
1
  10
 432.48328116102
  20
 284.19688840742
  30
0.0
  11
 430.73328116102
  21
 285.94688840742
  31
0.0
   0
LINE
   5
489
 100
AcDbEntity
   8
LEVEL004
 370
20
 100
AcDbLine
   6
HIDDEN
  62
1
  10
 409.73328116102
  20
 285.34688840742
  30
0.0
  11
 409.73328116102
  21
 285.94688840742
  31
0.0
   0
LINE
   5
48A
 100
AcDbEntity
   8
LEVEL004
 370
20
 100
AcDbLine
   6
HIDDEN
  62
1
  10
 409.73328116102
  20
 285.34688840742
  30
0.0
  11
 411.63328116102
  21
 283.44688840742
  31
0.0
   0
LINE
   5
48B
 100
AcDbEntity
   8
LEVEL004
 370
20
 100
AcDbLine
   6
HIDDEN
  62
1
  10
 404.73328116102
  20
 285.34688840742
  30
0.0
  11
 404.73328116102
  21
 285.94688840742
  31
0.0
   0
LINE
   5
48C
 100
AcDbEntity
   8
LEVEL004
 370
20
 100
AcDbLine
   6
HIDDEN
  62
1
  10
 404.73328116102
  20
 285.34688840742
  30
0.0
  11
 402.83328116103
  21
 283.44688840742
  31
0.0
   0
LINE
   5
48D
 100
AcDbEntity
   8
LEVEL004
 370
20
 100
AcDbLine
   6
HIDDEN
  62
1
  10
 404.73328116102
  20
 285.34688840742
  30
0.0
  11
 409.73328116102
  21
 285.34688840742
  31
0.0
   0
LINE
   5
48E
 100
AcDbEntity
   8
LEVEL004
 370
20
 100
AcDbLine
   6
CONTINUOUS
  62
1
  10
 477.23328116102
  20
 283.44688840742
  30
0.0
  11
 477.23328116102
  21
 285.94688840742
  31
0.0
   0
LINE
   5
48F
 100
AcDbEntity
   8
LEVEL004
 370
20
 100
AcDbLine
   6
HIDDEN
  62
1
  10
 469.73328116102
  20
 285.34688840742
  30
0.0
  11
 469.73328116102
  21
 285.94688840742
  31
0.0
   0
LINE
   5
490
 100
AcDbEntity
   8
LEVEL004
 370
20
 100
AcDbLine
   6
HIDDEN
  62
1
  10
 469.73328116102
  20
 285.24688840742
  30
0.0
  11
 464.73328116102
  21
 285.24688840742
  31
0.0
   0
LINE
   5
491
 100
AcDbEntity
   8
LEVEL004
 370
20
 100
AcDbLine
   6
HIDDEN
  62
1
  10
 469.73328116102
  20
 285.24688840742
  30
0.0
  11
 469.73328116102
  21
 285.94688840742
  31
0.0
   0
LINE
   5
492
 100
AcDbEntity
   8
LEVEL004
 370
20
 100
AcDbLine
   6
HIDDEN
  62
1
  10
 469.73328116102
  20
 285.24688840742
  30
0.0
  11
 471.53328116102
  21
 283.44688840742
  31
0.0
   0
LINE
   5
493
 100
AcDbEntity
   8
LEVEL004
 370
20
 100
AcDbLine
   6
HIDDEN
  62
1
  10
 464.73328116102
  20
 285.24688840742
  30
0.0
  11
 462.93328116103
  21
 283.44688840742
  31
0.0
   0
LINE
   5
494
 100
AcDbEntity
   8
LEVEL004
 370
20
 100
AcDbLine
   6
HIDDEN
  62
1
  10
 464.73328116102
  20
 285.34688840742
  30
0.0
  11
 464.73328116102
  21
 285.94688840742
  31
0.0
   0
LINE
   5
495
 100
AcDbEntity
   8
LEVEL004
 370
20
 100
AcDbLine
   6
HIDDEN
  62
1
  10
 464.73328116102
  20
 285.24688840742
  30
0.0
  11
 464.73328116102
  21
 285.94688840742
  31
0.0
   0
LINE
   5
496
 100
AcDbEntity
   8
LEVEL004
 370
20
 100
AcDbLine
   6
HIDDEN
  62
1
  10
 441.98328116102
  20
 284.19688840742
  30
0.0
  11
 441.98328116102
  21
 283.44688840742
  31
0.0
   0
LINE
   5
497
 100
AcDbEntity
   8
LEVEL004
 370
20
 100
AcDbLine
   6
HIDDEN
  62
1
  10
 441.98328116102
  20
 284.19688840742
  30
0.0
  11
 443.73328116102
  21
 285.94688840742
  31
0.0
   0
DIMENSION
   5
498
 100
AcDbEntity
   8
0
 370
15
   6
CONTINUOUS
  62
8
 100
AcDbDimension
   2
*D35
  10
 511.10946564120
  20
 285.94688840742
  30
0.0
  11
 511.10946564120
  21
 294.82233232497
  31
0.0
  70
128
   3
GMM008
 100
AcDbAlignedDimension
  13
 477.23328116102
  23
 283.44688840742
  33
0.0
  14
 477.23328116102
  24
 285.94688840742
  34
0.0
  50
 90.000000000000
 100
AcDbRotatedDimension
   0
LINE
   5
499
 100
AcDbEntity
   8
LEVEL006
 370
15
 100
AcDbLine
   6
DASHDOT
  62
8
  10
 467.23328116102
  20
 282.44688840742
  30
0.0
  11
 467.23328116102
  21
 286.44688840742
  31
0.0
   0
LINE
   5
49A
 100
AcDbEntity
   8
LEVEL006
 370
15
 100
AcDbLine
   6
DASHDOT
  62
8
  10
 467.23328116102
  20
 282.44688840742
  30
0.0
  11
 467.23328116102
  21
 286.44688840742
  31
0.0
   0
DIMENSION
   5
49B
 100
AcDbEntity
   8
0
 370
15
   6
CONTINUOUS
  62
8
 100
AcDbDimension
   2
*D36
  10
 477.23328116102
  20
 305.94688840742
  30
0.0
  11
 437.23328116102
  21
 305.94688840742
  31
0.0
  70
0
   3
GMM001
 100
AcDbAlignedDimension
  13
 397.23328116102
  23
 285.94688840742
  33
0.0
  14
 477.23328116102
  24
 285.94688840742
  34
0.0
 100
AcDbRotatedDimension
   0
LINE
   5
49C
 100
AcDbEntity
   8
LEVEL006
 370
15
 100
AcDbLine
   6
DASHDOT
  62
8
  10
 407.23328116102
  20
 282.44688840742
  30
0.0
  11
 407.23328116102
  21
 286.44688840742
  31
0.0
   0
LINE
   5
49D
 100
AcDbEntity
   8
LEVEL004
 370
20
 100
AcDbLine
   6
CONTINUOUS
  62
1
  10
 396.05073807611
  20
 841.41537478653
  30
0.0
  11
 476.05073807611
  21
 841.41537478653
  31
0.0
   0
LINE
   5
49E
 100
AcDbEntity
   8
LEVEL004
 370
20
 100
AcDbLine
   6
CONTINUOUS
  62
1
  10
 396.05073807611
  20
 843.91537478653
  30
0.0
  11
 476.05073807611
  21
 843.91537478653
  31
0.0
   0
LINE
   5
49F
 100
AcDbEntity
   8
LEVEL004
 370
20
 100
AcDbLine
   6
CONTINUOUS
  62
1
  10
 396.05073807611
  20
 841.41537478653
  30
0.0
  11
 396.05073807611
  21
 843.91537478653
  31
0.0
   0
LINE
   5
4A0
 100
AcDbEntity
   8
LEVEL004
 370
20
 100
AcDbLine
   6
HIDDEN
  62
1
  10
 431.30073807611
  20
 842.16537478653
  30
0.0
  11
 440.80073807611
  21
 842.16537478653
  31
0.0
   0
LINE
   5
4A1
 100
AcDbEntity
   8
LEVEL004
 370
20
 100
AcDbLine
   6
HIDDEN
  62
1
  10
 431.30073807611
  20
 842.16537478653
  30
0.0
  11
 431.30073807611
  21
 841.41537478653
  31
0.0
   0
LINE
   5
4A2
 100
AcDbEntity
   8
LEVEL004
 370
20
 100
AcDbLine
   6
HIDDEN
  62
1
  10
 431.30073807611
  20
 842.16537478653
  30
0.0
  11
 429.55073807611
  21
 843.91537478653
  31
0.0
   0
LINE
   5
4A3
 100
AcDbEntity
   8
LEVEL004
 370
20
 100
AcDbLine
   6
HIDDEN
  62
1
  10
 408.55073807611
  20
 843.31537478653
  30
0.0
  11
 408.55073807611
  21
 843.91537478653
  31
0.0
   0
LINE
   5
4A4
 100
AcDbEntity
   8
LEVEL004
 370
20
 100
AcDbLine
   6
HIDDEN
  62
1
  10
 408.55073807611
  20
 843.31537478653
  30
0.0
  11
 410.45073807611
  21
 841.41537478653
  31
0.0
   0
LINE
   5
4A5
 100
AcDbEntity
   8
LEVEL004
 370
20
 100
AcDbLine
   6
HIDDEN
  62
1
  10
 403.55073807611
  20
 843.31537478653
  30
0.0
  11
 403.55073807611
  21
 843.91537478653
  31
0.0
   0
LINE
   5
4A6
 100
AcDbEntity
   8
LEVEL004
 370
20
 100
AcDbLine
   6
HIDDEN
  62
1
  10
 403.55073807611
  20
 843.31537478653
  30
0.0
  11
 401.65073807611
  21
 841.41537478653
  31
0.0
   0
LINE
   5
4A7
 100
AcDbEntity
   8
LEVEL004
 370
20
 100
AcDbLine
   6
HIDDEN
  62
1
  10
 403.55073807611
  20
 843.31537478653
  30
0.0
  11
 408.55073807611
  21
 843.31537478653
  31
0.0
   0
LINE
   5
4A8
 100
AcDbEntity
   8
LEVEL004
 370
20
 100
AcDbLine
   6
CONTINUOUS
  62
1
  10
 476.05073807611
  20
 841.41537478653
  30
0.0
  11
 476.05073807611
  21
 843.91537478653
  31
0.0
   0
LINE
   5
4A9
 100
AcDbEntity
   8
LEVEL004
 370
20
 100
AcDbLine
   6
HIDDEN
  62
1
  10
 468.55073807611
  20
 843.31537478653
  30
0.0
  11
 468.55073807611
  21
 843.91537478653
  31
0.0
   0
LINE
   5
4AA
 100
AcDbEntity
   8
LEVEL004
 370
20
 100
AcDbLine
   6
HIDDEN
  62
1
  10
 468.55073807611
  20
 843.21537478653
  30
0.0
  11
 463.55073807611
  21
 843.21537478653
  31
0.0
   0
LINE
   5
4AB
 100
AcDbEntity
   8
LEVEL004
 370
20
 100
AcDbLine
   6
HIDDEN
  62
1
  10
 468.55073807611
  20
 843.21537478653
  30
0.0
  11
 468.55073807611
  21
 843.91537478653
  31
0.0
   0
LINE
   5
4AC
 100
AcDbEntity
   8
LEVEL004
 370
20
 100
AcDbLine
   6
HIDDEN
  62
1
  10
 468.55073807611
  20
 843.21537478653
  30
0.0
  11
 470.35073807611
  21
 841.41537478653
  31
0.0
   0
LINE
   5
4AD
 100
AcDbEntity
   8
LEVEL004
 370
20
 100
AcDbLine
   6
HIDDEN
  62
1
  10
 463.55073807611
  20
 843.21537478653
  30
0.0
  11
 461.75073807611
  21
 841.41537478653
  31
0.0
   0
LINE
   5
4AE
 100
AcDbEntity
   8
LEVEL004
 370
20
 100
AcDbLine
   6
HIDDEN
  62
1
  10
 463.55073807611
  20
 843.31537478653
  30
0.0
  11
 463.55073807611
  21
 843.91537478653
  31
0.0
   0
LINE
   5
4AF
 100
AcDbEntity
   8
LEVEL004
 370
20
 100
AcDbLine
   6
HIDDEN
  62
1
  10
 463.55073807611
  20
 843.21537478653
  30
0.0
  11
 463.55073807611
  21
 843.91537478653
  31
0.0
   0
LINE
   5
4B0
 100
AcDbEntity
   8
LEVEL004
 370
20
 100
AcDbLine
   6
HIDDEN
  62
1
  10
 440.80073807611
  20
 842.16537478653
  30
0.0
  11
 440.80073807611
  21
 841.41537478653
  31
0.0
   0
LINE
   5
4B1
 100
AcDbEntity
   8
LEVEL004
 370
20
 100
AcDbLine
   6
HIDDEN
  62
1
  10
 440.80073807611
  20
 842.16537478653
  30
0.0
  11
 442.55073807611
  21
 843.91537478653
  31
0.0
   0
DIMENSION
   5
4B2
 100
AcDbEntity
   8
0
 370
15
   6
CONTINUOUS
  62
8
 100
AcDbDimension
   2
*D37
  10
 509.92692255628
  20
 843.91537478653
  30
0.0
  11
 509.92692255628
  21
 852.79081870408
  31
0.0
  70
128
   3
GMM008
 100
AcDbAlignedDimension
  13
 476.05073807611
  23
 841.41537478653
  33
0.0
  14
 476.05073807611
  24
 843.91537478653
  34
0.0
  50
 90.000000000000
 100
AcDbRotatedDimension
   0
LINE
   5
4B3
 100
AcDbEntity
   8
LEVEL006
 370
15
 100
AcDbLine
   6
DASHDOT
  62
8
  10
 466.05073807611
  20
 840.41537478653
  30
0.0
  11
 466.05073807611
  21
 844.41537478653
  31
0.0
   0
LINE
   5
4B4
 100
AcDbEntity
   8
LEVEL006
 370
15
 100
AcDbLine
   6
DASHDOT
  62
8
  10
 466.05073807611
  20
 840.41537478653
  30
0.0
  11
 466.05073807611
  21
 844.41537478653
  31
0.0
   0
DIMENSION
   5
4B5
 100
AcDbEntity
   8
0
 370
15
   6
CONTINUOUS
  62
8
 100
AcDbDimension
   2
*D38
  10
 476.05073807611
  20
 863.91537478653
  30
0.0
  11
 436.05073807611
  21
 863.91537478653
  31
0.0
  70
0
   3
GMM001
 100
AcDbAlignedDimension
  13
 396.05073807611
  23
 843.91537478653
  33
0.0
  14
 476.05073807611
  24
 843.91537478653
  34
0.0
 100
AcDbRotatedDimension
   0
LINE
   5
4B6
 100
AcDbEntity
   8
LEVEL006
 370
15
 100
AcDbLine
   6
DASHDOT
  62
8
  10
 406.05073807611
  20
 840.41537478653
  30
0.0
  11
 406.05073807611
  21
 844.41537478653
  31
0.0
   0
LWPOLYLINE
   5
4B7
 100
AcDbEntity
   8
0
 370
20
   6
CONTINUOUS
  62
1
 100
AcDbPolyline
  90
4
  70
1
  10
 327.78267631368
  20
 285.94688840742
  10
 327.78267631368
  20
 283.44688840742
  10
 347.78267631368
  20
 283.44688840742
  10
 347.78267631368
  20
 285.94688840742
   0
LINE
   5
4B8
 100
AcDbEntity
   8
LEVEL004
 370
20
 100
AcDbLine
   6
HIDDEN
  62
1
  10
 333.03267631368
  20
 284.19688840742
  30
0.0
  11
 342.53267631368
  21
 284.19688840742
  31
0.0
   0
LINE
   5
4B9
 100
AcDbEntity
   8
LEVEL004
 370
20
 100
AcDbLine
   6
HIDDEN
  62
1
  10
 333.03267631368
  20
 284.19688840742
  30
0.0
  11
 333.03267631368
  21
 283.44688840742
  31
0.0
   0
LINE
   5
4BA
 100
AcDbEntity
   8
LEVEL004
 370
20
 100
AcDbLine
   6
HIDDEN
  62
1
  10
 333.03267631368
  20
 284.19688840742
  30
0.0
  11
 331.28267631368
  21
 285.94688840742
  31
0.0
   0
LINE
   5
4BB
 100
AcDbEntity
   8
LEVEL004
 370
20
 100
AcDbLine
   6
HIDDEN
  62
1
  10
 342.53267631368
  20
 284.19688840742
  30
0.0
  11
 342.53267631368
  21
 283.44688840742
  31
0.0
   0
LINE
   5
4BC
 100
AcDbEntity
   8
LEVEL004
 370
20
 100
AcDbLine
   6
HIDDEN
  62
1
  10
 342.53267631368
  20
 284.19688840742
  30
0.0
  11
 344.28267631368
  21
 285.94688840742
  31
0.0
   0
LINE
   5
4BD
 100
AcDbEntity
   8
LEVEL004
 370
20
 100
AcDbLine
   6
HIDDEN
  62
1
  10
 337.78267631368
  20
 285.34688840742
  30
0.0
  11
 337.78267631368
  21
 285.94688840742
  31
0.0
   0
LINE
   5
4BE
 100
AcDbEntity
   8
LEVEL004
 370
20
 100
AcDbLine
   6
HIDDEN
  62
1
  10
 337.78267631368
  20
 285.34688840742
  30
0.0
  11
 339.68267631368
  21
 283.44688840742
  31
0.0
   0
LINE
   5
4BF
 100
AcDbEntity
   8
LEVEL004
 370
20
 100
AcDbLine
   6
HIDDEN
  62
1
  10
 332.78267631368
  20
 285.34688840742
  30
0.0
  11
 332.78267631368
  21
 285.94688840742
  31
0.0
   0
LINE
   5
4C0
 100
AcDbEntity
   8
LEVEL004
 370
20
 100
AcDbLine
   6
HIDDEN
  62
1
  10
 332.78267631368
  20
 285.34688840742
  30
0.0
  11
 330.88267631368
  21
 283.44688840742
  31
0.0
   0
LINE
   5
4C1
 100
AcDbEntity
   8
LEVEL004
 370
20
 100
AcDbLine
   6
HIDDEN
  62
1
  10
 332.78267631368
  20
 285.34688840742
  30
0.0
  11
 337.78267631368
  21
 285.34688840742
  31
0.0
   0
LINE
   5
4C2
 100
AcDbEntity
   8
LEVEL004
 370
20
 100
AcDbLine
   6
HIDDEN
  62
1
  10
 342.78267631368
  20
 285.34688840742
  30
0.0
  11
 342.78267631368
  21
 285.94688840742
  31
0.0
   0
LINE
   5
4C3
 100
AcDbEntity
   8
LEVEL004
 370
20
 100
AcDbLine
   6
HIDDEN
  62
1
  10
 342.78267631368
  20
 285.34688840742
  30
0.0
  11
 344.68267631368
  21
 283.44688840742
  31
0.0
   0
LINE
   5
4C4
 100
AcDbEntity
   8
LEVEL004
 370
20
 100
AcDbLine
   6
HIDDEN
  62
1
  10
 337.78267631368
  20
 285.34688840742
  30
0.0
  11
 337.78267631368
  21
 285.94688840742
  31
0.0
   0
LINE
   5
4C5
 100
AcDbEntity
   8
LEVEL004
 370
20
 100
AcDbLine
   6
HIDDEN
  62
1
  10
 337.78267631368
  20
 285.34688840742
  30
0.0
  11
 335.88267631368
  21
 283.44688840742
  31
0.0
   0
LINE
   5
4C6
 100
AcDbEntity
   8
LEVEL004
 370
20
 100
AcDbLine
   6
HIDDEN
  62
1
  10
 337.78267631368
  20
 285.34688840742
  30
0.0
  11
 342.78267631368
  21
 285.34688840742
  31
0.0
   0
LINE
   5
4C7
 100
AcDbEntity
   8
0
 370
20
 100
AcDbLine
   6
CONTINUOUS
  62
7
  10
 331.28267631368
  20
 283.44688840742
  30
0.0
  11
 344.28267631368
  21
 283.44688840742
  31
0.0
   0
LINE
   5
4C8
 100
AcDbEntity
   8
LEVEL006
 370
15
 100
AcDbLine
   6
DASHDOT
  62
8
  10
 340.28267631368
  20
 282.44688840742
  30
0.0
  11
 340.28267631368
  21
 286.44688840742
  31
0.0
   0
LINE
   5
4C9
 100
AcDbEntity
   8
LEVEL006
 370
15
 100
AcDbLine
   6
DASHDOT
  62
8
  10
 335.28267631368
  20
 282.44688840742
  30
0.0
  11
 335.28267631368
  21
 286.44688840742
  31
0.0
   0
DIMENSION
   5
4CA
 100
AcDbEntity
   8
0
 370
15
   6
CONTINUOUS
  62
8
 100
AcDbDimension
   2
*D39
  10
 347.78267631368
  20
 305.94688840742
  30
0.0
  11
 337.78267631368
  21
 305.94688840742
  31
0.0
  70
0
   3
GMM001
 100
AcDbAlignedDimension
  13
 327.78267631368
  23
 285.94688840742
  33
0.0
  14
 347.78267631368
  24
 285.94688840742
  34
0.0
 100
AcDbRotatedDimension
   0
LWPOLYLINE
   5
4CB
 100
AcDbEntity
   8
0
 370
20
   6
CONTINUOUS
  62
1
 100
AcDbPolyline
  90
4
  70
1
  10
 326.60013322876
  20
 843.91537478653
  10
 326.60013322876
  20
 841.41537478653
  10
 346.60013322876
  20
 841.41537478653
  10
 346.60013322876
  20
 843.91537478653
   0
LINE
   5
4CC
 100
AcDbEntity
   8
LEVEL004
 370
20
 100
AcDbLine
   6
HIDDEN
  62
1
  10
 331.85013322876
  20
 842.16537478653
  30
0.0
  11
 341.35013322876
  21
 842.16537478653
  31
0.0
   0
LINE
   5
4CD
 100
AcDbEntity
   8
LEVEL004
 370
20
 100
AcDbLine
   6
HIDDEN
  62
1
  10
 331.85013322876
  20
 842.16537478653
  30
0.0
  11
 331.85013322876
  21
 841.41537478653
  31
0.0
   0
LINE
   5
4CE
 100
AcDbEntity
   8
LEVEL004
 370
20
 100
AcDbLine
   6
HIDDEN
  62
1
  10
 331.85013322876
  20
 842.16537478653
  30
0.0
  11
 330.10013322876
  21
 843.91537478653
  31
0.0
   0
LINE
   5
4CF
 100
AcDbEntity
   8
LEVEL004
 370
20
 100
AcDbLine
   6
HIDDEN
  62
1
  10
 341.35013322876
  20
 842.16537478653
  30
0.0
  11
 341.35013322876
  21
 841.41537478653
  31
0.0
   0
LINE
   5
4D0
 100
AcDbEntity
   8
LEVEL004
 370
20
 100
AcDbLine
   6
HIDDEN
  62
1
  10
 341.35013322876
  20
 842.16537478653
  30
0.0
  11
 343.10013322876
  21
 843.91537478653
  31
0.0
   0
LINE
   5
4D1
 100
AcDbEntity
   8
LEVEL004
 370
20
 100
AcDbLine
   6
HIDDEN
  62
1
  10
 336.60013322876
  20
 843.31537478653
  30
0.0
  11
 336.60013322876
  21
 843.91537478653
  31
0.0
   0
LINE
   5
4D2
 100
AcDbEntity
   8
LEVEL004
 370
20
 100
AcDbLine
   6
HIDDEN
  62
1
  10
 336.60013322876
  20
 843.31537478653
  30
0.0
  11
 338.50013322876
  21
 841.41537478653
  31
0.0
   0
LINE
   5
4D3
 100
AcDbEntity
   8
LEVEL004
 370
20
 100
AcDbLine
   6
HIDDEN
  62
1
  10
 331.60013322876
  20
 843.31537478653
  30
0.0
  11
 331.60013322876
  21
 843.91537478653
  31
0.0
   0
LINE
   5
4D4
 100
AcDbEntity
   8
LEVEL004
 370
20
 100
AcDbLine
   6
HIDDEN
  62
1
  10
 331.60013322876
  20
 843.31537478653
  30
0.0
  11
 329.70013322876
  21
 841.41537478653
  31
0.0
   0
LINE
   5
4D5
 100
AcDbEntity
   8
LEVEL004
 370
20
 100
AcDbLine
   6
HIDDEN
  62
1
  10
 331.60013322876
  20
 843.31537478653
  30
0.0
  11
 336.60013322876
  21
 843.31537478653
  31
0.0
   0
LINE
   5
4D6
 100
AcDbEntity
   8
LEVEL004
 370
20
 100
AcDbLine
   6
HIDDEN
  62
1
  10
 341.60013322876
  20
 843.31537478653
  30
0.0
  11
 341.60013322876
  21
 843.91537478653
  31
0.0
   0
LINE
   5
4D7
 100
AcDbEntity
   8
LEVEL004
 370
20
 100
AcDbLine
   6
HIDDEN
  62
1
  10
 341.60013322876
  20
 843.31537478653
  30
0.0
  11
 343.50013322876
  21
 841.41537478653
  31
0.0
   0
LINE
   5
4D8
 100
AcDbEntity
   8
LEVEL004
 370
20
 100
AcDbLine
   6
HIDDEN
  62
1
  10
 336.60013322876
  20
 843.31537478653
  30
0.0
  11
 336.60013322876
  21
 843.91537478653
  31
0.0
   0
LINE
   5
4D9
 100
AcDbEntity
   8
LEVEL004
 370
20
 100
AcDbLine
   6
HIDDEN
  62
1
  10
 336.60013322876
  20
 843.31537478653
  30
0.0
  11
 334.70013322876
  21
 841.41537478653
  31
0.0
   0
LINE
   5
4DA
 100
AcDbEntity
   8
LEVEL004
 370
20
 100
AcDbLine
   6
HIDDEN
  62
1
  10
 336.60013322876
  20
 843.31537478653
  30
0.0
  11
 341.60013322876
  21
 843.31537478653
  31
0.0
   0
LINE
   5
4DB
 100
AcDbEntity
   8
0
 370
20
 100
AcDbLine
   6
CONTINUOUS
  62
7
  10
 330.10013322876
  20
 841.41537478653
  30
0.0
  11
 343.10013322876
  21
 841.41537478653
  31
0.0
   0
LINE
   5
4DC
 100
AcDbEntity
   8
LEVEL006
 370
15
 100
AcDbLine
   6
DASHDOT
  62
8
  10
 339.10013322876
  20
 840.41537478653
  30
0.0
  11
 339.10013322876
  21
 844.41537478653
  31
0.0
   0
LINE
   5
4DD
 100
AcDbEntity
   8
LEVEL006
 370
15
 100
AcDbLine
   6
DASHDOT
  62
8
  10
 334.10013322876
  20
 840.41537478653
  30
0.0
  11
 334.10013322876
  21
 844.41537478653
  31
0.0
   0
DIMENSION
   5
4DE
 100
AcDbEntity
   8
0
 370
15
   6
CONTINUOUS
  62
8
 100
AcDbDimension
   2
*D40
  10
 346.60013322876
  20
 863.91537478653
  30
0.0
  11
 336.60013322876
  21
 863.91537478653
  31
0.0
  70
0
   3
GMM001
 100
AcDbAlignedDimension
  13
 326.60013322876
  23
 843.91537478653
  33
0.0
  14
 346.60013322876
  24
 843.91537478653
  34
0.0
 100
AcDbRotatedDimension
   0
LINE
   5
4DF
 100
AcDbEntity
   8
LEVEL001
 370
15
 100
AcDbLine
   6
DASHDOT
  62
8
  10
 336.60013322876
  20
 853.76023980127
  30
0.0
  11
 336.60013322876
  21
 812.41537478653
  31
0.0
   0
LINE
   5
4E0
 100
AcDbEntity
   8
LEVEL001
 370
15
 100
AcDbLine
   6
DASHDOT
  62
8
  10
 436.05073807611
  20
 761.73590025108
  30
0.0
  11
 436.05073807611
  21
 853.76023980127
  31
0.0
   0
LINE
   5
4E1
 100
AcDbEntity
   8
LEVEL001
 370
15
 100
AcDbLine
   6
DASHDOT
  62
8
  10
 337.78267631368
  20
 292.38346452490
  30
0.0
  11
 337.78267631368
  21
 262.94688840742
  31
0.0
   0
LINE
   5
4E2
 100
AcDbEntity
   8
LEVEL001
 370
15
 100
AcDbLine
   6
DASHDOT
  62
8
  10
 437.23328116102
  20
 219.58779451361
  30
0.0
  11
 437.23328116102
  21
 292.38346452490
  31
0.0
   0
LINE
   5
4E3
 100
AcDbEntity
   8
LEVEL004
 370
20
 100
AcDbLine
   6
CONTINUOUS
  62
1
  10
 1002.7190189457
  20
 415.39615486021
  30
0.0
  11
 1002.7190189457
  21
 394.39615486021
  31
0.0
   0
LINE
   5
4E4
 100
AcDbEntity
   8
LEVEL004
 370
20
 100
AcDbLine
   6
CONTINUOUS
  62
1
  10
 1004.7190189457
  20
 417.39615486021
  30
0.0
  11
 1080.7190189457
  21
 417.39615486021
  31
0.0
   0
LINE
   5
4E5
 100
AcDbEntity
   8
LEVEL004
 370
20
 100
AcDbLine
   6
CONTINUOUS
  62
1
  10
 1080.7190189457
  20
 392.39615486021
  30
0.0
  11
 1004.7190189457
  21
 392.39615486021
  31
0.0
   0
ARC
   5
4E6
 100
AcDbEntity
   8
LEVEL004
 370
20
   6
CONTINUOUS
  62
1
 100
AcDbCircle
  10
 1004.7190189457
  20
 415.39615486021
  30
0.0
  40
 2.0000000000000
 100
AcDbArc
  50
 90.000000000000
  51
 180.00000000000
   0
ARC
   5
4E7
 100
AcDbEntity
   8
LEVEL004
 370
20
   6
CONTINUOUS
  62
1
 100
AcDbCircle
  10
 1004.7190189457
  20
 394.39615486021
  30
0.0
  40
 2.0000000000000
 100
AcDbArc
  50
 180.00000000000
  51
 270.00000000000
   0
CIRCLE
   5
4E8
 100
AcDbEntity
   8
LEVEL004
 370
20
 100
AcDbCircle
   6
CONTINUOUS
  62
1
  10
 1012.7190189457
  20
 409.89615486021
  30
0.0
  40
 2.5000000000000
   0
CIRCLE
   5
4E9
 100
AcDbEntity
   8
LEVEL004
 370
20
 100
AcDbCircle
   6
HIDDEN
  62
1
  10
 1012.7190189457
  20
 409.89615486021
  30
0.0
  40
 4.3000000000000
   0
LINE
   5
4EA
 100
AcDbEntity
   8
LEVEL004
 370
20
 100
AcDbLine
   6
CONTINUOUS
  62
1
  10
 1082.7190189457
  20
 415.39615486021
  30
0.0
  11
 1082.7190189457
  21
 394.39615486021
  31
0.0
   0
ARC
   5
4EB
 100
AcDbEntity
   8
LEVEL004
 370
20
   6
CONTINUOUS
  62
1
 100
AcDbCircle
  10
 1080.7190189457
  20
 415.39615486021
  30
0.0
  40
 2.0000000000000
 100
AcDbArc
  50
0.0
  51
 90.000000000000
   0
ARC
   5
4EC
 100
AcDbEntity
   8
LEVEL004
 370
20
   6
CONTINUOUS
  62
1
 100
AcDbCircle
  10
 1080.7190189457
  20
 394.39615486021
  30
0.0
  40
 2.0000000000000
 100
AcDbArc
  50
 270.00000000000
  51
0.0
   0
CIRCLE
   5
4ED
 100
AcDbEntity
   8
LEVEL004
 370
20
 100
AcDbCircle
   6
CONTINUOUS
  62
1
  10
 1072.7190189457
  20
 399.89615486021
  30
0.0
  40
 2.5000000000000
   0
CIRCLE
   5
4EE
 100
AcDbEntity
   8
LEVEL004
 370
20
 100
AcDbCircle
   6
HIDDEN
  62
1
  10
 1072.7190189457
  20
 399.89615486021
  30
0.0
  40
 4.3000000000000
   0
CIRCLE
   5
4EF
 100
AcDbEntity
   8
LEVEL007
 370
20
 100
AcDbCircle
   6
CONTINUOUS
  62
1
  10
 1042.7190189457
  20
 404.89615486021
  30
0.0
  40
 6.4000000000000
   0
LINE
   5
4F0
 100
AcDbEntity
   8
0
 370
15
 100
AcDbLine
   6
DASHDOT
  62
8
  10
 1072.7190189457
  20
 393.37870740803
  30
0.0
  11
 1072.7190189457
  21
 406.41360231239
  31
0.0
   0
LINE
   5
4F1
 100
AcDbEntity
   8
0
 370
15
 100
AcDbLine
   6
DASHDOT
  62
8
  10
 1079.3984994987
  20
 399.89615486021
  30
0.0
  11
 1066.0395383928
  21
 399.89615486021
  31
0.0
   0
DIMENSION
   5
4F2
 100
AcDbEntity
   8
0
 370
15
   6
CONTINUOUS
  62
8
 100
AcDbDimension
   2
*D41
  10
 1082.7190189457
  20
 347.59349721802
  30
0.0
  11
 1042.7190189457
  21
 347.59349721802
  31
0.0
  70
0
   3
GMM001
 100
AcDbAlignedDimension
  13
 1002.7190189457
  23
 394.39615486021
  33
0.0
  14
 1082.7190189457
  24
 394.39615486021
  34
0.0
 100
AcDbRotatedDimension
   0
DIMENSION
   5
4F3
 100
AcDbEntity
   8
0
 370
15
   6
CONTINUOUS
  62
8
 100
AcDbDimension
   2
*D42
  10
 1072.7190189457
  20
 370.08973781971
  30
0.0
  11
 1042.7190189457
  21
 370.08973781971
  31
0.0
  70
0
   3
GMM001
 100
AcDbAlignedDimension
  13
 1012.7190189457
  23
 403.37870740803
  33
0.0
  14
 1072.7190189457
  24
 393.37870740803
  34
0.0
 100
AcDbRotatedDimension
   0
DIMENSION
   5
4F4
 100
AcDbEntity
   8
0
 370
15
   6
CONTINUOUS
  62
8
 100
AcDbDimension
   2
*D43
  10
 1116.5952034259
  20
 417.39615486021
  30
0.0
  11
 1116.5952034259
  21
 404.89615486021
  31
0.0
  70
0
   3
GMM001
 100
AcDbAlignedDimension
  13
 1080.7190189457
  23
 392.39615486021
  33
0.0
  14
 1080.7190189457
  24
 417.39615486021
  34
0.0
  50
 90.000000000000
 100
AcDbRotatedDimension
   0
CIRCLE
   5
4F5
 100
AcDbEntity
   8
LEVEL002
 370
15
 100
AcDbCircle
   6
CONTINUOUS
  62
5
  10
 1042.7190189457
  20
 404.89615486021
  30
0.0
  40
 6.0000000000000
   0
LINE
   5
4F6
 100
AcDbEntity
   8
LEVEL002
 370
15
 100
AcDbLine
   6
CONTINUOUS
  62
5
  10
 1043.1690189457
  20
 408.11485024810
  30
0.0
  11
 1043.1690189457
  21
 407.19425189907
  31
0.0
   0
LINE
   5
4F7
 100
AcDbEntity
   8
LEVEL002
 370
15
 100
AcDbLine
   6
CONTINUOUS
  62
5
  10
 1043.1690189457
  20
 402.59805782135
  30
0.0
  11
 1043.1690189457
  21
 401.67745947232
  31
0.0
   0
LINE
   5
4F8
 100
AcDbEntity
   8
LEVEL002
 370
15
 100
AcDbLine
   6
CONTINUOUS
  62
5
  10
 1042.2690189457
  20
 408.11485024810
  30
0.0
  11
 1042.2690189457
  21
 407.19425189907
  31
0.0
   0
LINE
   5
4F9
 100
AcDbEntity
   8
LEVEL002
 370
15
 100
AcDbLine
   6
CONTINUOUS
  62
5
  10
 1042.2690189457
  20
 402.59805782135
  30
0.0
  11
 1042.2690189457
  21
 401.67745947232
  31
0.0
   0
LINE
   5
4FA
 100
AcDbEntity
   8
LEVEL002
 370
15
 100
AcDbLine
   6
CONTINUOUS
  62
5
  10
 1039.5003235578
  20
 404.44615486021
  30
0.0
  11
 1040.4209219069
  21
 404.44615486021
  31
0.0
   0
LINE
   5
4FB
 100
AcDbEntity
   8
LEVEL002
 370
15
 100
AcDbLine
   6
CONTINUOUS
  62
5
  10
 1045.0171159846
  20
 404.44615486021
  30
0.0
  11
 1045.9377143336
  21
 404.44615486021
  31
0.0
   0
LINE
   5
4FC
 100
AcDbEntity
   8
LEVEL002
 370
15
 100
AcDbLine
   6
CONTINUOUS
  62
5
  10
 1039.5003235578
  20
 405.34615486021
  30
0.0
  11
 1040.4209219069
  21
 405.34615486021
  31
0.0
   0
LINE
   5
4FD
 100
AcDbEntity
   8
LEVEL002
 370
15
 100
AcDbLine
   6
CONTINUOUS
  62
5
  10
 1045.0171159846
  20
 405.34615486021
  30
0.0
  11
 1045.9377143336
  21
 405.34615486021
  31
0.0
   0
ARC
   5
4FE
 100
AcDbEntity
   8
LEVEL002
 370
15
   6
CONTINUOUS
  62
5
 100
AcDbCircle
  10
 1042.7190189457
  20
 404.89615486021
  30
0.0
  40
 3.2500000000000
 100
AcDbArc
  50
 352.04116811845
  51
 7.9588318815489
   0
ARC
   5
4FF
 100
AcDbEntity
   8
LEVEL002
 370
15
   6
CONTINUOUS
  62
5
 100
AcDbCircle
  10
 1042.7190189457
  20
 404.89615486021
  30
0.0
  40
 3.2500000000000
 100
AcDbArc
  50
 82.041168118403
  51
 97.958831881484
   0
ARC
   5
500
 100
AcDbEntity
   8
LEVEL002
 370
15
   6
CONTINUOUS
  62
5
 100
AcDbCircle
  10
 1042.7190189457
  20
 404.89615486021
  30
0.0
  40
 3.2500000000000
 100
AcDbArc
  50
 172.04116811847
  51
 187.95883188153
   0
ARC
   5
501
 100
AcDbEntity
   8
LEVEL002
 370
15
   6
CONTINUOUS
  62
5
 100
AcDbCircle
  10
 1042.7190189457
  20
 404.89615486021
  30
0.0
  40
 3.2500000000000
 100
AcDbArc
  50
 262.04116811853
  51
 277.95883188158
   0
ARC
   5
502
 100
AcDbEntity
   8
LEVEL002
 370
15
   6
CONTINUOUS
  62
5
 100
AcDbCircle
  10
 1045.0171159846
  20
 402.59805782135
  30
0.0
  40
 1.8480970388563
 100
AcDbArc
  50
 89.999999999972
  51
 179.99999999998
   0
ARC
   5
503
 100
AcDbEntity
   8
LEVEL002
 370
15
   6
CONTINUOUS
  62
5
 100
AcDbCircle
  10
 1045.0171159846
  20
 407.19425189907
  30
0.0
  40
 1.8480970388563
 100
AcDbArc
  50
 180.00000000000
  51
 270.00000000003
   0
ARC
   5
504
 100
AcDbEntity
   8
LEVEL002
 370
15
   6
CONTINUOUS
  62
5
 100
AcDbCircle
  10
 1040.4209219069
  20
 402.59805782135
  30
0.0
  40
 1.8480970388563
 100
AcDbArc
  50
0.0
  51
 90.000000000085
   0
ARC
   5
505
 100
AcDbEntity
   8
LEVEL002
 370
15
   6
CONTINUOUS
  62
5
 100
AcDbCircle
  10
 1040.4209219069
  20
 407.19425189907
  30
0.0
  40
 1.8480970388563
 100
AcDbArc
  50
 269.99999999997
  51
0.0
   0
LINE
   5
506
 100
AcDbEntity
   8
0
 370
15
 100
AcDbLine
   6
DASHDOT
  62
8
  10
 1012.7190189457
  20
 403.37870740803
  30
0.0
  11
 1012.7190189457
  21
 416.41360231239
  31
0.0
   0
LINE
   5
507
 100
AcDbEntity
   8
0
 370
15
 100
AcDbLine
   6
DASHDOT
  62
8
  10
 1019.3984994987
  20
 409.89615486021
  30
0.0
  11
 1006.0395383928
  21
 409.89615486021
  31
0.0
   0
LINE
   5
508
 100
AcDbEntity
   8
LEVEL004
 370
20
 100
AcDbLine
   6
CONTINUOUS
  62
1
  10
 999.05073807616
  20
 973.36464123947
  30
0.0
  11
 999.05073807616
  21
 952.36464123947
  31
0.0
   0
LINE
   5
509
 100
AcDbEntity
   8
LEVEL004
 370
20
 100
AcDbLine
   6
CONTINUOUS
  62
1
  10
 1001.0507380762
  20
 975.36464123947
  30
0.0
  11
 1077.0507380762
  21
 975.36464123947
  31
0.0
   0
LINE
   5
50A
 100
AcDbEntity
   8
LEVEL004
 370
20
 100
AcDbLine
   6
CONTINUOUS
  62
1
  10
 1077.0507380762
  20
 950.36464123947
  30
0.0
  11
 1001.0507380762
  21
 950.36464123947
  31
0.0
   0
ARC
   5
50B
 100
AcDbEntity
   8
LEVEL004
 370
20
   6
CONTINUOUS
  62
1
 100
AcDbCircle
  10
 1001.0507380762
  20
 973.36464123947
  30
0.0
  40
 2.0000000000000
 100
AcDbArc
  50
 90.000000000000
  51
 180.00000000000
   0
ARC
   5
50C
 100
AcDbEntity
   8
LEVEL004
 370
20
   6
CONTINUOUS
  62
1
 100
AcDbCircle
  10
 1001.0507380762
  20
 952.36464123947
  30
0.0
  40
 2.0000000000000
 100
AcDbArc
  50
 180.00000000000
  51
 270.00000000000
   0
CIRCLE
   5
50D
 100
AcDbEntity
   8
LEVEL004
 370
20
 100
AcDbCircle
   6
CONTINUOUS
  62
1
  10
 1009.0507380762
  20
 967.86464123947
  30
0.0
  40
 2.5000000000000
   0
CIRCLE
   5
50E
 100
AcDbEntity
   8
LEVEL004
 370
20
 100
AcDbCircle
   6
HIDDEN
  62
1
  10
 1009.0507380762
  20
 967.86464123947
  30
0.0
  40
 4.3000000000000
   0
LINE
   5
50F
 100
AcDbEntity
   8
LEVEL004
 370
20
 100
AcDbLine
   6
CONTINUOUS
  62
1
  10
 1079.0507380762
  20
 973.36464123947
  30
0.0
  11
 1079.0507380762
  21
 952.36464123947
  31
0.0
   0
ARC
   5
510
 100
AcDbEntity
   8
LEVEL004
 370
20
   6
CONTINUOUS
  62
1
 100
AcDbCircle
  10
 1077.0507380762
  20
 973.36464123947
  30
0.0
  40
 2.0000000000000
 100
AcDbArc
  50
0.0
  51
 90.000000000000
   0
ARC
   5
511
 100
AcDbEntity
   8
LEVEL004
 370
20
   6
CONTINUOUS
  62
1
 100
AcDbCircle
  10
 1077.0507380762
  20
 952.36464123947
  30
0.0
  40
 2.0000000000000
 100
AcDbArc
  50
 270.00000000000
  51
0.0
   0
CIRCLE
   5
512
 100
AcDbEntity
   8
LEVEL004
 370
20
 100
AcDbCircle
   6
CONTINUOUS
  62
1
  10
 1069.0507380762
  20
 957.86464123947
  30
0.0
  40
 2.5000000000000
   0
CIRCLE
   5
513
 100
AcDbEntity
   8
LEVEL004
 370
20
 100
AcDbCircle
   6
HIDDEN
  62
1
  10
 1069.0507380762
  20
 957.86464123947
  30
0.0
  40
 4.3000000000000
   0
CIRCLE
   5
514
 100
AcDbEntity
   8
LEVEL007
 370
20
 100
AcDbCircle
   6
CONTINUOUS
  62
1
  10
 1039.0507380762
  20
 962.86464123947
  30
0.0
  40
 6.4000000000000
   0
LINE
   5
515
 100
AcDbEntity
   8
0
 370
15
 100
AcDbLine
   6
DASHDOT
  62
8
  10
 1069.0507380762
  20
 951.34719378729
  30
0.0
  11
 1069.0507380762
  21
 964.38208869165
  31
0.0
   0
LINE
   5
516
 100
AcDbEntity
   8
0
 370
15
 100
AcDbLine
   6
DASHDOT
  62
8
  10
 1075.7302186291
  20
 957.86464123947
  30
0.0
  11
 1062.3712575232
  21
 957.86464123947
  31
0.0
   0
DIMENSION
   5
517
 100
AcDbEntity
   8
0
 370
15
   6
CONTINUOUS
  62
8
 100
AcDbDimension
   2
*D44
  10
 1079.0507380762
  20
 905.56198359728
  30
0.0
  11
 1039.0507380762
  21
 905.56198359728
  31
0.0
  70
0
   3
GMM001
 100
AcDbAlignedDimension
  13
 999.05073807616
  23
 952.36464123947
  33
0.0
  14
 1079.0507380762
  24
 952.36464123947
  34
0.0
 100
AcDbRotatedDimension
   0
DIMENSION
   5
518
 100
AcDbEntity
   8
0
 370
15
   6
CONTINUOUS
  62
8
 100
AcDbDimension
   2
*D45
  10
 1069.0507380762
  20
 928.05822419897
  30
0.0
  11
 1039.0507380762
  21
 928.05822419897
  31
0.0
  70
0
   3
GMM001
 100
AcDbAlignedDimension
  13
 1009.0507380762
  23
 961.34719378729
  33
0.0
  14
 1069.0507380762
  24
 951.34719378729
  34
0.0
 100
AcDbRotatedDimension
   0
DIMENSION
   5
519
 100
AcDbEntity
   8
0
 370
15
   6
CONTINUOUS
  62
8
 100
AcDbDimension
   2
*D46
  10
 1112.9269225563
  20
 975.36464123947
  30
0.0
  11
 1112.9269225563
  21
 962.86464123947
  31
0.0
  70
0
   3
GMM001
 100
AcDbAlignedDimension
  13
 1077.0507380762
  23
 950.36464123947
  33
0.0
  14
 1077.0507380762
  24
 975.36464123947
  34
0.0
  50
 90.000000000000
 100
AcDbRotatedDimension
   0
CIRCLE
   5
51A
 100
AcDbEntity
   8
LEVEL002
 370
15
 100
AcDbCircle
   6
CONTINUOUS
  62
5
  10
 1039.0507380762
  20
 962.86464123947
  30
0.0
  40
 6.0000000000000
   0
LINE
   5
51B
 100
AcDbEntity
   8
LEVEL002
 370
15
 100
AcDbLine
   6
CONTINUOUS
  62
5
  10
 1039.5007380762
  20
 966.08333662736
  30
0.0
  11
 1039.5007380762
  21
 965.16273827833
  31
0.0
   0
LINE
   5
51C
 100
AcDbEntity
   8
LEVEL002
 370
15
 100
AcDbLine
   6
CONTINUOUS
  62
5
  10
 1039.5007380762
  20
 960.56654420061
  30
0.0
  11
 1039.5007380762
  21
 959.64594585158
  31
0.0
   0
LINE
   5
51D
 100
AcDbEntity
   8
LEVEL002
 370
15
 100
AcDbLine
   6
CONTINUOUS
  62
5
  10
 1038.6007380762
  20
 966.08333662736
  30
0.0
  11
 1038.6007380762
  21
 965.16273827833
  31
0.0
   0
LINE
   5
51E
 100
AcDbEntity
   8
LEVEL002
 370
15
 100
AcDbLine
   6
CONTINUOUS
  62
5
  10
 1038.6007380762
  20
 960.56654420061
  30
0.0
  11
 1038.6007380762
  21
 959.64594585158
  31
0.0
   0
LINE
   5
51F
 100
AcDbEntity
   8
LEVEL002
 370
15
 100
AcDbLine
   6
CONTINUOUS
  62
5
  10
 1035.8320426883
  20
 962.41464123947
  30
0.0
  11
 1036.7526410373
  21
 962.41464123947
  31
0.0
   0
LINE
   5
520
 100
AcDbEntity
   8
LEVEL002
 370
15
 100
AcDbLine
   6
CONTINUOUS
  62
5
  10
 1041.3488351150
  20
 962.41464123947
  30
0.0
  11
 1042.2694334641
  21
 962.41464123947
  31
0.0
   0
LINE
   5
521
 100
AcDbEntity
   8
LEVEL002
 370
15
 100
AcDbLine
   6
CONTINUOUS
  62
5
  10
 1035.8320426883
  20
 963.31464123947
  30
0.0
  11
 1036.7526410373
  21
 963.31464123947
  31
0.0
   0
LINE
   5
522
 100
AcDbEntity
   8
LEVEL002
 370
15
 100
AcDbLine
   6
CONTINUOUS
  62
5
  10
 1041.3488351150
  20
 963.31464123947
  30
0.0
  11
 1042.2694334641
  21
 963.31464123947
  31
0.0
   0
ARC
   5
523
 100
AcDbEntity
   8
LEVEL002
 370
15
   6
CONTINUOUS
  62
5
 100
AcDbCircle
  10
 1039.0507380762
  20
 962.86464123947
  30
0.0
  40
 3.2500000000000
 100
AcDbArc
  50
 352.04116811845
  51
 7.9588318815489
   0
ARC
   5
524
 100
AcDbEntity
   8
LEVEL002
 370
15
   6
CONTINUOUS
  62
5
 100
AcDbCircle
  10
 1039.0507380762
  20
 962.86464123947
  30
0.0
  40
 3.2500000000000
 100
AcDbArc
  50
 82.041168118403
  51
 97.958831881484
   0
ARC
   5
525
 100
AcDbEntity
   8
LEVEL002
 370
15
   6
CONTINUOUS
  62
5
 100
AcDbCircle
  10
 1039.0507380762
  20
 962.86464123947
  30
0.0
  40
 3.2500000000000
 100
AcDbArc
  50
 172.04116811847
  51
 187.95883188153
   0
ARC
   5
526
 100
AcDbEntity
   8
LEVEL002
 370
15
   6
CONTINUOUS
  62
5
 100
AcDbCircle
  10
 1039.0507380762
  20
 962.86464123947
  30
0.0
  40
 3.2500000000000
 100
AcDbArc
  50
 262.04116811853
  51
 277.95883188158
   0
ARC
   5
527
 100
AcDbEntity
   8
LEVEL002
 370
15
   6
CONTINUOUS
  62
5
 100
AcDbCircle
  10
 1041.3488351150
  20
 960.56654420061
  30
0.0
  40
 1.8480970388563
 100
AcDbArc
  50
 89.999999999972
  51
 179.99999999998
   0
ARC
   5
528
 100
AcDbEntity
   8
LEVEL002
 370
15
   6
CONTINUOUS
  62
5
 100
AcDbCircle
  10
 1041.3488351150
  20
 965.16273827833
  30
0.0
  40
 1.8480970388563
 100
AcDbArc
  50
 180.00000000000
  51
 270.00000000003
   0
ARC
   5
529
 100
AcDbEntity
   8
LEVEL002
 370
15
   6
CONTINUOUS
  62
5
 100
AcDbCircle
  10
 1036.7526410373
  20
 960.56654420061
  30
0.0
  40
 1.8480970388563
 100
AcDbArc
  50
0.0
  51
 90.000000000085
   0
ARC
   5
52A
 100
AcDbEntity
   8
LEVEL002
 370
15
   6
CONTINUOUS
  62
5
 100
AcDbCircle
  10
 1036.7526410373
  20
 965.16273827833
  30
0.0
  40
 1.8480970388563
 100
AcDbArc
  50
 269.99999999997
  51
0.0
   0
LINE
   5
52B
 100
AcDbEntity
   8
0
 370
15
 100
AcDbLine
   6
DASHDOT
  62
8
  10
 1009.0507380762
  20
 961.34719378729
  30
0.0
  11
 1009.0507380762
  21
 974.38208869165
  31
0.0
   0
LINE
   5
52C
 100
AcDbEntity
   8
0
 370
15
 100
AcDbLine
   6
DASHDOT
  62
8
  10
 1015.7302186291
  20
 967.86464123947
  30
0.0
  11
 1002.3712575232
  21
 967.86464123947
  31
0.0
   0
LWPOLYLINE
   5
52D
 100
AcDbEntity
   8
0
 370
20
   6
CONTINUOUS
  62
1
 100
AcDbPolyline
  90
4
  70
1
  10
 930.76841409837
  20
 285.94688840738
  10
 930.76841409837
  20
 283.44688840738
  10
 955.76841409837
  20
 283.44688840738
  10
 955.76841409837
  20
 285.94688840738
   0
LINE
   5
52E
 100
AcDbEntity
   8
LEVEL004
 370
20
 100
AcDbLine
   6
HIDDEN
  62
1
  10
 948.01841409837
  20
 284.19688840738
  30
0.0
  11
 938.51841409837
  21
 284.19688840738
  31
0.0
   0
LINE
   5
52F
 100
AcDbEntity
   8
LEVEL004
 370
20
 100
AcDbLine
   6
HIDDEN
  62
1
  10
 938.51841409837
  20
 284.19688840738
  30
0.0
  11
 938.51841409837
  21
 283.44688840738
  31
0.0
   0
LINE
   5
530
 100
AcDbEntity
   8
LEVEL004
 370
20
 100
AcDbLine
   6
HIDDEN
  62
1
  10
 938.51841409837
  20
 284.19688840738
  30
0.0
  11
 936.76841409837
  21
 285.94688840738
  31
0.0
   0
LINE
   5
531
 100
AcDbEntity
   8
LEVEL004
 370
20
 100
AcDbLine
   6
HIDDEN
  62
1
  10
 935.76841409837
  20
 285.24688840738
  30
0.0
  11
 940.76841409837
  21
 285.24688840738
  31
0.0
   0
LINE
   5
532
 100
AcDbEntity
   8
LEVEL004
 370
20
 100
AcDbLine
   6
HIDDEN
  62
1
  10
 940.76841409837
  20
 285.24688840738
  30
0.0
  11
 940.76841409837
  21
 285.94688840738
  31
0.0
   0
LINE
   5
533
 100
AcDbEntity
   8
LEVEL004
 370
20
 100
AcDbLine
   6
HIDDEN
  62
1
  10
 940.76841409837
  20
 285.24688840738
  30
0.0
  11
 942.56841409837
  21
 283.44688840738
  31
0.0
   0
LINE
   5
534
 100
AcDbEntity
   8
LEVEL004
 370
20
 100
AcDbLine
   6
HIDDEN
  62
1
  10
 935.76841409837
  20
 285.24688840738
  30
0.0
  11
 935.76841409837
  21
 285.94688840738
  31
0.0
   0
LINE
   5
535
 100
AcDbEntity
   8
LEVEL004
 370
20
 100
AcDbLine
   6
HIDDEN
  62
1
  10
 935.76841409837
  20
 285.24688840738
  30
0.0
  11
 933.96841409837
  21
 283.44688840738
  31
0.0
   0
LINE
   5
536
 100
AcDbEntity
   8
LEVEL004
 370
20
 100
AcDbLine
   6
HIDDEN
  62
1
  10
 948.01841409837
  20
 284.19688840738
  30
0.0
  11
 948.01841409837
  21
 283.44688840738
  31
0.0
   0
LINE
   5
537
 100
AcDbEntity
   8
LEVEL004
 370
20
 100
AcDbLine
   6
HIDDEN
  62
1
  10
 948.01841409837
  20
 284.19688840738
  30
0.0
  11
 949.76841409837
  21
 285.94688840738
  31
0.0
   0
LINE
   5
538
 100
AcDbEntity
   8
LEVEL004
 370
20
 100
AcDbLine
   6
HIDDEN
  62
1
  10
 945.76841409837
  20
 285.24688840738
  30
0.0
  11
 950.76841409837
  21
 285.24688840738
  31
0.0
   0
LINE
   5
539
 100
AcDbEntity
   8
LEVEL004
 370
20
 100
AcDbLine
   6
HIDDEN
  62
1
  10
 950.76841409837
  20
 285.24688840738
  30
0.0
  11
 950.76841409837
  21
 285.94688840738
  31
0.0
   0
LINE
   5
53A
 100
AcDbEntity
   8
LEVEL004
 370
20
 100
AcDbLine
   6
HIDDEN
  62
1
  10
 950.76841409837
  20
 285.24688840738
  30
0.0
  11
 952.56841409837
  21
 283.44688840738
  31
0.0
   0
LINE
   5
53B
 100
AcDbEntity
   8
LEVEL004
 370
20
 100
AcDbLine
   6
HIDDEN
  62
1
  10
 945.76841409837
  20
 285.24688840738
  30
0.0
  11
 945.76841409837
  21
 285.94688840738
  31
0.0
   0
LINE
   5
53C
 100
AcDbEntity
   8
LEVEL004
 370
20
 100
AcDbLine
   6
HIDDEN
  62
1
  10
 945.76841409837
  20
 285.24688840738
  30
0.0
  11
 943.96841409837
  21
 283.44688840738
  31
0.0
   0
DIMENSION
   5
53D
 100
AcDbEntity
   8
0
 370
15
   6
CONTINUOUS
  62
8
 100
AcDbDimension
   2
*D47
  10
 955.76841409837
  20
 307.07227218057
  30
0.0
  11
 943.26841409837
  21
 307.07227218057
  31
0.0
  70
0
   3
GMM001
 100
AcDbAlignedDimension
  13
 930.76841409837
  23
 285.94688840738
  33
0.0
  14
 955.76841409837
  24
 285.94688840738
  34
0.0
 100
AcDbRotatedDimension
   0
LINE
   5
53E
 100
AcDbEntity
   8
LEVEL006
 370
15
 100
AcDbLine
   6
DASHDOT
  62
8
  10
 948.26841409837
  20
 282.44688840738
  30
0.0
  11
 948.26841409837
  21
 286.44688840738
  31
0.0
   0
LINE
   5
53F
 100
AcDbEntity
   8
LEVEL006
 370
15
 100
AcDbLine
   6
DASHDOT
  62
8
  10
 938.26841409837
  20
 282.44688840738
  30
0.0
  11
 938.26841409837
  21
 286.44688840738
  31
0.0
   0
LWPOLYLINE
   5
540
 100
AcDbEntity
   8
0
 370
20
   6
CONTINUOUS
  62
1
 100
AcDbPolyline
  90
4
  70
1
  10
 927.10013322882
  20
 843.91537478664
  10
 927.10013322882
  20
 841.41537478664
  10
 952.10013322882
  20
 841.41537478664
  10
 952.10013322882
  20
 843.91537478664
   0
LINE
   5
541
 100
AcDbEntity
   8
LEVEL004
 370
20
 100
AcDbLine
   6
HIDDEN
  62
1
  10
 944.35013322882
  20
 842.16537478664
  30
0.0
  11
 934.85013322882
  21
 842.16537478664
  31
0.0
   0
LINE
   5
542
 100
AcDbEntity
   8
LEVEL004
 370
20
 100
AcDbLine
   6
HIDDEN
  62
1
  10
 934.85013322882
  20
 842.16537478664
  30
0.0
  11
 934.85013322882
  21
 841.41537478664
  31
0.0
   0
LINE
   5
543
 100
AcDbEntity
   8
LEVEL004
 370
20
 100
AcDbLine
   6
HIDDEN
  62
1
  10
 934.85013322882
  20
 842.16537478664
  30
0.0
  11
 933.10013322882
  21
 843.91537478664
  31
0.0
   0
LINE
   5
544
 100
AcDbEntity
   8
LEVEL004
 370
20
 100
AcDbLine
   6
HIDDEN
  62
1
  10
 932.10013322882
  20
 843.21537478664
  30
0.0
  11
 937.10013322882
  21
 843.21537478664
  31
0.0
   0
LINE
   5
545
 100
AcDbEntity
   8
LEVEL004
 370
20
 100
AcDbLine
   6
HIDDEN
  62
1
  10
 937.10013322882
  20
 843.21537478664
  30
0.0
  11
 937.10013322882
  21
 843.91537478664
  31
0.0
   0
LINE
   5
546
 100
AcDbEntity
   8
LEVEL004
 370
20
 100
AcDbLine
   6
HIDDEN
  62
1
  10
 937.10013322882
  20
 843.21537478664
  30
0.0
  11
 938.90013322882
  21
 841.41537478664
  31
0.0
   0
LINE
   5
547
 100
AcDbEntity
   8
LEVEL004
 370
20
 100
AcDbLine
   6
HIDDEN
  62
1
  10
 932.10013322882
  20
 843.21537478664
  30
0.0
  11
 932.10013322882
  21
 843.91537478664
  31
0.0
   0
LINE
   5
548
 100
AcDbEntity
   8
LEVEL004
 370
20
 100
AcDbLine
   6
HIDDEN
  62
1
  10
 932.10013322882
  20
 843.21537478664
  30
0.0
  11
 930.30013322882
  21
 841.41537478664
  31
0.0
   0
LINE
   5
549
 100
AcDbEntity
   8
LEVEL004
 370
20
 100
AcDbLine
   6
HIDDEN
  62
1
  10
 944.35013322882
  20
 842.16537478664
  30
0.0
  11
 944.35013322882
  21
 841.41537478664
  31
0.0
   0
LINE
   5
54A
 100
AcDbEntity
   8
LEVEL004
 370
20
 100
AcDbLine
   6
HIDDEN
  62
1
  10
 944.35013322882
  20
 842.16537478664
  30
0.0
  11
 946.10013322882
  21
 843.91537478664
  31
0.0
   0
LINE
   5
54B
 100
AcDbEntity
   8
LEVEL004
 370
20
 100
AcDbLine
   6
HIDDEN
  62
1
  10
 942.10013322882
  20
 843.21537478664
  30
0.0
  11
 947.10013322882
  21
 843.21537478664
  31
0.0
   0
LINE
   5
54C
 100
AcDbEntity
   8
LEVEL004
 370
20
 100
AcDbLine
   6
HIDDEN
  62
1
  10
 947.10013322882
  20
 843.21537478664
  30
0.0
  11
 947.10013322882
  21
 843.91537478664
  31
0.0
   0
LINE
   5
54D
 100
AcDbEntity
   8
LEVEL004
 370
20
 100
AcDbLine
   6
HIDDEN
  62
1
  10
 947.10013322882
  20
 843.21537478664
  30
0.0
  11
 948.90013322882
  21
 841.41537478664
  31
0.0
   0
LINE
   5
54E
 100
AcDbEntity
   8
LEVEL004
 370
20
 100
AcDbLine
   6
HIDDEN
  62
1
  10
 942.10013322882
  20
 843.21537478664
  30
0.0
  11
 942.10013322882
  21
 843.91537478664
  31
0.0
   0
LINE
   5
54F
 100
AcDbEntity
   8
LEVEL004
 370
20
 100
AcDbLine
   6
HIDDEN
  62
1
  10
 942.10013322882
  20
 843.21537478664
  30
0.0
  11
 940.30013322882
  21
 841.41537478664
  31
0.0
   0
DIMENSION
   5
550
 100
AcDbEntity
   8
0
 370
15
   6
CONTINUOUS
  62
8
 100
AcDbDimension
   2
*D48
  10
 952.10013322882
  20
 865.04075855983
  30
0.0
  11
 939.60013322882
  21
 865.04075855983
  31
0.0
  70
0
   3
GMM001
 100
AcDbAlignedDimension
  13
 927.10013322882
  23
 843.91537478664
  33
0.0
  14
 952.10013322882
  24
 843.91537478664
  34
0.0
 100
AcDbRotatedDimension
   0
LINE
   5
551
 100
AcDbEntity
   8
LEVEL006
 370
15
 100
AcDbLine
   6
DASHDOT
  62
8
  10
 944.60013322882
  20
 840.41537478664
  30
0.0
  11
 944.60013322882
  21
 844.41537478664
  31
0.0
   0
LINE
   5
552
 100
AcDbEntity
   8
LEVEL006
 370
15
 100
AcDbLine
   6
DASHDOT
  62
8
  10
 934.60013322882
  20
 840.41537478664
  30
0.0
  11
 934.60013322882
  21
 844.41537478664
  31
0.0
   0
LINE
   5
553
 100
AcDbEntity
   8
LEVEL006
 370
15
 100
AcDbLine
   6
DASHDOT
  62
8
  10
 1012.7190189457
  20
 282.44688840738
  30
0.0
  11
 1012.7190189457
  21
 286.44688840738
  31
0.0
   0
LINE
   5
554
 100
AcDbEntity
   8
LEVEL004
 370
20
 100
AcDbLine
   6
CONTINUOUS
  62
1
  10
 1002.7190189457
  20
 283.44688840738
  30
0.0
  11
 1002.7190189457
  21
 285.94688840738
  31
0.0
   0
LINE
   5
555
 100
AcDbEntity
   8
LEVEL004
 370
20
 100
AcDbLine
   6
CONTINUOUS
  62
1
  10
 1082.7190189457
  20
 283.44688840738
  30
0.0
  11
 1002.7190189457
  21
 283.44688840738
  31
0.0
   0
LINE
   5
556
 100
AcDbEntity
   8
LEVEL004
 370
20
 100
AcDbLine
   6
CONTINUOUS
  62
1
  10
 1082.7190189457
  20
 285.94688840738
  30
0.0
  11
 1002.7190189457
  21
 285.94688840738
  31
0.0
   0
LINE
   5
557
 100
AcDbEntity
   8
LEVEL004
 370
20
 100
AcDbLine
   6
HIDDEN
  62
1
  10
 1010.2190189457
  20
 285.24688840738
  30
0.0
  11
 1015.2190189457
  21
 285.24688840738
  31
0.0
   0
LINE
   5
558
 100
AcDbEntity
   8
LEVEL004
 370
20
 100
AcDbLine
   6
HIDDEN
  62
1
  10
 1015.2190189457
  20
 285.24688840738
  30
0.0
  11
 1015.2190189457
  21
 285.94688840738
  31
0.0
   0
LINE
   5
559
 100
AcDbEntity
   8
LEVEL004
 370
20
 100
AcDbLine
   6
HIDDEN
  62
1
  10
 1015.2190189457
  20
 285.24688840738
  30
0.0
  11
 1017.0190189457
  21
 283.44688840738
  31
0.0
   0
LINE
   5
55A
 100
AcDbEntity
   8
LEVEL004
 370
20
 100
AcDbLine
   6
HIDDEN
  62
1
  10
 1010.2190189457
  20
 285.24688840738
  30
0.0
  11
 1010.2190189457
  21
 285.94688840738
  31
0.0
   0
LINE
   5
55B
 100
AcDbEntity
   8
LEVEL004
 370
20
 100
AcDbLine
   6
HIDDEN
  62
1
  10
 1010.2190189457
  20
 285.24688840738
  30
0.0
  11
 1008.4190189457
  21
 283.44688840738
  31
0.0
   0
DIMENSION
   5
55C
 100
AcDbEntity
   8
0
 370
15
   6
CONTINUOUS
  62
8
 100
AcDbDimension
   2
*D49
  10
 1082.7190189457
  20
 307.07227218057
  30
0.0
  11
 1042.7190189457
  21
 307.07227218057
  31
0.0
  70
0
   3
GMM001
 100
AcDbAlignedDimension
  13
 1002.7190189457
  23
 285.94688840738
  33
0.0
  14
 1082.7190189457
  24
 285.94688840738
  34
0.0
 100
AcDbRotatedDimension
   0
LINE
   5
55D
 100
AcDbEntity
   8
LEVEL006
 370
15
 100
AcDbLine
   6
DASHDOT
  62
8
  10
 1072.7190189457
  20
 282.44688840738
  30
0.0
  11
 1072.7190189457
  21
 286.44688840738
  31
0.0
   0
LINE
   5
55E
 100
AcDbEntity
   8
LEVEL004
 370
20
 100
AcDbLine
   6
CONTINUOUS
  62
1
  10
 1082.7190189457
  20
 283.44688840738
  30
0.0
  11
 1082.7190189457
  21
 285.94688840738
  31
0.0
   0
LINE
   5
55F
 100
AcDbEntity
   8
LEVEL004
 370
20
 100
AcDbLine
   6
HIDDEN
  62
1
  10
 1075.2190189457
  20
 285.34688840738
  30
0.0
  11
 1077.1190189457
  21
 283.44688840738
  31
0.0
   0
LINE
   5
560
 100
AcDbEntity
   8
LEVEL004
 370
20
 100
AcDbLine
   6
HIDDEN
  62
1
  10
 1070.2190189457
  20
 285.34688840738
  30
0.0
  11
 1070.2190189457
  21
 285.94688840738
  31
0.0
   0
LINE
   5
561
 100
AcDbEntity
   8
LEVEL004
 370
20
 100
AcDbLine
   6
HIDDEN
  62
1
  10
 1075.2190189457
  20
 285.34688840738
  30
0.0
  11
 1070.2190189457
  21
 285.34688840738
  31
0.0
   0
LINE
   5
562
 100
AcDbEntity
   8
LEVEL004
 370
20
 100
AcDbLine
   6
HIDDEN
  62
1
  10
 1070.2190189457
  20
 285.34688840738
  30
0.0
  11
 1068.3190189457
  21
 283.44688840738
  31
0.0
   0
LINE
   5
563
 100
AcDbEntity
   8
LEVEL004
 370
20
 100
AcDbLine
   6
HIDDEN
  62
1
  10
 1075.2190189457
  20
 285.34688840738
  30
0.0
  11
 1075.2190189457
  21
 285.94688840738
  31
0.0
   0
DIMENSION
   5
564
 100
AcDbEntity
   8
0
 370
15
   6
CONTINUOUS
  62
8
 100
AcDbDimension
   2
*D50
  10
 1116.5952034259
  20
 285.94688840738
  30
0.0
  11
 1116.5952034259
  21
 294.82233232493
  31
0.0
  70
128
   3
GMM008
 100
AcDbAlignedDimension
  13
 1082.7190189457
  23
 283.44688840738
  33
0.0
  14
 1082.7190189457
  24
 285.94688840738
  34
0.0
  50
 90.000000000000
 100
AcDbRotatedDimension
   0
LINE
   5
565
 100
AcDbEntity
   8
LEVEL004
 370
20
 100
AcDbLine
   6
HIDDEN
  62
1
  10
 1047.4690189457
  20
 284.19688840738
  30
0.0
  11
 1037.9690189457
  21
 284.19688840738
  31
0.0
   0
LINE
   5
566
 100
AcDbEntity
   8
LEVEL004
 370
20
 100
AcDbLine
   6
HIDDEN
  62
1
  10
 1037.9690189457
  20
 284.19688840738
  30
0.0
  11
 1037.9690189457
  21
 283.44688840738
  31
0.0
   0
LINE
   5
567
 100
AcDbEntity
   8
LEVEL004
 370
20
 100
AcDbLine
   6
HIDDEN
  62
1
  10
 1037.9690189457
  20
 284.19688840738
  30
0.0
  11
 1036.2190189457
  21
 285.94688840738
  31
0.0
   0
LINE
   5
568
 100
AcDbEntity
   8
LEVEL004
 370
20
 100
AcDbLine
   6
HIDDEN
  62
1
  10
 1047.4690189457
  20
 284.19688840738
  30
0.0
  11
 1047.4690189457
  21
 283.44688840738
  31
0.0
   0
LINE
   5
569
 100
AcDbEntity
   8
LEVEL004
 370
20
 100
AcDbLine
   6
HIDDEN
  62
1
  10
 1047.4690189457
  20
 284.19688840738
  30
0.0
  11
 1049.2190189457
  21
 285.94688840738
  31
0.0
   0
LINE
   5
56A
 100
AcDbEntity
   8
LEVEL006
 370
15
 100
AcDbLine
   6
DASHDOT
  62
8
  10
 1009.0507380762
  20
 840.41537478664
  30
0.0
  11
 1009.0507380762
  21
 844.41537478664
  31
0.0
   0
LINE
   5
56B
 100
AcDbEntity
   8
LEVEL004
 370
20
 100
AcDbLine
   6
CONTINUOUS
  62
1
  10
 999.05073807616
  20
 841.41537478664
  30
0.0
  11
 999.05073807616
  21
 843.91537478664
  31
0.0
   0
LINE
   5
56C
 100
AcDbEntity
   8
LEVEL004
 370
20
 100
AcDbLine
   6
CONTINUOUS
  62
1
  10
 1079.0507380762
  20
 841.41537478664
  30
0.0
  11
 999.05073807616
  21
 841.41537478664
  31
0.0
   0
LINE
   5
56D
 100
AcDbEntity
   8
LEVEL004
 370
20
 100
AcDbLine
   6
CONTINUOUS
  62
1
  10
 1079.0507380762
  20
 843.91537478664
  30
0.0
  11
 999.05073807616
  21
 843.91537478664
  31
0.0
   0
LINE
   5
56E
 100
AcDbEntity
   8
LEVEL004
 370
20
 100
AcDbLine
   6
HIDDEN
  62
1
  10
 1006.5507380762
  20
 843.21537478664
  30
0.0
  11
 1011.5507380762
  21
 843.21537478664
  31
0.0
   0
LINE
   5
56F
 100
AcDbEntity
   8
LEVEL004
 370
20
 100
AcDbLine
   6
HIDDEN
  62
1
  10
 1011.5507380762
  20
 843.21537478664
  30
0.0
  11
 1011.5507380762
  21
 843.91537478664
  31
0.0
   0
LINE
   5
570
 100
AcDbEntity
   8
LEVEL004
 370
20
 100
AcDbLine
   6
HIDDEN
  62
1
  10
 1011.5507380762
  20
 843.21537478664
  30
0.0
  11
 1013.3507380762
  21
 841.41537478664
  31
0.0
   0
LINE
   5
571
 100
AcDbEntity
   8
LEVEL004
 370
20
 100
AcDbLine
   6
HIDDEN
  62
1
  10
 1006.5507380762
  20
 843.21537478664
  30
0.0
  11
 1006.5507380762
  21
 843.91537478664
  31
0.0
   0
LINE
   5
572
 100
AcDbEntity
   8
LEVEL004
 370
20
 100
AcDbLine
   6
HIDDEN
  62
1
  10
 1006.5507380762
  20
 843.21537478664
  30
0.0
  11
 1004.7507380762
  21
 841.41537478664
  31
0.0
   0
DIMENSION
   5
573
 100
AcDbEntity
   8
0
 370
15
   6
CONTINUOUS
  62
8
 100
AcDbDimension
   2
*D51
  10
 1079.0507380762
  20
 865.04075855983
  30
0.0
  11
 1039.0507380762
  21
 865.04075855983
  31
0.0
  70
0
   3
GMM001
 100
AcDbAlignedDimension
  13
 999.05073807616
  23
 843.91537478664
  33
0.0
  14
 1079.0507380762
  24
 843.91537478664
  34
0.0
 100
AcDbRotatedDimension
   0
LINE
   5
574
 100
AcDbEntity
   8
LEVEL006
 370
15
 100
AcDbLine
   6
DASHDOT
  62
8
  10
 1069.0507380762
  20
 840.41537478664
  30
0.0
  11
 1069.0507380762
  21
 844.41537478664
  31
0.0
   0
LINE
   5
575
 100
AcDbEntity
   8
LEVEL004
 370
20
 100
AcDbLine
   6
CONTINUOUS
  62
1
  10
 1079.0507380762
  20
 841.41537478664
  30
0.0
  11
 1079.0507380762
  21
 843.91537478664
  31
0.0
   0
LINE
   5
576
 100
AcDbEntity
   8
LEVEL004
 370
20
 100
AcDbLine
   6
HIDDEN
  62
1
  10
 1071.5507380762
  20
 843.31537478664
  30
0.0
  11
 1073.4507380762
  21
 841.41537478664
  31
0.0
   0
LINE
   5
577
 100
AcDbEntity
   8
LEVEL004
 370
20
 100
AcDbLine
   6
HIDDEN
  62
1
  10
 1066.5507380762
  20
 843.31537478664
  30
0.0
  11
 1066.5507380762
  21
 843.91537478664
  31
0.0
   0
LINE
   5
578
 100
AcDbEntity
   8
LEVEL004
 370
20
 100
AcDbLine
   6
HIDDEN
  62
1
  10
 1071.5507380762
  20
 843.31537478664
  30
0.0
  11
 1066.5507380762
  21
 843.31537478664
  31
0.0
   0
LINE
   5
579
 100
AcDbEntity
   8
LEVEL004
 370
20
 100
AcDbLine
   6
HIDDEN
  62
1
  10
 1066.5507380762
  20
 843.31537478664
  30
0.0
  11
 1064.6507380762
  21
 841.41537478664
  31
0.0
   0
LINE
   5
57A
 100
AcDbEntity
   8
LEVEL004
 370
20
 100
AcDbLine
   6
HIDDEN
  62
1
  10
 1071.5507380762
  20
 843.31537478664
  30
0.0
  11
 1071.5507380762
  21
 843.91537478664
  31
0.0
   0
DIMENSION
   5
57B
 100
AcDbEntity
   8
0
 370
15
   6
CONTINUOUS
  62
8
 100
AcDbDimension
   2
*D52
  10
 1112.9269225563
  20
 843.91537478664
  30
0.0
  11
 1112.9269225563
  21
 852.79081870419
  31
0.0
  70
128
   3
GMM008
 100
AcDbAlignedDimension
  13
 1079.0507380762
  23
 841.41537478664
  33
0.0
  14
 1079.0507380762
  24
 843.91537478664
  34
0.0
  50
 90.000000000000
 100
AcDbRotatedDimension
   0
LINE
   5
57C
 100
AcDbEntity
   8
LEVEL004
 370
20
 100
AcDbLine
   6
HIDDEN
  62
1
  10
 1043.8007380762
  20
 842.16537478664
  30
0.0
  11
 1034.3007380762
  21
 842.16537478664
  31
0.0
   0
LINE
   5
57D
 100
AcDbEntity
   8
LEVEL004
 370
20
 100
AcDbLine
   6
HIDDEN
  62
1
  10
 1034.3007380762
  20
 842.16537478664
  30
0.0
  11
 1034.3007380762
  21
 841.41537478664
  31
0.0
   0
LINE
   5
57E
 100
AcDbEntity
   8
LEVEL004
 370
20
 100
AcDbLine
   6
HIDDEN
  62
1
  10
 1034.3007380762
  20
 842.16537478664
  30
0.0
  11
 1032.5507380762
  21
 843.91537478664
  31
0.0
   0
LINE
   5
57F
 100
AcDbEntity
   8
LEVEL004
 370
20
 100
AcDbLine
   6
HIDDEN
  62
1
  10
 1043.8007380762
  20
 842.16537478664
  30
0.0
  11
 1043.8007380762
  21
 841.41537478664
  31
0.0
   0
LINE
   5
580
 100
AcDbEntity
   8
LEVEL004
 370
20
 100
AcDbLine
   6
HIDDEN
  62
1
  10
 1043.8007380762
  20
 842.16537478664
  30
0.0
  11
 1045.5507380762
  21
 843.91537478664
  31
0.0
   0
LINE
   5
581
 100
AcDbEntity
   8
LEVEL001
 370
15
 100
AcDbLine
   6
DASHDOT
  62
8
  10
 939.60013322882
  20
 857.67304135308
  30
0.0
  11
 939.60013322882
  21
 812.41537478664
  31
0.0
   0
LINE
   5
582
 100
AcDbEntity
   8
LEVEL001
 370
15
 100
AcDbLine
   6
DASHDOT
  62
8
  10
 1039.0507380762
  20
 761.73590025119
  30
0.0
  11
 1039.0507380762
  21
 857.67304135308
  31
0.0
   0
LINE
   5
583
 100
AcDbEntity
   8
LEVEL001
 370
15
 100
AcDbLine
   6
DASHDOT
  62
8
  10
 943.26841409837
  20
 299.23695112253
  30
0.0
  11
 943.26841409837
  21
 262.94688840738
  31
0.0
   0
LINE
   5
584
 100
AcDbEntity
   8
LEVEL001
 370
15
 100
AcDbLine
   6
DASHDOT
  62
8
  10
 1042.7190189457
  20
 219.58779451357
  30
0.0
  11
 1042.7190189457
  21
 299.23695112253
  31
0.0
   0
MTEXT
   5
586
 100
AcDbEntity
   8
LEVEL001
 370
15
  62
8
 100
AcDbMText
  10
 1287.2799276686
  20
 624.92436335994
  30
0.0
  40
 12.000000000000
  41
0.0
  71
4
  72
1
   1
{\T1.000000;※出寸法Ｌは軸の中心までの寸法です。}\P{\T1.000000;※ネジ切りはＭ１０です。}
   7
GMM001
  44
 0.79999984000003
   0
LINE
   5
587
 100
AcDbEntity
   8
LEVEL001
 370
20
 100
AcDbLine
   6
CONTINUOUS
  62
7
  10
 463.55073807611
  20
 1037.3646412394
  30
0.0
  11
 408.55073807611
  21
 1037.3646412394
  31
0.0
   0
LINE
   5
588
 100
AcDbEntity
   8
LEVEL001
 370
20
 100
AcDbLine
   6
CONTINUOUS
  62
7
  10
 410.05073807611
  20
 1035.8646412394
  30
0.0
  11
 462.05073807611
  21
 1035.8646412394
  31
0.0
   0
LINE
   5
589
 100
AcDbEntity
   8
LEVEL001
 370
20
 100
AcDbLine
   6
CONTINUOUS
  62
7
  10
 462.05073807611
  20
 1035.8646412394
  30
0.0
  11
 463.55073807611
  21
 1037.3646412394
  31
0.0
   0
LINE
   5
58A
 100
AcDbEntity
   8
LEVEL001
 370
20
 100
AcDbLine
   6
CONTINUOUS
  62
7
  10
 463.55073807611
  20
 1039.3646412394
  30
0.0
  11
 408.55073807611
  21
 1039.3646412394
  31
0.0
   0
LINE
   5
58B
 100
AcDbEntity
   8
LEVEL001
 370
20
 100
AcDbLine
   6
CONTINUOUS
  62
7
  10
 463.55073807611
  20
 1037.3646412394
  30
0.0
  11
 463.55073807611
  21
 1039.3646412394
  31
0.0
   0
LINE
   5
58C
 100
AcDbEntity
   8
LEVEL001
 370
15
 100
AcDbLine
   6
HIDDEN
  62
2
  10
 431.75073807611
  20
 1034.6646412394
  30
0.0
  11
 431.75073807611
  21
 1004.8646412394
  31
0.0
   0
LINE
   5
58D
 100
AcDbEntity
   8
LEVEL001
 370
15
 100
AcDbLine
   6
HIDDEN
  62
2
  10
 431.75073807611
  20
 1004.8646412394
  30
0.0
  11
 436.05073807611
  21
 1002.8646412394
  31
0.0
   0
LINE
   5
58E
 100
AcDbEntity
   8
LEVEL001
 370
15
 100
AcDbLine
   6
HIDDEN
  62
2
  10
 431.75073807611
  20
 1009.7446412394
  30
0.0
  11
 431.05073807611
  21
 1010.8646412394
  31
0.0
   0
LINE
   5
58F
 100
AcDbEntity
   8
LEVEL001
 370
15
 100
AcDbLine
   6
HIDDEN
  62
2
  10
 431.05073807611
  20
 1010.8646412394
  30
0.0
  11
 431.05073807611
  21
 1035.3646412394
  31
0.0
   0
LINE
   5
590
 100
AcDbEntity
   8
LEVEL001
 370
15
 100
AcDbLine
   6
HIDDEN
  62
2
  10
 440.35073807611
  20
 1004.8646412394
  30
0.0
  11
 431.75073807611
  21
 1004.8646412394
  31
0.0
   0
LINE
   5
591
 100
AcDbEntity
   8
LEVEL001
 370
15
 100
AcDbLine
   6
HIDDEN
  62
2
  10
 441.05073807611
  20
 1010.8646412394
  30
0.0
  11
 431.05073807611
  21
 1010.8646412394
  31
0.0
   0
LINE
   5
592
 100
AcDbEntity
   8
LEVEL001
 370
15
 100
AcDbLine
   6
HIDDEN
  62
2
  10
 440.35073807611
  20
 1034.6646412394
  30
0.0
  11
 431.75073807611
  21
 1034.6646412394
  31
0.0
   0
LINE
   5
593
 100
AcDbEntity
   8
LEVEL001
 370
15
 100
AcDbLine
   6
HIDDEN
  62
2
  10
 431.75073807611
  20
 1034.6646412394
  30
0.0
  11
 430.55073807611
  21
 1035.8646412394
  31
0.0
   0
LINE
   5
594
 100
AcDbEntity
   8
LEVEL001
 370
15
 100
AcDbLine
   6
HIDDEN
  62
2
  10
 440.35073807611
  20
 1009.7446412394
  30
0.0
  11
 431.75073807611
  21
 1009.7446412394
  31
0.0
   0
LINE
   5
595
 100
AcDbEntity
   8
LEVEL001
 370
15
 100
AcDbLine
   6
HIDDEN
  62
2
  10
 440.35073807611
  20
 1004.8646412394
  30
0.0
  11
 440.35073807611
  21
 1034.6646412394
  31
0.0
   0
LINE
   5
596
 100
AcDbEntity
   8
LEVEL001
 370
15
 100
AcDbLine
   6
HIDDEN
  62
2
  10
 441.05073807611
  20
 1035.3646412394
  30
0.0
  11
 441.05073807611
  21
 1010.8646412394
  31
0.0
   0
LINE
   5
597
 100
AcDbEntity
   8
LEVEL001
 370
15
 100
AcDbLine
   6
HIDDEN
  62
2
  10
 440.35073807611
  20
 1034.6646412394
  30
0.0
  11
 441.55073807611
  21
 1035.8646412394
  31
0.0
   0
LINE
   5
598
 100
AcDbEntity
   8
LEVEL001
 370
15
 100
AcDbLine
   6
HIDDEN
  62
2
  10
 436.05073807611
  20
 1002.8646412394
  30
0.0
  11
 440.35073807611
  21
 1004.8646412394
  31
0.0
   0
LINE
   5
599
 100
AcDbEntity
   8
LEVEL001
 370
15
 100
AcDbLine
   6
HIDDEN
  62
2
  10
 441.05073807611
  20
 1010.8646412394
  30
0.0
  11
 440.35073807611
  21
 1009.7446412394
  31
0.0
   0
LINE
   5
59A
 100
AcDbEntity
   8
LEVEL001
 370
15
 100
AcDbLine
   6
HIDDEN
  62
2
  10
 441.20073807616
  20
 1035.8646412394
  30
0.0
  11
 441.20073807616
  21
 1039.3646412394
  31
0.0
   0
LINE
   5
59B
 100
AcDbEntity
   8
LEVEL001
 370
15
 100
AcDbLine
   6
HIDDEN
  62
2
  10
 430.90073807605
  20
 1035.8646412394
  30
0.0
  11
 430.90073807605
  21
 1039.3646412394
  31
0.0
   0
LINE
   5
59C
 100
AcDbEntity
   8
LEVEL001
 370
20
 100
AcDbLine
   6
CONTINUOUS
  62
7
  10
 408.55073807611
  20
 1037.3646412394
  30
0.0
  11
 410.05073807611
  21
 1035.8646412394
  31
0.0
   0
LINE
   5
59D
 100
AcDbEntity
   8
LEVEL001
 370
20
 100
AcDbLine
   6
CONTINUOUS
  62
7
  10
 408.55073807611
  20
 1039.3646412394
  30
0.0
  11
 408.55073807611
  21
 1037.3646412394
  31
0.0
   0
LINE
   5
59E
 100
AcDbEntity
   8
LEVEL001
 370
20
 100
AcDbLine
   6
CONTINUOUS
  62
7
  10
 1066.5507380762
  20
 1037.3646412395
  30
0.0
  11
 1011.5507380762
  21
 1037.3646412395
  31
0.0
   0
LINE
   5
59F
 100
AcDbEntity
   8
LEVEL001
 370
20
 100
AcDbLine
   6
CONTINUOUS
  62
7
  10
 1013.0507380762
  20
 1035.8646412395
  30
0.0
  11
 1065.0507380762
  21
 1035.8646412395
  31
0.0
   0
LINE
   5
5A0
 100
AcDbEntity
   8
LEVEL001
 370
20
 100
AcDbLine
   6
CONTINUOUS
  62
7
  10
 1065.0507380762
  20
 1035.8646412395
  30
0.0
  11
 1066.5507380762
  21
 1037.3646412395
  31
0.0
   0
LINE
   5
5A1
 100
AcDbEntity
   8
LEVEL001
 370
20
 100
AcDbLine
   6
CONTINUOUS
  62
7
  10
 1066.5507380762
  20
 1039.3646412395
  30
0.0
  11
 1011.5507380762
  21
 1039.3646412395
  31
0.0
   0
LINE
   5
5A2
 100
AcDbEntity
   8
LEVEL001
 370
20
 100
AcDbLine
   6
CONTINUOUS
  62
7
  10
 1066.5507380762
  20
 1037.3646412395
  30
0.0
  11
 1066.5507380762
  21
 1039.3646412395
  31
0.0
   0
LINE
   5
5A3
 100
AcDbEntity
   8
LEVEL001
 370
15
 100
AcDbLine
   6
HIDDEN
  62
2
  10
 1034.7507380762
  20
 1034.6646412395
  30
0.0
  11
 1034.7507380762
  21
 1004.8646412395
  31
0.0
   0
LINE
   5
5A4
 100
AcDbEntity
   8
LEVEL001
 370
15
 100
AcDbLine
   6
HIDDEN
  62
2
  10
 1034.7507380762
  20
 1004.8646412395
  30
0.0
  11
 1039.0507380762
  21
 1002.8646412395
  31
0.0
   0
LINE
   5
5A5
 100
AcDbEntity
   8
LEVEL001
 370
15
 100
AcDbLine
   6
HIDDEN
  62
2
  10
 1034.7507380762
  20
 1009.7446412395
  30
0.0
  11
 1034.0507380762
  21
 1010.8646412395
  31
0.0
   0
LINE
   5
5A6
 100
AcDbEntity
   8
LEVEL001
 370
15
 100
AcDbLine
   6
HIDDEN
  62
2
  10
 1034.0507380762
  20
 1010.8646412395
  30
0.0
  11
 1034.0507380762
  21
 1035.3646412395
  31
0.0
   0
LINE
   5
5A7
 100
AcDbEntity
   8
LEVEL001
 370
15
 100
AcDbLine
   6
HIDDEN
  62
2
  10
 1043.3507380762
  20
 1004.8646412395
  30
0.0
  11
 1034.7507380762
  21
 1004.8646412395
  31
0.0
   0
LINE
   5
5A8
 100
AcDbEntity
   8
LEVEL001
 370
15
 100
AcDbLine
   6
HIDDEN
  62
2
  10
 1044.0507380762
  20
 1010.8646412395
  30
0.0
  11
 1034.0507380762
  21
 1010.8646412395
  31
0.0
   0
LINE
   5
5A9
 100
AcDbEntity
   8
LEVEL001
 370
15
 100
AcDbLine
   6
HIDDEN
  62
2
  10
 1043.3507380762
  20
 1034.6646412395
  30
0.0
  11
 1034.7507380762
  21
 1034.6646412395
  31
0.0
   0
LINE
   5
5AA
 100
AcDbEntity
   8
LEVEL001
 370
15
 100
AcDbLine
   6
HIDDEN
  62
2
  10
 1034.7507380762
  20
 1034.6646412395
  30
0.0
  11
 1033.5507380762
  21
 1035.8646412395
  31
0.0
   0
LINE
   5
5AB
 100
AcDbEntity
   8
LEVEL001
 370
15
 100
AcDbLine
   6
HIDDEN
  62
2
  10
 1043.3507380762
  20
 1009.7446412395
  30
0.0
  11
 1034.7507380762
  21
 1009.7446412395
  31
0.0
   0
LINE
   5
5AC
 100
AcDbEntity
   8
LEVEL001
 370
15
 100
AcDbLine
   6
HIDDEN
  62
2
  10
 1043.3507380762
  20
 1004.8646412395
  30
0.0
  11
 1043.3507380762
  21
 1034.6646412395
  31
0.0
   0
LINE
   5
5AD
 100
AcDbEntity
   8
LEVEL001
 370
15
 100
AcDbLine
   6
HIDDEN
  62
2
  10
 1044.0507380762
  20
 1035.3646412395
  30
0.0
  11
 1044.0507380762
  21
 1010.8646412395
  31
0.0
   0
LINE
   5
5AE
 100
AcDbEntity
   8
LEVEL001
 370
15
 100
AcDbLine
   6
HIDDEN
  62
2
  10
 1043.3507380762
  20
 1034.6646412395
  30
0.0
  11
 1044.5507380762
  21
 1035.8646412395
  31
0.0
   0
LINE
   5
5AF
 100
AcDbEntity
   8
LEVEL001
 370
15
 100
AcDbLine
   6
HIDDEN
  62
2
  10
 1039.0507380762
  20
 1002.8646412395
  30
0.0
  11
 1043.3507380762
  21
 1004.8646412395
  31
0.0
   0
LINE
   5
5B0
 100
AcDbEntity
   8
LEVEL001
 370
15
 100
AcDbLine
   6
HIDDEN
  62
2
  10
 1044.0507380762
  20
 1010.8646412395
  30
0.0
  11
 1043.3507380762
  21
 1009.7446412395
  31
0.0
   0
LINE
   5
5B1
 100
AcDbEntity
   8
LEVEL001
 370
15
 100
AcDbLine
   6
HIDDEN
  62
2
  10
 1044.2007380762
  20
 1035.8646412395
  30
0.0
  11
 1044.2007380762
  21
 1039.3646412395
  31
0.0
   0
LINE
   5
5B2
 100
AcDbEntity
   8
LEVEL001
 370
15
 100
AcDbLine
   6
HIDDEN
  62
2
  10
 1033.9007380761
  20
 1035.8646412395
  30
0.0
  11
 1033.9007380761
  21
 1039.3646412395
  31
0.0
   0
LINE
   5
5B3
 100
AcDbEntity
   8
LEVEL001
 370
20
 100
AcDbLine
   6
CONTINUOUS
  62
7
  10
 1011.5507380762
  20
 1037.3646412395
  30
0.0
  11
 1013.0507380762
  21
 1035.8646412395
  31
0.0
   0
LINE
   5
5B4
 100
AcDbEntity
   8
LEVEL001
 370
20
 100
AcDbLine
   6
CONTINUOUS
  62
7
  10
 1011.5507380762
  20
 1039.3646412395
  30
0.0
  11
 1011.5507380762
  21
 1037.3646412395
  31
0.0
   0
LINE
   5
5B5
 100
AcDbEntity
   8
LEVEL001
 370
20
 100
AcDbLine
   6
CONTINUOUS
  62
7
  10
 443.73328116102
  20
 474.89615486028
  30
0.0
  11
 458.23328116102
  21
 474.89615486028
  31
0.0
   0
LINE
   5
5B6
 100
AcDbEntity
   8
LEVEL001
 370
20
 100
AcDbLine
   6
CONTINUOUS
  62
7
  10
 459.73328116102
  20
 476.39615486028
  30
0.0
  11
 414.73328116102
  21
 476.39615486028
  31
0.0
   0
LINE
   5
5B7
 100
AcDbEntity
   8
LEVEL001
 370
20
 100
AcDbLine
   6
CONTINUOUS
  62
7
  10
 459.73328116102
  20
 478.89615486028
  30
0.0
  11
 414.73328116102
  21
 478.89615486028
  31
0.0
   0
LINE
   5
5B8
 100
AcDbEntity
   8
LEVEL001
 370
20
 100
AcDbLine
   6
CONTINUOUS
  62
7
  10
 459.73328116102
  20
 478.89615486028
  30
0.0
  11
 459.73328116102
  21
 476.39615486028
  31
0.0
   0
LINE
   5
5B9
 100
AcDbEntity
   8
LEVEL001
 370
20
 100
AcDbLine
   6
CONTINUOUS
  62
7
  10
 459.73328116102
  20
 476.39615486028
  30
0.0
  11
 458.23328116102
  21
 474.89615486028
  31
0.0
   0
LINE
   5
5BA
 100
AcDbEntity
   8
LEVEL001
 370
20
 100
AcDbLine
   6
CONTINUOUS
  62
7
  10
 416.23328116102
  20
 474.89615486028
  30
0.0
  11
 430.73328116102
  21
 474.89615486028
  31
0.0
   0
LINE
   5
5BB
 100
AcDbEntity
   8
LEVEL001
 370
20
 100
AcDbLine
   6
CONTINUOUS
  62
7
  10
 414.73328116102
  20
 478.89615486028
  30
0.0
  11
 414.73328116102
  21
 476.39615486028
  31
0.0
   0
LINE
   5
5BC
 100
AcDbEntity
   8
LEVEL001
 370
20
 100
AcDbLine
   6
CONTINUOUS
  62
7
  10
 414.73328116102
  20
 476.39615486028
  30
0.0
  11
 416.23328116102
  21
 474.89615486028
  31
0.0
   0
LINE
   5
5BD
 100
AcDbEntity
   8
LEVEL001
 370
20
 100
AcDbLine
   6
CONTINUOUS
  62
7
  10
 443.73328116102
  20
 474.89615486028
  30
0.0
  11
 430.73328116102
  21
 474.89615486028
  31
0.0
   0
LINE
   5
5BE
 100
AcDbEntity
   8
LEVEL001
 370
15
 100
AcDbLine
   6
HIDDEN
  62
2
  10
 432.93328116103
  20
 474.19615486028
  30
0.0
  11
 432.93328116103
  21
 444.39615486028
  31
0.0
   0
LINE
   5
5BF
 100
AcDbEntity
   8
LEVEL001
 370
15
 100
AcDbLine
   6
HIDDEN
  62
2
  10
 432.93328116103
  20
 444.39615486028
  30
0.0
  11
 437.23328116102
  21
 442.39615486028
  31
0.0
   0
LINE
   5
5C0
 100
AcDbEntity
   8
LEVEL001
 370
15
 100
AcDbLine
   6
HIDDEN
  62
2
  10
 432.93328116103
  20
 449.27615486028
  30
0.0
  11
 432.23328116102
  21
 450.39615486028
  31
0.0
   0
LINE
   5
5C1
 100
AcDbEntity
   8
LEVEL001
 370
15
 100
AcDbLine
   6
HIDDEN
  62
2
  10
 432.23328116102
  20
 450.39615486028
  30
0.0
  11
 432.23328116102
  21
 474.89615486028
  31
0.0
   0
LINE
   5
5C2
 100
AcDbEntity
   8
LEVEL001
 370
15
 100
AcDbLine
   6
HIDDEN
  62
2
  10
 441.53328116102
  20
 444.39615486028
  30
0.0
  11
 432.93328116103
  21
 444.39615486028
  31
0.0
   0
LINE
   5
5C3
 100
AcDbEntity
   8
LEVEL001
 370
15
 100
AcDbLine
   6
HIDDEN
  62
2
  10
 442.23328116102
  20
 450.39615486028
  30
0.0
  11
 432.23328116102
  21
 450.39615486028
  31
0.0
   0
LINE
   5
5C4
 100
AcDbEntity
   8
LEVEL001
 370
15
 100
AcDbLine
   6
HIDDEN
  62
2
  10
 441.53328116102
  20
 474.19615486028
  30
0.0
  11
 432.93328116103
  21
 474.19615486028
  31
0.0
   0
LINE
   5
5C5
 100
AcDbEntity
   8
LEVEL001
 370
15
 100
AcDbLine
   6
HIDDEN
  62
2
  10
 432.93328116103
  20
 474.19615486028
  30
0.0
  11
 431.73328116102
  21
 475.39615486028
  31
0.0
   0
LINE
   5
5C6
 100
AcDbEntity
   8
LEVEL001
 370
15
 100
AcDbLine
   6
HIDDEN
  62
2
  10
 441.53328116102
  20
 449.27615486028
  30
0.0
  11
 432.93328116103
  21
 449.27615486028
  31
0.0
   0
LINE
   5
5C7
 100
AcDbEntity
   8
LEVEL001
 370
15
 100
AcDbLine
   6
HIDDEN
  62
2
  10
 441.53328116102
  20
 444.39615486028
  30
0.0
  11
 441.53328116102
  21
 474.19615486028
  31
0.0
   0
LINE
   5
5C8
 100
AcDbEntity
   8
LEVEL001
 370
15
 100
AcDbLine
   6
HIDDEN
  62
2
  10
 442.23328116102
  20
 474.89615486028
  30
0.0
  11
 442.23328116102
  21
 450.39615486028
  31
0.0
   0
LINE
   5
5C9
 100
AcDbEntity
   8
LEVEL001
 370
15
 100
AcDbLine
   6
HIDDEN
  62
2
  10
 441.53328116102
  20
 474.19615486028
  30
0.0
  11
 442.73328116102
  21
 475.39615486028
  31
0.0
   0
LINE
   5
5CA
 100
AcDbEntity
   8
LEVEL001
 370
15
 100
AcDbLine
   6
HIDDEN
  62
2
  10
 437.23328116102
  20
 442.39615486028
  30
0.0
  11
 441.53328116102
  21
 444.39615486028
  31
0.0
   0
LINE
   5
5CB
 100
AcDbEntity
   8
LEVEL001
 370
15
 100
AcDbLine
   6
HIDDEN
  62
2
  10
 442.23328116102
  20
 450.39615486028
  30
0.0
  11
 441.53328116102
  21
 449.27615486028
  31
0.0
   0
LINE
   5
5CC
 100
AcDbEntity
   8
LEVEL001
 370
15
 100
AcDbLine
   6
HIDDEN
  62
2
  10
 442.38328116107
  20
 475.39615486028
  30
0.0
  11
 442.38328116107
  21
 478.89615486028
  31
0.0
   0
LINE
   5
5CD
 100
AcDbEntity
   8
LEVEL001
 370
15
 100
AcDbLine
   6
HIDDEN
  62
2
  10
 432.08328116097
  20
 475.39615486028
  30
0.0
  11
 432.08328116097
  21
 478.89615486028
  31
0.0
   0
LINE
   5
5CE
 100
AcDbEntity
   8
LEVEL001
 370
20
 100
AcDbLine
   6
CONTINUOUS
  62
7
  10
 1049.2190189457
  20
 474.89615486025
  30
0.0
  11
 1063.7190189457
  21
 474.89615486025
  31
0.0
   0
LINE
   5
5CF
 100
AcDbEntity
   8
LEVEL001
 370
20
 100
AcDbLine
   6
CONTINUOUS
  62
7
  10
 1065.2190189457
  20
 476.39615486025
  30
0.0
  11
 1020.2190189457
  21
 476.39615486025
  31
0.0
   0
LINE
   5
5D0
 100
AcDbEntity
   8
LEVEL001
 370
20
 100
AcDbLine
   6
CONTINUOUS
  62
7
  10
 1065.2190189457
  20
 478.89615486025
  30
0.0
  11
 1020.2190189457
  21
 478.89615486025
  31
0.0
   0
LINE
   5
5D1
 100
AcDbEntity
   8
LEVEL001
 370
20
 100
AcDbLine
   6
CONTINUOUS
  62
7
  10
 1065.2190189457
  20
 478.89615486025
  30
0.0
  11
 1065.2190189457
  21
 476.39615486025
  31
0.0
   0
LINE
   5
5D2
 100
AcDbEntity
   8
LEVEL001
 370
20
 100
AcDbLine
   6
CONTINUOUS
  62
7
  10
 1065.2190189457
  20
 476.39615486025
  30
0.0
  11
 1063.7190189457
  21
 474.89615486025
  31
0.0
   0
LINE
   5
5D3
 100
AcDbEntity
   8
LEVEL001
 370
20
 100
AcDbLine
   6
CONTINUOUS
  62
7
  10
 1021.7190189457
  20
 474.89615486025
  30
0.0
  11
 1036.2190189457
  21
 474.89615486025
  31
0.0
   0
LINE
   5
5D4
 100
AcDbEntity
   8
LEVEL001
 370
20
 100
AcDbLine
   6
CONTINUOUS
  62
7
  10
 1020.2190189457
  20
 478.89615486025
  30
0.0
  11
 1020.2190189457
  21
 476.39615486025
  31
0.0
   0
LINE
   5
5D5
 100
AcDbEntity
   8
LEVEL001
 370
20
 100
AcDbLine
   6
CONTINUOUS
  62
7
  10
 1020.2190189457
  20
 476.39615486025
  30
0.0
  11
 1021.7190189457
  21
 474.89615486025
  31
0.0
   0
LINE
   5
5D6
 100
AcDbEntity
   8
LEVEL001
 370
20
 100
AcDbLine
   6
CONTINUOUS
  62
7
  10
 1049.2190189457
  20
 474.89615486024
  30
0.0
  11
 1036.2190189457
  21
 474.89615486024
  31
0.0
   0
LINE
   5
5D7
 100
AcDbEntity
   8
LEVEL001
 370
15
 100
AcDbLine
   6
HIDDEN
  62
2
  10
 1038.4190189457
  20
 474.19615486025
  30
0.0
  11
 1038.4190189457
  21
 444.39615486025
  31
0.0
   0
LINE
   5
5D8
 100
AcDbEntity
   8
LEVEL001
 370
15
 100
AcDbLine
   6
HIDDEN
  62
2
  10
 1038.4190189457
  20
 444.39615486025
  30
0.0
  11
 1042.7190189457
  21
 442.39615486025
  31
0.0
   0
LINE
   5
5D9
 100
AcDbEntity
   8
LEVEL001
 370
15
 100
AcDbLine
   6
HIDDEN
  62
2
  10
 1038.4190189457
  20
 449.27615486025
  30
0.0
  11
 1037.7190189457
  21
 450.39615486025
  31
0.0
   0
LINE
   5
5DA
 100
AcDbEntity
   8
LEVEL001
 370
15
 100
AcDbLine
   6
HIDDEN
  62
2
  10
 1037.7190189457
  20
 450.39615486025
  30
0.0
  11
 1037.7190189457
  21
 474.89615486025
  31
0.0
   0
LINE
   5
5DB
 100
AcDbEntity
   8
LEVEL001
 370
15
 100
AcDbLine
   6
HIDDEN
  62
2
  10
 1047.0190189457
  20
 444.39615486025
  30
0.0
  11
 1038.4190189457
  21
 444.39615486025
  31
0.0
   0
LINE
   5
5DC
 100
AcDbEntity
   8
LEVEL001
 370
15
 100
AcDbLine
   6
HIDDEN
  62
2
  10
 1047.7190189457
  20
 450.39615486025
  30
0.0
  11
 1037.7190189457
  21
 450.39615486025
  31
0.0
   0
LINE
   5
5DD
 100
AcDbEntity
   8
LEVEL001
 370
15
 100
AcDbLine
   6
HIDDEN
  62
2
  10
 1047.0190189457
  20
 474.19615486025
  30
0.0
  11
 1038.4190189457
  21
 474.19615486025
  31
0.0
   0
LINE
   5
5DE
 100
AcDbEntity
   8
LEVEL001
 370
15
 100
AcDbLine
   6
HIDDEN
  62
2
  10
 1038.4190189457
  20
 474.19615486025
  30
0.0
  11
 1037.2190189457
  21
 475.39615486025
  31
0.0
   0
LINE
   5
5DF
 100
AcDbEntity
   8
LEVEL001
 370
15
 100
AcDbLine
   6
HIDDEN
  62
2
  10
 1047.0190189457
  20
 449.27615486025
  30
0.0
  11
 1038.4190189457
  21
 449.27615486025
  31
0.0
   0
LINE
   5
5E0
 100
AcDbEntity
   8
LEVEL001
 370
15
 100
AcDbLine
   6
HIDDEN
  62
2
  10
 1047.0190189457
  20
 444.39615486025
  30
0.0
  11
 1047.0190189457
  21
 474.19615486025
  31
0.0
   0
LINE
   5
5E1
 100
AcDbEntity
   8
LEVEL001
 370
15
 100
AcDbLine
   6
HIDDEN
  62
2
  10
 1047.7190189457
  20
 474.89615486025
  30
0.0
  11
 1047.7190189457
  21
 450.39615486025
  31
0.0
   0
LINE
   5
5E2
 100
AcDbEntity
   8
LEVEL001
 370
15
 100
AcDbLine
   6
HIDDEN
  62
2
  10
 1047.0190189457
  20
 474.19615486025
  30
0.0
  11
 1048.2190189457
  21
 475.39615486025
  31
0.0
   0
LINE
   5
5E3
 100
AcDbEntity
   8
LEVEL001
 370
15
 100
AcDbLine
   6
HIDDEN
  62
2
  10
 1042.7190189457
  20
 442.39615486025
  30
0.0
  11
 1047.0190189457
  21
 444.39615486025
  31
0.0
   0
LINE
   5
5E4
 100
AcDbEntity
   8
LEVEL001
 370
15
 100
AcDbLine
   6
HIDDEN
  62
2
  10
 1047.7190189457
  20
 450.39615486025
  30
0.0
  11
 1047.0190189457
  21
 449.27615486025
  31
0.0
   0
LINE
   5
5E5
 100
AcDbEntity
   8
LEVEL001
 370
15
 100
AcDbLine
   6
HIDDEN
  62
2
  10
 1047.8690189458
  20
 475.39615486025
  30
0.0
  11
 1047.8690189458
  21
 478.89615486025
  31
0.0
   0
LINE
   5
5E6
 100
AcDbEntity
   8
LEVEL001
 370
15
 100
AcDbLine
   6
HIDDEN
  62
2
  10
 1037.5690189457
  20
 475.39615486025
  30
0.0
  11
 1037.5690189457
  21
 478.89615486025
  31
0.0
   0
LINE
   5
5E7
 100
AcDbEntity
   8
LEVEL001
 370
15
 100
AcDbLine
   6
HIDDEN
  62
2
  10
 1036.2190189457
  20
 404.89615486021
  30
0.0
  11
 1036.2190189457
  21
 417.39615486021
  31
0.0
   0
LINE
   5
5E8
 100
AcDbEntity
   8
LEVEL001
 370
15
 100
AcDbLine
   6
HIDDEN
  62
2
  10
 1049.2190189457
  20
 417.39615486021
  30
0.0
  11
 1049.2190189457
  21
 404.89615486021
  31
0.0
   0
LINE
   5
5E9
 100
AcDbEntity
   8
LEVEL001
 370
20
 100
AcDbLine
   6
CONTINUOUS
  62
7
  10
 1036.2190189457
  20
 417.39615486021
  30
0.0
  11
 1036.2190189457
  21
 474.89615486024
  31
0.0
   0
LINE
   5
5EA
 100
AcDbEntity
   8
LEVEL001
 370
20
 100
AcDbLine
   6
CONTINUOUS
  62
7
  10
 1049.2190189457
  20
 474.89615486024
  30
0.0
  11
 1049.2190189457
  21
 417.39615486021
  31
0.0
   0
LINE
   5
5EB
 100
AcDbEntity
   8
LEVEL001
 370
15
 100
AcDbLine
   6
DASHDOT
  62
8
  10
 1042.7190189457
  20
 387.63652674490
  30
0.0
  11
 1042.7190189457
  21
 485.41340835825
  31
0.0
   0
LINE
   5
5EC
 100
AcDbEntity
   8
LEVEL001
 370
15
 100
AcDbLine
   6
HIDDEN
  62
2
  10
 430.73328116104
  20
 404.89615486025
  30
0.0
  11
 430.73328116104
  21
 414.89615486025
  31
0.0
   0
LINE
   5
5ED
 100
AcDbEntity
   8
LEVEL001
 370
15
 100
AcDbLine
   6
HIDDEN
  62
2
  10
 443.73328116104
  20
 414.89615486025
  30
0.0
  11
 443.73328116104
  21
 404.89615486025
  31
0.0
   0
LINE
   5
5EE
 100
AcDbEntity
   8
LEVEL001
 370
20
 100
AcDbLine
   6
CONTINUOUS
  62
7
  10
 430.73328116104
  20
 414.89615486025
  30
0.0
  11
 430.73328116104
  21
 474.89615486028
  31
0.0
   0
LINE
   5
5EF
 100
AcDbEntity
   8
LEVEL001
 370
20
 100
AcDbLine
   6
CONTINUOUS
  62
7
  10
 443.73328116104
  20
 474.89615486028
  30
0.0
  11
 443.73328116104
  21
 414.89615486025
  31
0.0
   0
LINE
   5
5F0
 100
AcDbEntity
   8
LEVEL001
 370
15
 100
AcDbLine
   6
DASHDOT
  62
8
  10
 437.23328116102
  20
 387.63652674494
  30
0.0
  11
 437.23328116102
  21
 482.86481465173
  31
0.0
   0
LINE
   5
5F1
 100
AcDbEntity
   8
LEVEL001
 370
15
 100
AcDbLine
   6
HIDDEN
  62
2
  10
 428.05073807611
  20
 962.86464123936
  30
0.0
  11
 428.05073807611
  21
 972.86464123936
  31
0.0
   0
LINE
   5
5F2
 100
AcDbEntity
   8
LEVEL001
 370
15
 100
AcDbLine
   6
HIDDEN
  62
2
  10
 444.05073807611
  20
 972.86464123936
  30
0.0
  11
 444.05073807611
  21
 962.86464123936
  31
0.0
   0
LINE
   5
5F3
 100
AcDbEntity
   8
LEVEL001
 370
20
 100
AcDbLine
   6
CONTINUOUS
  62
7
  10
 428.05073807611
  20
 972.86464123936
  30
0.0
  11
 428.05073807611
  21
 1035.8646412394
  31
0.0
   0
LINE
   5
5F4
 100
AcDbEntity
   8
LEVEL001
 370
20
 100
AcDbLine
   6
CONTINUOUS
  62
7
  10
 444.05073807611
  20
 1035.8646412394
  30
0.0
  11
 444.05073807611
  21
 972.86464123936
  31
0.0
   0
LINE
   5
5F5
 100
AcDbEntity
   8
LEVEL001
 370
15
 100
AcDbLine
   6
DASHDOT
  62
8
  10
 436.05073807611
  20
 945.60501312405
  30
0.0
  11
 436.05073807611
  21
 1051.4952797093
  31
0.0
   0
LINE
   5
5F6
 100
AcDbEntity
   8
LEVEL001
 370
15
 100
AcDbLine
   6
DASHDOT
  62
8
  10
 1039.0507380762
  20
 945.60501312416
  30
0.0
  11
 1039.0507380762
  21
 1049.4184208956
  31
0.0
   0
LINE
   5
5F7
 100
AcDbEntity
   8
LEVEL001
 370
15
 100
AcDbLine
   6
HIDDEN
  62
2
  10
 1031.0507380762
  20
 962.86464123947
  30
0.0
  11
 1031.0507380762
  21
 975.36464123947
  31
0.0
   0
LINE
   5
5F8
 100
AcDbEntity
   8
LEVEL001
 370
15
 100
AcDbLine
   6
HIDDEN
  62
2
  10
 1047.0507380762
  20
 975.36464123947
  30
0.0
  11
 1047.0507380762
  21
 962.86464123947
  31
0.0
   0
LINE
   5
5F9
 100
AcDbEntity
   8
LEVEL001
 370
20
 100
AcDbLine
   6
CONTINUOUS
  62
7
  10
 1031.0507380762
  20
 975.36464123947
  30
0.0
  11
 1031.0507380762
  21
 1035.8646412395
  31
0.0
   0
LINE
   5
5FA
 100
AcDbEntity
   8
LEVEL001
 370
20
 100
AcDbLine
   6
CONTINUOUS
  62
7
  10
 1047.0507380762
  20
 1035.8646412395
  30
0.0
  11
 1047.0507380762
  21
 975.36464123947
  31
0.0
   0
MTEXT
   5
5FC
 100
AcDbEntity
   8
LEVEL001
 370
15
  62
8
 100
AcDbMText
  10
 1573.2000000001
  20
 194.66666666668
  30
0.0
  40
 8.0000000000000
  41
0.0
  71
5
  72
1
   1
\T1.000000;平成３１年　２月　１日
   7
GMM001
  44
 0.79999984000003
   0
LEADER
   5
5FD
 100
AcDbEntity
   8
0
 370
15
   6
CONTINUOUS
  62
8
 100
AcDbLeader
   3
GMM005
  73
0
  74
0
  75
0
  40
 10.000000000000
  41
 62.000000000000
  76
2
  10
 470.66528150577
  20
 399.80552296170
  30
0.0
  10
 494.43333085967
  20
 370.28766231725
  30
0.0
  77
8
 340
5FE
 213
0.0
 223
-4.0000000000000
 233
0.0
   0
MTEXT
   5
5FE
 102
{ACAD_REACTORS
 330
5FD
 102
}
 100
AcDbEntity
   8
0
 370
15
  62
8
 100
AcDbMText
  10
 494.43333085967
  20
 374.28766231725
  30
0.0
  40
 10.000000000000
  41
0.0
  71
7
  72
1
   1
\A1;下穴%%c５/皿%%c８
   7
GMM001
   0
LEADER
   5
5FF
 100
AcDbEntity
   8
0
 370
15
   6
CONTINUOUS
  62
8
 100
AcDbLeader
   3
GMM005
  73
0
  74
0
  75
0
  40
 10.000000000000
  41
 62.000000000000
  76
2
  10
 1076.1510192904
  20
 397.30552296167
  30
0.0
  10
 1099.9190686444
  20
 367.78766231721
  30
0.0
  77
8
 340
600
 213
0.0
 223
-4.0000000000000
 233
0.0
   0
MTEXT
   5
600
 102
{ACAD_REACTORS
 330
5FF
 102
}
 100
AcDbEntity
   8
0
 370
15
  62
8
 100
AcDbMText
  10
 1099.9190686444
  20
 371.78766231721
  30
0.0
  40
 10.000000000000
  41
0.0
  71
7
  72
1
   1
\A1;下穴%%c５/皿%%c８
   7
GMM001
   0
LEADER
   5
601
 100
AcDbEntity
   8
0
 370
15
   6
CONTINUOUS
  62
8
 100
AcDbLeader
   3
GMM005
  73
0
  74
0
  75
0
  40
 10.000000000000
  41
 62.000000000000
  76
2
  10
 469.48273842085
  20
 957.77400934081
  30
0.0
  10
 493.25078777475
  20
 928.25614869636
  30
0.0
  77
8
 340
602
 213
0.0
 223
-4.0000000000000
 233
0.0
   0
MTEXT
   5
602
 102
{ACAD_REACTORS
 330
601
 102
}
 100
AcDbEntity
   8
0
 370
15
  62
8
 100
AcDbMText
  10
 493.25078777475
  20
 932.25614869636
  30
0.0
  40
 10.000000000000
  41
0.0
  71
7
  72
1
   1
\A1;下穴%%c５/皿%%c８
   7
GMM001
   0
LEADER
   5
603
 100
AcDbEntity
   8
0
 370
15
   6
CONTINUOUS
  62
8
 100
AcDbLeader
   3
GMM005
  73
0
  74
0
  75
0
  40
 10.000000000000
  41
 62.000000000000
  76
2
  10
 1072.4827384209
  20
 955.27400934093
  30
0.0
  10
 1096.2507877748
  20
 925.75614869647
  30
0.0
  77
8
 340
604
 213
0.0
 223
-4.0000000000000
 233
0.0
   0
MTEXT
   5
604
 102
{ACAD_REACTORS
 330
603
 102
}
 100
AcDbEntity
   8
0
 370
15
  62
8
 100
AcDbMText
  10
 1096.2507877748
  20
 929.75614869647
  30
0.0
  40
 10.000000000000
  41
0.0
  71
7
  72
1
   1
\A1;下穴%%c５/皿%%c８
   7
GMM001
   0
ENDSEC
  0
SECTION
  2
OBJECTS
  0
DICTIONARY
  5
C
100
AcDbDictionary
  3
ACAD_GROUP
350
D
  3
ACAD_MLINESTYLE
350
1B
  3
DWGPROPS
350
1C
  0
DICTIONARY
  5
D
102
{ACAD_REACTORS
330
C
102
}
100
AcDbDictionary
  0
DICTIONARY
  5
1B
102
{ACAD_REACTORS
330
C
102
}
100
AcDbDictionary
  3
STANDARD
350
1D
  0
MLINESTYLE
  5
1D
102
{ACAD_REACTORS
330
1B
102
}
100
AcDbMlineStyle
  2
STANDARD
 70
     0
  3

 62
   256
 51
90.0
 52
90.0
 71
     2
 49
0.5
 62
   256
  6
BYLAYER
 49
-0.5
 62
   256
  6
BYLAYER
   0
XRECORD
   5
1C
 102
{ACAD_REACTORS
 330
C
 102
}
 330
C
 100
AcDbXrecord
 280
1
   1
DWGPROPS COOKIE
   2
 
   3
 
   4
haruna
   6
 
   7
PIK(16軸・13軸)
   8
haruna
   9

 300
 = 
 301
 = 
 302
 = 
 303
 = 
 304
 = 
 305
 = 
 306
 = 
 307
 = 
 308
 = 
 309
 = 
  40
0.0
  41
 2458515.5000000
  42
 2458519.5000000
   1

  90
10
   0
ENDSEC
   0
EOF
