   0
SECTION
   2
HEADER
   9
$ACADVER
   1
AC1015
   9
$DWGCODEPAGE
   3
ANSI_932
   9
$LIMMIN
  10
0.0
  20
0.0
   9
$LIMMAX
  10
 1680.0000000000
  20
 1188.0000000000
   9
$EXTMIN
  10
0.0
  20
0.0
  30
0.0
   9
$EXTMAX
  10
 1680.0000000000
  20
 1188.0000000000
  30
0.0
   9
$LTSCALE
  40
 33.600000000000
   9
$HANDSEED
   5
47C
   0
ENDSEC
   0
SECTION
   2
TABLES
  0
TABLE
  2
VPORT
  5
8
100
AcDbSymbolTable
 70
     1
  0
VPORT
  5
47B
100
AcDbSymbolTableRecord
100
AcDbViewportTableRecord
  2
*ACTIVE
 70
     0
 10
0.0
 20
0.0
 11
1.0
 21
1.0
  12
 840.00000000000
  22
 594.00000000000
 13
0.0
 23
0.0
 14
1.0
 24
1.0
 15
0.0
 25
0.0
 16
0.0
 26
0.0
 36
1.0
 17
0.0
 27
0.0
 37
0.0
  40
 1680.0000000000
  41
 1.4787878787879
 42
50.0
 43
0.0
 44
0.0
 50
0.0
 51
0.0
 71
     0
 72
   100
 73
     1
 74
     1
 75
     0
 76
     0
 77
     0
 78
     0
  0
ENDTAB
  0
TABLE
  2
LTYPE
  5
5
100
AcDbSymbolTable
 70
    25
  0
LTYPE
  5
12
100
AcDbSymbolTableRecord
100
AcDbLinetypeTableRecord
  2
BYBLOCK
 70
     0
  3

 72
    65
 73
     0
 40
0.0
  0
LTYPE
  5
13
100
AcDbSymbolTableRecord
100
AcDbLinetypeTableRecord
  2
BYLAYER
 70
     0
  3

 72
    65
 73
     0
 40
0.0
  0
LTYPE
  5
14
100
AcDbSymbolTableRecord
100
AcDbLinetypeTableRecord
  2
CONTINUOUS
 70
     0
  3
Solid line
 72
    65
 73
     0
 40
0.0
  0
LTYPE
  5
20
100
AcDbSymbolTableRecord
100
AcDbLinetypeTableRecord
  2
BORDER
 70
     0
  3
__ __ . __ __ . __ __ . __ __ . __ __ . __ __ .
 72
    65
 73
     6
 40
1.75
 49
0.5
 74
     0
 49
-0.25
 74
     0
 49
0.5
 74
     0
 49
-0.25
 74
     0
 49
0.0
 74
     0
 49
-0.25
 74
     0
  0
LTYPE
  5
21
100
AcDbSymbolTableRecord
100
AcDbLinetypeTableRecord
  2
BORDER2
 70
     0
  3
__.__.__.__.__.__.__.__.__.__.__.__.__.__.__.__
 72
    65
 73
     6
 40
0.875
 49
0.25
 74
     0
 49
-0.125
 74
     0
 49
0.25
 74
     0
 49
-0.125
 74
     0
 49
0.0
 74
     0
 49
-0.125
 74
     0
  0
LTYPE
  5
22
100
AcDbSymbolTableRecord
100
AcDbLinetypeTableRecord
  2
BORDERX2
 70
     0
  3
____  ____  .  ____  ____  .  ____  ____  .  __
 72
    65
 73
     6
 40
3.5
 49
1.0
 74
     0
 49
-0.5
 74
     0
 49
1.0
 74
     0
 49
-0.5
 74
     0
 49
0.0
 74
     0
 49
-0.5
 74
     0
  0
LTYPE
  5
23
100
AcDbSymbolTableRecord
100
AcDbLinetypeTableRecord
  2
CENTER
 70
     0
  3
____ _ ____ _ ____ _ ____ _ ____ _ ____ _ ____ 
 72
    65
 73
     4
 40
2.0
 49
1.25
 74
     0
 49
-0.25
 74
     0
 49
0.25
 74
     0
 49
-0.25
 74
     0
  0
LTYPE
  5
24
100
AcDbSymbolTableRecord
100
AcDbLinetypeTableRecord
  2
CENTER2
 70
     0
  3
___ _ ___ _ ___ _ ___ _ ___ _ ___ _ ___ _ ___ _
 72
    65
 73
     4
 40
1.125
 49
0.75
 74
     0
 49
-0.125
 74
     0
 49
0.125
 74
     0
 49
-0.125
 74
     0
  0
LTYPE
  5
25
100
AcDbSymbolTableRecord
100
AcDbLinetypeTableRecord
  2
CENTERX2
 70
     0
  3
________  __  ________  __  ________  __  _____
 72
    65
 73
     4
 40
4.0
 49
2.5
 74
     0
 49
-0.5
 74
     0
 49
0.5
 74
     0
 49
-0.5
 74
     0
  0
LTYPE
  5
26
100
AcDbSymbolTableRecord
100
AcDbLinetypeTableRecord
  2
DASHDOT
 70
     0
  3
__ . __ . __ . __ . __ . __ . __ . __ . __ . __
 72
    65
 73
     4
 40
1.0
 49
0.5
 74
     0
 49
-0.25
 74
     0
 49
0.0
 74
     0
 49
-0.25
 74
     0
  0
LTYPE
  5
27
100
AcDbSymbolTableRecord
100
AcDbLinetypeTableRecord
  2
DASHDOT2
 70
     0
  3
_._._._._._._._._._._._._._._._._._._._._._._._
 72
    65
 73
     4
 40
0.5
 49
0.25
 74
     0
 49
-0.125
 74
     0
 49
0.0
 74
     0
 49
-0.125
 74
     0
  0
LTYPE
  5
28
100
AcDbSymbolTableRecord
100
AcDbLinetypeTableRecord
  2
DASHDOTX2
 70
     0
  3
____  .  ____  .  ____  .  ____  .  ____  .  __
 72
    65
 73
     4
 40
2.0
 49
1.0
 74
     0
 49
-0.5
 74
     0
 49
0.0
 74
     0
 49
-0.5
 74
     0
  0
LTYPE
  5
29
100
AcDbSymbolTableRecord
100
AcDbLinetypeTableRecord
  2
DASHED
 70
     0
  3
__ __ __ __ __ __ __ __ __ __ __ __ __ __ __ __
 72
    65
 73
     2
 40
0.75
 49
0.5
 74
     0
 49
-0.25
 74
     0
  0
LTYPE
  5
2A
100
AcDbSymbolTableRecord
100
AcDbLinetypeTableRecord
  2
DASHED2
 70
     0
  3
_ _ _ _ _ _ _ _ _ _ _ _ _ _ _ _ _ _ _ _ _ _ _ _
 72
    65
 73
     2
 40
0.375
 49
0.25
 74
     0
 49
-0.125
 74
     0
  0
LTYPE
  5
2B
100
AcDbSymbolTableRecord
100
AcDbLinetypeTableRecord
  2
DASHEDX2
 70
     0
  3
____  ____  ____  ____  ____  ____  ____  ____ 
 72
    65
 73
     2
 40
1.5
 49
1.0
 74
     0
 49
-0.5
 74
     0
  0
LTYPE
  5
2C
100
AcDbSymbolTableRecord
100
AcDbLinetypeTableRecord
  2
DIVIDE
 70
     0
  3
____ . . ____ . . ____ . . ____ . . ____ . . __
 72
    65
 73
     6
 40
1.25
 49
0.5
 74
     0
 49
-0.25
 74
     0
 49
0.0
 74
     0
 49
-0.25
 74
     0
 49
0.0
 74
     0
 49
-0.25
 74
     0
  0
LTYPE
  5
2D
100
AcDbSymbolTableRecord
100
AcDbLinetypeTableRecord
  2
DIVIDE2
 70
     0
  3
__..__..__..__..__..__..__..__..__..__..__..__.
 72
    65
 73
     6
 40
0.625
 49
0.25
 74
     0
 49
-0.125
 74
     0
 49
0.0
 74
     0
 49
-0.125
 74
     0
 49
0.0
 74
     0
 49
-0.125
 74
     0
  0
LTYPE
  5
2E
100
AcDbSymbolTableRecord
100
AcDbLinetypeTableRecord
  2
DIVIDEX2
 70
     0
  3
________  .  .  ________  .  .  ________  .  . 
 72
    65
 73
     6
 40
2.5
 49
1.0
 74
     0
 49
-0.5
 74
     0
 49
0.0
 74
     0
 49
-0.5
 74
     0
 49
0.0
 74
     0
 49
-0.5
 74
     0
  0
LTYPE
  5
2F
100
AcDbSymbolTableRecord
100
AcDbLinetypeTableRecord
  2
DOT
 70
     0
  3
. . . . . . . . . . . . . . . . . . . . . . . .
 72
    65
 73
     2
 40
0.25
 49
0.0
 74
     0
 49
-0.25
 74
     0
  0
LTYPE
  5
30
100
AcDbSymbolTableRecord
100
AcDbLinetypeTableRecord
  2
DOT2
 70
     0
  3
...............................................
 72
    65
 73
     2
 40
0.125
 49
0.0
 74
     0
 49
-0.125
 74
     0
  0
LTYPE
  5
31
100
AcDbSymbolTableRecord
100
AcDbLinetypeTableRecord
  2
DOTX2
 70
     0
  3
.  .  .  .  .  .  .  .  .  .  .  .  .  .  .  . 
 72
    65
 73
     2
 40
0.5
 49
0.0
 74
     0
 49
-0.5
 74
     0
  0
LTYPE
  5
32
100
AcDbSymbolTableRecord
100
AcDbLinetypeTableRecord
  2
HIDDEN
 70
     0
  3
__ __ __ __ __ __ __ __ __ __ __ __ __ __ __ __
 72
    65
 73
     2
 40
0.375
 49
0.25
 74
     0
 49
-0.125
 74
     0
  0
LTYPE
  5
33
100
AcDbSymbolTableRecord
100
AcDbLinetypeTableRecord
  2
HIDDEN2
 70
     0
  3
_ _ _ _ _ _ _ _ _ _ _ _ _ _ _ _ _ _ _ _ _ _ _ _
 72
    65
 73
     2
 40
0.1875
 49
0.125
 74
     0
 49
-0.0625
 74
     0
  0
LTYPE
  5
34
100
AcDbSymbolTableRecord
100
AcDbLinetypeTableRecord
  2
HIDDENX2
 70
     0
  3
____ ____ ____ ____ ____ ____ ____ ____ ____ __
 72
    65
 73
     2
 40
0.75
 49
0.5
 74
     0
 49
-0.25
 74
     0
  0
LTYPE
  5
35
100
AcDbSymbolTableRecord
100
AcDbLinetypeTableRecord
  2
PHANTOM
 70
     0
  3
______  __  __  ______  __  __  ______  __  __ 
 72
    65
 73
     6
 40
2.5
 49
1.25
 74
     0
 49
-0.25
 74
     0
 49
0.25
 74
     0
 49
-0.25
 74
     0
 49
0.25
 74
     0
 49
-0.25
 74
     0
  0
LTYPE
  5
36
100
AcDbSymbolTableRecord
100
AcDbLinetypeTableRecord
  2
PHANTOM2
 70
     0
  3
___ _ _ ___ _ _ ___ _ _ ___ _ _ ___ _ _ ___ _ _
 72
    65
 73
     6
 40
1.25
 49
0.625
 74
     0
 49
-0.125
 74
     0
 49
0.125
 74
     0
 49
-0.125
 74
     0
 49
0.125
 74
     0
 49
-0.125
 74
     0
  0
LTYPE
  5
37
100
AcDbSymbolTableRecord
100
AcDbLinetypeTableRecord
  2
PHANTOMX2
 70
     0
  3
____________    ____    ____    ____________   
 72
    65
 73
     6
 40
5.0
 49
2.5
 74
     0
 49
-0.5
 74
     0
 49
0.5
 74
     0
 49
-0.5
 74
     0
 49
0.5
 74
     0
 49
-0.5
 74
     0
  0
ENDTAB
   0
TABLE
   2
LAYER
   5
2
 100
AcDbSymbolTable
  70
7
   0
LAYER
   5
E
 100
AcDbSymbolTableRecord
 100
AcDbLayerTableRecord
   2
0
  70
0
  62
7
   6
CONTINUOUS
 390
30
   0
LAYER
   5
39
 100
AcDbSymbolTableRecord
 100
AcDbLayerTableRecord
   2
LEVEL001
  70
0
  62
7
   6
CONTINUOUS
 390
30
   0
LAYER
   5
3A
 100
AcDbSymbolTableRecord
 100
AcDbLayerTableRecord
   2
LEVEL002
  70
0
  62
7
   6
CONTINUOUS
 390
30
   0
LAYER
   5
3B
 100
AcDbSymbolTableRecord
 100
AcDbLayerTableRecord
   2
LEVEL004
  70
0
  62
7
   6
CONTINUOUS
 390
30
   0
LAYER
   5
3C
 100
AcDbSymbolTableRecord
 100
AcDbLayerTableRecord
   2
LEVEL005
  70
0
  62
7
   6
CONTINUOUS
 390
30
   0
LAYER
   5
3D
 100
AcDbSymbolTableRecord
 100
AcDbLayerTableRecord
   2
LEVEL006
  70
0
  62
7
   6
CONTINUOUS
 390
30
   0
LAYER
   5
3E
 100
AcDbSymbolTableRecord
 100
AcDbLayerTableRecord
   2
LEVEL007
  70
0
  62
7
   6
CONTINUOUS
 390
30
   0
ENDTAB
  0
TABLE
  2
STYLE
  5
3
100
AcDbSymbolTable
  70
4
  0
STYLE
  5
F
100
AcDbSymbolTableRecord
100
AcDbTextStyleTableRecord
  2
STANDARD
 70
     0
 40
0.0
 41
1.0
 50
0.0
 71
     0
 42
0.2
  3
TXT
  4
BIGFONT
  0
STYLE
  5
38
100
AcDbSymbolTableRecord
100
AcDbTextStyleTableRecord
  2
STANDARD1
 70
     4
 40
0.0
 41
1.0
 50
0.0
 71
     0
 42
0.2
  3
TXT
  4
BIGFONT
   0
STYLE
   5
3F
 100
AcDbSymbolTableRecord
 100
AcDbTextStyleTableRecord
   2
GMM001
  70
0
  40
0.0
  41
 1.0000000000000
  50
0.0
  71
     0
  42
1.0
   3
txt.shx
   4
bigfont.shx
   0
STYLE
   5
40
 100
AcDbSymbolTableRecord
 100
AcDbTextStyleTableRecord
   2
GMM002
  70
0
  40
0.0
  41
 0.80000000000000
  50
0.0
  71
     0
  42
1.0
   3
txt.shx
   4
bigfont.shx
   0
ENDTAB
  0
TABLE
  2
VIEW
  5
6
100
AcDbSymbolTable
 70
     0
  0
ENDTAB
  0
TABLE
  2
UCS
  5
7
100
AcDbSymbolTable
 70
     0
  0
ENDTAB
  0
TABLE
  2
APPID
  5
9
100
AcDbSymbolTable
 70
     1
  0
APPID
  5
10
100
AcDbSymbolTableRecord
100
AcDbRegAppTableRecord
  2
ACAD
 70
     0
  0
ENDTAB
   0
TABLE
   2
DIMSTYLE
   5
A
 100
AcDbSymbolTable
  70
11
 100
AcDbDimStyleTable
  0
DIMSTYLE
105
1D
100
AcDbSymbolTableRecord
100
AcDbDimStyleTableRecord
  2
STANDARD
 70
     0
  3

  4

  5

  6

  7

 40
1.0
 41
0.18
 42
0.0625
 43
0.38
 44
0.18
 45
0.0
 46
0.0
 47
0.0
 48
0.0
140
0.18
141
0.09
142
0.0
143
25.4
144
1.0
145
0.0
146
1.0
147
0.09
 71
     0
 72
     0
 73
     1
 74
     1
 75
     0
 76
     0
 77
     0
 78
     0
170
     0
171
     2
172
     0
173
     0
174
     0
175
     0
176
     0
177
     0
178
     0
270
     2
271
     4
272
     4
273
     2
274
     2
340
F
275
     0
280
     0
281
     0
282
     0
283
     1
284
     0
285
     0
286
     0
287
     3
288
     0
   0
DIMSTYLE
 105
41
 100
AcDbSymbolTableRecord
 100
AcDbDimStyleTableRecord
   2
GMM001
  70
0
   3

   4

   5

   6

   7

  40
 1.0000000000000
  41
 8.0000000000000
  42
 4.0000000000000
  43
 32.000000000000
  44
 4.0000000000000
  45
0.0
  46
0.0
  47
0.0
  48
0.0
 140
 10.000000000000
 141
 4.0000000000000
 142
0.0
 143
 0.39400000000000E-1
 144
 1.0000000000000
 145
0.0
 146
 1.0000000000000
 147
 4.0000000000000
  71
0
  72
0
  73
0
  74
0
  75
0
  76
0
  77
3
  78
8
 170
0
 171
2
 172
1
 173
1
 174
0
 175
0
 176
8
 177
8
 178
8
 270
2
 271
6
 272
0
 273
2
 274
2
 340
3F
 275
1
 280
0
 281
0
 282
0
 283
1
 284
0
 285
0
 286
0
 287
3
 288
0
   0
DIMSTYLE
 105
42
 100
AcDbSymbolTableRecord
 100
AcDbDimStyleTableRecord
   2
GMM002
  70
0
   3

   4

   5

   6

   7

  40
 1.0000000000000
  41
 8.0000000000000
  42
 4.0000000000000
  43
 32.000000000000
  44
 4.0000000000000
  45
0.0
  46
0.0
  47
0.0
  48
0.0
 140
 10.000000000000
 141
 4.0000000000000
 142
0.0
 143
 0.39400000000000E-1
 144
 1.0000000000000
 145
0.0
 146
 1.0000000000000
 147
0.0
  71
0
  72
0
  73
0
  74
0
  75
0
  76
0
  77
1
  78
8
 170
0
 171
2
 172
1
 173
1
 174
0
 175
0
 176
8
 177
8
 178
8
 270
2
 271
6
 272
0
 273
2
 274
2
 340
3F
 275
1
 280
0
 281
0
 282
0
 283
1
 284
0
 285
0
 286
0
 287
3
 288
0
   0
DIMSTYLE
 105
43
 100
AcDbSymbolTableRecord
 100
AcDbDimStyleTableRecord
   2
GMM003
  70
0
   3

   4

   5

   6

   7
_NONE
  40
 1.0000000000000
  41
 8.0000000000000
  42
 4.0000000000000
  43
 32.000000000000
  44
 4.0000000000000
  45
0.0
  46
0.0
  47
0.0
  48
0.0
 140
 10.000000000000
 141
 4.0000000000000
 142
0.0
 143
 0.39400000000000E-1
 144
 1.0000000000000
 145
0.0
 146
 1.0000000000000
 147
 3.0413731869348
  71
0
  72
0
  73
0
  74
0
  75
0
  76
0
  77
3
  78
8
 170
0
 171
2
 172
1
 173
1
 174
0
 175
0
 176
8
 177
8
 178
8
 270
2
 271
6
 272
0
 273
2
 274
2
 340
3F
 275
1
 280
0
 281
0
 282
0
 283
1
 284
0
 285
0
 286
0
 287
3
 288
1
   0
DIMSTYLE
 105
44
 100
AcDbSymbolTableRecord
 100
AcDbDimStyleTableRecord
   2
GMM004
  70
0
   3

   4

   5

   6
_DOT
   7

  40
 1.0000000000000
  41
 8.0000000000000
  42
 4.0000000000000
  43
 32.000000000000
  44
 4.0000000000000
  45
0.0
  46
0.0
  47
0.0
  48
0.0
 140
 10.000000000000
 141
 4.0000000000000
 142
0.0
 143
 0.39400000000000E-1
 144
 1.0000000000000
 145
0.0
 146
 1.0000000000000
 147
 4.0869500921635
  71
0
  72
0
  73
0
  74
0
  75
0
  76
0
  77
3
  78
8
 170
0
 171
2
 172
1
 173
1
 174
0
 175
0
 176
8
 177
8
 178
8
 270
2
 271
6
 272
0
 273
2
 274
2
 340
3F
 275
1
 280
0
 281
0
 282
0
 283
1
 284
0
 285
0
 286
0
 287
3
 288
1
   0
DIMSTYLE
 105
45
 100
AcDbSymbolTableRecord
 100
AcDbDimStyleTableRecord
   2
GMM005
  70
0
   3

   4

   5

   6

   7
_NONE
  40
 1.0000000000000
  41
 8.0000000000000
  42
 4.0000000000000
  43
 32.000000000000
  44
 4.0000000000000
  45
0.0
  46
0.0
  47
0.0
  48
0.0
 140
 10.000000000000
 141
 4.0000000000000
 142
0.0
 143
 0.39400000000000E-1
 144
 1.0000000000000
 145
0.0
 146
 1.0000000000000
 147
 3.9318528030508
  71
0
  72
0
  73
0
  74
0
  75
0
  76
0
  77
3
  78
8
 170
0
 171
2
 172
1
 173
1
 174
0
 175
0
 176
8
 177
8
 178
8
 270
2
 271
6
 272
0
 273
2
 274
2
 340
3F
 275
1
 280
0
 281
0
 282
0
 283
1
 284
0
 285
0
 286
0
 287
3
 288
1
   0
DIMSTYLE
 105
46
 100
AcDbSymbolTableRecord
 100
AcDbDimStyleTableRecord
   2
GMM006
  70
0
   3

   4

   5

   6
_DOT
   7
_NONE
  40
 1.0000000000000
  41
 2.1333333333333
  42
 4.0000000000000
  43
 32.000000000000
  44
 4.0000000000000
  45
0.0
  46
0.0
  47
0.0
  48
0.0
 140
 10.000000000000
 141
 4.0000000000000
 142
0.0
 143
 0.39400000000000E-1
 144
 1.0000000000000
 145
0.0
 146
 1.0000000000000
 147
 4.0000000000000
  71
0
  72
0
  73
0
  74
0
  75
0
  76
0
  77
3
  78
8
 170
0
 171
2
 172
1
 173
1
 174
0
 175
0
 176
8
 177
8
 178
8
 270
2
 271
6
 272
0
 273
2
 274
2
 340
3F
 275
1
 280
0
 281
0
 282
0
 283
1
 284
0
 285
0
 286
0
 287
5
 288
1
   0
DIMSTYLE
 105
47
 100
AcDbSymbolTableRecord
 100
AcDbDimStyleTableRecord
   2
GMM007
  70
0
   3

   4

   5

   6

   7

  40
 1.0000000000000
  41
 8.0000000000000
  42
 4.0000000000000
  43
 32.000000000000
  44
 4.0000000000000
  45
0.0
  46
0.0
  47
0.0
  48
0.0
 140
 10.000000000000
 141
 4.0000000000000
 142
0.0
 143
 0.39400000000000E-1
 144
 1.0000000000000
 145
0.0
 146
 1.0000000000000
 147
 4.0000000000000
  71
0
  72
0
  73
0
  74
0
  75
0
  76
0
  77
3
  78
8
 170
0
 171
2
 172
1
 173
1
 174
0
 175
0
 176
8
 177
8
 178
8
 270
2
 271
6
 272
0
 273
2
 274
2
 340
3F
 275
1
 280
0
 281
0
 282
0
 283
1
 284
0
 285
0
 286
0
 287
3
 288
0
   0
DIMSTYLE
 105
48
 100
AcDbSymbolTableRecord
 100
AcDbDimStyleTableRecord
   2
GMM008
  70
0
   3

   4

   5

   6

   7

  40
 1.0000000000000
  41
 8.0000000000000
  42
 4.0000000000000
  43
 32.000000000000
  44
 4.0000000000000
  45
0.0
  46
0.0
  47
0.0
  48
0.0
 140
 10.000000000000
 141
 4.0000000000000
 142
0.0
 143
 0.39400000000000E-1
 144
 1.0000000000000
 145
0.0
 146
 1.0000000000000
 147
0.0
  71
0
  72
0
  73
0
  74
0
  75
0
  76
0
  77
0
  78
8
 170
0
 171
2
 172
1
 173
1
 174
0
 175
0
 176
8
 177
8
 178
8
 270
2
 271
6
 272
0
 273
2
 274
2
 340
3F
 275
1
 280
0
 281
0
 282
0
 283
1
 284
0
 285
0
 286
0
 287
3
 288
0
   0
DIMSTYLE
 105
49
 100
AcDbSymbolTableRecord
 100
AcDbDimStyleTableRecord
   2
GMM009
  70
0
   3

   4

   5

   6

   7

  40
 1.0000000000000
  41
 8.0000000000000
  42
 4.0000000000000
  43
 32.000000000000
  44
 4.0000000000000
  45
0.0
  46
0.0
  47
0.0
  48
0.0
 140
 10.000000000000
 141
 4.0000000000000
 142
0.0
 143
 0.39400000000000E-1
 144
 1.0000000000000
 145
0.0
 146
 1.0000000000000
 147
 4.5090504038217
  71
0
  72
0
  73
0
  74
0
  75
0
  76
0
  77
3
  78
8
 170
0
 171
2
 172
1
 173
1
 174
0
 175
0
 176
8
 177
8
 178
8
 270
2
 271
6
 272
0
 273
2
 274
2
 340
3F
 275
1
 280
0
 281
0
 282
0
 283
1
 284
0
 285
0
 286
0
 287
3
 288
1
   0
ENDTAB
  0
TABLE
  2
BLOCK_RECORD
  5
1
100
AcDbSymbolTable
 70
     0
  0
BLOCK_RECORD
  5
18
100
AcDbSymbolTableRecord
100
AcDbBlockTableRecord
  2
*MODEL_SPACE
  0
BLOCK_RECORD
  5
15
100
AcDbSymbolTableRecord
100
AcDbBlockTableRecord
  2
*PAPER_SPACE
   0
BLOCK_RECORD
   5
4A
 100
AcDbSymbolTableRecord
 100
AcDbBlockTableRecord
   2
*D1
   0
BLOCK_RECORD
   5
4B
 100
AcDbSymbolTableRecord
 100
AcDbBlockTableRecord
   2
*D2
   0
BLOCK_RECORD
   5
4C
 100
AcDbSymbolTableRecord
 100
AcDbBlockTableRecord
   2
*D3
   0
BLOCK_RECORD
   5
4D
 100
AcDbSymbolTableRecord
 100
AcDbBlockTableRecord
   2
*D5
   0
BLOCK_RECORD
   5
4E
 100
AcDbSymbolTableRecord
 100
AcDbBlockTableRecord
   2
*D6
   0
BLOCK_RECORD
   5
4F
 100
AcDbSymbolTableRecord
 100
AcDbBlockTableRecord
   2
*D7
   0
BLOCK_RECORD
   5
50
 100
AcDbSymbolTableRecord
 100
AcDbBlockTableRecord
   2
*D8
   0
BLOCK_RECORD
   5
51
 100
AcDbSymbolTableRecord
 100
AcDbBlockTableRecord
   2
*D9
   0
BLOCK_RECORD
   5
52
 100
AcDbSymbolTableRecord
 100
AcDbBlockTableRecord
   2
*D14
   0
BLOCK_RECORD
   5
53
 100
AcDbSymbolTableRecord
 100
AcDbBlockTableRecord
   2
*D15
   0
BLOCK_RECORD
   5
54
 100
AcDbSymbolTableRecord
 100
AcDbBlockTableRecord
   2
*D16
   0
BLOCK_RECORD
   5
55
 100
AcDbSymbolTableRecord
 100
AcDbBlockTableRecord
   2
*D17
   0
BLOCK_RECORD
   5
56
 100
AcDbSymbolTableRecord
 100
AcDbBlockTableRecord
   2
*D18
   0
BLOCK_RECORD
   5
57
 100
AcDbSymbolTableRecord
 100
AcDbBlockTableRecord
   2
*D23
   0
BLOCK_RECORD
   5
58
 100
AcDbSymbolTableRecord
 100
AcDbBlockTableRecord
   2
*D24
   0
BLOCK_RECORD
   5
59
 100
AcDbSymbolTableRecord
 100
AcDbBlockTableRecord
   2
*D25
   0
BLOCK_RECORD
   5
5A
 100
AcDbSymbolTableRecord
 100
AcDbBlockTableRecord
   2
*D27
   0
BLOCK_RECORD
   5
5B
 100
AcDbSymbolTableRecord
 100
AcDbBlockTableRecord
   2
*D28
   0
BLOCK_RECORD
   5
5C
 100
AcDbSymbolTableRecord
 100
AcDbBlockTableRecord
   2
*D29
   0
BLOCK_RECORD
   5
5D
 100
AcDbSymbolTableRecord
 100
AcDbBlockTableRecord
   2
*D30
   0
BLOCK_RECORD
   5
5E
 100
AcDbSymbolTableRecord
 100
AcDbBlockTableRecord
   2
*D31
   0
BLOCK_RECORD
   5
5F
 100
AcDbSymbolTableRecord
 100
AcDbBlockTableRecord
   2
*D32
   0
BLOCK_RECORD
   5
60
 100
AcDbSymbolTableRecord
 100
AcDbBlockTableRecord
   2
*D33
   0
BLOCK_RECORD
   5
61
 100
AcDbSymbolTableRecord
 100
AcDbBlockTableRecord
   2
*D34
   0
BLOCK_RECORD
   5
62
 100
AcDbSymbolTableRecord
 100
AcDbBlockTableRecord
   2
*D35
   0
BLOCK_RECORD
   5
63
 100
AcDbSymbolTableRecord
 100
AcDbBlockTableRecord
   2
*D36
   0
BLOCK_RECORD
   5
64
 100
AcDbSymbolTableRecord
 100
AcDbBlockTableRecord
   2
_ARCHTICK
   0
BLOCK_RECORD
   5
65
 100
AcDbSymbolTableRecord
 100
AcDbBlockTableRecord
   2
_BOXBLANK
   0
BLOCK_RECORD
   5
66
 100
AcDbSymbolTableRecord
 100
AcDbBlockTableRecord
   2
_BOXFILLED
   0
BLOCK_RECORD
   5
67
 100
AcDbSymbolTableRecord
 100
AcDbBlockTableRecord
   2
_CLOSED
   0
BLOCK_RECORD
   5
68
 100
AcDbSymbolTableRecord
 100
AcDbBlockTableRecord
   2
_CLOSEDBLANK
   0
BLOCK_RECORD
   5
69
 100
AcDbSymbolTableRecord
 100
AcDbBlockTableRecord
   2
_DATUMBLANK
   0
BLOCK_RECORD
   5
6A
 100
AcDbSymbolTableRecord
 100
AcDbBlockTableRecord
   2
_DATUMFILLED
   0
BLOCK_RECORD
   5
6B
 100
AcDbSymbolTableRecord
 100
AcDbBlockTableRecord
   2
_DOT
   0
BLOCK_RECORD
   5
6C
 100
AcDbSymbolTableRecord
 100
AcDbBlockTableRecord
   2
_DOTBLANK
   0
BLOCK_RECORD
   5
6D
 100
AcDbSymbolTableRecord
 100
AcDbBlockTableRecord
   2
_DOTSMALL
   0
BLOCK_RECORD
   5
6E
 100
AcDbSymbolTableRecord
 100
AcDbBlockTableRecord
   2
_INTEGRAL
   0
BLOCK_RECORD
   5
6F
 100
AcDbSymbolTableRecord
 100
AcDbBlockTableRecord
   2
_NONE
   0
BLOCK_RECORD
   5
70
 100
AcDbSymbolTableRecord
 100
AcDbBlockTableRecord
   2
_OBLIQUE
   0
BLOCK_RECORD
   5
71
 100
AcDbSymbolTableRecord
 100
AcDbBlockTableRecord
   2
_OPEN
   0
BLOCK_RECORD
   5
72
 100
AcDbSymbolTableRecord
 100
AcDbBlockTableRecord
   2
_OPEN30
   0
BLOCK_RECORD
   5
73
 100
AcDbSymbolTableRecord
 100
AcDbBlockTableRecord
   2
_OPEN90
   0
BLOCK_RECORD
   5
74
 100
AcDbSymbolTableRecord
 100
AcDbBlockTableRecord
   2
_ORIGIN
   0
ENDTAB
   0
ENDSEC
  0
SECTION
  2
BLOCKS
  0
BLOCK
  5
19
100
AcDbEntity
  8
0
100
AcDbBlockBegin
  2
*MODEL_SPACE
 70
     0
 10
0.0
 20
0.0
 30
0.0
  3
*MODEL_SPACE
  1

  0
ENDBLK
  5
1A
100
AcDbEntity
  8
0
100
AcDbBlockEnd
  0
BLOCK
  5
16
100
AcDbEntity
 67
     1
  8
0
100
AcDbBlockBegin
  2
*PAPER_SPACE
 70
     0
 10
0.0
 20
0.0
 30
0.0
  3
*PAPER_SPACE
  1

  0
ENDBLK
  5
17
100
AcDbEntity
 67
     1
  8
0
100
AcDbBlockEnd
   0
BLOCK
   5
75
 100
AcDbEntity
   8
0
 100
AcDbBlockBegin
   2
_ARCHTICK
  70
0
  10
0.0
  20
0.0
  30
0.0
   3
_ARCHTICK
   0
POLYLINE
   5
76
 100
AcDbEntity
   8
0
 370
-2
   6
BYBLOCK
  62
0
 100
AcDb2dPolyline
  66
1
  10
0.0
  20
0.0
  30
0.0
  70
1
  40
 0.15000000000000
  41
 0.15000000000000
   0
VERTEX
   5
77
 100
AcDbEntity
   8
0
   6
BYBLOCK
  62
0
 100
AcDbVertex
 100
AcDb2dVertex
  10
-0.50000000000000
  20
-0.50000000000000
  30
0.0
  40
 0.15000000000000
  41
 0.15000000000000
   0
VERTEX
   5
78
 100
AcDbEntity
   8
0
   6
BYBLOCK
  62
0
 100
AcDbVertex
 100
AcDb2dVertex
  10
 0.50000000000000
  20
 0.50000000000000
  30
0.0
  40
 0.15000000000000
  41
 0.15000000000000
   0
SEQEND
   5
79
 100
AcDbEntity
   8
0
   6
BYBLOCK
  62
0
   0
ENDBLK
   5
7A
 100
AcDbEntity
   8
0
 100
AcDbBlockEnd
   0
BLOCK
   5
7B
 100
AcDbEntity
   8
0
 100
AcDbBlockBegin
   2
_OBLIQUE
  70
0
  10
0.0
  20
0.0
  30
0.0
   3
_OBLIQUE
   0
LINE
   5
7C
 100
AcDbEntity
   8
0
 370
-2
 100
AcDbLine
   6
BYBLOCK
  62
0
  10
-0.50000000000000
  20
-0.50000000000000
  30
0.0
  11
 0.50000000000000
  21
 0.50000000000000
  31
0.0
   0
ENDBLK
   5
7D
 100
AcDbEntity
   8
0
 100
AcDbBlockEnd
   0
BLOCK
   5
7E
 100
AcDbEntity
   8
0
 100
AcDbBlockBegin
   2
_BOXBLANK
  70
0
  10
0.0
  20
0.0
  30
0.0
   3
_BOXBLANK
   0
LINE
   5
7F
 100
AcDbEntity
   8
0
 370
-2
 100
AcDbLine
   6
BYBLOCK
  62
0
  10
-0.50000000000000
  20
-0.50000000000000
  30
0.0
  11
 0.50000000000000
  21
-0.50000000000000
  31
0.0
   0
LINE
   5
80
 100
AcDbEntity
   8
0
 370
-2
 100
AcDbLine
   6
BYBLOCK
  62
0
  10
 0.50000000000000
  20
-0.50000000000000
  30
0.0
  11
 0.50000000000000
  21
 0.50000000000000
  31
0.0
   0
LINE
   5
81
 100
AcDbEntity
   8
0
 370
-2
 100
AcDbLine
   6
BYBLOCK
  62
0
  10
 0.50000000000000
  20
 0.50000000000000
  30
0.0
  11
-0.50000000000000
  21
 0.50000000000000
  31
0.0
   0
LINE
   5
82
 100
AcDbEntity
   8
0
 370
-2
 100
AcDbLine
   6
BYBLOCK
  62
0
  10
-0.50000000000000
  20
 0.50000000000000
  30
0.0
  11
-0.50000000000000
  21
-0.50000000000000
  31
0.0
   0
LINE
   5
83
 100
AcDbEntity
   8
0
 370
-2
 100
AcDbLine
   6
BYBLOCK
  62
0
  10
-0.50000000000000
  20
0.0
  30
0.0
  11
-1.0000000000000
  21
0.0
  31
0.0
   0
ENDBLK
   5
84
 100
AcDbEntity
   8
0
 100
AcDbBlockEnd
   0
BLOCK
   5
85
 100
AcDbEntity
   8
0
 100
AcDbBlockBegin
   2
_BOXFILLED
  70
0
  10
0.0
  20
0.0
  30
0.0
   3
_BOXFILLED
   0
SOLID
   5
86
 100
AcDbEntity
   8
0
 100
AcDbTrace
   6
BYBLOCK
  62
0
  10
-0.50000000000000
  20
 0.50000000000000
  30
0.0
  11
 0.50000000000000
  21
 0.50000000000000
  31
0.0
  12
-0.50000000000000
  22
-0.50000000000000
  32
0.0
  13
 0.50000000000000
  23
-0.50000000000000
  33
0.0
   0
LINE
   5
87
 100
AcDbEntity
   8
0
 370
-2
 100
AcDbLine
   6
BYBLOCK
  62
0
  10
-0.50000000000000
  20
0.0
  30
0.0
  11
-1.0000000000000
  21
0.0
  31
0.0
   0
ENDBLK
   5
88
 100
AcDbEntity
   8
0
 100
AcDbBlockEnd
   0
BLOCK
   5
89
 100
AcDbEntity
   8
0
 100
AcDbBlockBegin
   2
_CLOSED
  70
0
  10
0.0
  20
0.0
  30
0.0
   3
_CLOSED
   0
LINE
   5
8A
 100
AcDbEntity
   8
0
 370
-2
 100
AcDbLine
   6
BYBLOCK
  62
0
  10
-1.0000000000000
  20
 0.16666666666667
  30
0.0
  11
0.0
  21
0.0
  31
0.0
   0
LINE
   5
8B
 100
AcDbEntity
   8
0
 370
-2
 100
AcDbLine
   6
BYBLOCK
  62
0
  10
0.0
  20
0.0
  30
0.0
  11
-1.0000000000000
  21
-0.16666666666667
  31
0.0
   0
LINE
   5
8C
 100
AcDbEntity
   8
0
 370
-2
 100
AcDbLine
   6
BYBLOCK
  62
0
  10
-1.0000000000000
  20
 0.16666666666667
  30
0.0
  11
-1.0000000000000
  21
-0.16666666666667
  31
0.0
   0
LINE
   5
8D
 100
AcDbEntity
   8
0
 370
-2
 100
AcDbLine
   6
BYBLOCK
  62
0
  10
0.0
  20
0.0
  30
0.0
  11
-1.0000000000000
  21
0.0
  31
0.0
   0
ENDBLK
   5
8E
 100
AcDbEntity
   8
0
 100
AcDbBlockEnd
   0
BLOCK
   5
8F
 100
AcDbEntity
   8
0
 100
AcDbBlockBegin
   2
_OPEN
  70
0
  10
0.0
  20
0.0
  30
0.0
   3
_OPEN
   0
LINE
   5
90
 100
AcDbEntity
   8
0
 370
-2
 100
AcDbLine
   6
BYBLOCK
  62
0
  10
-1.0000000000000
  20
 0.16666666666667
  30
0.0
  11
0.0
  21
0.0
  31
0.0
   0
LINE
   5
91
 100
AcDbEntity
   8
0
 370
-2
 100
AcDbLine
   6
BYBLOCK
  62
0
  10
0.0
  20
0.0
  30
0.0
  11
-1.0000000000000
  21
-0.16666666666667
  31
0.0
   0
LINE
   5
92
 100
AcDbEntity
   8
0
 370
-2
 100
AcDbLine
   6
BYBLOCK
  62
0
  10
0.0
  20
0.0
  30
0.0
  11
-1.0000000000000
  21
0.0
  31
0.0
   0
ENDBLK
   5
93
 100
AcDbEntity
   8
0
 100
AcDbBlockEnd
   0
BLOCK
   5
94
 100
AcDbEntity
   8
0
 100
AcDbBlockBegin
   2
_OPEN30
  70
0
  10
0.0
  20
0.0
  30
0.0
   3
_OPEN30
   0
LINE
   5
95
 100
AcDbEntity
   8
0
 370
-2
 100
AcDbLine
   6
BYBLOCK
  62
0
  10
-1.0000000000000
  20
 0.26794919243110
  30
0.0
  11
0.0
  21
0.0
  31
0.0
   0
LINE
   5
96
 100
AcDbEntity
   8
0
 370
-2
 100
AcDbLine
   6
BYBLOCK
  62
0
  10
0.0
  20
0.0
  30
0.0
  11
-1.0000000000000
  21
-0.26794919243110
  31
0.0
   0
LINE
   5
97
 100
AcDbEntity
   8
0
 370
-2
 100
AcDbLine
   6
BYBLOCK
  62
0
  10
0.0
  20
0.0
  30
0.0
  11
-1.0000000000000
  21
0.0
  31
0.0
   0
ENDBLK
   5
98
 100
AcDbEntity
   8
0
 100
AcDbBlockEnd
   0
BLOCK
   5
99
 100
AcDbEntity
   8
0
 100
AcDbBlockBegin
   2
_OPEN90
  70
0
  10
0.0
  20
0.0
  30
0.0
   3
_OPEN90
   0
LINE
   5
9A
 100
AcDbEntity
   8
0
 370
-2
 100
AcDbLine
   6
BYBLOCK
  62
0
  10
-0.50000000000000
  20
 0.50000000000000
  30
0.0
  11
0.0
  21
0.0
  31
0.0
   0
LINE
   5
9B
 100
AcDbEntity
   8
0
 370
-2
 100
AcDbLine
   6
BYBLOCK
  62
0
  10
0.0
  20
0.0
  30
0.0
  11
-0.50000000000000
  21
-0.50000000000000
  31
0.0
   0
LINE
   5
9C
 100
AcDbEntity
   8
0
 370
-2
 100
AcDbLine
   6
BYBLOCK
  62
0
  10
0.0
  20
0.0
  30
0.0
  11
-1.0000000000000
  21
0.0
  31
0.0
   0
ENDBLK
   5
9D
 100
AcDbEntity
   8
0
 100
AcDbBlockEnd
   0
BLOCK
   5
9E
 100
AcDbEntity
   8
0
 100
AcDbBlockBegin
   2
_CLOSEDBLANK
  70
0
  10
0.0
  20
0.0
  30
0.0
   3
_CLOSEDBLANK
   0
LINE
   5
9F
 100
AcDbEntity
   8
0
 370
-2
 100
AcDbLine
   6
BYBLOCK
  62
0
  10
-1.0000000000000
  20
 0.16666666666667
  30
0.0
  11
0.0
  21
0.0
  31
0.0
   0
LINE
   5
A0
 100
AcDbEntity
   8
0
 370
-2
 100
AcDbLine
   6
BYBLOCK
  62
0
  10
0.0
  20
0.0
  30
0.0
  11
-1.0000000000000
  21
-0.16666666666667
  31
0.0
   0
LINE
   5
A1
 100
AcDbEntity
   8
0
 370
-2
 100
AcDbLine
   6
BYBLOCK
  62
0
  10
-1.0000000000000
  20
 0.16666666666667
  30
0.0
  11
-1.0000000000000
  21
-0.16666666666667
  31
0.0
   0
ENDBLK
   5
A2
 100
AcDbEntity
   8
0
 100
AcDbBlockEnd
   0
BLOCK
   5
A3
 100
AcDbEntity
   8
0
 100
AcDbBlockBegin
   2
_DOT
  70
0
  10
0.0
  20
0.0
  30
0.0
   3
_DOT
   0
POLYLINE
   5
A4
 100
AcDbEntity
   8
0
 370
-2
   6
BYBLOCK
  62
0
 100
AcDb2dPolyline
  66
1
  10
0.0
  20
0.0
  30
0.0
  70
1
  40
 0.50000000000000
  41
 0.50000000000000
   0
VERTEX
   5
A5
 100
AcDbEntity
   8
0
   6
BYBLOCK
  62
0
 100
AcDbVertex
 100
AcDb2dVertex
  10
-0.25000000000000
  20
0.0
  30
0.0
  42
 1.0000000000000
  40
 0.50000000000000
  41
 0.50000000000000
   0
VERTEX
   5
A6
 100
AcDbEntity
   8
0
   6
BYBLOCK
  62
0
 100
AcDbVertex
 100
AcDb2dVertex
  10
 0.25000000000000
  20
0.0
  30
0.0
  42
 1.0000000000000
  40
 0.50000000000000
  41
 0.50000000000000
   0
SEQEND
   5
A7
 100
AcDbEntity
   8
0
   6
BYBLOCK
  62
0
   0
LINE
   5
A8
 100
AcDbEntity
   8
0
 370
-2
 100
AcDbLine
   6
BYBLOCK
  62
0
  10
-0.50000000000000
  20
0.0
  30
0.0
  11
-1.0000000000000
  21
0.0
  31
0.0
   0
ENDBLK
   5
A9
 100
AcDbEntity
   8
0
 100
AcDbBlockEnd
   0
BLOCK
   5
AA
 100
AcDbEntity
   8
0
 100
AcDbBlockBegin
   2
_DOTSMALL
  70
0
  10
0.0
  20
0.0
  30
0.0
   3
_DOTSMALL
   0
POLYLINE
   5
AB
 100
AcDbEntity
   8
0
 370
-2
   6
BYBLOCK
  62
0
 100
AcDb2dPolyline
  66
1
  10
0.0
  20
0.0
  30
0.0
  70
1
  40
 0.50000000000000
  41
 0.50000000000000
   0
VERTEX
   5
AC
 100
AcDbEntity
   8
0
   6
BYBLOCK
  62
0
 100
AcDbVertex
 100
AcDb2dVertex
  10
-0.62500000000000E-1
  20
0.0
  30
0.0
  42
 1.0000000000000
  40
 0.50000000000000
  41
 0.50000000000000
   0
VERTEX
   5
AD
 100
AcDbEntity
   8
0
   6
BYBLOCK
  62
0
 100
AcDbVertex
 100
AcDb2dVertex
  10
 0.62500000000000E-1
  20
0.0
  30
0.0
  42
 1.0000000000000
  40
 0.50000000000000
  41
 0.50000000000000
   0
SEQEND
   5
AE
 100
AcDbEntity
   8
0
   6
BYBLOCK
  62
0
   0
ENDBLK
   5
AF
 100
AcDbEntity
   8
0
 100
AcDbBlockEnd
   0
BLOCK
   5
B0
 100
AcDbEntity
   8
0
 100
AcDbBlockBegin
   2
_DATUMBLANK
  70
0
  10
0.0
  20
0.0
  30
0.0
   3
_DATUMBLANK
   0
LINE
   5
B1
 100
AcDbEntity
   8
0
 370
-2
 100
AcDbLine
   6
BYBLOCK
  62
0
  10
0.0
  20
 0.57735027000000
  30
0.0
  11
-1.0000000000000
  21
0.0
  31
0.0
   0
LINE
   5
B2
 100
AcDbEntity
   8
0
 370
-2
 100
AcDbLine
   6
BYBLOCK
  62
0
  10
-1.0000000000000
  20
0.0
  30
0.0
  11
0.0
  21
-0.57735027000000
  31
0.0
   0
LINE
   5
B3
 100
AcDbEntity
   8
0
 370
-2
 100
AcDbLine
   6
BYBLOCK
  62
0
  10
0.0
  20
-0.57735027000000
  30
0.0
  11
0.0
  21
 0.57735027000000
  31
0.0
   0
ENDBLK
   5
B4
 100
AcDbEntity
   8
0
 100
AcDbBlockEnd
   0
BLOCK
   5
B5
 100
AcDbEntity
   8
0
 100
AcDbBlockBegin
   2
_DATUMFILLED
  70
0
  10
0.0
  20
0.0
  30
0.0
   3
_DATUMFILLED
   0
SOLID
   5
B6
 100
AcDbEntity
   8
0
 100
AcDbTrace
   6
BYBLOCK
  62
0
  10
0.0
  20
 0.57735027000000
  30
0.0
  11
-1.0000000000000
  21
0.0
  31
0.0
  12
0.0
  22
-0.57735027000000
  32
0.0
  13
0.0
  23
-0.57735027000000
  33
0.0
   0
ENDBLK
   5
B7
 100
AcDbEntity
   8
0
 100
AcDbBlockEnd
   0
BLOCK
   5
B8
 100
AcDbEntity
   8
0
 100
AcDbBlockBegin
   2
_ORIGIN
  70
0
  10
0.0
  20
0.0
  30
0.0
   3
_ORIGIN
   0
CIRCLE
   5
B9
 100
AcDbEntity
   8
0
 370
-2
 100
AcDbCircle
   6
BYBLOCK
  62
0
  10
0.0
  20
0.0
  30
0.0
  40
 0.50000000000000
   0
LINE
   5
BA
 100
AcDbEntity
   8
0
 370
-2
 100
AcDbLine
   6
BYBLOCK
  62
0
  10
0.0
  20
0.0
  30
0.0
  11
-1.0000000000000
  21
0.0
  31
0.0
   0
ENDBLK
   5
BB
 100
AcDbEntity
   8
0
 100
AcDbBlockEnd
   0
BLOCK
   5
BC
 100
AcDbEntity
   8
0
 100
AcDbBlockBegin
   2
_NONE
  70
0
  10
0.0
  20
0.0
  30
0.0
   3
_NONE
   0
CIRCLE
   5
BD
 100
AcDbEntity
   8
0
 370
-2
 100
AcDbCircle
   6
BYBLOCK
  62
0
  10
0.0
  20
0.0
  30
0.0
  40
 0.25000000000000
   0
ENDBLK
   5
BE
 100
AcDbEntity
   8
0
 100
AcDbBlockEnd
   0
BLOCK
   5
BF
 100
AcDbEntity
   8
0
 100
AcDbBlockBegin
   2
_DOTBLANK
  70
0
  10
0.0
  20
0.0
  30
0.0
   3
_DOTBLANK
   0
CIRCLE
   5
C0
 100
AcDbEntity
   8
0
 370
-2
 100
AcDbCircle
   6
BYBLOCK
  62
0
  10
0.0
  20
0.0
  30
0.0
  40
 0.50000000000000
   0
LINE
   5
C1
 100
AcDbEntity
   8
0
 370
-2
 100
AcDbLine
   6
BYBLOCK
  62
0
  10
-0.50000000000000
  20
0.0
  30
0.0
  11
-1.0000000000000
  21
0.0
  31
0.0
   0
ENDBLK
   5
C2
 100
AcDbEntity
   8
0
 100
AcDbBlockEnd
   0
BLOCK
   5
C3
 100
AcDbEntity
   8
0
 100
AcDbBlockBegin
   2
_INTEGRAL
  70
0
  10
0.0
  20
0.0
  30
0.0
   3
_INTEGRAL
   0
ARC
   5
C4
 100
AcDbEntity
   8
0
 370
-2
   6
BYBLOCK
  62
0
 100
AcDbCircle
  10
 0.44488800000000
  20
-0.91335000000000E-1
  30
0.0
  40
 0.45416700000000
 100
AcDbArc
  50
 102.00000000000
  51
 168.00000000000
   0
ARC
   5
C5
 100
AcDbEntity
   8
0
 370
-2
   6
BYBLOCK
  62
0
 100
AcDbCircle
  10
-0.44488800000000
  20
 0.91335000000000E-1
  30
0.0
  40
 0.45416700000000
 100
AcDbArc
  50
 282.00000000000
  51
 348.00000000000
   0
ENDBLK
   5
C6
 100
AcDbEntity
   8
0
 100
AcDbBlockEnd
   0
BLOCK
   5
C7
 100
AcDbEntity
   8
0
 100
AcDbBlockBegin
   2
*D1
  70
65
  10
0.0
  20
0.0
  30
0.0
   3
*D1
   0
LINE
   5
C8
 100
AcDbEntity
   8
0
 370
15
 100
AcDbLine
   6
CONTINUOUS
  62
8
  10
 591.65672199861
  20
 771.62847663815
  30
0.0
  11
 644.30076182217
  21
 771.62847663815
  31
0.0
   0
LINE
   5
C9
 100
AcDbEntity
   8
0
 370
15
 100
AcDbLine
   6
CONTINUOUS
  62
8
  10
 615.65672199862
  20
 816.62847663815
  30
0.0
  11
 644.30076182217
  21
 816.62847663815
  31
0.0
   0
LINE
   5
CA
 100
AcDbEntity
   8
0
 370
15
 100
AcDbLine
   6
CONTINUOUS
  62
8
  10
 640.30076182217
  20
 771.62847663815
  30
0.0
  11
 640.30076182217
  21
 794.12847663815
  31
0.0
   0
LINE
   5
CB
 100
AcDbEntity
   8
0
 370
15
 100
AcDbLine
   6
CONTINUOUS
  62
8
  10
 640.30076182217
  20
 816.62847663815
  30
0.0
  11
 640.30076182217
  21
 794.12847663815
  31
0.0
   0
SOLID
   5
CC
 100
AcDbEntity
   8
0
 100
AcDbTrace
   6
CONTINUOUS
  62
8
  10
 640.30076182217
  20
 771.62847663815
  30
0.0
  11
 641.71137766784
  21
 779.62847663815
  31
0.0
  12
 638.89014597651
  22
 779.62847663815
  32
0.0
  13
 638.89014597651
  23
 779.62847663815
  33
0.0
   0
SOLID
   5
CD
 100
AcDbEntity
   8
0
 100
AcDbTrace
   6
CONTINUOUS
  62
8
  10
 640.30076182217
  20
 816.62847663815
  30
0.0
  11
 638.89014597651
  21
 808.62847663815
  31
0.0
  12
 641.71137766784
  22
 808.62847663815
  32
0.0
  13
 641.71137766784
  23
 808.62847663815
  33
0.0
   0
MTEXT
   5
CE
 100
AcDbEntity
   8
0
 370
15
  62
8
 100
AcDbMText
  10
 636.30076182217
  20
 794.12847663815
  30
0.0
  40
 10.000000000000
  41
0.0
  71
8
  72
1
   1
\A1;45
   7
GMM001
  11
0.0
  21
 1.0000000000000
  31
0.0
   0
ENDBLK
   5
CF
 100
AcDbEntity
   8
0
 100
AcDbBlockEnd
   0
BLOCK
   5
D0
 100
AcDbEntity
   8
0
 100
AcDbBlockBegin
   2
*D2
  70
65
  10
0.0
  20
0.0
  30
0.0
   3
*D2
   0
LINE
   5
D1
 100
AcDbEntity
   8
0
 370
15
 100
AcDbLine
   6
CONTINUOUS
  62
8
  10
 695.10732684597
  20
 767.62847663815
  30
0.0
  11
 695.10732684597
  21
 721.64736921776
  31
0.0
   0
LINE
   5
D2
 100
AcDbEntity
   8
0
 370
15
 100
AcDbLine
   6
CONTINUOUS
  62
8
  10
 711.10732684597
  20
 767.62847663815
  30
0.0
  11
 711.10732684597
  21
 721.64736921776
  31
0.0
   0
LINE
   5
D3
 100
AcDbEntity
   8
0
 370
15
 100
AcDbLine
   6
CONTINUOUS
  62
8
  10
 685.10732684597
  20
 725.64736921776
  30
0.0
  11
 703.10732684597
  21
 725.64736921776
  31
0.0
   0
LINE
   5
D4
 100
AcDbEntity
   8
0
 370
15
 100
AcDbLine
   6
CONTINUOUS
  62
8
  10
 721.10732684597
  20
 725.64736921776
  30
0.0
  11
 703.10732684597
  21
 725.64736921776
  31
0.0
   0
SOLID
   5
D5
 100
AcDbEntity
   8
0
 100
AcDbTrace
   6
CONTINUOUS
  62
8
  10
 695.10732684597
  20
 725.64736921776
  30
0.0
  11
 687.10732684597
  21
 727.05798506342
  31
0.0
  12
 687.10732684597
  22
 724.23675337209
  32
0.0
  13
 687.10732684597
  23
 724.23675337209
  33
0.0
   0
SOLID
   5
D6
 100
AcDbEntity
   8
0
 100
AcDbTrace
   6
CONTINUOUS
  62
8
  10
 711.10732684597
  20
 725.64736921776
  30
0.0
  11
 719.10732684597
  21
 724.23675337209
  31
0.0
  12
 719.10732684597
  22
 727.05798506342
  32
0.0
  13
 719.10732684597
  23
 727.05798506342
  33
0.0
   0
MTEXT
   5
D7
 100
AcDbEntity
   8
0
 370
15
  62
8
 100
AcDbMText
  10
 703.10732684597
  20
 729.64736921776
  30
0.0
  40
 10.000000000000
  41
0.0
  71
8
  72
1
   1
\A1;16
   7
GMM001
   0
ENDBLK
   5
D8
 100
AcDbEntity
   8
0
 100
AcDbBlockEnd
   0
BLOCK
   5
D9
 100
AcDbEntity
   8
0
 100
AcDbBlockBegin
   2
*D3
  70
65
  10
0.0
  20
0.0
  30
0.0
   3
*D3
   0
LINE
   5
DA
 100
AcDbEntity
   8
0
 370
15
 100
AcDbLine
   6
CONTINUOUS
  62
8
  10
 683.10732684597
  20
 767.62847663815
  30
0.0
  11
 683.10732684597
  21
 701.64736921776
  31
0.0
   0
LINE
   5
DB
 100
AcDbEntity
   8
0
 370
15
 100
AcDbLine
   6
CONTINUOUS
  62
8
  10
 723.10732684597
  20
 767.62847663815
  30
0.0
  11
 723.10732684597
  21
 701.64736921776
  31
0.0
   0
LINE
   5
DC
 100
AcDbEntity
   8
0
 370
15
 100
AcDbLine
   6
CONTINUOUS
  62
8
  10
 683.10732684597
  20
 705.64736921776
  30
0.0
  11
 703.10732684597
  21
 705.64736921776
  31
0.0
   0
LINE
   5
DD
 100
AcDbEntity
   8
0
 370
15
 100
AcDbLine
   6
CONTINUOUS
  62
8
  10
 723.10732684597
  20
 705.64736921776
  30
0.0
  11
 703.10732684597
  21
 705.64736921776
  31
0.0
   0
SOLID
   5
DE
 100
AcDbEntity
   8
0
 100
AcDbTrace
   6
CONTINUOUS
  62
8
  10
 683.10732684597
  20
 705.64736921776
  30
0.0
  11
 691.10732684597
  21
 704.23675337209
  31
0.0
  12
 691.10732684597
  22
 707.05798506342
  32
0.0
  13
 691.10732684597
  23
 707.05798506342
  33
0.0
   0
SOLID
   5
DF
 100
AcDbEntity
   8
0
 100
AcDbTrace
   6
CONTINUOUS
  62
8
  10
 723.10732684597
  20
 705.64736921776
  30
0.0
  11
 715.10732684597
  21
 707.05798506342
  31
0.0
  12
 715.10732684597
  22
 704.23675337209
  32
0.0
  13
 715.10732684597
  23
 704.23675337209
  33
0.0
   0
MTEXT
   5
E0
 100
AcDbEntity
   8
0
 370
15
  62
8
 100
AcDbMText
  10
 703.10732684597
  20
 709.64736921776
  30
0.0
  40
 10.000000000000
  41
0.0
  71
8
  72
1
   1
\A1;40
   7
GMM001
   0
ENDBLK
   5
E1
 100
AcDbEntity
   8
0
 100
AcDbBlockEnd
   0
BLOCK
   5
E2
 100
AcDbEntity
   8
0
 100
AcDbBlockBegin
   2
*D5
  70
65
  10
0.0
  20
0.0
  30
0.0
   3
*D5
   0
LINE
   5
E3
 100
AcDbEntity
   8
0
 370
15
 100
AcDbLine
   6
CONTINUOUS
  62
8
  10
 503.25672199862
  20
 795.62847663815
  30
0.0
  11
 503.25672199862
  21
 815.62847663815
  31
0.0
   0
LINE
   5
E4
 100
AcDbEntity
   8
0
 370
15
 100
AcDbLine
   6
CONTINUOUS
  62
8
  10
 473.49953771591
  20
 811.62847663815
  30
0.0
  11
 506.45672199862
  21
 811.62847663815
  31
0.0
   0
LINE
   5
E5
 100
AcDbEntity
   8
0
 370
15
 100
AcDbLine
   6
CONTINUOUS
  62
8
  10
 509.65672199862
  20
 811.62847663815
  30
0.0
  11
 506.45672199862
  21
 811.62847663815
  31
0.0
   0
SOLID
   5
E6
 100
AcDbEntity
   8
0
 100
AcDbTrace
   6
CONTINUOUS
  62
8
  10
 503.25672199862
  20
 811.62847663815
  30
0.0
  11
 495.25672199862
  21
 813.03909248382
  31
0.0
  12
 495.25672199862
  22
 810.21786079248
  32
0.0
  13
 495.25672199862
  23
 810.21786079248
  33
0.0
   0
MTEXT
   5
E7
 100
AcDbEntity
   8
0
 370
15
  62
8
 100
AcDbMText
  10
 495.49953771591
  20
 814.66984982508
  30
0.0
  40
 10.000000000000
  41
0.0
  71
9
  72
1
   1
\A1;6.4
   7
GMM001
   0
ENDBLK
   5
E8
 100
AcDbEntity
   8
0
 100
AcDbBlockEnd
   0
BLOCK
   5
E9
 100
AcDbEntity
   8
0
 100
AcDbBlockBegin
   2
*D6
  70
65
  10
0.0
  20
0.0
  30
0.0
   3
*D6
   0
LINE
   5
EA
 100
AcDbEntity
   8
0
 370
15
 100
AcDbLine
   6
CONTINUOUS
  62
8
  10
 509.65672199862
  20
 795.62847663815
  30
0.0
  11
 509.65672199862
  21
 815.62847663815
  31
0.0
   0
LINE
   5
EB
 100
AcDbEntity
   8
0
 370
15
 100
AcDbLine
   6
CONTINUOUS
  62
8
  10
 511.65672199862
  20
 795.62847663815
  30
0.0
  11
 511.65672199862
  21
 815.62847663815
  31
0.0
   0
LINE
   5
EC
 100
AcDbEntity
   8
0
 370
15
 100
AcDbLine
   6
CONTINUOUS
  62
8
  10
 509.65672199862
  20
 811.62847663815
  30
0.0
  11
 510.65672199862
  21
 811.62847663815
  31
0.0
   0
LINE
   5
ED
 100
AcDbEntity
   8
0
 370
15
 100
AcDbLine
   6
CONTINUOUS
  62
8
  10
 526.54177293363
  20
 811.62847663815
  30
0.0
  11
 510.65672199862
  21
 811.62847663815
  31
0.0
   0
INSERT
   5
EE
 100
AcDbEntity
   8
0
   6
CONTINUOUS
  62
8
 100
AcDbBlockReference
   2
_DOT
  10
 509.65672199862
  20
 811.62847663815
  30
0.0
  41
 2.1333333333333
  42
 2.1333333333333
  43
 2.1333333333333
  50
 180.00000000000
   0
SOLID
   5
EF
 100
AcDbEntity
   8
0
 100
AcDbTrace
   6
CONTINUOUS
  62
8
  10
 511.65672199862
  20
 811.62847663815
  30
0.0
  11
 519.65672199862
  21
 810.21786079248
  31
0.0
  12
 519.65672199862
  22
 813.03909248382
  32
0.0
  13
 519.65672199862
  23
 813.03909248382
  33
0.0
   0
MTEXT
   5
F0
 100
AcDbEntity
   8
0
 370
15
  62
8
 100
AcDbMText
  10
 516.54177293363
  20
 815.71542673031
  30
0.0
  40
 10.000000000000
  41
0.0
  71
7
  72
1
   1
\A1;2
   7
GMM001
   0
ENDBLK
   5
F1
 100
AcDbEntity
   8
0
 100
AcDbBlockEnd
   0
BLOCK
   5
F2
 100
AcDbEntity
   8
0
 100
AcDbBlockBegin
   2
*D7
  70
65
  10
0.0
  20
0.0
  30
0.0
   3
*D7
   0
LINE
   5
F3
 100
AcDbEntity
   8
0
 370
15
 100
AcDbLine
   6
CONTINUOUS
  62
8
  10
 528.65672199862
  20
 747.62847663815
  30
0.0
  11
 528.65672199862
  21
 721.64736921776
  31
0.0
   0
LINE
   5
F4
 100
AcDbEntity
   8
0
 370
15
 100
AcDbLine
   6
CONTINUOUS
  62
8
  10
 516.35857832161
  20
 725.64736921776
  30
0.0
  11
 529.65672199862
  21
 725.64736921776
  31
0.0
   0
LINE
   5
F5
 100
AcDbEntity
   8
0
 370
15
 100
AcDbLine
   6
CONTINUOUS
  62
8
  10
 530.65672199862
  20
 725.64736921776
  30
0.0
  11
 529.65672199862
  21
 725.64736921776
  31
0.0
   0
SOLID
   5
F6
 100
AcDbEntity
   8
0
 100
AcDbTrace
   6
CONTINUOUS
  62
8
  10
 528.65672199862
  20
 725.64736921776
  30
0.0
  11
 520.65672199862
  21
 727.05798506342
  31
0.0
  12
 520.65672199862
  22
 724.23675337209
  32
0.0
  13
 520.65672199862
  23
 724.23675337209
  33
0.0
   0
MTEXT
   5
F7
 100
AcDbEntity
   8
0
 370
15
  62
8
 100
AcDbMText
  10
 526.35857832161
  20
 729.57922202081
  30
0.0
  40
 10.000000000000
  41
0.0
  71
9
  72
1
   1
\A1;2
   7
GMM001
   0
ENDBLK
   5
F8
 100
AcDbEntity
   8
0
 100
AcDbBlockEnd
   0
BLOCK
   5
F9
 100
AcDbEntity
   8
0
 100
AcDbBlockBegin
   2
*D8
  70
65
  10
0.0
  20
0.0
  30
0.0
   3
*D8
   0
LINE
   5
FA
 100
AcDbEntity
   8
0
 370
15
 100
AcDbLine
   6
CONTINUOUS
  62
8
  10
 530.65672199862
  20
 747.62847663815
  30
0.0
  11
 530.65672199862
  21
 721.64736921776
  31
0.0
   0
LINE
   5
FB
 100
AcDbEntity
   8
0
 370
15
 100
AcDbLine
   6
CONTINUOUS
  62
8
  10
 530.65672199862
  20
 725.64736921776
  30
0.0
  11
 532.15672199862
  21
 725.64736921776
  31
0.0
   0
LINE
   5
FC
 100
AcDbEntity
   8
0
 370
15
 100
AcDbLine
   6
CONTINUOUS
  62
8
  10
 533.65672199862
  20
 725.64736921776
  30
0.0
  11
 532.15672199862
  21
 725.64736921776
  31
0.0
   0
INSERT
   5
FD
 100
AcDbEntity
   8
0
   6
CONTINUOUS
  62
8
 100
AcDbBlockReference
   2
_DOT
  10
 530.65672199862
  20
 725.64736921776
  30
0.0
  41
 2.1333333333333
  42
 2.1333333333333
  43
 2.1333333333333
  50
 180.00000000000
   0
MTEXT
   5
FE
 100
AcDbEntity
   8
0
 370
15
  62
8
 100
AcDbMText
  10
 538.79658692339
  20
 709.64736921776
  30
0.0
  40
 10.000000000000
  41
0.0
  71
7
  72
1
   1
\A1;3
   7
GMM001
   0
ENDBLK
   5
FF
 100
AcDbEntity
   8
0
 100
AcDbBlockEnd
   0
BLOCK
   5
100
 100
AcDbEntity
   8
0
 100
AcDbBlockBegin
   2
*D9
  70
65
  10
0.0
  20
0.0
  30
0.0
   3
*D9
   0
LINE
   5
101
 100
AcDbEntity
   8
0
 370
15
 100
AcDbLine
   6
CONTINUOUS
  62
8
  10
 533.65672199862
  20
 749.12847663815
  30
0.0
  11
 533.65672199862
  21
 721.64736921776
  31
0.0
   0
LINE
   5
102
 100
AcDbEntity
   8
0
 370
15
 100
AcDbLine
   6
CONTINUOUS
  62
8
  10
 603.65672199861
  20
 779.62847663815
  30
0.0
  11
 603.65672199861
  21
 721.64736921776
  31
0.0
   0
LINE
   5
103
 100
AcDbEntity
   8
0
 370
15
 100
AcDbLine
   6
CONTINUOUS
  62
8
  10
 533.65672199862
  20
 725.64736921776
  30
0.0
  11
 568.65672199862
  21
 725.64736921776
  31
0.0
   0
LINE
   5
104
 100
AcDbEntity
   8
0
 370
15
 100
AcDbLine
   6
CONTINUOUS
  62
8
  10
 603.65672199861
  20
 725.64736921776
  30
0.0
  11
 568.65672199862
  21
 725.64736921776
  31
0.0
   0
SOLID
   5
105
 100
AcDbEntity
   8
0
 100
AcDbTrace
   6
CONTINUOUS
  62
8
  10
 533.65672199862
  20
 725.64736921776
  30
0.0
  11
 541.65672199862
  21
 724.23675337209
  31
0.0
  12
 541.65672199862
  22
 727.05798506342
  32
0.0
  13
 541.65672199862
  23
 727.05798506342
  33
0.0
   0
SOLID
   5
106
 100
AcDbEntity
   8
0
 100
AcDbTrace
   6
CONTINUOUS
  62
8
  10
 603.65672199861
  20
 725.64736921776
  30
0.0
  11
 595.65672199861
  21
 727.05798506342
  31
0.0
  12
 595.65672199861
  22
 724.23675337209
  32
0.0
  13
 595.65672199861
  23
 724.23675337209
  33
0.0
   0
MTEXT
   5
107
 100
AcDbEntity
   8
0
 370
15
  62
8
 100
AcDbMText
  10
 568.65672199862
  20
 729.64736921776
  30
0.0
  40
 10.000000000000
  41
0.0
  71
8
  72
1
   1
\A1;L
   7
GMM001
   0
ENDBLK
   5
108
 100
AcDbEntity
   8
0
 100
AcDbBlockEnd
   0
BLOCK
   5
109
 100
AcDbEntity
   8
0
 100
AcDbBlockBegin
   2
*D14
  70
65
  10
0.0
  20
0.0
  30
0.0
   3
*D14
   0
LINE
   5
10A
 100
AcDbEntity
   8
0
 370
15
 100
AcDbLine
   6
CONTINUOUS
  62
8
  10
 585.39959089103
  20
 235.48336728862
  30
0.0
  11
 638.04363071459
  21
 235.48336728862
  31
0.0
   0
LINE
   5
10B
 100
AcDbEntity
   8
0
 370
15
 100
AcDbLine
   6
CONTINUOUS
  62
8
  10
 609.39959089104
  20
 270.48336728862
  30
0.0
  11
 638.04363071459
  21
 270.48336728862
  31
0.0
   0
LINE
   5
10C
 100
AcDbEntity
   8
0
 370
15
 100
AcDbLine
   6
CONTINUOUS
  62
8
  10
 634.04363071459
  20
 235.48336728862
  30
0.0
  11
 634.04363071459
  21
 252.98336728862
  31
0.0
   0
LINE
   5
10D
 100
AcDbEntity
   8
0
 370
15
 100
AcDbLine
   6
CONTINUOUS
  62
8
  10
 634.04363071459
  20
 270.48336728862
  30
0.0
  11
 634.04363071459
  21
 252.98336728862
  31
0.0
   0
SOLID
   5
10E
 100
AcDbEntity
   8
0
 100
AcDbTrace
   6
CONTINUOUS
  62
8
  10
 634.04363071459
  20
 235.48336728862
  30
0.0
  11
 635.45424656026
  21
 243.48336728862
  31
0.0
  12
 632.63301486893
  22
 243.48336728862
  32
0.0
  13
 632.63301486893
  23
 243.48336728862
  33
0.0
   0
SOLID
   5
10F
 100
AcDbEntity
   8
0
 100
AcDbTrace
   6
CONTINUOUS
  62
8
  10
 634.04363071459
  20
 270.48336728862
  30
0.0
  11
 632.63301486893
  21
 262.48336728862
  31
0.0
  12
 635.45424656026
  22
 262.48336728862
  32
0.0
  13
 635.45424656026
  23
 262.48336728862
  33
0.0
   0
MTEXT
   5
110
 100
AcDbEntity
   8
0
 370
15
  62
8
 100
AcDbMText
  10
 630.04363071459
  20
 252.98336728862
  30
0.0
  40
 10.000000000000
  41
0.0
  71
8
  72
1
   1
\A1;35
   7
GMM001
  11
0.0
  21
 1.0000000000000
  31
0.0
   0
ENDBLK
   5
111
 100
AcDbEntity
   8
0
 100
AcDbBlockEnd
   0
BLOCK
   5
112
 100
AcDbEntity
   8
0
 100
AcDbBlockBegin
   2
*D15
  70
65
  10
0.0
  20
0.0
  30
0.0
   3
*D15
   0
LINE
   5
113
 100
AcDbEntity
   8
0
 370
15
 100
AcDbLine
   6
CONTINUOUS
  62
8
  10
 676.85019573839
  20
 231.48336728862
  30
0.0
  11
 676.85019573839
  21
 165.50225986823
  31
0.0
   0
LINE
   5
114
 100
AcDbEntity
   8
0
 370
15
 100
AcDbLine
   6
CONTINUOUS
  62
8
  10
 716.85019573839
  20
 231.48336728862
  30
0.0
  11
 716.85019573839
  21
 165.50225986823
  31
0.0
   0
LINE
   5
115
 100
AcDbEntity
   8
0
 370
15
 100
AcDbLine
   6
CONTINUOUS
  62
8
  10
 676.85019573839
  20
 169.50225986823
  30
0.0
  11
 696.85019573839
  21
 169.50225986823
  31
0.0
   0
LINE
   5
116
 100
AcDbEntity
   8
0
 370
15
 100
AcDbLine
   6
CONTINUOUS
  62
8
  10
 716.85019573839
  20
 169.50225986823
  30
0.0
  11
 696.85019573839
  21
 169.50225986823
  31
0.0
   0
SOLID
   5
117
 100
AcDbEntity
   8
0
 100
AcDbTrace
   6
CONTINUOUS
  62
8
  10
 676.85019573839
  20
 169.50225986823
  30
0.0
  11
 684.85019573839
  21
 168.09164402256
  31
0.0
  12
 684.85019573839
  22
 170.91287571390
  32
0.0
  13
 684.85019573839
  23
 170.91287571390
  33
0.0
   0
SOLID
   5
118
 100
AcDbEntity
   8
0
 100
AcDbTrace
   6
CONTINUOUS
  62
8
  10
 716.85019573839
  20
 169.50225986823
  30
0.0
  11
 708.85019573839
  21
 170.91287571390
  31
0.0
  12
 708.85019573839
  22
 168.09164402256
  32
0.0
  13
 708.85019573839
  23
 168.09164402256
  33
0.0
   0
MTEXT
   5
119
 100
AcDbEntity
   8
0
 370
15
  62
8
 100
AcDbMText
  10
 696.85019573839
  20
 173.50225986823
  30
0.0
  40
 10.000000000000
  41
0.0
  71
8
  72
1
   1
\A1;40
   7
GMM001
   0
ENDBLK
   5
11A
 100
AcDbEntity
   8
0
 100
AcDbBlockEnd
   0
BLOCK
   5
11B
 100
AcDbEntity
   8
0
 100
AcDbBlockBegin
   2
*D16
  70
65
  10
0.0
  20
0.0
  30
0.0
   3
*D16
   0
LINE
   5
11C
 100
AcDbEntity
   8
0
 370
15
 100
AcDbLine
   6
CONTINUOUS
  62
8
  10
 690.35019573839
  20
 231.48336728862
  30
0.0
  11
 690.35019573839
  21
 185.50225986823
  31
0.0
   0
LINE
   5
11D
 100
AcDbEntity
   8
0
 370
15
 100
AcDbLine
   6
CONTINUOUS
  62
8
  10
 703.35019573839
  20
 231.48336728862
  30
0.0
  11
 703.35019573839
  21
 185.50225986823
  31
0.0
   0
LINE
   5
11E
 100
AcDbEntity
   8
0
 370
15
 100
AcDbLine
   6
CONTINUOUS
  62
8
  10
 680.35019573839
  20
 189.50225986823
  30
0.0
  11
 696.85019573839
  21
 189.50225986823
  31
0.0
   0
LINE
   5
11F
 100
AcDbEntity
   8
0
 370
15
 100
AcDbLine
   6
CONTINUOUS
  62
8
  10
 713.35019573839
  20
 189.50225986823
  30
0.0
  11
 696.85019573839
  21
 189.50225986823
  31
0.0
   0
SOLID
   5
120
 100
AcDbEntity
   8
0
 100
AcDbTrace
   6
CONTINUOUS
  62
8
  10
 690.35019573839
  20
 189.50225986823
  30
0.0
  11
 682.35019573839
  21
 190.91287571390
  31
0.0
  12
 682.35019573839
  22
 188.09164402256
  32
0.0
  13
 682.35019573839
  23
 188.09164402256
  33
0.0
   0
SOLID
   5
121
 100
AcDbEntity
   8
0
 100
AcDbTrace
   6
CONTINUOUS
  62
8
  10
 703.35019573839
  20
 189.50225986823
  30
0.0
  11
 711.35019573839
  21
 188.09164402256
  31
0.0
  12
 711.35019573839
  22
 190.91287571390
  32
0.0
  13
 711.35019573839
  23
 190.91287571390
  33
0.0
   0
MTEXT
   5
122
 100
AcDbEntity
   8
0
 370
15
  62
8
 100
AcDbMText
  10
 696.85019573839
  20
 193.50225986823
  30
0.0
  40
 10.000000000000
  41
0.0
  71
8
  72
1
   1
\A1;13
   7
GMM001
   0
ENDBLK
   5
123
 100
AcDbEntity
   8
0
 100
AcDbBlockEnd
   0
BLOCK
   5
124
 100
AcDbEntity
   8
0
 100
AcDbBlockBegin
   2
*D17
  70
65
  10
0.0
  20
0.0
  30
0.0
   3
*D17
   0
LINE
   5
125
 100
AcDbEntity
   8
0
 370
15
 100
AcDbLine
   6
CONTINUOUS
  62
8
  10
 511.99959089104
  20
 259.48336728862
  30
0.0
  11
 511.99959089104
  21
 279.48336728862
  31
0.0
   0
LINE
   5
126
 100
AcDbEntity
   8
0
 370
15
 100
AcDbLine
   6
CONTINUOUS
  62
8
  10
 482.24240660833
  20
 275.48336728862
  30
0.0
  11
 515.19959089104
  21
 275.48336728862
  31
0.0
   0
LINE
   5
127
 100
AcDbEntity
   8
0
 370
15
 100
AcDbLine
   6
CONTINUOUS
  62
8
  10
 518.39959089104
  20
 275.48336728862
  30
0.0
  11
 515.19959089104
  21
 275.48336728862
  31
0.0
   0
SOLID
   5
128
 100
AcDbEntity
   8
0
 100
AcDbTrace
   6
CONTINUOUS
  62
8
  10
 511.99959089104
  20
 275.48336728862
  30
0.0
  11
 503.99959089104
  21
 276.89398313429
  31
0.0
  12
 503.99959089104
  22
 274.07275144295
  32
0.0
  13
 503.99959089104
  23
 274.07275144295
  33
0.0
   0
MTEXT
   5
129
 100
AcDbEntity
   8
0
 370
15
  62
8
 100
AcDbMText
  10
 504.24240660833
  20
 278.52474047556
  30
0.0
  40
 10.000000000000
  41
0.0
  71
9
  72
1
   1
\A1;6.4
   7
GMM001
   0
ENDBLK
   5
12A
 100
AcDbEntity
   8
0
 100
AcDbBlockEnd
   0
BLOCK
   5
12B
 100
AcDbEntity
   8
0
 100
AcDbBlockBegin
   2
*D18
  70
65
  10
0.0
  20
0.0
  30
0.0
   3
*D18
   0
LINE
   5
12C
 100
AcDbEntity
   8
0
 370
15
 100
AcDbLine
   6
CONTINUOUS
  62
8
  10
 518.39959089104
  20
 259.48336728862
  30
0.0
  11
 518.39959089104
  21
 279.48336728862
  31
0.0
   0
LINE
   5
12D
 100
AcDbEntity
   8
0
 370
15
 100
AcDbLine
   6
CONTINUOUS
  62
8
  10
 520.39959089104
  20
 259.48336728862
  30
0.0
  11
 520.39959089104
  21
 279.48336728862
  31
0.0
   0
LINE
   5
12E
 100
AcDbEntity
   8
0
 370
15
 100
AcDbLine
   6
CONTINUOUS
  62
8
  10
 518.39959089104
  20
 275.48336728862
  30
0.0
  11
 519.39959089104
  21
 275.48336728862
  31
0.0
   0
LINE
   5
12F
 100
AcDbEntity
   8
0
 370
15
 100
AcDbLine
   6
CONTINUOUS
  62
8
  10
 535.28464182605
  20
 275.48336728862
  30
0.0
  11
 519.39959089104
  21
 275.48336728862
  31
0.0
   0
INSERT
   5
130
 100
AcDbEntity
   8
0
   6
CONTINUOUS
  62
8
 100
AcDbBlockReference
   2
_DOT
  10
 518.39959089104
  20
 275.48336728862
  30
0.0
  41
 2.1333333333333
  42
 2.1333333333333
  43
 2.1333333333333
  50
 180.00000000000
   0
SOLID
   5
131
 100
AcDbEntity
   8
0
 100
AcDbTrace
   6
CONTINUOUS
  62
8
  10
 520.39959089104
  20
 275.48336728862
  30
0.0
  11
 528.39959089104
  21
 274.07275144295
  31
0.0
  12
 528.39959089104
  22
 276.89398313429
  32
0.0
  13
 528.39959089104
  23
 276.89398313429
  33
0.0
   0
MTEXT
   5
132
 100
AcDbEntity
   8
0
 370
15
  62
8
 100
AcDbMText
  10
 525.28464182605
  20
 279.57031738078
  30
0.0
  40
 10.000000000000
  41
0.0
  71
7
  72
1
   1
\A1;2
   7
GMM001
   0
ENDBLK
   5
133
 100
AcDbEntity
   8
0
 100
AcDbBlockEnd
   0
BLOCK
   5
134
 100
AcDbEntity
   8
0
 100
AcDbBlockBegin
   2
*D23
  70
65
  10
0.0
  20
0.0
  30
0.0
   3
*D23
   0
LINE
   5
135
 100
AcDbEntity
   8
0
 370
15
 100
AcDbLine
   6
CONTINUOUS
  62
8
  10
 537.39959089104
  20
 211.48336728862
  30
0.0
  11
 537.39959089104
  21
 185.50225986823
  31
0.0
   0
LINE
   5
136
 100
AcDbEntity
   8
0
 370
15
 100
AcDbLine
   6
CONTINUOUS
  62
8
  10
 525.10144721403
  20
 189.50225986823
  30
0.0
  11
 538.39959089104
  21
 189.50225986823
  31
0.0
   0
LINE
   5
137
 100
AcDbEntity
   8
0
 370
15
 100
AcDbLine
   6
CONTINUOUS
  62
8
  10
 539.39959089104
  20
 189.50225986823
  30
0.0
  11
 538.39959089104
  21
 189.50225986823
  31
0.0
   0
SOLID
   5
138
 100
AcDbEntity
   8
0
 100
AcDbTrace
   6
CONTINUOUS
  62
8
  10
 537.39959089104
  20
 189.50225986823
  30
0.0
  11
 529.39959089104
  21
 190.91287571390
  31
0.0
  12
 529.39959089104
  22
 188.09164402256
  32
0.0
  13
 529.39959089104
  23
 188.09164402256
  33
0.0
   0
MTEXT
   5
139
 100
AcDbEntity
   8
0
 370
15
  62
8
 100
AcDbMText
  10
 535.10144721403
  20
 193.43411267128
  30
0.0
  40
 10.000000000000
  41
0.0
  71
9
  72
1
   1
\A1;2
   7
GMM001
   0
ENDBLK
   5
13A
 100
AcDbEntity
   8
0
 100
AcDbBlockEnd
   0
BLOCK
   5
13B
 100
AcDbEntity
   8
0
 100
AcDbBlockBegin
   2
*D24
  70
65
  10
0.0
  20
0.0
  30
0.0
   3
*D24
   0
LINE
   5
13C
 100
AcDbEntity
   8
0
 370
15
 100
AcDbLine
   6
CONTINUOUS
  62
8
  10
 539.39959089104
  20
 211.48336728862
  30
0.0
  11
 539.39959089104
  21
 185.50225986823
  31
0.0
   0
LINE
   5
13D
 100
AcDbEntity
   8
0
 370
15
 100
AcDbLine
   6
CONTINUOUS
  62
8
  10
 539.39959089104
  20
 189.50225986823
  30
0.0
  11
 540.89959089104
  21
 189.50225986823
  31
0.0
   0
LINE
   5
13E
 100
AcDbEntity
   8
0
 370
15
 100
AcDbLine
   6
CONTINUOUS
  62
8
  10
 542.39959089104
  20
 189.50225986823
  30
0.0
  11
 540.89959089104
  21
 189.50225986823
  31
0.0
   0
INSERT
   5
13F
 100
AcDbEntity
   8
0
   6
CONTINUOUS
  62
8
 100
AcDbBlockReference
   2
_DOT
  10
 539.39959089104
  20
 189.50225986823
  30
0.0
  41
 2.1333333333333
  42
 2.1333333333333
  43
 2.1333333333333
  50
 180.00000000000
   0
MTEXT
   5
140
 100
AcDbEntity
   8
0
 370
15
  62
8
 100
AcDbMText
  10
 547.53945581581
  20
 173.50225986823
  30
0.0
  40
 10.000000000000
  41
0.0
  71
7
  72
1
   1
\A1;3
   7
GMM001
   0
ENDBLK
   5
141
 100
AcDbEntity
   8
0
 100
AcDbBlockEnd
   0
BLOCK
   5
142
 100
AcDbEntity
   8
0
 100
AcDbBlockBegin
   2
*D25
  70
65
  10
0.0
  20
0.0
  30
0.0
   3
*D25
   0
LINE
   5
143
 100
AcDbEntity
   8
0
 370
15
 100
AcDbLine
   6
CONTINUOUS
  62
8
  10
 542.39959089104
  20
 212.98336728862
  30
0.0
  11
 542.39959089104
  21
 185.50225986823
  31
0.0
   0
LINE
   5
144
 100
AcDbEntity
   8
0
 370
15
 100
AcDbLine
   6
CONTINUOUS
  62
8
  10
 597.39959089104
  20
 243.48336728862
  30
0.0
  11
 597.39959089104
  21
 185.50225986823
  31
0.0
   0
LINE
   5
145
 100
AcDbEntity
   8
0
 370
15
 100
AcDbLine
   6
CONTINUOUS
  62
8
  10
 542.39959089104
  20
 189.50225986823
  30
0.0
  11
 569.89959089104
  21
 189.50225986823
  31
0.0
   0
LINE
   5
146
 100
AcDbEntity
   8
0
 370
15
 100
AcDbLine
   6
CONTINUOUS
  62
8
  10
 597.39959089104
  20
 189.50225986823
  30
0.0
  11
 569.89959089104
  21
 189.50225986823
  31
0.0
   0
SOLID
   5
147
 100
AcDbEntity
   8
0
 100
AcDbTrace
   6
CONTINUOUS
  62
8
  10
 542.39959089104
  20
 189.50225986823
  30
0.0
  11
 550.39959089104
  21
 188.09164402256
  31
0.0
  12
 550.39959089104
  22
 190.91287571390
  32
0.0
  13
 550.39959089104
  23
 190.91287571390
  33
0.0
   0
SOLID
   5
148
 100
AcDbEntity
   8
0
 100
AcDbTrace
   6
CONTINUOUS
  62
8
  10
 597.39959089104
  20
 189.50225986823
  30
0.0
  11
 589.39959089104
  21
 190.91287571390
  31
0.0
  12
 589.39959089104
  22
 188.09164402256
  32
0.0
  13
 589.39959089104
  23
 188.09164402256
  33
0.0
   0
MTEXT
   5
149
 100
AcDbEntity
   8
0
 370
15
  62
8
 100
AcDbMText
  10
 569.89959089104
  20
 193.50225986823
  30
0.0
  40
 10.000000000000
  41
0.0
  71
8
  72
1
   1
\A1;L
   7
GMM001
   0
ENDBLK
   5
14A
 100
AcDbEntity
   8
0
 100
AcDbBlockEnd
   0
BLOCK
   5
14B
 100
AcDbEntity
   8
0
 100
AcDbBlockBegin
   2
*D27
  70
65
  10
0.0
  20
0.0
  30
0.0
   3
*D27
   0
LINE
   5
14C
 100
AcDbEntity
   8
0
 370
15
 100
AcDbLine
   6
CONTINUOUS
  62
8
  10
 584.89959089104
  20
 284.78336728862
  30
0.0
  11
 584.89959089104
  21
 299.78336728862
  31
0.0
   0
LINE
   5
14D
 100
AcDbEntity
   8
0
 370
15
 100
AcDbLine
   6
CONTINUOUS
  62
8
  10
 609.89959089104
  20
 284.78336728862
  30
0.0
  11
 609.89959089104
  21
 299.78336728862
  31
0.0
   0
LINE
   5
14E
 100
AcDbEntity
   8
0
 370
15
 100
AcDbLine
   6
CONTINUOUS
  62
8
  10
 584.89959089104
  20
 295.78336728862
  30
0.0
  11
 597.39959089104
  21
 295.78336728862
  31
0.0
   0
LINE
   5
14F
 100
AcDbEntity
   8
0
 370
15
 100
AcDbLine
   6
CONTINUOUS
  62
8
  10
 609.89959089104
  20
 295.78336728862
  30
0.0
  11
 597.39959089104
  21
 295.78336728862
  31
0.0
   0
SOLID
   5
150
 100
AcDbEntity
   8
0
 100
AcDbTrace
   6
CONTINUOUS
  62
8
  10
 584.89959089104
  20
 295.78336728862
  30
0.0
  11
 592.89959089104
  21
 294.37275144295
  31
0.0
  12
 592.89959089104
  22
 297.19398313429
  32
0.0
  13
 592.89959089104
  23
 297.19398313429
  33
0.0
   0
SOLID
   5
151
 100
AcDbEntity
   8
0
 100
AcDbTrace
   6
CONTINUOUS
  62
8
  10
 609.89959089104
  20
 295.78336728862
  30
0.0
  11
 601.89959089104
  21
 297.19398313429
  31
0.0
  12
 601.89959089104
  22
 294.37275144295
  32
0.0
  13
 601.89959089104
  23
 294.37275144295
  33
0.0
   0
MTEXT
   5
152
 100
AcDbEntity
   8
0
 370
15
  62
8
 100
AcDbMText
  10
 597.39959089104
  20
 299.78336728862
  30
0.0
  40
 10.000000000000
  41
0.0
  71
8
  72
1
   1
\A1;25
   7
GMM001
   0
ENDBLK
   5
153
 100
AcDbEntity
   8
0
 100
AcDbBlockEnd
   0
BLOCK
   5
154
 100
AcDbEntity
   8
0
 100
AcDbBlockBegin
   2
*D28
  70
65
  10
0.0
  20
0.0
  30
0.0
   3
*D28
   0
LINE
   5
155
 100
AcDbEntity
   8
0
 370
15
 100
AcDbLine
   6
CONTINUOUS
  62
8
  10
 591.15672199862
  20
 830.92847663815
  30
0.0
  11
 591.15672199862
  21
 845.92847663815
  31
0.0
   0
LINE
   5
156
 100
AcDbEntity
   8
0
 370
15
 100
AcDbLine
   6
CONTINUOUS
  62
8
  10
 616.15672199862
  20
 830.92847663815
  30
0.0
  11
 616.15672199862
  21
 845.92847663815
  31
0.0
   0
LINE
   5
157
 100
AcDbEntity
   8
0
 370
15
 100
AcDbLine
   6
CONTINUOUS
  62
8
  10
 591.15672199862
  20
 841.92847663815
  30
0.0
  11
 603.65672199862
  21
 841.92847663815
  31
0.0
   0
LINE
   5
158
 100
AcDbEntity
   8
0
 370
15
 100
AcDbLine
   6
CONTINUOUS
  62
8
  10
 616.15672199862
  20
 841.92847663815
  30
0.0
  11
 603.65672199862
  21
 841.92847663815
  31
0.0
   0
SOLID
   5
159
 100
AcDbEntity
   8
0
 100
AcDbTrace
   6
CONTINUOUS
  62
8
  10
 591.15672199862
  20
 841.92847663815
  30
0.0
  11
 599.15672199862
  21
 840.51786079248
  31
0.0
  12
 599.15672199862
  22
 843.33909248382
  32
0.0
  13
 599.15672199862
  23
 843.33909248382
  33
0.0
   0
SOLID
   5
15A
 100
AcDbEntity
   8
0
 100
AcDbTrace
   6
CONTINUOUS
  62
8
  10
 616.15672199862
  20
 841.92847663815
  30
0.0
  11
 608.15672199862
  21
 843.33909248382
  31
0.0
  12
 608.15672199862
  22
 840.51786079248
  32
0.0
  13
 608.15672199862
  23
 840.51786079248
  33
0.0
   0
MTEXT
   5
15B
 100
AcDbEntity
   8
0
 370
15
  62
8
 100
AcDbMText
  10
 603.65672199862
  20
 845.92847663815
  30
0.0
  40
 10.000000000000
  41
0.0
  71
8
  72
1
   1
\A1;25
   7
GMM001
   0
ENDBLK
   5
15C
 100
AcDbEntity
   8
0
 100
AcDbBlockEnd
   0
BLOCK
   5
15D
 100
AcDbEntity
   8
0
 100
AcDbBlockBegin
   2
*D29
  70
65
  10
0.0
  20
0.0
  30
0.0
   3
*D29
   0
LINE
   5
15E
 100
AcDbEntity
   8
0
 370
15
 100
AcDbLine
   6
CONTINUOUS
  62
8
  10
 740.85019573839
  20
 278.78336728862
  30
0.0
  11
 762.72751148332
  21
 278.78336728862
  31
0.0
   0
LINE
   5
15F
 100
AcDbEntity
   8
0
 370
15
 100
AcDbLine
   6
CONTINUOUS
  62
8
  10
 740.85019573839
  20
 280.78336728862
  30
0.0
  11
 762.72751148332
  21
 280.78336728862
  31
0.0
   0
LINE
   5
160
 100
AcDbEntity
   8
0
 370
15
 100
AcDbLine
   6
CONTINUOUS
  62
8
  10
 758.72751148332
  20
 268.78336728862
  30
0.0
  11
 758.72751148332
  21
 279.78336728862
  31
0.0
   0
LINE
   5
161
 100
AcDbEntity
   8
0
 370
15
 100
AcDbLine
   6
CONTINUOUS
  62
8
  10
 758.72751148332
  20
 298.31009092339
  30
0.0
  11
 758.72751148332
  21
 279.78336728862
  31
0.0
   0
SOLID
   5
162
 100
AcDbEntity
   8
0
 100
AcDbTrace
   6
CONTINUOUS
  62
8
  10
 758.72751148332
  20
 278.78336728862
  30
0.0
  11
 757.31689563765
  21
 270.78336728862
  31
0.0
  12
 760.13812732899
  22
 270.78336728862
  32
0.0
  13
 760.13812732899
  23
 270.78336728862
  33
0.0
   0
SOLID
   5
163
 100
AcDbEntity
   8
0
 100
AcDbTrace
   6
CONTINUOUS
  62
8
  10
 758.72751148332
  20
 280.78336728862
  30
0.0
  11
 760.13812732899
  21
 288.78336728862
  31
0.0
  12
 757.31689563765
  22
 288.78336728862
  32
0.0
  13
 757.31689563765
  23
 288.78336728862
  33
0.0
   0
MTEXT
   5
164
 100
AcDbEntity
   8
0
 370
15
  62
8
 100
AcDbMText
  10
 754.21846107950
  20
 288.31009092339
  30
0.0
  40
 10.000000000000
  41
0.0
  71
7
  72
1
   1
\A1;2
   7
GMM001
  11
0.0
  21
 1.0000000000000
  31
0.0
   0
ENDBLK
   5
165
 100
AcDbEntity
   8
0
 100
AcDbBlockEnd
   0
BLOCK
   5
166
 100
AcDbEntity
   8
0
 100
AcDbBlockBegin
   2
*D30
  70
65
  10
0.0
  20
0.0
  30
0.0
   3
*D30
   0
LINE
   5
167
 100
AcDbEntity
   8
0
 370
15
 100
AcDbLine
   6
CONTINUOUS
  62
8
  10
 656.85019573839
  20
 284.78336728862
  30
0.0
  11
 656.85019573839
  21
 299.78336728862
  31
0.0
   0
LINE
   5
168
 100
AcDbEntity
   8
0
 370
15
 100
AcDbLine
   6
CONTINUOUS
  62
8
  10
 736.85019573839
  20
 284.78336728862
  30
0.0
  11
 736.85019573839
  21
 299.78336728862
  31
0.0
   0
LINE
   5
169
 100
AcDbEntity
   8
0
 370
15
 100
AcDbLine
   6
CONTINUOUS
  62
8
  10
 656.85019573839
  20
 295.78336728862
  30
0.0
  11
 696.85019573839
  21
 295.78336728862
  31
0.0
   0
LINE
   5
16A
 100
AcDbEntity
   8
0
 370
15
 100
AcDbLine
   6
CONTINUOUS
  62
8
  10
 736.85019573839
  20
 295.78336728862
  30
0.0
  11
 696.85019573839
  21
 295.78336728862
  31
0.0
   0
SOLID
   5
16B
 100
AcDbEntity
   8
0
 100
AcDbTrace
   6
CONTINUOUS
  62
8
  10
 656.85019573839
  20
 295.78336728862
  30
0.0
  11
 664.85019573839
  21
 294.37275144295
  31
0.0
  12
 664.85019573839
  22
 297.19398313429
  32
0.0
  13
 664.85019573839
  23
 297.19398313429
  33
0.0
   0
SOLID
   5
16C
 100
AcDbEntity
   8
0
 100
AcDbTrace
   6
CONTINUOUS
  62
8
  10
 736.85019573839
  20
 295.78336728862
  30
0.0
  11
 728.85019573839
  21
 297.19398313429
  31
0.0
  12
 728.85019573839
  22
 294.37275144295
  32
0.0
  13
 728.85019573839
  23
 294.37275144295
  33
0.0
   0
MTEXT
   5
16D
 100
AcDbEntity
   8
0
 370
15
  62
8
 100
AcDbMText
  10
 696.85019573839
  20
 299.78336728862
  30
0.0
  40
 10.000000000000
  41
0.0
  71
8
  72
1
   1
\A1;80
   7
GMM001
   0
ENDBLK
   5
16E
 100
AcDbEntity
   8
0
 100
AcDbBlockEnd
   0
BLOCK
   5
16F
 100
AcDbEntity
   8
0
 100
AcDbBlockBegin
   2
*D31
  70
65
  10
0.0
  20
0.0
  30
0.0
   3
*D31
   0
LINE
   5
170
 100
AcDbEntity
   8
0
 370
15
 100
AcDbLine
   6
CONTINUOUS
  62
8
  10
 747.10732684597
  20
 824.92847663815
  30
0.0
  11
 768.98464259090
  21
 824.92847663815
  31
0.0
   0
LINE
   5
171
 100
AcDbEntity
   8
0
 370
15
 100
AcDbLine
   6
CONTINUOUS
  62
8
  10
 747.10732684597
  20
 826.92847663815
  30
0.0
  11
 768.98464259090
  21
 826.92847663815
  31
0.0
   0
LINE
   5
172
 100
AcDbEntity
   8
0
 370
15
 100
AcDbLine
   6
CONTINUOUS
  62
8
  10
 764.98464259090
  20
 814.92847663815
  30
0.0
  11
 764.98464259090
  21
 825.92847663815
  31
0.0
   0
LINE
   5
173
 100
AcDbEntity
   8
0
 370
15
 100
AcDbLine
   6
CONTINUOUS
  62
8
  10
 764.98464259090
  20
 844.45520027292
  30
0.0
  11
 764.98464259090
  21
 825.92847663815
  31
0.0
   0
SOLID
   5
174
 100
AcDbEntity
   8
0
 100
AcDbTrace
   6
CONTINUOUS
  62
8
  10
 764.98464259090
  20
 824.92847663815
  30
0.0
  11
 763.57402674523
  21
 816.92847663815
  31
0.0
  12
 766.39525843657
  22
 816.92847663815
  32
0.0
  13
 766.39525843657
  23
 816.92847663815
  33
0.0
   0
SOLID
   5
175
 100
AcDbEntity
   8
0
 100
AcDbTrace
   6
CONTINUOUS
  62
8
  10
 764.98464259090
  20
 826.92847663815
  30
0.0
  11
 766.39525843657
  21
 834.92847663815
  31
0.0
  12
 763.57402674523
  22
 834.92847663815
  32
0.0
  13
 763.57402674523
  23
 834.92847663815
  33
0.0
   0
MTEXT
   5
176
 100
AcDbEntity
   8
0
 370
15
  62
8
 100
AcDbMText
  10
 760.47559218708
  20
 834.45520027292
  30
0.0
  40
 10.000000000000
  41
0.0
  71
7
  72
1
   1
\A1;2
   7
GMM001
  11
0.0
  21
 1.0000000000000
  31
0.0
   0
ENDBLK
   5
177
 100
AcDbEntity
   8
0
 100
AcDbBlockEnd
   0
BLOCK
   5
178
 100
AcDbEntity
   8
0
 100
AcDbBlockBegin
   2
*D32
  70
65
  10
0.0
  20
0.0
  30
0.0
   3
*D32
   0
LINE
   5
179
 100
AcDbEntity
   8
0
 370
15
 100
AcDbLine
   6
CONTINUOUS
  62
8
  10
 663.10732684597
  20
 830.92847663815
  30
0.0
  11
 663.10732684597
  21
 845.92847663815
  31
0.0
   0
LINE
   5
17A
 100
AcDbEntity
   8
0
 370
15
 100
AcDbLine
   6
CONTINUOUS
  62
8
  10
 743.10732684597
  20
 830.92847663815
  30
0.0
  11
 743.10732684597
  21
 845.92847663815
  31
0.0
   0
LINE
   5
17B
 100
AcDbEntity
   8
0
 370
15
 100
AcDbLine
   6
CONTINUOUS
  62
8
  10
 663.10732684597
  20
 841.92847663815
  30
0.0
  11
 703.10732684597
  21
 841.92847663815
  31
0.0
   0
LINE
   5
17C
 100
AcDbEntity
   8
0
 370
15
 100
AcDbLine
   6
CONTINUOUS
  62
8
  10
 743.10732684597
  20
 841.92847663815
  30
0.0
  11
 703.10732684597
  21
 841.92847663815
  31
0.0
   0
SOLID
   5
17D
 100
AcDbEntity
   8
0
 100
AcDbTrace
   6
CONTINUOUS
  62
8
  10
 663.10732684597
  20
 841.92847663815
  30
0.0
  11
 671.10732684597
  21
 840.51786079248
  31
0.0
  12
 671.10732684597
  22
 843.33909248382
  32
0.0
  13
 671.10732684597
  23
 843.33909248382
  33
0.0
   0
SOLID
   5
17E
 100
AcDbEntity
   8
0
 100
AcDbTrace
   6
CONTINUOUS
  62
8
  10
 743.10732684597
  20
 841.92847663815
  30
0.0
  11
 735.10732684597
  21
 843.33909248382
  31
0.0
  12
 735.10732684597
  22
 840.51786079248
  32
0.0
  13
 735.10732684597
  23
 840.51786079248
  33
0.0
   0
MTEXT
   5
17F
 100
AcDbEntity
   8
0
 370
15
  62
8
 100
AcDbMText
  10
 703.10732684597
  20
 845.92847663815
  30
0.0
  40
 10.000000000000
  41
0.0
  71
8
  72
1
   1
\A1;80
   7
GMM001
   0
ENDBLK
   5
180
 100
AcDbEntity
   8
0
 100
AcDbBlockEnd
   0
BLOCK
   5
181
 100
AcDbEntity
   8
0
 100
AcDbBlockBegin
   2
*D33
  70
65
  10
0.0
  20
0.0
  30
0.0
   3
*D33
   0
LINE
   5
182
 100
AcDbEntity
   8
0
 370
15
 100
AcDbLine
   6
CONTINUOUS
  62
8
  10
 666.85019573839
  20
 381.17220468197
  30
0.0
  11
 666.85019573839
  21
 355.43263374145
  31
0.0
   0
LINE
   5
183
 100
AcDbEntity
   8
0
 370
15
 100
AcDbLine
   6
CONTINUOUS
  62
8
  10
 726.85019573839
  20
 381.17220468197
  30
0.0
  11
 726.85019573839
  21
 355.43263374145
  31
0.0
   0
LINE
   5
184
 100
AcDbEntity
   8
0
 370
15
 100
AcDbLine
   6
CONTINUOUS
  62
8
  10
 666.85019573839
  20
 359.43263374145
  30
0.0
  11
 696.85019573839
  21
 359.43263374145
  31
0.0
   0
LINE
   5
185
 100
AcDbEntity
   8
0
 370
15
 100
AcDbLine
   6
CONTINUOUS
  62
8
  10
 726.85019573839
  20
 359.43263374145
  30
0.0
  11
 696.85019573839
  21
 359.43263374145
  31
0.0
   0
SOLID
   5
186
 100
AcDbEntity
   8
0
 100
AcDbTrace
   6
CONTINUOUS
  62
8
  10
 666.85019573839
  20
 359.43263374145
  30
0.0
  11
 674.85019573839
  21
 358.02201789578
  31
0.0
  12
 674.85019573839
  22
 360.84324958712
  32
0.0
  13
 674.85019573839
  23
 360.84324958712
  33
0.0
   0
SOLID
   5
187
 100
AcDbEntity
   8
0
 100
AcDbTrace
   6
CONTINUOUS
  62
8
  10
 726.85019573839
  20
 359.43263374145
  30
0.0
  11
 718.85019573839
  21
 360.84324958712
  31
0.0
  12
 718.85019573839
  22
 358.02201789578
  32
0.0
  13
 718.85019573839
  23
 358.02201789578
  33
0.0
   0
MTEXT
   5
188
 100
AcDbEntity
   8
0
 370
15
  62
8
 100
AcDbMText
  10
 696.85019573839
  20
 363.43263374145
  30
0.0
  40
 10.000000000000
  41
0.0
  71
8
  72
1
   1
\A1;60
   7
GMM001
   0
ENDBLK
   5
189
 100
AcDbEntity
   8
0
 100
AcDbBlockEnd
   0
BLOCK
   5
18A
 100
AcDbEntity
   8
0
 100
AcDbBlockBegin
   2
*D34
  70
65
  10
0.0
  20
0.0
  30
0.0
   3
*D34
   0
LINE
   5
18B
 100
AcDbEntity
   8
0
 370
15
 100
AcDbLine
   6
CONTINUOUS
  62
8
  10
 656.85019573839
  20
 377.43263374145
  30
0.0
  11
 656.85019573839
  21
 335.43263374145
  31
0.0
   0
LINE
   5
18C
 100
AcDbEntity
   8
0
 370
15
 100
AcDbLine
   6
CONTINUOUS
  62
8
  10
 736.85019573839
  20
 377.43263374145
  30
0.0
  11
 736.85019573839
  21
 335.43263374145
  31
0.0
   0
LINE
   5
18D
 100
AcDbEntity
   8
0
 370
15
 100
AcDbLine
   6
CONTINUOUS
  62
8
  10
 656.85019573839
  20
 339.43263374145
  30
0.0
  11
 696.85019573839
  21
 339.43263374145
  31
0.0
   0
LINE
   5
18E
 100
AcDbEntity
   8
0
 370
15
 100
AcDbLine
   6
CONTINUOUS
  62
8
  10
 736.85019573839
  20
 339.43263374145
  30
0.0
  11
 696.85019573839
  21
 339.43263374145
  31
0.0
   0
SOLID
   5
18F
 100
AcDbEntity
   8
0
 100
AcDbTrace
   6
CONTINUOUS
  62
8
  10
 656.85019573839
  20
 339.43263374145
  30
0.0
  11
 664.85019573839
  21
 338.02201789578
  31
0.0
  12
 664.85019573839
  22
 340.84324958712
  32
0.0
  13
 664.85019573839
  23
 340.84324958712
  33
0.0
   0
SOLID
   5
190
 100
AcDbEntity
   8
0
 100
AcDbTrace
   6
CONTINUOUS
  62
8
  10
 736.85019573839
  20
 339.43263374145
  30
0.0
  11
 728.85019573839
  21
 340.84324958712
  31
0.0
  12
 728.85019573839
  22
 338.02201789578
  32
0.0
  13
 728.85019573839
  23
 338.02201789578
  33
0.0
   0
MTEXT
   5
191
 100
AcDbEntity
   8
0
 370
15
  62
8
 100
AcDbMText
  10
 696.85019573839
  20
 343.43263374145
  30
0.0
  40
 10.000000000000
  41
0.0
  71
8
  72
1
   1
\A1;80
   7
GMM001
   0
ENDBLK
   5
192
 100
AcDbEntity
   8
0
 100
AcDbBlockEnd
   0
BLOCK
   5
193
 100
AcDbEntity
   8
0
 100
AcDbBlockBegin
   2
*D35
  70
65
  10
0.0
  20
0.0
  30
0.0
   3
*D35
   0
LINE
   5
194
 100
AcDbEntity
   8
0
 370
15
 100
AcDbLine
   6
CONTINUOUS
  62
8
  10
 673.10732684597
  20
 927.31731403150
  30
0.0
  11
 673.10732684597
  21
 901.57774309098
  31
0.0
   0
LINE
   5
195
 100
AcDbEntity
   8
0
 370
15
 100
AcDbLine
   6
CONTINUOUS
  62
8
  10
 733.10732684597
  20
 927.31731403150
  30
0.0
  11
 733.10732684597
  21
 901.57774309098
  31
0.0
   0
LINE
   5
196
 100
AcDbEntity
   8
0
 370
15
 100
AcDbLine
   6
CONTINUOUS
  62
8
  10
 673.10732684597
  20
 905.57774309098
  30
0.0
  11
 703.10732684597
  21
 905.57774309098
  31
0.0
   0
LINE
   5
197
 100
AcDbEntity
   8
0
 370
15
 100
AcDbLine
   6
CONTINUOUS
  62
8
  10
 733.10732684597
  20
 905.57774309098
  30
0.0
  11
 703.10732684597
  21
 905.57774309098
  31
0.0
   0
SOLID
   5
198
 100
AcDbEntity
   8
0
 100
AcDbTrace
   6
CONTINUOUS
  62
8
  10
 673.10732684597
  20
 905.57774309098
  30
0.0
  11
 681.10732684597
  21
 904.16712724531
  31
0.0
  12
 681.10732684597
  22
 906.98835893664
  32
0.0
  13
 681.10732684597
  23
 906.98835893664
  33
0.0
   0
SOLID
   5
199
 100
AcDbEntity
   8
0
 100
AcDbTrace
   6
CONTINUOUS
  62
8
  10
 733.10732684597
  20
 905.57774309098
  30
0.0
  11
 725.10732684597
  21
 906.98835893664
  31
0.0
  12
 725.10732684597
  22
 904.16712724531
  32
0.0
  13
 725.10732684597
  23
 904.16712724531
  33
0.0
   0
MTEXT
   5
19A
 100
AcDbEntity
   8
0
 370
15
  62
8
 100
AcDbMText
  10
 703.10732684597
  20
 909.57774309098
  30
0.0
  40
 10.000000000000
  41
0.0
  71
8
  72
1
   1
\A1;60
   7
GMM001
   0
ENDBLK
   5
19B
 100
AcDbEntity
   8
0
 100
AcDbBlockEnd
   0
BLOCK
   5
19C
 100
AcDbEntity
   8
0
 100
AcDbBlockBegin
   2
*D36
  70
65
  10
0.0
  20
0.0
  30
0.0
   3
*D36
   0
LINE
   5
19D
 100
AcDbEntity
   8
0
 370
15
 100
AcDbLine
   6
CONTINUOUS
  62
8
  10
 663.10732684597
  20
 923.57774309098
  30
0.0
  11
 663.10732684597
  21
 881.57774309098
  31
0.0
   0
LINE
   5
19E
 100
AcDbEntity
   8
0
 370
15
 100
AcDbLine
   6
CONTINUOUS
  62
8
  10
 743.10732684597
  20
 923.57774309098
  30
0.0
  11
 743.10732684597
  21
 881.57774309098
  31
0.0
   0
LINE
   5
19F
 100
AcDbEntity
   8
0
 370
15
 100
AcDbLine
   6
CONTINUOUS
  62
8
  10
 663.10732684597
  20
 885.57774309098
  30
0.0
  11
 703.10732684597
  21
 885.57774309098
  31
0.0
   0
LINE
   5
1A0
 100
AcDbEntity
   8
0
 370
15
 100
AcDbLine
   6
CONTINUOUS
  62
8
  10
 743.10732684597
  20
 885.57774309098
  30
0.0
  11
 703.10732684597
  21
 885.57774309098
  31
0.0
   0
SOLID
   5
1A1
 100
AcDbEntity
   8
0
 100
AcDbTrace
   6
CONTINUOUS
  62
8
  10
 663.10732684597
  20
 885.57774309098
  30
0.0
  11
 671.10732684597
  21
 884.16712724531
  31
0.0
  12
 671.10732684597
  22
 886.98835893664
  32
0.0
  13
 671.10732684597
  23
 886.98835893664
  33
0.0
   0
SOLID
   5
1A2
 100
AcDbEntity
   8
0
 100
AcDbTrace
   6
CONTINUOUS
  62
8
  10
 743.10732684597
  20
 885.57774309098
  30
0.0
  11
 735.10732684597
  21
 886.98835893664
  31
0.0
  12
 735.10732684597
  22
 884.16712724531
  32
0.0
  13
 735.10732684597
  23
 884.16712724531
  33
0.0
   0
MTEXT
   5
1A3
 100
AcDbEntity
   8
0
 370
15
  62
8
 100
AcDbMText
  10
 703.10732684597
  20
 889.57774309098
  30
0.0
  40
 10.000000000000
  41
0.0
  71
8
  72
1
   1
\A1;80
   7
GMM001
   0
ENDBLK
   5
1A4
 100
AcDbEntity
   8
0
 100
AcDbBlockEnd
   0
ENDSEC
   0
SECTION
   2
ENTITIES
   0
LINE
   5
1A5
 100
AcDbEntity
   8
LEVEL001
 370
40
 100
AcDbLine
   6
CONTINUOUS
  62
3
  10
 1268.0000000001
  20
 1027.0000000000
  30
0.0
  11
 1618.0000000001
  21
 1027.0000000000
  31
0.0
   0
LINE
   5
1A6
 100
AcDbEntity
   8
LEVEL001
 370
40
 100
AcDbLine
   6
CONTINUOUS
  62
3
  10
 1268.0000000001
  20
 947.00000000001
  30
0.0
  11
 1618.0000000001
  21
 947.00000000001
  31
0.0
   0
LINE
   5
1A7
 100
AcDbEntity
   8
LEVEL001
 370
40
 100
AcDbLine
   6
CONTINUOUS
  62
3
  10
 1268.0000000001
  20
 867.00000000001
  30
0.0
  11
 1618.0000000001
  21
 867.00000000001
  31
0.0
   0
LINE
   5
1A8
 100
AcDbEntity
   8
LEVEL001
 370
40
 100
AcDbLine
   6
CONTINUOUS
  62
3
  10
 1468.0000000001
  20
 208.00000000001
  30
0.0
  11
 1468.0000000001
  21
 48.000000000009
  31
0.0
   0
LINE
   5
1A9
 100
AcDbEntity
   8
LEVEL001
 370
40
 100
AcDbLine
   6
CONTINUOUS
  62
3
  10
 1268.0000000001
  20
 288.00000000001
  30
0.0
  11
 1618.0000000001
  21
 288.00000000001
  31
0.0
   0
LINE
   5
1AA
 100
AcDbEntity
   8
LEVEL001
 370
40
 100
AcDbLine
   6
CONTINUOUS
  62
3
  10
 1268.0000000001
  20
 208.00000000001
  30
0.0
  11
 1618.0000000001
  21
 208.00000000001
  31
0.0
   0
LINE
   5
1AB
 100
AcDbEntity
   8
LEVEL001
 370
40
 100
AcDbLine
   6
CONTINUOUS
  62
3
  10
 1268.0000000001
  20
 128.00000000001
  30
0.0
  11
 1618.0000000001
  21
 128.00000000001
  31
0.0
   0
LINE
   5
1AC
 100
AcDbEntity
   8
LEVEL001
 370
40
 100
AcDbLine
   6
CONTINUOUS
  62
3
  10
 1468.0000000001
  20
 181.33333333334
  30
0.0
  11
 1618.0000000001
  21
 181.33333333334
  31
0.0
   0
LINE
   5
1AD
 100
AcDbEntity
   8
LEVEL001
 370
40
 100
AcDbLine
   6
CONTINUOUS
  62
3
  10
 1468.0000000001
  20
 154.66666666668
  30
0.0
  11
 1618.0000000001
  21
 154.66666666668
  31
0.0
   0
LINE
   5
1AE
 100
AcDbEntity
   8
LEVEL001
 370
40
 100
AcDbLine
   6
CONTINUOUS
  62
3
  10
 1409.8800000003
  20
 1087.3400000000
  30
0.0
  11
 1386.8400000003
  21
 1087.3400000000
  31
0.0
   0
LINE
   5
1AF
 100
AcDbEntity
   8
LEVEL001
 370
40
 100
AcDbLine
   6
CONTINUOUS
  62
3
  10
 1386.8400000003
  20
 1087.3400000000
  30
0.0
  11
 1386.8400000003
  21
 1052.7800000000
  31
0.0
   0
LINE
   5
1B0
 100
AcDbEntity
   8
LEVEL001
 370
40
 100
AcDbLine
   6
CONTINUOUS
  62
3
  10
 1386.8400000003
  20
 1052.7800000000
  30
0.0
  11
 1398.3600000003
  21
 1052.7800000000
  31
0.0
   0
LINE
   5
1B1
 100
AcDbEntity
   8
LEVEL001
 370
40
 100
AcDbLine
   6
CONTINUOUS
  62
3
  10
 1398.3600000003
  20
 1052.7800000000
  30
0.0
  11
 1398.3600000003
  21
 1058.5400000000
  31
0.0
   0
LINE
   5
1B2
 100
AcDbEntity
   8
LEVEL001
 370
40
 100
AcDbLine
   6
CONTINUOUS
  62
3
  10
 1398.3600000003
  20
 1058.5400000000
  30
0.0
  11
 1409.8800000003
  21
 1058.5400000000
  31
0.0
   0
ARC
   5
1B3
 100
AcDbEntity
   8
LEVEL001
 370
40
   6
CONTINUOUS
  62
3
 100
AcDbCircle
  10
 1409.8800000003
  20
 1072.9400000000
  30
0.0
  40
 14.400000000000
 100
AcDbArc
  50
 270.00000000000
  51
 90.000000000000
   0
LINE
   5
1B4
 100
AcDbEntity
   8
LEVEL001
 370
40
 100
AcDbLine
   6
CONTINUOUS
  62
3
  10
 1398.3600000003
  20
 1070.0600000000
  30
0.0
  11
 1409.8800000003
  21
 1070.0600000000
  31
0.0
   0
ARC
   5
1B5
 100
AcDbEntity
   8
LEVEL001
 370
40
   6
CONTINUOUS
  62
3
 100
AcDbCircle
  10
 1409.8800000003
  20
 1072.9400000000
  30
0.0
  40
 2.8800000000000
 100
AcDbArc
  50
 270.00000000000
  51
 90.000000000000
   0
LINE
   5
1B6
 100
AcDbEntity
   8
LEVEL001
 370
40
 100
AcDbLine
   6
CONTINUOUS
  62
3
  10
 1409.8800000003
  20
 1075.8200000000
  30
0.0
  11
 1398.3600000003
  21
 1075.8200000000
  31
0.0
   0
LINE
   5
1B7
 100
AcDbEntity
   8
LEVEL001
 370
40
 100
AcDbLine
   6
CONTINUOUS
  62
3
  10
 1398.3600000003
  20
 1075.8200000000
  30
0.0
  11
 1398.3600000003
  21
 1070.0600000000
  31
0.0
   0
LINE
   5
1B8
 100
AcDbEntity
   8
LEVEL001
 370
40
 100
AcDbLine
   6
CONTINUOUS
  62
3
  10
 1415.6400000003
  20
 1052.7800000000
  30
0.0
  11
 1438.6800000003
  21
 1087.3400000000
  31
0.0
   0
LINE
   5
1B9
 100
AcDbEntity
   8
LEVEL001
 370
40
 100
AcDbLine
   6
CONTINUOUS
  62
3
  10
 1438.6800000003
  20
 1087.3400000000
  30
0.0
  11
 1467.4800000003
  21
 1087.3400000000
  31
0.0
   0
LINE
   5
1BA
 100
AcDbEntity
   8
LEVEL001
 370
40
 100
AcDbLine
   6
CONTINUOUS
  62
3
  10
 1467.4800000003
  20
 1087.3400000000
  30
0.0
  11
 1467.4800000003
  21
 1064.3000000000
  31
0.0
   0
LINE
   5
1BB
 100
AcDbEntity
   8
LEVEL001
 370
40
 100
AcDbLine
   6
CONTINUOUS
  62
3
  10
 1467.4800000003
  20
 1064.3000000000
  30
0.0
  11
 1484.7600000003
  21
 1064.3000000000
  31
0.0
   0
LINE
   5
1BC
 100
AcDbEntity
   8
LEVEL001
 370
40
 100
AcDbLine
   6
CONTINUOUS
  62
3
  10
 1484.7600000003
  20
 1064.3000000000
  30
0.0
  11
 1484.7600000003
  21
 1075.8200000000
  31
0.0
   0
LINE
   5
1BD
 100
AcDbEntity
   8
LEVEL001
 370
40
 100
AcDbLine
   6
CONTINUOUS
  62
3
  10
 1484.7600000003
  20
 1075.8200000000
  30
0.0
  11
 1473.2400000003
  21
 1075.8200000000
  31
0.0
   0
LINE
   5
1BE
 100
AcDbEntity
   8
LEVEL001
 370
40
 100
AcDbLine
   6
CONTINUOUS
  62
3
  10
 1473.2400000003
  20
 1075.8200000000
  30
0.0
  11
 1473.2400000003
  21
 1087.3400000000
  31
0.0
   0
LINE
   5
1BF
 100
AcDbEntity
   8
LEVEL001
 370
40
 100
AcDbLine
   6
CONTINUOUS
  62
3
  10
 1473.2400000003
  20
 1087.3400000000
  30
0.0
  11
 1542.3600000003
  21
 1087.3400000000
  31
0.0
   0
LINE
   5
1C0
 100
AcDbEntity
   8
LEVEL001
 370
40
 100
AcDbLine
   6
CONTINUOUS
  62
3
  10
 1542.3600000003
  20
 1087.3400000000
  30
0.0
  11
 1542.3600000003
  21
 1075.8200000000
  31
0.0
   0
LINE
   5
1C1
 100
AcDbEntity
   8
LEVEL001
 370
40
 100
AcDbLine
   6
CONTINUOUS
  62
3
  10
 1542.3600000003
  20
 1075.8200000000
  30
0.0
  11
 1519.3200000003
  21
 1075.8200000000
  31
0.0
   0
LINE
   5
1C2
 100
AcDbEntity
   8
LEVEL001
 370
40
 100
AcDbLine
   6
CONTINUOUS
  62
3
  10
 1519.3200000003
  20
 1075.8200000000
  30
0.0
  11
 1519.3200000003
  21
 1072.9400000000
  31
0.0
   0
LINE
   5
1C3
 100
AcDbEntity
   8
LEVEL001
 370
40
 100
AcDbLine
   6
CONTINUOUS
  62
3
  10
 1519.3200000003
  20
 1072.9400000000
  30
0.0
  11
 1539.4800000003
  21
 1072.9400000000
  31
0.0
   0
LINE
   5
1C4
 100
AcDbEntity
   8
LEVEL001
 370
40
 100
AcDbLine
   6
CONTINUOUS
  62
3
  10
 1539.4800000003
  20
 1072.9400000000
  30
0.0
  11
 1539.4800000003
  21
 1067.1800000000
  31
0.0
   0
LINE
   5
1C5
 100
AcDbEntity
   8
LEVEL001
 370
40
 100
AcDbLine
   6
CONTINUOUS
  62
3
  10
 1539.4800000003
  20
 1067.1800000000
  30
0.0
  11
 1519.3200000003
  21
 1067.1800000000
  31
0.0
   0
LINE
   5
1C6
 100
AcDbEntity
   8
LEVEL001
 370
40
 100
AcDbLine
   6
CONTINUOUS
  62
3
  10
 1519.3200000003
  20
 1067.1800000000
  30
0.0
  11
 1519.3200000003
  21
 1064.3000000000
  31
0.0
   0
LINE
   5
1C7
 100
AcDbEntity
   8
LEVEL001
 370
40
 100
AcDbLine
   6
CONTINUOUS
  62
3
  10
 1519.3200000003
  20
 1064.3000000000
  30
0.0
  11
 1542.3600000003
  21
 1064.3000000000
  31
0.0
   0
LINE
   5
1C8
 100
AcDbEntity
   8
LEVEL001
 370
40
 100
AcDbLine
   6
CONTINUOUS
  62
3
  10
 1542.3600000003
  20
 1064.3000000000
  30
0.0
  11
 1542.3600000003
  21
 1052.7800000000
  31
0.0
   0
LINE
   5
1C9
 100
AcDbEntity
   8
LEVEL001
 370
40
 100
AcDbLine
   6
CONTINUOUS
  62
3
  10
 1542.3600000003
  20
 1052.7800000000
  30
0.0
  11
 1507.8000000003
  21
 1052.7800000000
  31
0.0
   0
LINE
   5
1CA
 100
AcDbEntity
   8
LEVEL001
 370
40
 100
AcDbLine
   6
CONTINUOUS
  62
3
  10
 1507.8000000003
  20
 1052.7800000000
  30
0.0
  11
 1507.8000000003
  21
 1075.8200000000
  31
0.0
   0
LINE
   5
1CB
 100
AcDbEntity
   8
LEVEL001
 370
40
 100
AcDbLine
   6
CONTINUOUS
  62
3
  10
 1507.8000000003
  20
 1075.8200000000
  30
0.0
  11
 1496.2800000003
  21
 1075.8200000000
  31
0.0
   0
LINE
   5
1CC
 100
AcDbEntity
   8
LEVEL001
 370
40
 100
AcDbLine
   6
CONTINUOUS
  62
3
  10
 1496.2800000003
  20
 1075.8200000000
  30
0.0
  11
 1496.2800000003
  21
 1052.7800000000
  31
0.0
   0
LINE
   5
1CD
 100
AcDbEntity
   8
LEVEL001
 370
40
 100
AcDbLine
   6
CONTINUOUS
  62
3
  10
 1496.2800000003
  20
 1052.7800000000
  30
0.0
  11
 1455.9600000003
  21
 1052.7800000000
  31
0.0
   0
LINE
   5
1CE
 100
AcDbEntity
   8
LEVEL001
 370
40
 100
AcDbLine
   6
CONTINUOUS
  62
3
  10
 1455.9600000003
  20
 1052.7800000000
  30
0.0
  11
 1455.9600000003
  21
 1087.3400000000
  31
0.0
   0
LINE
   5
1CF
 100
AcDbEntity
   8
LEVEL001
 370
40
 100
AcDbLine
   6
CONTINUOUS
  62
3
  10
 1455.9600000003
  20
 1087.3400000000
  30
0.0
  11
 1432.9200000003
  21
 1052.7800000000
  31
0.0
   0
LINE
   5
1D0
 100
AcDbEntity
   8
LEVEL001
 370
40
 100
AcDbLine
   6
CONTINUOUS
  62
3
  10
 1432.9200000003
  20
 1052.7800000000
  30
0.0
  11
 1415.6400000003
  21
 1052.7800000000
  31
0.0
   0
LINE
   5
1D1
 100
AcDbEntity
   8
LEVEL001
 370
40
 100
AcDbLine
   6
CONTINUOUS
  62
3
  10
 1452.1200000003
  20
 1074.6573415511
  30
0.0
  11
 1437.5351056329
  21
 1052.7800000000
  31
0.0
   0
LINE
   5
1D2
 100
AcDbEntity
   8
LEVEL001
 370
40
 100
AcDbLine
   6
CONTINUOUS
  62
3
  10
 1437.5351056329
  20
 1052.7800000000
  30
0.0
  11
 1452.1200000003
  21
 1052.7800000000
  31
0.0
   0
LINE
   5
1D3
 100
AcDbEntity
   8
LEVEL001
 370
40
 100
AcDbLine
   6
CONTINUOUS
  62
3
  10
 1452.1200000003
  20
 1052.7800000000
  30
0.0
  11
 1452.1200000003
  21
 1074.6573415511
  31
0.0
   0
ARC
   5
1D4
 100
AcDbEntity
   8
LEVEL001
 370
40
   6
CONTINUOUS
  62
3
 100
AcDbCircle
  10
 1559.6400000003
  20
 1070.0600000000
  30
0.0
  40
 17.280000000000
 100
AcDbArc
  50
 90.000000000000
  51
 270.00000000000
   0
ARC
   5
1D5
 100
AcDbEntity
   8
LEVEL001
 370
40
   6
CONTINUOUS
  62
3
 100
AcDbCircle
  10
 1559.6400000003
  20
 1070.0600000000
  30
0.0
  40
 5.7600000000000
 100
AcDbArc
  50
 90.000000000000
  51
 270.00000000000
   0
LINE
   5
1D6
 100
AcDbEntity
   8
LEVEL001
 370
40
 100
AcDbLine
   6
CONTINUOUS
  62
3
  10
 1559.6400000003
  20
 1087.3400000000
  30
0.0
  11
 1576.9200000003
  21
 1087.3400000000
  31
0.0
   0
LINE
   5
1D7
 100
AcDbEntity
   8
LEVEL001
 370
40
 100
AcDbLine
   6
CONTINUOUS
  62
3
  10
 1576.9200000003
  20
 1087.3400000000
  30
0.0
  11
 1576.9200000003
  21
 1075.8200000000
  31
0.0
   0
LINE
   5
1D8
 100
AcDbEntity
   8
LEVEL001
 370
40
 100
AcDbLine
   6
CONTINUOUS
  62
3
  10
 1576.9200000003
  20
 1075.8200000000
  30
0.0
  11
 1559.6400000003
  21
 1075.8200000000
  31
0.0
   0
LINE
   5
1D9
 100
AcDbEntity
   8
LEVEL001
 370
40
 100
AcDbLine
   6
CONTINUOUS
  62
3
  10
 1386.8400000003
  20
 1087.3400000000
  30
0.0
  11
 1386.8400000003
  21
 1052.7800000000
  31
0.0
   0
LINE
   5
1DA
 100
AcDbEntity
   8
LEVEL001
 370
40
 100
AcDbLine
   6
CONTINUOUS
  62
3
  10
 1386.8400000003
  20
 1052.7800000000
  30
0.0
  11
 1398.3600000003
  21
 1052.7800000000
  31
0.0
   0
LINE
   5
1DB
 100
AcDbEntity
   8
LEVEL001
 370
40
 100
AcDbLine
   6
CONTINUOUS
  62
3
  10
 1398.3600000003
  20
 1052.7800000000
  30
0.0
  11
 1398.3600000003
  21
 1058.5400000000
  31
0.0
   0
LINE
   5
1DC
 100
AcDbEntity
   8
LEVEL001
 370
40
 100
AcDbLine
   6
CONTINUOUS
  62
3
  10
 1398.3600000003
  20
 1058.5400000000
  30
0.0
  11
 1409.8800000003
  21
 1058.5400000000
  31
0.0
   0
ARC
   5
1DD
 100
AcDbEntity
   8
LEVEL001
 370
40
   6
CONTINUOUS
  62
3
 100
AcDbCircle
  10
 1409.8800000003
  20
 1072.9400000000
  30
0.0
  40
 14.400000000000
 100
AcDbArc
  50
 270.00000000000
  51
 90.000000000000
   0
LINE
   5
1DE
 100
AcDbEntity
   8
LEVEL001
 370
40
 100
AcDbLine
   6
CONTINUOUS
  62
3
  10
 1409.8800000003
  20
 1087.3400000000
  30
0.0
  11
 1386.8400000003
  21
 1087.3400000000
  31
0.0
   0
LINE
   5
1DF
 100
AcDbEntity
   8
LEVEL001
 370
40
 100
AcDbLine
   6
CONTINUOUS
  62
3
  10
 1398.3600000003
  20
 1075.8200000000
  30
0.0
  11
 1398.3600000003
  21
 1070.0600000000
  31
0.0
   0
LINE
   5
1E0
 100
AcDbEntity
   8
LEVEL001
 370
40
 100
AcDbLine
   6
CONTINUOUS
  62
3
  10
 1398.3600000003
  20
 1070.0600000000
  30
0.0
  11
 1409.8800000003
  21
 1070.0600000000
  31
0.0
   0
ARC
   5
1E1
 100
AcDbEntity
   8
LEVEL001
 370
40
   6
CONTINUOUS
  62
3
 100
AcDbCircle
  10
 1409.8800000003
  20
 1072.9400000000
  30
0.0
  40
 2.8800000000000
 100
AcDbArc
  50
 270.00000000000
  51
 90.000000000000
   0
LINE
   5
1E2
 100
AcDbEntity
   8
LEVEL001
 370
40
 100
AcDbLine
   6
CONTINUOUS
  62
3
  10
 1409.8800000003
  20
 1075.8200000000
  30
0.0
  11
 1398.3600000003
  21
 1075.8200000000
  31
0.0
   0
LINE
   5
1E3
 100
AcDbEntity
   8
LEVEL001
 370
40
 100
AcDbLine
   6
CONTINUOUS
  62
3
  10
 1438.6800000003
  20
 1087.3400000000
  30
0.0
  11
 1415.6400000003
  21
 1052.7800000000
  31
0.0
   0
LINE
   5
1E4
 100
AcDbEntity
   8
LEVEL001
 370
40
 100
AcDbLine
   6
CONTINUOUS
  62
3
  10
 1415.6400000003
  20
 1052.7800000000
  30
0.0
  11
 1432.9200000003
  21
 1052.7800000000
  31
0.0
   0
LINE
   5
1E5
 100
AcDbEntity
   8
LEVEL001
 370
40
 100
AcDbLine
   6
CONTINUOUS
  62
3
  10
 1432.9200000003
  20
 1052.7800000000
  30
0.0
  11
 1455.9600000003
  21
 1087.3400000000
  31
0.0
   0
LINE
   5
1E6
 100
AcDbEntity
   8
LEVEL001
 370
40
 100
AcDbLine
   6
CONTINUOUS
  62
3
  10
 1455.9600000003
  20
 1087.3400000000
  30
0.0
  11
 1438.6800000003
  21
 1087.3400000000
  31
0.0
   0
LINE
   5
1E7
 100
AcDbEntity
   8
LEVEL001
 370
40
 100
AcDbLine
   6
CONTINUOUS
  62
3
  10
 1452.1200000003
  20
 1052.7800000000
  30
0.0
  11
 1452.1200000003
  21
 1074.6573415511
  31
0.0
   0
LINE
   5
1E8
 100
AcDbEntity
   8
LEVEL001
 370
40
 100
AcDbLine
   6
CONTINUOUS
  62
3
  10
 1452.1200000003
  20
 1074.6573415511
  30
0.0
  11
 1437.5351056329
  21
 1052.7800000000
  31
0.0
   0
LINE
   5
1E9
 100
AcDbEntity
   8
LEVEL001
 370
40
 100
AcDbLine
   6
CONTINUOUS
  62
3
  10
 1437.5351056329
  20
 1052.7800000000
  30
0.0
  11
 1452.1200000003
  21
 1052.7800000000
  31
0.0
   0
LINE
   5
1EA
 100
AcDbEntity
   8
LEVEL001
 370
40
 100
AcDbLine
   6
CONTINUOUS
  62
3
  10
 1455.9600000003
  20
 1052.7800000000
  30
0.0
  11
 1496.2800000003
  21
 1052.7800000000
  31
0.0
   0
LINE
   5
1EB
 100
AcDbEntity
   8
LEVEL001
 370
40
 100
AcDbLine
   6
CONTINUOUS
  62
3
  10
 1496.2800000003
  20
 1052.7800000000
  30
0.0
  11
 1496.2800000003
  21
 1075.8200000000
  31
0.0
   0
LINE
   5
1EC
 100
AcDbEntity
   8
LEVEL001
 370
40
 100
AcDbLine
   6
CONTINUOUS
  62
3
  10
 1496.2800000003
  20
 1075.8200000000
  30
0.0
  11
 1507.8000000003
  21
 1075.8200000000
  31
0.0
   0
LINE
   5
1ED
 100
AcDbEntity
   8
LEVEL001
 370
40
 100
AcDbLine
   6
CONTINUOUS
  62
3
  10
 1507.8000000003
  20
 1075.8200000000
  30
0.0
  11
 1507.8000000003
  21
 1052.7800000000
  31
0.0
   0
LINE
   5
1EE
 100
AcDbEntity
   8
LEVEL001
 370
40
 100
AcDbLine
   6
CONTINUOUS
  62
3
  10
 1507.8000000003
  20
 1052.7800000000
  30
0.0
  11
 1542.3600000003
  21
 1052.7800000000
  31
0.0
   0
LINE
   5
1EF
 100
AcDbEntity
   8
LEVEL001
 370
40
 100
AcDbLine
   6
CONTINUOUS
  62
3
  10
 1542.3600000003
  20
 1052.7800000000
  30
0.0
  11
 1542.3600000003
  21
 1064.3000000000
  31
0.0
   0
LINE
   5
1F0
 100
AcDbEntity
   8
LEVEL001
 370
40
 100
AcDbLine
   6
CONTINUOUS
  62
3
  10
 1542.3600000003
  20
 1064.3000000000
  30
0.0
  11
 1519.3200000003
  21
 1064.3000000000
  31
0.0
   0
LINE
   5
1F1
 100
AcDbEntity
   8
LEVEL001
 370
40
 100
AcDbLine
   6
CONTINUOUS
  62
3
  10
 1519.3200000003
  20
 1064.3000000000
  30
0.0
  11
 1519.3200000003
  21
 1067.1800000000
  31
0.0
   0
LINE
   5
1F2
 100
AcDbEntity
   8
LEVEL001
 370
40
 100
AcDbLine
   6
CONTINUOUS
  62
3
  10
 1519.3200000003
  20
 1067.1800000000
  30
0.0
  11
 1539.4800000003
  21
 1067.1800000000
  31
0.0
   0
LINE
   5
1F3
 100
AcDbEntity
   8
LEVEL001
 370
40
 100
AcDbLine
   6
CONTINUOUS
  62
3
  10
 1539.4800000003
  20
 1067.1800000000
  30
0.0
  11
 1539.4800000003
  21
 1072.9400000000
  31
0.0
   0
LINE
   5
1F4
 100
AcDbEntity
   8
LEVEL001
 370
40
 100
AcDbLine
   6
CONTINUOUS
  62
3
  10
 1539.4800000003
  20
 1072.9400000000
  30
0.0
  11
 1519.3200000003
  21
 1072.9400000000
  31
0.0
   0
LINE
   5
1F5
 100
AcDbEntity
   8
LEVEL001
 370
40
 100
AcDbLine
   6
CONTINUOUS
  62
3
  10
 1519.3200000003
  20
 1072.9400000000
  30
0.0
  11
 1519.3200000003
  21
 1075.8200000000
  31
0.0
   0
LINE
   5
1F6
 100
AcDbEntity
   8
LEVEL001
 370
40
 100
AcDbLine
   6
CONTINUOUS
  62
3
  10
 1519.3200000003
  20
 1075.8200000000
  30
0.0
  11
 1542.3600000003
  21
 1075.8200000000
  31
0.0
   0
LINE
   5
1F7
 100
AcDbEntity
   8
LEVEL001
 370
40
 100
AcDbLine
   6
CONTINUOUS
  62
3
  10
 1542.3600000003
  20
 1075.8200000000
  30
0.0
  11
 1542.3600000003
  21
 1087.3400000000
  31
0.0
   0
LINE
   5
1F8
 100
AcDbEntity
   8
LEVEL001
 370
40
 100
AcDbLine
   6
CONTINUOUS
  62
3
  10
 1542.3600000003
  20
 1087.3400000000
  30
0.0
  11
 1473.2400000003
  21
 1087.3400000000
  31
0.0
   0
LINE
   5
1F9
 100
AcDbEntity
   8
LEVEL001
 370
40
 100
AcDbLine
   6
CONTINUOUS
  62
3
  10
 1473.2400000003
  20
 1087.3400000000
  30
0.0
  11
 1473.2400000003
  21
 1075.8200000000
  31
0.0
   0
LINE
   5
1FA
 100
AcDbEntity
   8
LEVEL001
 370
40
 100
AcDbLine
   6
CONTINUOUS
  62
3
  10
 1473.2400000003
  20
 1075.8200000000
  30
0.0
  11
 1484.7600000003
  21
 1075.8200000000
  31
0.0
   0
LINE
   5
1FB
 100
AcDbEntity
   8
LEVEL001
 370
40
 100
AcDbLine
   6
CONTINUOUS
  62
3
  10
 1484.7600000003
  20
 1075.8200000000
  30
0.0
  11
 1484.7600000003
  21
 1064.3000000000
  31
0.0
   0
LINE
   5
1FC
 100
AcDbEntity
   8
LEVEL001
 370
40
 100
AcDbLine
   6
CONTINUOUS
  62
3
  10
 1484.7600000003
  20
 1064.3000000000
  30
0.0
  11
 1467.4800000003
  21
 1064.3000000000
  31
0.0
   0
LINE
   5
1FD
 100
AcDbEntity
   8
LEVEL001
 370
40
 100
AcDbLine
   6
CONTINUOUS
  62
3
  10
 1467.4800000003
  20
 1064.3000000000
  30
0.0
  11
 1467.4800000003
  21
 1087.3400000000
  31
0.0
   0
LINE
   5
1FE
 100
AcDbEntity
   8
LEVEL001
 370
40
 100
AcDbLine
   6
CONTINUOUS
  62
3
  10
 1467.4800000003
  20
 1087.3400000000
  30
0.0
  11
 1455.9600000003
  21
 1087.3400000000
  31
0.0
   0
LINE
   5
1FF
 100
AcDbEntity
   8
LEVEL001
 370
40
 100
AcDbLine
   6
CONTINUOUS
  62
3
  10
 1455.9600000003
  20
 1087.3400000000
  30
0.0
  11
 1455.9600000003
  21
 1052.7800000000
  31
0.0
   0
LINE
   5
200
 100
AcDbEntity
   8
LEVEL001
 370
40
 100
AcDbLine
   6
CONTINUOUS
  62
3
  10
 1559.6400000003
  20
 1052.7800000000
  30
0.0
  11
 1576.9200000003
  21
 1052.7800000000
  31
0.0
   0
LINE
   5
201
 100
AcDbEntity
   8
LEVEL001
 370
40
 100
AcDbLine
   6
CONTINUOUS
  62
3
  10
 1576.9200000003
  20
 1052.7800000000
  30
0.0
  11
 1576.9200000003
  21
 1064.3000000000
  31
0.0
   0
LINE
   5
202
 100
AcDbEntity
   8
LEVEL001
 370
40
 100
AcDbLine
   6
CONTINUOUS
  62
3
  10
 1576.9200000003
  20
 1064.3000000000
  30
0.0
  11
 1559.6400000003
  21
 1064.3000000000
  31
0.0
   0
ARC
   5
203
 100
AcDbEntity
   8
LEVEL001
 370
40
   6
CONTINUOUS
  62
3
 100
AcDbCircle
  10
 1559.6400000003
  20
 1070.0600000000
  30
0.0
  40
 5.7600000000000
 100
AcDbArc
  50
 90.000000000000
  51
 270.00000000000
   0
LINE
   5
204
 100
AcDbEntity
   8
LEVEL001
 370
40
 100
AcDbLine
   6
CONTINUOUS
  62
3
  10
 1559.6400000003
  20
 1075.8200000000
  30
0.0
  11
 1576.9200000003
  21
 1075.8200000000
  31
0.0
   0
LINE
   5
205
 100
AcDbEntity
   8
LEVEL001
 370
40
 100
AcDbLine
   6
CONTINUOUS
  62
3
  10
 1576.9200000003
  20
 1075.8200000000
  30
0.0
  11
 1576.9200000003
  21
 1087.3400000000
  31
0.0
   0
LINE
   5
206
 100
AcDbEntity
   8
LEVEL001
 370
40
 100
AcDbLine
   6
CONTINUOUS
  62
3
  10
 1576.9200000003
  20
 1087.3400000000
  30
0.0
  11
 1559.6400000003
  21
 1087.3400000000
  31
0.0
   0
ARC
   5
207
 100
AcDbEntity
   8
LEVEL001
 370
40
   6
CONTINUOUS
  62
3
 100
AcDbCircle
  10
 1559.6400000003
  20
 1070.0600000000
  30
0.0
  40
 17.280000000000
 100
AcDbArc
  50
 90.000000000000
  51
 270.00000000000
   0
LINE
   5
208
 100
AcDbEntity
   8
LEVEL001
 370
40
 100
AcDbLine
   6
CONTINUOUS
  62
3
  10
 1375.3200000003
  20
 1060.4600000000
  30
0.0
  11
 1360.9200000003
  21
 1083.5000000000
  31
0.0
   0
LINE
   5
209
 100
AcDbEntity
   8
LEVEL001
 370
40
 100
AcDbLine
   6
CONTINUOUS
  62
3
  10
 1360.9200000003
  20
 1083.5000000000
  30
0.0
  11
 1375.3200000003
  21
 1083.5000000000
  31
0.0
   0
LINE
   5
20A
 100
AcDbEntity
   8
LEVEL001
 370
40
 100
AcDbLine
   6
CONTINUOUS
  62
3
  10
 1375.3200000003
  20
 1083.5000000000
  30
0.0
  11
 1375.3200000003
  21
 1060.4600000000
  31
0.0
   0
LINE
   5
20B
 100
AcDbEntity
   8
LEVEL001
 370
40
 100
AcDbLine
   6
CONTINUOUS
  62
3
  10
 1360.9200000003
  20
 1083.5000000000
  30
0.0
  11
 1375.3200000003
  21
 1060.4600000000
  31
0.0
   0
LINE
   5
20C
 100
AcDbEntity
   8
LEVEL001
 370
40
 100
AcDbLine
   6
CONTINUOUS
  62
3
  10
 1375.3200000003
  20
 1060.4600000000
  30
0.0
  11
 1375.3200000003
  21
 1083.5000000000
  31
0.0
   0
LINE
   5
20D
 100
AcDbEntity
   8
LEVEL001
 370
40
 100
AcDbLine
   6
CONTINUOUS
  62
3
  10
 1375.3200000003
  20
 1083.5000000000
  30
0.0
  11
 1360.9200000003
  21
 1083.5000000000
  31
0.0
   0
LINE
   5
20E
 100
AcDbEntity
   8
LEVEL001
 370
40
 100
AcDbLine
   6
CONTINUOUS
  62
3
  10
 1329.5600000003
  20
 1114.2200000000
  30
0.0
  11
 1309.0800000003
  21
 1083.5000000000
  31
0.0
   0
LINE
   5
20F
 100
AcDbEntity
   8
LEVEL001
 370
40
 100
AcDbLine
   6
CONTINUOUS
  62
3
  10
 1309.0800000003
  20
 1083.5000000000
  30
0.0
  11
 1329.5600000003
  21
 1052.7800000000
  31
0.0
   0
LINE
   5
210
 100
AcDbEntity
   8
LEVEL001
 370
40
 100
AcDbLine
   6
CONTINUOUS
  62
3
  10
 1346.8400000003
  20
 1052.7800000000
  30
0.0
  11
 1326.3600000003
  21
 1083.5000000000
  31
0.0
   0
LINE
   5
211
 100
AcDbEntity
   8
LEVEL001
 370
40
 100
AcDbLine
   6
CONTINUOUS
  62
3
  10
 1326.3600000003
  20
 1083.5000000000
  30
0.0
  11
 1346.8400000003
  21
 1114.2200000000
  31
0.0
   0
LINE
   5
212
 100
AcDbEntity
   8
LEVEL001
 370
40
 100
AcDbLine
   6
CONTINUOUS
  62
3
  10
 1355.4800000003
  20
 1114.2200000000
  30
0.0
  11
 1335.0000000003
  21
 1083.5000000000
  31
0.0
   0
LINE
   5
213
 100
AcDbEntity
   8
LEVEL001
 370
40
 100
AcDbLine
   6
CONTINUOUS
  62
3
  10
 1335.0000000003
  20
 1083.5000000000
  30
0.0
  11
 1355.4800000003
  21
 1052.7800000000
  31
0.0
   0
LINE
   5
214
 100
AcDbEntity
   8
LEVEL001
 370
40
 100
AcDbLine
   6
CONTINUOUS
  62
3
  10
 1372.7600000003
  20
 1052.7800000000
  30
0.0
  11
 1352.2800000003
  21
 1083.5000000000
  31
0.0
   0
LINE
   5
215
 100
AcDbEntity
   8
LEVEL001
 370
40
 100
AcDbLine
   6
CONTINUOUS
  62
3
  10
 1352.2800000003
  20
 1083.5000000000
  30
0.0
  11
 1372.7600000003
  21
 1114.2200000000
  31
0.0
   0
LINE
   5
216
 100
AcDbEntity
   8
LEVEL001
 370
40
 100
AcDbLine
   6
CONTINUOUS
  62
3
  10
 1329.5600000003
  20
 1052.7800000000
  30
0.0
  11
 1309.0800000003
  21
 1083.5000000000
  31
0.0
   0
LINE
   5
217
 100
AcDbEntity
   8
LEVEL001
 370
40
 100
AcDbLine
   6
CONTINUOUS
  62
3
  10
 1309.0800000003
  20
 1083.5000000000
  30
0.0
  11
 1329.5600000003
  21
 1114.2200000000
  31
0.0
   0
LINE
   5
218
 100
AcDbEntity
   8
LEVEL001
 370
40
 100
AcDbLine
   6
CONTINUOUS
  62
3
  10
 1329.5600000003
  20
 1114.2200000000
  30
0.0
  11
 1346.8400000003
  21
 1114.2200000000
  31
0.0
   0
LINE
   5
219
 100
AcDbEntity
   8
LEVEL001
 370
40
 100
AcDbLine
   6
CONTINUOUS
  62
3
  10
 1346.8400000003
  20
 1114.2200000000
  30
0.0
  11
 1326.3600000003
  21
 1083.5000000000
  31
0.0
   0
LINE
   5
21A
 100
AcDbEntity
   8
LEVEL001
 370
40
 100
AcDbLine
   6
CONTINUOUS
  62
3
  10
 1326.3600000003
  20
 1083.5000000000
  30
0.0
  11
 1346.8400000003
  21
 1052.7800000000
  31
0.0
   0
LINE
   5
21B
 100
AcDbEntity
   8
LEVEL001
 370
40
 100
AcDbLine
   6
CONTINUOUS
  62
3
  10
 1346.8400000003
  20
 1052.7800000000
  30
0.0
  11
 1329.5600000003
  21
 1052.7800000000
  31
0.0
   0
LINE
   5
21C
 100
AcDbEntity
   8
LEVEL001
 370
40
 100
AcDbLine
   6
CONTINUOUS
  62
3
  10
 1355.4800000003
  20
 1052.7800000000
  30
0.0
  11
 1335.0000000003
  21
 1083.5000000000
  31
0.0
   0
LINE
   5
21D
 100
AcDbEntity
   8
LEVEL001
 370
40
 100
AcDbLine
   6
CONTINUOUS
  62
3
  10
 1335.0000000003
  20
 1083.5000000000
  30
0.0
  11
 1355.4800000003
  21
 1114.2200000000
  31
0.0
   0
LINE
   5
21E
 100
AcDbEntity
   8
LEVEL001
 370
40
 100
AcDbLine
   6
CONTINUOUS
  62
3
  10
 1355.4800000003
  20
 1114.2200000000
  30
0.0
  11
 1372.7600000003
  21
 1114.2200000000
  31
0.0
   0
LINE
   5
21F
 100
AcDbEntity
   8
LEVEL001
 370
40
 100
AcDbLine
   6
CONTINUOUS
  62
3
  10
 1372.7600000003
  20
 1114.2200000000
  30
0.0
  11
 1352.2800000003
  21
 1083.5000000000
  31
0.0
   0
LINE
   5
220
 100
AcDbEntity
   8
LEVEL001
 370
40
 100
AcDbLine
   6
CONTINUOUS
  62
3
  10
 1352.2800000003
  20
 1083.5000000000
  30
0.0
  11
 1372.7600000003
  21
 1052.7800000000
  31
0.0
   0
LINE
   5
221
 100
AcDbEntity
   8
LEVEL001
 370
40
 100
AcDbLine
   6
CONTINUOUS
  62
3
  10
 1372.7600000003
  20
 1052.7800000000
  30
0.0
  11
 1355.4800000003
  21
 1052.7800000000
  31
0.0
   0
LINE
   5
222
 100
AcDbEntity
   8
LEVEL001
 370
40
 100
AcDbLine
   6
CONTINUOUS
  62
3
  10
 1268.0000000001
  20
 333.38360969059
  30
0.0
  11
 1618.0000000001
  21
 333.38360969059
  31
0.0
   0
HATCH
   5
223
 100
AcDbEntity
   8
0
  62
1
 100
AcDbHatch
  10
0.0
  20
0.0
  30
0.0
 210
0.0
 220
0.0
 230
 1.0000000000000
   2
SOLID
  70
1
  71
1
  91
1
  92
1
  93
6
  72
1
  10
 1326.3600000003
  20
 1083.5000000000
  11
 1346.8400000003
  21
 1052.7800000000
  72
1
  10
 1346.8400000003
  20
 1052.7800000000
  11
 1329.5600000003
  21
 1052.7800000000
  72
1
  10
 1329.5600000003
  20
 1052.7800000000
  11
 1309.0800000003
  21
 1083.5000000000
  72
1
  10
 1309.0800000003
  20
 1083.5000000000
  11
 1329.5600000003
  21
 1114.2200000000
  72
1
  10
 1329.5600000003
  20
 1114.2200000000
  11
 1346.8400000003
  21
 1114.2200000000
  72
1
  10
 1346.8400000003
  20
 1114.2200000000
  11
 1326.3600000003
  21
 1083.5000000000
  97
1
 330

  75
0
  76
1
  98
1
  10
0.0
  20
0.0
   0
HATCH
   5
224
 100
AcDbEntity
   8
0
  62
1
 100
AcDbHatch
  10
0.0
  20
0.0
  30
0.0
 210
0.0
 220
0.0
 230
 1.0000000000000
   2
SOLID
  70
1
  71
1
  91
1
  92
1
  93
6
  72
1
  10
 1355.4800000003
  20
 1114.2200000000
  11
 1372.7600000003
  21
 1114.2200000000
  72
1
  10
 1372.7600000003
  20
 1114.2200000000
  11
 1352.2800000003
  21
 1083.5000000000
  72
1
  10
 1352.2800000003
  20
 1083.5000000000
  11
 1372.7600000003
  21
 1052.7800000000
  72
1
  10
 1372.7600000003
  20
 1052.7800000000
  11
 1355.4800000003
  21
 1052.7800000000
  72
1
  10
 1355.4800000003
  20
 1052.7800000000
  11
 1335.0000000003
  21
 1083.5000000000
  72
1
  10
 1335.0000000003
  20
 1083.5000000000
  11
 1355.4800000003
  21
 1114.2200000000
  97
1
 330

  75
0
  76
1
  98
1
  10
0.0
  20
0.0
   0
HATCH
   5
225
 100
AcDbEntity
   8
0
  62
1
 100
AcDbHatch
  10
0.0
  20
0.0
  30
0.0
 210
0.0
 220
0.0
 230
 1.0000000000000
   2
SOLID
  70
1
  71
1
  91
1
  92
1
  93
3
  72
1
  10
 1360.9200000003
  20
 1083.5000000000
  11
 1375.3200000003
  21
 1083.5000000000
  72
1
  10
 1375.3200000003
  20
 1083.5000000000
  11
 1375.3200000003
  21
 1060.4600000000
  72
1
  10
 1375.3200000003
  20
 1060.4600000000
  11
 1360.9200000003
  21
 1083.5000000000
  97
1
 330

  75
0
  76
1
  98
1
  10
0.0
  20
0.0
   0
HATCH
   5
226
 100
AcDbEntity
   8
0
  62
1
 100
AcDbHatch
  10
0.0
  20
0.0
  30
0.0
 210
0.0
 220
0.0
 230
 1.0000000000000
   2
SOLID
  70
1
  71
1
  91
2
  92
1
  93
6
  72
2
  10
 1409.8800000003
  20
 1072.9400000000
  40
 14.400000000000
  50
 270.00000000000
  51
 90.000000000000
  73
0
  72
1
  10
 1409.8800000003
  20
 1058.5400000000
  11
 1398.3600000003
  21
 1058.5400000000
  72
1
  10
 1398.3600000003
  20
 1058.5400000000
  11
 1398.3600000003
  21
 1052.7800000000
  72
1
  10
 1398.3600000003
  20
 1052.7800000000
  11
 1386.8400000003
  21
 1052.7800000000
  72
1
  10
 1386.8400000003
  20
 1052.7800000000
  11
 1386.8400000003
  21
 1087.3400000000
  72
1
  10
 1386.8400000003
  20
 1087.3400000000
  11
 1409.8800000003
  21
 1087.3400000000
  97
1
 330

  92
16
  93
4
  72
2
  10
 1409.8800000003
  20
 1072.9400000000
  40
 2.8800000000000
  50
 270.00000000000
  51
 90.000000000000
  73
1
  72
1
  10
 1409.8800000003
  20
 1075.8200000000
  11
 1398.3600000003
  21
 1075.8200000000
  72
1
  10
 1398.3600000003
  20
 1075.8200000000
  11
 1398.3600000003
  21
 1070.0600000000
  72
1
  10
 1398.3600000003
  20
 1070.0600000000
  11
 1409.8800000003
  21
 1070.0600000000
  97
1
 330

  75
0
  76
1
  98
1
  10
0.0
  20
0.0
   0
HATCH
   5
227
 100
AcDbEntity
   8
0
  62
1
 100
AcDbHatch
  10
0.0
  20
0.0
  30
0.0
 210
0.0
 220
0.0
 230
 1.0000000000000
   2
SOLID
  70
1
  71
1
  91
1
  92
1
  93
4
  72
1
  10
 1438.6800000003
  20
 1087.3400000000
  11
 1455.9600000003
  21
 1087.3400000000
  72
1
  10
 1455.9600000003
  20
 1087.3400000000
  11
 1432.9200000003
  21
 1052.7800000000
  72
1
  10
 1432.9200000003
  20
 1052.7800000000
  11
 1415.6400000003
  21
 1052.7800000000
  72
1
  10
 1415.6400000003
  20
 1052.7800000000
  11
 1438.6800000003
  21
 1087.3400000000
  97
1
 330

  75
0
  76
1
  98
1
  10
0.0
  20
0.0
   0
HATCH
   5
228
 100
AcDbEntity
   8
0
  62
1
 100
AcDbHatch
  10
0.0
  20
0.0
  30
0.0
 210
0.0
 220
0.0
 230
 1.0000000000000
   2
SOLID
  70
1
  71
1
  91
1
  92
1
  93
3
  72
1
  10
 1437.5351056329
  20
 1052.7800000000
  11
 1452.1200000003
  21
 1074.6573415511
  72
1
  10
 1452.1200000003
  20
 1074.6573415511
  11
 1452.1200000003
  21
 1052.7800000000
  72
1
  10
 1452.1200000003
  20
 1052.7800000000
  11
 1437.5351056329
  21
 1052.7800000000
  97
1
 330

  75
0
  76
1
  98
1
  10
0.0
  20
0.0
   0
HATCH
   5
229
 100
AcDbEntity
   8
0
  62
1
 100
AcDbHatch
  10
0.0
  20
0.0
  30
0.0
 210
0.0
 220
0.0
 230
 1.0000000000000
   2
SOLID
  70
1
  71
1
  91
1
  92
1
  93
22
  72
1
  10
 1519.3200000003
  20
 1064.3000000000
  11
 1542.3600000003
  21
 1064.3000000000
  72
1
  10
 1542.3600000003
  20
 1064.3000000000
  11
 1542.3600000003
  21
 1052.7800000000
  72
1
  10
 1542.3600000003
  20
 1052.7800000000
  11
 1507.8000000003
  21
 1052.7800000000
  72
1
  10
 1507.8000000003
  20
 1052.7800000000
  11
 1507.8000000003
  21
 1075.8200000000
  72
1
  10
 1507.8000000003
  20
 1075.8200000000
  11
 1496.2800000003
  21
 1075.8200000000
  72
1
  10
 1496.2800000003
  20
 1075.8200000000
  11
 1496.2800000003
  21
 1052.7800000000
  72
1
  10
 1496.2800000003
  20
 1052.7800000000
  11
 1455.9600000003
  21
 1052.7800000000
  72
1
  10
 1455.9600000003
  20
 1052.7800000000
  11
 1455.9600000003
  21
 1087.3400000000
  72
1
  10
 1455.9600000003
  20
 1087.3400000000
  11
 1467.4800000003
  21
 1087.3400000000
  72
1
  10
 1467.4800000003
  20
 1087.3400000000
  11
 1467.4800000003
  21
 1064.3000000000
  72
1
  10
 1467.4800000003
  20
 1064.3000000000
  11
 1484.7600000003
  21
 1064.3000000000
  72
1
  10
 1484.7600000003
  20
 1064.3000000000
  11
 1484.7600000003
  21
 1075.8200000000
  72
1
  10
 1484.7600000003
  20
 1075.8200000000
  11
 1473.2400000003
  21
 1075.8200000000
  72
1
  10
 1473.2400000003
  20
 1075.8200000000
  11
 1473.2400000003
  21
 1087.3400000000
  72
1
  10
 1473.2400000003
  20
 1087.3400000000
  11
 1542.3600000003
  21
 1087.3400000000
  72
1
  10
 1542.3600000003
  20
 1087.3400000000
  11
 1542.3600000003
  21
 1075.8200000000
  72
1
  10
 1542.3600000003
  20
 1075.8200000000
  11
 1519.3200000003
  21
 1075.8200000000
  72
1
  10
 1519.3200000003
  20
 1075.8200000000
  11
 1519.3200000003
  21
 1072.9400000000
  72
1
  10
 1519.3200000003
  20
 1072.9400000000
  11
 1539.4800000003
  21
 1072.9400000000
  72
1
  10
 1539.4800000003
  20
 1072.9400000000
  11
 1539.4800000003
  21
 1067.1800000000
  72
1
  10
 1539.4800000003
  20
 1067.1800000000
  11
 1519.3200000003
  21
 1067.1800000000
  72
1
  10
 1519.3200000003
  20
 1067.1800000000
  11
 1519.3200000003
  21
 1064.3000000000
  97
1
 330

  75
0
  76
1
  98
1
  10
0.0
  20
0.0
   0
HATCH
   5
22A
 100
AcDbEntity
   8
0
  62
1
 100
AcDbHatch
  10
0.0
  20
0.0
  30
0.0
 210
0.0
 220
0.0
 230
 1.0000000000000
   2
SOLID
  70
1
  71
1
  91
1
  92
1
  93
8
  72
1
  10
 1559.6400000003
  20
 1087.3400000000
  11
 1576.9200000003
  21
 1087.3400000000
  72
1
  10
 1576.9200000003
  20
 1087.3400000000
  11
 1576.9200000003
  21
 1075.8200000000
  72
1
  10
 1576.9200000003
  20
 1075.8200000000
  11
 1559.6400000003
  21
 1075.8200000000
  72
2
  10
 1559.6400000003
  20
 1070.0600000000
  40
 5.7600000000000
  50
 90.000000000000
  51
 270.00000000000
  73
1
  72
1
  10
 1559.6400000003
  20
 1064.3000000000
  11
 1576.9200000003
  21
 1064.3000000000
  72
1
  10
 1576.9200000003
  20
 1064.3000000000
  11
 1576.9200000003
  21
 1052.7800000000
  72
1
  10
 1576.9200000003
  20
 1052.7800000000
  11
 1559.6400000003
  21
 1052.7800000000
  72
2
  10
 1559.6400000003
  20
 1070.0600000000
  40
 17.280000000000
  50
 90.000000000000
  51
 270.00000000000
  73
0
  97
1
 330

  75
0
  76
1
  98
1
  10
0.0
  20
0.0
   0
LINE
   5
22B
 100
AcDbEntity
   8
LEVEL001
 370
50
 100
AcDbLine
   6
CONTINUOUS
  62
4
  10
 1268.0000000001
  20
 1140.0000000000
  30
0.0
  11
 1268.0000000001
  21
 48.000000000020
  31
0.0
   0
LINE
   5
22C
 100
AcDbEntity
   8
LEVEL001
 370
50
 100
AcDbLine
   6
CONTINUOUS
  62
4
  10
 1268.0000000001
  20
 1140.0000000000
  30
0.0
  11
 1268.0000000001
  21
 48.000000000009
  31
0.0
   0
LINE
   5
22D
 100
AcDbEntity
   8
LEVEL001
 370
50
 100
AcDbLine
   6
CONTINUOUS
  62
4
  10
 1618.0000000001
  20
 48.000000000009
  30
0.0
  11
 1618.0000000001
  21
 1140.0000000000
  31
0.0
   0
LINE
   5
22E
 100
AcDbEntity
   8
LEVEL001
 370
50
 100
AcDbLine
   6
CONTINUOUS
  62
4
  10
 1618.0000000001
  20
 1140.0000000000
  30
0.0
  11
 62.000000000102
  21
 1140.0000000000
  31
0.0
   0
LINE
   5
22F
 100
AcDbEntity
   8
LEVEL001
 370
50
 100
AcDbLine
   6
CONTINUOUS
  62
4
  10
 62.000000000102
  20
 1140.0000000000
  30
0.0
  11
 62.000000000102
  21
 48.000000000020
  31
0.0
   0
LINE
   5
230
 100
AcDbEntity
   8
LEVEL001
 370
50
 100
AcDbLine
   6
CONTINUOUS
  62
4
  10
 62.000000000102
  20
 48.000000000020
  30
0.0
  11
 1618.0000000001
  21
 48.000000000020
  31
0.0
   0
MTEXT
   5
232
 100
AcDbEntity
   8
LEVEL001
 370
20
  62
7
 100
AcDbMText
  10
 1386.8400000003
  20
 1093.1000000000
  30
0.0
  40
 12.000000000000
  41
0.0
  71
7
  72
1
   1
\T1.000000;ケージーパルテック株式会社
   7
GMM001
  44
 0.79999984000003
   0
MTEXT
   5
234
 100
AcDbEntity
   8
LEVEL001
 370
15
  62
8
 100
AcDbMText
  10
 1499.2000000001
  20
 194.66666666668
  30
0.0
  40
 11.200000000000
  41
0.0
  71
5
  72
1
   1
\T1.000000;作成日付：
   7
GMM002
  44
 0.79999984000003
   0
MTEXT
   5
236
 100
AcDbEntity
   8
LEVEL001
 370
15
  62
8
 100
AcDbMText
  10
 1499.2000000001
  20
 168.00000000001
  30
0.0
  40
 11.200000000000
  41
0.0
  71
5
  72
1
   1
\T1.000000;変更日付：
   7
GMM002
  44
 0.79999984000003
   0
MTEXT
   5
238
 100
AcDbEntity
   8
LEVEL001
 370
15
  62
8
 100
AcDbMText
  10
 1443.0000000001
  20
 248.00000000001
  30
0.0
  40
 15.000000000000
  41
0.0
  71
5
  72
1
   1
\T1.000000;三面図
   7
GMM002
  44
 0.79999984000003
   0
MTEXT
   5
23A
 100
AcDbEntity
   8
LEVEL001
 370
15
  62
8
 100
AcDbMText
  10
 1276.7858875373
  20
 312.89545107619
  30
0.0
  40
 12.000000000000
  41
0.0
  71
7
  72
1
   1
\T1.000000;※本製品は予告無しに変更する事があります。
   7
GMM002
  44
 0.79999984000003
   0
LINE
   5
23B
 100
AcDbEntity
   8
0
 370
15
 100
AcDbLine
   6
DOT
  62
2
  10
 1680.0000000000
  20
 1188.0000000000
  30
0.0
  11
0.0
  21
 1188.0000000000
  31
0.0
   0
LINE
   5
23C
 100
AcDbEntity
   8
0
 370
15
 100
AcDbLine
   6
DOT
  62
2
  10
0.0
  20
0.0
  30
0.0
  11
 1680.0000000000
  21
0.0
  31
0.0
   0
LINE
   5
23D
 100
AcDbEntity
   8
0
 370
15
 100
AcDbLine
   6
DOT
  62
2
  10
0.0
  20
 1188.0000000000
  30
0.0
  11
0.0
  21
0.0
  31
0.0
   0
MTEXT
   5
23F
 100
AcDbEntity
   8
LEVEL001
 370
15
  62
8
 100
AcDbMText
  10
 1293.2000000001
  20
 1012.0000000000
  30
0.0
  40
 12.000000000000
  41
0.0
  71
5
  72
1
   1
\T1.000000;商品名：
   7
GMM001
  44
 0.79999984000003
   0
MTEXT
   5
241
 100
AcDbEntity
   8
LEVEL001
 370
15
  62
8
 100
AcDbMText
  10
 1287.2000000001
  20
 932.00000000001
  30
0.0
  40
 12.000000000000
  41
0.0
  71
5
  72
1
   1
\T1.000000;形式：
   7
GMM001
  44
 0.79999984000003
   0
MTEXT
   5
243
 100
AcDbEntity
   8
LEVEL001
 370
15
  62
8
 100
AcDbMText
  10
 1287.2000000001
  20
 852.00000000001
  30
0.0
  40
 12.000000000000
  41
0.0
  71
5
  72
1
   1
\T1.000000;仕様：
   7
GMM001
  44
 0.79999984000003
   0
MTEXT
   5
245
 100
AcDbEntity
   8
LEVEL001
 370
15
  62
8
 100
AcDbMText
  10
 1299.2000000001
  20
 273.00000000001
  30
0.0
  40
 12.000000000000
  41
0.0
  71
5
  72
1
   1
\T1.000000;図面名称：
   7
GMM001
  44
 0.79999984000003
   0
MTEXT
   5
247
 100
AcDbEntity
   8
LEVEL001
 370
15
  62
8
 100
AcDbMText
  10
 1287.2000000001
  20
 193.00000000001
  30
0.0
  40
 12.000000000000
  41
0.0
  71
5
  72
1
   1
\T1.000000;縮尺：
   7
GMM001
  44
 0.79999984000003
   0
MTEXT
   5
249
 100
AcDbEntity
   8
LEVEL001
 370
15
  62
8
 100
AcDbMText
  10
 1305.2000000001
  20
 114.88614091451
  30
0.0
  40
 12.000000000000
  41
0.0
  71
5
  72
1
   1
\T1.000000;用紙サイズ：
   7
GMM001
  44
 0.79999984000003
   0
MTEXT
   5
24B
 100
AcDbEntity
   8
LEVEL001
 370
15
  62
8
 100
AcDbMText
  10
 1505.2000000001
  20
 113.00000000001
  30
0.0
  40
 12.000000000000
  41
0.0
  71
5
  72
1
   1
\T1.000000;ファイル名：
   7
GMM001
  44
 0.79999984000003
   0
MTEXT
   5
24D
 100
AcDbEntity
   8
LEVEL001
 370
15
  62
8
 100
AcDbMText
  10
 1335.0000000001
  20
 978.00000000001
  30
0.0
  40
 18.000000000000
  41
0.0
  71
7
  72
1
   1
\T1.000000;手摺金具　Ｌ型　Ｐタイプ
   7
GMM001
  44
 0.79999984000003
   0
MTEXT
   5
24F
 100
AcDbEntity
   8
LEVEL001
 370
15
  62
8
 100
AcDbMText
  10
 1368.0000000001
  20
 168.00000000001
  30
0.0
  40
 15.000000000000
  41
0.0
  71
5
  72
1
   1
\T1.000000;Ｓ＝１：４
   7
GMM001
  44
 0.79999984000003
   0
MTEXT
   5
251
 100
AcDbEntity
   8
LEVEL001
 370
15
  62
8
 100
AcDbMText
  10
 1368.0000000001
  20
 88.000000000009
  30
0.0
  40
 15.000000000000
  41
0.0
  71
5
  72
1
   1
\T1.000000;Ａ３
   7
GMM001
  44
 0.79999984000003
   0
MTEXT
   5
253
 100
AcDbEntity
   8
LEVEL001
 370
15
  62
8
 100
AcDbMText
  10
 1573.2000000001
  20
 141.33333333334
  30
0.0
  40
 8.0000000000000
  41
0.0
  71
5
  72
1
   1
\T1.000000;平成　　年　　月　　日
   7
GMM001
  44
 0.79999984000003
   0
MTEXT
   5
255
 100
AcDbEntity
   8
LEVEL001
 370
15
  62
8
 100
AcDbMText
  10
 1573.2000000001
  20
 168.00000000001
  30
0.0
  40
 8.0000000000000
  41
0.0
  71
5
  72
1
   1
\T1.000000;平成　　年　　月　　日
   7
GMM001
  44
 0.79999984000003
   0
LINE
   5
256
 100
AcDbEntity
   8
0
 370
15
 100
AcDbLine
   6
DOT
  62
2
  10
 1680.0000000000
  20
 1188.0000000000
  30
0.0
  11
 1680.0000000000
  21
0.0
  31
0.0
   0
LINE
   5
257
 100
AcDbEntity
   8
LEVEL001
 370
20
 100
AcDbLine
   6
CONTINUOUS
  62
7
  10
 1434.2611135294
  20
 755.00000000001
  30
0.0
  11
 1584.2611135294
  21
 755.00000000001
  31
0.0
   0
LINE
   5
258
 100
AcDbEntity
   8
LEVEL001
 370
20
 100
AcDbLine
   6
CONTINUOUS
  62
7
  10
 1434.2611135294
  20
 776.00000000001
  30
0.0
  11
 1434.2611135294
  21
 644.00000000001
  31
0.0
   0
LINE
   5
259
 100
AcDbEntity
   8
LEVEL001
 370
20
 100
AcDbLine
   6
CONTINUOUS
  62
7
  10
 1509.2611135294
  20
 755.00000000001
  30
0.0
  11
 1509.2611135294
  21
 644.00000000001
  31
0.0
   0
LINE
   5
25A
 100
AcDbEntity
   8
LEVEL001
 370
20
 100
AcDbLine
   6
CONTINUOUS
  62
7
  10
 1584.2611135294
  20
 776.00000000001
  30
0.0
  11
 1584.2611135294
  21
 644.00000000001
  31
0.0
   0
MTEXT
   5
25C
 100
AcDbEntity
   8
LEVEL001
 370
15
  62
8
 100
AcDbMText
  10
 1471.7611135294
  20
 744.50000000001
  30
0.0
  40
 12.000000000000
  41
0.0
  71
5
  72
1
   1
\T1.000000;１６軸
   7
GMM001
  44
 0.79999984000003
   0
MTEXT
   5
25E
 100
AcDbEntity
   8
LEVEL001
 370
15
  62
8
 100
AcDbMText
  10
 1546.7611135294
  20
 744.50000000001
  30
0.0
  40
 12.000000000000
  41
0.0
  71
5
  72
1
   1
\T1.000000;１３軸
   7
GMM001
  44
 0.79999984000003
   0
MTEXT
   5
260
 100
AcDbEntity
   8
LEVEL001
 370
15
  62
8
 100
AcDbMText
  10
 1471.7611135294
  20
 725.00000000001
  30
0.0
  40
 12.000000000000
  41
0.0
  71
5
  72
1
   1
\T1.000000;５８
   7
GMM001
  44
 0.79999984000003
   0
MTEXT
   5
262
 100
AcDbEntity
   8
LEVEL001
 370
15
  62
8
 100
AcDbMText
  10
 1471.7611135294
  20
 713.00000000001
  30
0.0
  40
 12.000000000000
  41
0.0
  71
5
  72
1
   1
\T1.000000;７０
   7
GMM001
  44
 0.79999984000003
   0
MTEXT
   5
264
 100
AcDbEntity
   8
LEVEL001
 370
15
  62
8
 100
AcDbMText
  10
 1471.7611135294
  20
 701.00000000001
  30
0.0
  40
 12.000000000000
  41
0.0
  71
5
  72
1
   1
\T1.000000;８０
   7
GMM001
  44
 0.79999984000003
   0
MTEXT
   5
266
 100
AcDbEntity
   8
LEVEL001
 370
15
  62
8
 100
AcDbMText
  10
 1471.7611135294
  20
 689.00000000001
  30
0.0
  40
 12.000000000000
  41
0.0
  71
5
  72
1
   1
\T1.000000;１００
   7
GMM001
  44
 0.79999984000003
   0
MTEXT
   5
268
 100
AcDbEntity
   8
LEVEL001
 370
15
  62
8
 100
AcDbMText
  10
 1471.7611135294
  20
 665.00000000001
  30
0.0
  40
 12.000000000000
  41
0.0
  71
5
  72
1
   1
\T1.000000;１５０
   7
GMM001
  44
 0.79999984000003
   0
MTEXT
   5
26A
 100
AcDbEntity
   8
LEVEL001
 370
15
  62
8
 100
AcDbMText
  10
 1471.7611135294
  20
 653.00000000001
  30
0.0
  40
 12.000000000000
  41
0.0
  71
5
  72
1
   1
\T1.000000;２００
   7
GMM001
  44
 0.79999984000003
   0
MTEXT
   5
26C
 100
AcDbEntity
   8
LEVEL001
 370
15
  62
8
 100
AcDbMText
  10
 1471.7611135294
  20
 677.00000000001
  30
0.0
  40
 12.000000000000
  41
0.0
  71
5
  72
1
   1
\T1.000000;１２０
   7
GMM001
  44
 0.79999984000003
   0
MTEXT
   5
26E
 100
AcDbEntity
   8
LEVEL001
 370
15
  62
8
 100
AcDbMText
  10
 1546.7611135294
  20
 713.00000000001
  30
0.0
  40
 12.000000000000
  41
0.0
  71
5
  72
1
   1
\T1.000000;７０
   7
GMM001
  44
 0.79999984000003
   0
MTEXT
   5
270
 100
AcDbEntity
   8
LEVEL001
 370
15
  62
8
 100
AcDbMText
  10
 1546.7611135294
  20
 725.00000000001
  30
0.0
  40
 12.000000000000
  41
0.0
  71
5
  72
1
   1
\T1.000000;５５
   7
GMM001
  44
 0.79999984000003
   0
LINE
   5
271
 100
AcDbEntity
   8
LEVEL001
 370
20
 100
AcDbLine
   6
CONTINUOUS
  62
7
  10
 1284.2611135294
  20
 776.00000000001
  30
0.0
  11
 1284.2611135294
  21
 644.00000000001
  31
0.0
   0
LINE
   5
272
 100
AcDbEntity
   8
LEVEL001
 370
20
 100
AcDbLine
   6
CONTINUOUS
  62
7
  10
 1284.2611135294
  20
 734.00000000001
  30
0.0
  11
 1584.2611135294
  21
 734.00000000001
  31
0.0
   0
LINE
   5
273
 100
AcDbEntity
   8
LEVEL001
 370
20
 100
AcDbLine
   6
CONTINUOUS
  62
7
  10
 1284.2611135294
  20
 644.00000000001
  30
0.0
  11
 1584.2611135294
  21
 644.00000000001
  31
0.0
   0
MTEXT
   5
275
 100
AcDbEntity
   8
LEVEL001
 370
15
  62
8
 100
AcDbMText
  10
 1359.2611135294
  20
 755.00000000001
  30
0.0
  40
 12.000000000000
  41
0.0
  71
5
  72
1
   1
\T1.000000;品番
   7
GMM001
  44
 0.79999984000003
   0
MTEXT
   5
277
 100
AcDbEntity
   8
LEVEL001
 370
15
  62
8
 100
AcDbMText
  10
 1509.2611135294
  20
 765.50000000001
  30
0.0
  40
 12.000000000000
  41
0.0
  71
5
  72
1
   1
\W1.000000;\T1.000000;出寸法Ｌ\W0.500000;\T1.000000;(m/m\W1.000000;\T1.000000;）
   7
GMM001
  44
 0.79999984000003
   0
LINE
   5
278
 100
AcDbEntity
   8
LEVEL001
 370
20
 100
AcDbLine
   6
CONTINUOUS
  62
7
  10
 1284.2611135294
  20
 776.00000000001
  30
0.0
  11
 1584.2611135294
  21
 776.00000000001
  31
0.0
   0
LINE
   5
279
 100
AcDbEntity
   8
0
 370
40
 100
AcDbLine
   6
CONTINUOUS
  62
3
  10
 62.000000000102
  20
 596.25076754632
  30
0.0
  11
 1268.0000000001
  21
 596.25076754632
  31
0.0
   0
MTEXT
   5
27B
 100
AcDbEntity
   8
0
 370
15
  62
8
 100
AcDbMText
  10
-418.75647742605
  20
 1132.5945415873
  30
0.0
  40
 100.00000000000
  41
0.0
  71
4
  72
1
   1
\T1.000000;ＰＩＫＧ
   7
GMM001
  44
 0.79999984000003
   0
MTEXT
   5
27D
 100
AcDbEntity
   8
LEVEL001
 370
15
  62
8
 100
AcDbMText
  10
 1543.0000000001
  20
 88.000000000010
  30
0.0
  40
 10.000000000000
  41
0.0
  71
2
  72
1
   1
{\W1.000000;\T1.000000;手摺金具－ＰＩＫＧ}\P{\W1.000000;\T1.000000;　　　　　\W0.500000;\T1.000000;(\W1.000000;\T1.000000;１６軸\W0.500000;\T1.000000;)(\W1.000000;\T1.000000;１３軸\W0.500000;\T1.000000;)}
   7
GMM001
  44
 0.79999984000003
   0
MTEXT
   5
27F
 100
AcDbEntity
   8
LEVEL001
 370
15
  62
8
 100
AcDbMText
  10
 1299.5000000001
  20
 900.00000000001
  30
0.0
  40
 14.000000000000
  41
0.0
  71
7
  72
1
   1
\W1.000000;\T1.000000;傾斜平受ガラス座\W0.500000;\T1.000000; \W1.000000;\T1.000000;ＰＩＫＧ（１６軸\W0.500000;\T1.000000;)/(\W1.000000;\T1.000000;１３軸\W0.500000;\T1.000000;)
   7
GMM001
  44
 0.79999984000003
   0
MTEXT
   5
281
 100
AcDbEntity
   8
LEVEL001
 370
15
  62
8
 100
AcDbMText
  10
 63.200000000103
  20
 1122.2507675463
  30
0.0
  40
 12.000000000000
  41
0.0
  71
4
  72
1
   1
\T1.000000;　ＰＩＫＧ２５（１６軸）
   7
GMM001
  44
 0.79999984000003
   0
MTEXT
   5
283
 100
AcDbEntity
   8
LEVEL001
 370
15
  62
8
 100
AcDbMText
  10
 63.200000000103
  20
 576.25076754632
  30
0.0
  40
 12.000000000000
  41
0.0
  71
4
  72
1
   1
\T1.000000;　ＰＩＫＧ２５（１３軸）
   7
GMM001
  44
 0.79999984000003
   0
CIRCLE
   5
284
 100
AcDbEntity
   8
LEVEL001
 370
15
 100
AcDbCircle
   6
HIDDEN
  62
2
  10
 703.10732684597
  20
 938.07774309098
  30
0.0
  40
 8.0000000000000
   0
LINE
   5
285
 100
AcDbEntity
   8
LEVEL001
 370
15
 100
AcDbLine
   6
DASHDOT
  62
8
  10
 691.06293439259
  20
 938.07774309098
  30
0.0
  11
 715.15171929935
  21
 938.07774309098
  31
0.0
   0
LINE
   5
286
 100
AcDbEntity
   8
LEVEL001
 370
20
 100
AcDbLine
   6
CONTINUOUS
  62
7
  10
 695.10732684597
  20
 996.07774309098
  30
0.0
  11
 711.10732684597
  21
 996.07774309098
  31
0.0
   0
LINE
   5
287
 100
AcDbEntity
   8
LEVEL001
 370
15
 100
AcDbLine
   6
HIDDEN
  62
2
  10
 698.80732684597
  20
 994.87774309098
  30
0.0
  11
 698.80732684597
  21
 965.07774309098
  31
0.0
   0
LINE
   5
288
 100
AcDbEntity
   8
LEVEL001
 370
15
 100
AcDbLine
   6
HIDDEN
  62
2
  10
 698.80732684597
  20
 965.07774309098
  30
0.0
  11
 703.10732684597
  21
 963.07774309098
  31
0.0
   0
LINE
   5
289
 100
AcDbEntity
   8
LEVEL001
 370
15
 100
AcDbLine
   6
HIDDEN
  62
2
  10
 698.80732684597
  20
 969.95774309098
  30
0.0
  11
 698.10732684597
  21
 971.07774309098
  31
0.0
   0
LINE
   5
28A
 100
AcDbEntity
   8
LEVEL001
 370
15
 100
AcDbLine
   6
HIDDEN
  62
2
  10
 698.10732684597
  20
 971.07774309098
  30
0.0
  11
 698.10732684597
  21
 995.57774309098
  31
0.0
   0
LINE
   5
28B
 100
AcDbEntity
   8
LEVEL001
 370
15
 100
AcDbLine
   6
HIDDEN
  62
2
  10
 707.40732684597
  20
 965.07774309098
  30
0.0
  11
 698.80732684597
  21
 965.07774309098
  31
0.0
   0
LINE
   5
28C
 100
AcDbEntity
   8
LEVEL001
 370
15
 100
AcDbLine
   6
HIDDEN
  62
2
  10
 708.10732684597
  20
 971.07774309098
  30
0.0
  11
 698.10732684597
  21
 971.07774309098
  31
0.0
   0
LINE
   5
28D
 100
AcDbEntity
   8
LEVEL001
 370
15
 100
AcDbLine
   6
HIDDEN
  62
2
  10
 707.40732684597
  20
 994.87774309098
  30
0.0
  11
 698.80732684597
  21
 994.87774309098
  31
0.0
   0
LINE
   5
28E
 100
AcDbEntity
   8
LEVEL001
 370
15
 100
AcDbLine
   6
HIDDEN
  62
2
  10
 698.80732684597
  20
 994.87774309098
  30
0.0
  11
 697.60732684597
  21
 996.07774309098
  31
0.0
   0
LINE
   5
28F
 100
AcDbEntity
   8
LEVEL001
 370
15
 100
AcDbLine
   6
HIDDEN
  62
2
  10
 707.40732684597
  20
 969.95774309098
  30
0.0
  11
 698.80732684597
  21
 969.95774309098
  31
0.0
   0
LINE
   5
290
 100
AcDbEntity
   8
LEVEL001
 370
15
 100
AcDbLine
   6
HIDDEN
  62
2
  10
 707.40732684597
  20
 965.07774309098
  30
0.0
  11
 707.40732684597
  21
 994.87774309098
  31
0.0
   0
LINE
   5
291
 100
AcDbEntity
   8
LEVEL001
 370
15
 100
AcDbLine
   6
HIDDEN
  62
2
  10
 708.10732684597
  20
 995.57774309098
  30
0.0
  11
 708.10732684597
  21
 971.07774309098
  31
0.0
   0
LINE
   5
292
 100
AcDbEntity
   8
LEVEL001
 370
15
 100
AcDbLine
   6
HIDDEN
  62
2
  10
 707.40732684597
  20
 994.87774309098
  30
0.0
  11
 708.60732684597
  21
 996.07774309098
  31
0.0
   0
LINE
   5
293
 100
AcDbEntity
   8
LEVEL001
 370
15
 100
AcDbLine
   6
HIDDEN
  62
2
  10
 703.10732684597
  20
 963.07774309098
  30
0.0
  11
 707.40732684597
  21
 965.07774309098
  31
0.0
   0
LINE
   5
294
 100
AcDbEntity
   8
LEVEL001
 370
15
 100
AcDbLine
   6
HIDDEN
  62
2
  10
 708.10732684597
  20
 971.07774309098
  30
0.0
  11
 707.40732684597
  21
 969.95774309098
  31
0.0
   0
LINE
   5
295
 100
AcDbEntity
   8
LEVEL001
 370
20
 100
AcDbLine
   6
CONTINUOUS
  62
7
  10
 695.10732684597
  20
 996.07774309098
  30
0.0
  11
 711.10732684597
  21
 996.07774309098
  31
0.0
   0
LINE
   5
296
 100
AcDbEntity
   8
LEVEL001
 370
15
 100
AcDbLine
   6
HIDDEN
  62
2
  10
 707.40732684597
  20
 994.87774309098
  30
0.0
  11
 698.80732684597
  21
 994.87774309098
  31
0.0
   0
LINE
   5
297
 100
AcDbEntity
   8
LEVEL001
 370
15
 100
AcDbLine
   6
HIDDEN
  62
2
  10
 698.80732684597
  20
 994.87774309098
  30
0.0
  11
 697.60732684597
  21
 996.07774309098
  31
0.0
   0
LINE
   5
298
 100
AcDbEntity
   8
LEVEL001
 370
15
 100
AcDbLine
   6
HIDDEN
  62
2
  10
 707.40732684597
  20
 994.87774309098
  30
0.0
  11
 708.60732684597
  21
 996.07774309098
  31
0.0
   0
LINE
   5
299
 100
AcDbEntity
   8
LEVEL001
 370
20
 100
AcDbLine
   6
CONTINUOUS
  62
7
  10
 723.10732684597
  20
 997.57774309098
  30
0.0
  11
 683.10732684597
  21
 997.57774309098
  31
0.0
   0
LINE
   5
29A
 100
AcDbEntity
   8
LEVEL001
 370
20
 100
AcDbLine
   6
CONTINUOUS
  62
7
  10
 723.10732684597
  20
 999.07774309098
  30
0.0
  11
 723.10732684597
  21
 997.57774309098
  31
0.0
   0
LINE
   5
29B
 100
AcDbEntity
   8
LEVEL001
 370
20
 100
AcDbLine
   6
CONTINUOUS
  62
7
  10
 723.10732684597
  20
 997.57774309098
  30
0.0
  11
 721.60732684597
  21
 996.07774309098
  31
0.0
   0
LINE
   5
29C
 100
AcDbEntity
   8
LEVEL001
 370
20
 100
AcDbLine
   6
CONTINUOUS
  62
7
  10
 684.60732684597
  20
 996.07774309098
  30
0.0
  11
 721.60732684597
  21
 996.07774309098
  31
0.0
   0
LINE
   5
29D
 100
AcDbEntity
   8
LEVEL001
 370
20
 100
AcDbLine
   6
CONTINUOUS
  62
7
  10
 683.10732684597
  20
 999.07774309098
  30
0.0
  11
 723.10732684597
  21
 999.07774309098
  31
0.0
   0
LINE
   5
29E
 100
AcDbEntity
   8
LEVEL001
 370
20
 100
AcDbLine
   6
CONTINUOUS
  62
7
  10
 683.10732684597
  20
 997.57774309098
  30
0.0
  11
 684.60732684597
  21
 996.07774309098
  31
0.0
   0
LINE
   5
29F
 100
AcDbEntity
   8
LEVEL001
 370
20
 100
AcDbLine
   6
CONTINUOUS
  62
7
  10
 683.10732684597
  20
 999.07774309098
  30
0.0
  11
 683.10732684597
  21
 997.57774309098
  31
0.0
   0
LINE
   5
2A0
 100
AcDbEntity
   8
LEVEL001
 370
20
 100
AcDbLine
   6
CONTINUOUS
  62
7
  10
 723.10732684597
  20
 1026.4777430910
  30
0.0
  11
 683.10732684597
  21
 1026.4777430910
  31
0.0
   0
LINE
   5
2A1
 100
AcDbEntity
   8
LEVEL001
 370
20
 100
AcDbLine
   6
CONTINUOUS
  62
7
  10
 683.10732684597
  20
 1026.4777430910
  30
0.0
  11
 683.10732684597
  21
 1020.0777430910
  31
0.0
   0
LINE
   5
2A2
 100
AcDbEntity
   8
LEVEL001
 370
20
 100
AcDbLine
   6
CONTINUOUS
  62
7
  10
 683.10732684597
  20
 1020.0777430910
  30
0.0
  11
 723.10732684597
  21
 1020.0777430910
  31
0.0
   0
LINE
   5
2A3
 100
AcDbEntity
   8
LEVEL001
 370
20
 100
AcDbLine
   6
CONTINUOUS
  62
7
  10
 723.10732684597
  20
 1020.0777430910
  30
0.0
  11
 723.10732684597
  21
 1026.4777430910
  31
0.0
   0
LINE
   5
2A4
 100
AcDbEntity
   8
LEVEL001
 370
20
 100
AcDbLine
   6
CONTINUOUS
  62
7
  10
 708.10732684597
  20
 1018.0777430910
  30
0.0
  11
 708.10732684597
  21
 1001.0777430910
  31
0.0
   0
LINE
   5
2A5
 100
AcDbEntity
   8
LEVEL001
 370
20
 100
AcDbLine
   6
CONTINUOUS
  62
7
  10
 698.10732684597
  20
 1001.0777430910
  30
0.0
  11
 698.10732684597
  21
 1018.0777430910
  31
0.0
   0
LINE
   5
2A6
 100
AcDbEntity
   8
LEVEL001
 370
15
 100
AcDbLine
   6
HIDDEN
  62
2
  10
 708.10732684597
  20
 983.57774309098
  30
0.0
  11
 708.10732684597
  21
 996.07774309098
  31
0.0
   0
LINE
   5
2A7
 100
AcDbEntity
   8
LEVEL001
 370
15
 100
AcDbLine
   6
HIDDEN
  62
2
  10
 707.60732684597
  20
 996.07774309098
  30
0.0
  11
 707.60732684597
  21
 983.07774309098
  31
0.0
   0
LINE
   5
2A8
 100
AcDbEntity
   8
LEVEL001
 370
15
 100
AcDbLine
   6
HIDDEN
  62
2
  10
 708.10732684597
  20
 983.57774309098
  30
0.0
  11
 698.10732684597
  21
 983.57774309098
  31
0.0
   0
LINE
   5
2A9
 100
AcDbEntity
   8
LEVEL001
 370
15
 100
AcDbLine
   6
HIDDEN
  62
2
  10
 698.60732684597
  20
 983.07774309098
  30
0.0
  11
 707.60732684597
  21
 983.07774309098
  31
0.0
   0
LINE
   5
2AA
 100
AcDbEntity
   8
LEVEL001
 370
15
 100
AcDbLine
   6
HIDDEN
  62
2
  10
 698.10732684597
  20
 983.57774309098
  30
0.0
  11
 698.60732684597
  21
 983.07774309098
  31
0.0
   0
LINE
   5
2AB
 100
AcDbEntity
   8
LEVEL001
 370
15
 100
AcDbLine
   6
HIDDEN
  62
2
  10
 698.60732684597
  20
 983.07774309098
  30
0.0
  11
 698.60732684597
  21
 996.07774309098
  31
0.0
   0
LINE
   5
2AC
 100
AcDbEntity
   8
LEVEL001
 370
15
 100
AcDbLine
   6
HIDDEN
  62
2
  10
 698.10732684597
  20
 996.07774309098
  30
0.0
  11
 698.10732684597
  21
 983.57774309098
  31
0.0
   0
LINE
   5
2AD
 100
AcDbEntity
   8
LEVEL001
 370
15
 100
AcDbLine
   6
CONTINUOUS
  62
6
  10
 695.60732684597
  20
 1001.0777430910
  30
0.0
  11
 695.60732684597
  21
 1018.0777430910
  31
0.0
   0
LINE
   5
2AE
 100
AcDbEntity
   8
LEVEL001
 370
15
 100
AcDbLine
   6
CONTINUOUS
  62
6
  10
 710.60732684597
  20
 1018.0777430910
  30
0.0
  11
 710.60732684597
  21
 1001.0777430910
  31
0.0
   0
LINE
   5
2AF
 100
AcDbEntity
   8
LEVEL001
 370
15
 100
AcDbLine
   6
CONTINUOUS
  62
6
  10
 683.10732684597
  20
 1001.0777430910
  30
0.0
  11
 683.10732684597
  21
 999.07774309098
  31
0.0
   0
LINE
   5
2B0
 100
AcDbEntity
   8
LEVEL001
 370
15
 100
AcDbLine
   6
CONTINUOUS
  62
6
  10
 683.10732684597
  20
 1018.0777430910
  30
0.0
  11
 683.10732684597
  21
 1020.0777430910
  31
0.0
   0
LINE
   5
2B1
 100
AcDbEntity
   8
LEVEL001
 370
15
 100
AcDbLine
   6
CONTINUOUS
  62
6
  10
 723.10732684597
  20
 1001.0777430910
  30
0.0
  11
 683.10732684597
  21
 1001.0777430910
  31
0.0
   0
LINE
   5
2B2
 100
AcDbEntity
   8
LEVEL001
 370
15
 100
AcDbLine
   6
CONTINUOUS
  62
6
  10
 723.10732684597
  20
 1018.0777430910
  30
0.0
  11
 683.10732684597
  21
 1018.0777430910
  31
0.0
   0
LINE
   5
2B3
 100
AcDbEntity
   8
LEVEL001
 370
15
 100
AcDbLine
   6
CONTINUOUS
  62
6
  10
 723.10732684597
  20
 1020.0777430910
  30
0.0
  11
 723.10732684597
  21
 1018.0777430910
  31
0.0
   0
LINE
   5
2B4
 100
AcDbEntity
   8
LEVEL001
 370
15
 100
AcDbLine
   6
CONTINUOUS
  62
6
  10
 723.10732684597
  20
 1001.0777430910
  30
0.0
  11
 723.10732684597
  21
 999.07774309098
  31
0.0
   0
LINE
   5
2B5
 100
AcDbEntity
   8
LEVEL001
 370
15
 100
AcDbLine
   6
DASHDOT
  62
8
  10
 703.10732684597
  20
 920.81811497567
  30
0.0
  11
 703.10732684597
  21
 1034.6033983287
  31
0.0
   0
ARC
   5
2B6
 100
AcDbEntity
   8
LEVEL001
 370
20
   6
CONTINUOUS
  62
7
 100
AcDbCircle
  10
 587.65672199862
  20
 787.62847663815
  30
0.0
  40
 8.0000000000000
 100
AcDbArc
  50
 270.00000000000
  51
0.0
   0
ARC
   5
2B7
 100
AcDbEntity
   8
LEVEL001
 370
20
   6
CONTINUOUS
  62
7
 100
AcDbCircle
  10
 587.65672199862
  20
 787.62847663815
  30
0.0
  40
 24.000000000000
 100
AcDbArc
  50
 270.00000000000
  51
0.0
   0
LINE
   5
2B8
 100
AcDbEntity
   8
LEVEL001
 370
20
 100
AcDbLine
   6
CONTINUOUS
  62
7
  10
 595.65672199862
  20
 787.62847663815
  30
0.0
  11
 595.65672199862
  21
 816.62847663815
  31
0.0
   0
LINE
   5
2B9
 100
AcDbEntity
   8
LEVEL001
 370
20
 100
AcDbLine
   6
CONTINUOUS
  62
7
  10
 595.65672199862
  20
 816.62847663815
  30
0.0
  11
 611.65672199862
  21
 816.62847663815
  31
0.0
   0
LINE
   5
2BA
 100
AcDbEntity
   8
LEVEL001
 370
20
 100
AcDbLine
   6
CONTINUOUS
  62
7
  10
 611.65672199862
  20
 816.62847663815
  30
0.0
  11
 611.65672199862
  21
 787.62847663815
  31
0.0
   0
LINE
   5
2BB
 100
AcDbEntity
   8
LEVEL001
 370
20
 100
AcDbLine
   6
CONTINUOUS
  62
7
  10
 597.15672199862
  20
 816.62847663815
  30
0.0
  11
 610.15672199862
  21
 816.62847663815
  31
0.0
   0
LINE
   5
2BC
 100
AcDbEntity
   8
LEVEL001
 370
20
 100
AcDbLine
   6
CONTINUOUS
  62
7
  10
 533.65672199862
  20
 779.62847663815
  30
0.0
  11
 587.65672199862
  21
 779.62847663815
  31
0.0
   0
LINE
   5
2BD
 100
AcDbEntity
   8
LEVEL001
 370
20
 100
AcDbLine
   6
CONTINUOUS
  62
7
  10
 587.65672199862
  20
 763.62847663815
  30
0.0
  11
 533.65672199862
  21
 763.62847663815
  31
0.0
   0
ARC
   5
2BE
 100
AcDbEntity
   8
LEVEL001
 370
15
   6
DASHDOT
  62
8
 100
AcDbCircle
  10
 587.65672199861
  20
 787.62847663815
  30
0.0
  40
 16.000000000000
 100
AcDbArc
  50
 270.00000000000
  51
0.0
   0
DIMENSION
   5
2BF
 100
AcDbEntity
   8
0
 370
15
   6
CONTINUOUS
  62
8
 100
AcDbDimension
   2
*D1
  10
 640.30076182217
  20
 816.62847663815
  30
0.0
  11
 640.30076182217
  21
 794.12847663815
  31
0.0
  70
0
   3
GMM001
 100
AcDbAlignedDimension
  13
 587.65672199861
  23
 771.62847663815
  33
0.0
  14
 611.65672199862
  24
 816.62847663815
  34
0.0
  50
 90.000000000000
 100
AcDbRotatedDimension
   0
LINE
   5
2C0
 100
AcDbEntity
   8
LEVEL004
 370
20
 100
AcDbLine
   6
CONTINUOUS
  62
7
  10
 596.21456337843
  20
 816.62847663815
  30
0.0
  11
 611.09888061881
  21
 816.62847663815
  31
0.0
   0
LINE
   5
2C1
 100
AcDbEntity
   8
LEVEL001
 370
20
 100
AcDbLine
   6
CONTINUOUS
  62
7
  10
 695.10732684597
  20
 771.62847663815
  30
0.0
  11
 695.10732684597
  21
 816.62847663815
  31
0.0
   0
LINE
   5
2C2
 100
AcDbEntity
   8
LEVEL001
 370
20
 100
AcDbLine
   6
CONTINUOUS
  62
7
  10
 695.10732684597
  20
 816.62847663815
  30
0.0
  11
 711.10732684597
  21
 816.62847663815
  31
0.0
   0
LINE
   5
2C3
 100
AcDbEntity
   8
LEVEL001
 370
20
 100
AcDbLine
   6
CONTINUOUS
  62
7
  10
 711.10732684597
  20
 816.62847663815
  30
0.0
  11
 711.10732684597
  21
 771.62847663815
  31
0.0
   0
ARC
   5
2C4
 100
AcDbEntity
   8
LEVEL001
 370
20
   6
CONTINUOUS
  62
7
 100
AcDbCircle
  10
 703.10732684597
  20
 771.62847663815
  30
0.0
  40
 8.0000000000000
 100
AcDbArc
  50
 180.00000000000
  51
0.0
   0
LINE
   5
2C5
 100
AcDbEntity
   8
LEVEL004
 370
20
 100
AcDbLine
   6
CONTINUOUS
  62
7
  10
 695.81553077847
  20
 816.62847663815
  30
0.0
  11
 710.39912291347
  21
 816.62847663815
  31
0.0
   0
LINE
   5
2C6
 100
AcDbEntity
   8
LEVEL001
 370
20
 100
AcDbLine
   6
CONTINUOUS
  62
7
  10
 533.65672199862
  20
 763.62847663815
  30
0.0
  11
 533.65672199862
  21
 779.62847663815
  31
0.0
   0
LINE
   5
2C7
 100
AcDbEntity
   8
LEVEL001
 370
15
 100
AcDbLine
   6
HIDDEN
  62
2
  10
 534.85672199862
  20
 767.32847663815
  30
0.0
  11
 564.65672199862
  21
 767.32847663815
  31
0.0
   0
LINE
   5
2C8
 100
AcDbEntity
   8
LEVEL001
 370
15
 100
AcDbLine
   6
HIDDEN
  62
2
  10
 564.65672199862
  20
 767.32847663815
  30
0.0
  11
 566.65672199862
  21
 771.62847663815
  31
0.0
   0
LINE
   5
2C9
 100
AcDbEntity
   8
LEVEL001
 370
15
 100
AcDbLine
   6
HIDDEN
  62
2
  10
 559.77672199862
  20
 767.32847663815
  30
0.0
  11
 558.65672199862
  21
 766.62847663815
  31
0.0
   0
LINE
   5
2CA
 100
AcDbEntity
   8
LEVEL001
 370
15
 100
AcDbLine
   6
HIDDEN
  62
2
  10
 558.65672199862
  20
 766.62847663815
  30
0.0
  11
 534.15672199862
  21
 766.62847663815
  31
0.0
   0
LINE
   5
2CB
 100
AcDbEntity
   8
LEVEL001
 370
15
 100
AcDbLine
   6
HIDDEN
  62
2
  10
 564.65672199862
  20
 775.92847663815
  30
0.0
  11
 564.65672199862
  21
 767.32847663815
  31
0.0
   0
LINE
   5
2CC
 100
AcDbEntity
   8
LEVEL001
 370
15
 100
AcDbLine
   6
HIDDEN
  62
2
  10
 558.65672199862
  20
 776.62847663815
  30
0.0
  11
 558.65672199862
  21
 766.62847663815
  31
0.0
   0
LINE
   5
2CD
 100
AcDbEntity
   8
LEVEL001
 370
15
 100
AcDbLine
   6
HIDDEN
  62
2
  10
 534.85672199862
  20
 775.92847663815
  30
0.0
  11
 534.85672199862
  21
 767.32847663815
  31
0.0
   0
LINE
   5
2CE
 100
AcDbEntity
   8
LEVEL001
 370
15
 100
AcDbLine
   6
HIDDEN
  62
2
  10
 534.85672199862
  20
 767.32847663815
  30
0.0
  11
 533.65672199862
  21
 766.12847663815
  31
0.0
   0
LINE
   5
2CF
 100
AcDbEntity
   8
LEVEL001
 370
15
 100
AcDbLine
   6
HIDDEN
  62
2
  10
 559.77672199862
  20
 775.92847663815
  30
0.0
  11
 559.77672199862
  21
 767.32847663815
  31
0.0
   0
LINE
   5
2D0
 100
AcDbEntity
   8
LEVEL001
 370
15
 100
AcDbLine
   6
HIDDEN
  62
2
  10
 564.65672199862
  20
 775.92847663815
  30
0.0
  11
 534.85672199862
  21
 775.92847663815
  31
0.0
   0
LINE
   5
2D1
 100
AcDbEntity
   8
LEVEL001
 370
15
 100
AcDbLine
   6
HIDDEN
  62
2
  10
 534.15672199862
  20
 776.62847663815
  30
0.0
  11
 558.65672199862
  21
 776.62847663815
  31
0.0
   0
LINE
   5
2D2
 100
AcDbEntity
   8
LEVEL001
 370
15
 100
AcDbLine
   6
HIDDEN
  62
2
  10
 534.85672199862
  20
 775.92847663815
  30
0.0
  11
 533.65672199862
  21
 777.12847663815
  31
0.0
   0
LINE
   5
2D3
 100
AcDbEntity
   8
LEVEL001
 370
15
 100
AcDbLine
   6
HIDDEN
  62
2
  10
 566.65672199862
  20
 771.62847663815
  30
0.0
  11
 564.65672199862
  21
 775.92847663815
  31
0.0
   0
LINE
   5
2D4
 100
AcDbEntity
   8
LEVEL001
 370
15
 100
AcDbLine
   6
HIDDEN
  62
2
  10
 558.65672199862
  20
 776.62847663815
  30
0.0
  11
 559.77672199862
  21
 775.92847663815
  31
0.0
   0
LINE
   5
2D5
 100
AcDbEntity
   8
LEVEL001
 370
20
 100
AcDbLine
   6
CONTINUOUS
  62
7
  10
 532.15672199862
  20
 791.62847663815
  30
0.0
  11
 532.15672199862
  21
 751.62847663815
  31
0.0
   0
LINE
   5
2D6
 100
AcDbEntity
   8
LEVEL001
 370
20
 100
AcDbLine
   6
CONTINUOUS
  62
7
  10
 530.65672199862
  20
 791.62847663815
  30
0.0
  11
 532.15672199862
  21
 791.62847663815
  31
0.0
   0
LINE
   5
2D7
 100
AcDbEntity
   8
LEVEL001
 370
20
 100
AcDbLine
   6
CONTINUOUS
  62
7
  10
 532.15672199862
  20
 791.62847663815
  30
0.0
  11
 533.65672199862
  21
 790.12847663815
  31
0.0
   0
LINE
   5
2D8
 100
AcDbEntity
   8
LEVEL001
 370
20
 100
AcDbLine
   6
CONTINUOUS
  62
7
  10
 533.65672199862
  20
 753.12847663815
  30
0.0
  11
 533.65672199862
  21
 790.12847663815
  31
0.0
   0
LINE
   5
2D9
 100
AcDbEntity
   8
LEVEL001
 370
20
 100
AcDbLine
   6
CONTINUOUS
  62
7
  10
 530.65672199862
  20
 751.62847663815
  30
0.0
  11
 530.65672199862
  21
 791.62847663815
  31
0.0
   0
LINE
   5
2DA
 100
AcDbEntity
   8
LEVEL001
 370
20
 100
AcDbLine
   6
CONTINUOUS
  62
7
  10
 532.15672199862
  20
 751.62847663815
  30
0.0
  11
 533.65672199862
  21
 753.12847663815
  31
0.0
   0
LINE
   5
2DB
 100
AcDbEntity
   8
LEVEL001
 370
20
 100
AcDbLine
   6
CONTINUOUS
  62
7
  10
 530.65672199862
  20
 751.62847663815
  30
0.0
  11
 532.15672199862
  21
 751.62847663815
  31
0.0
   0
LINE
   5
2DC
 100
AcDbEntity
   8
LEVEL001
 370
20
 100
AcDbLine
   6
CONTINUOUS
  62
7
  10
 503.25672199862
  20
 791.62847663815
  30
0.0
  11
 503.25672199862
  21
 751.62847663815
  31
0.0
   0
LINE
   5
2DD
 100
AcDbEntity
   8
LEVEL001
 370
20
 100
AcDbLine
   6
CONTINUOUS
  62
7
  10
 503.25672199862
  20
 751.62847663815
  30
0.0
  11
 509.65672199862
  21
 751.62847663815
  31
0.0
   0
LINE
   5
2DE
 100
AcDbEntity
   8
LEVEL001
 370
20
 100
AcDbLine
   6
CONTINUOUS
  62
7
  10
 509.65672199862
  20
 751.62847663815
  30
0.0
  11
 509.65672199862
  21
 791.62847663815
  31
0.0
   0
LINE
   5
2DF
 100
AcDbEntity
   8
LEVEL001
 370
20
 100
AcDbLine
   6
CONTINUOUS
  62
7
  10
 509.65672199862
  20
 791.62847663815
  30
0.0
  11
 503.25672199862
  21
 791.62847663815
  31
0.0
   0
LINE
   5
2E0
 100
AcDbEntity
   8
LEVEL001
 370
20
 100
AcDbLine
   6
CONTINUOUS
  62
7
  10
 511.65672199862
  20
 776.62847663815
  30
0.0
  11
 528.65672199862
  21
 776.62847663815
  31
0.0
   0
LINE
   5
2E1
 100
AcDbEntity
   8
LEVEL001
 370
20
 100
AcDbLine
   6
CONTINUOUS
  62
7
  10
 528.65672199862
  20
 766.62847663815
  30
0.0
  11
 511.65672199862
  21
 766.62847663815
  31
0.0
   0
CIRCLE
   5
2E2
 100
AcDbEntity
   8
LEVEL001
 370
20
 100
AcDbCircle
   6
CONTINUOUS
  62
7
  10
 506.45672199862
  20
 771.62847663815
  30
0.0
  40
 2.0000000000000
   0
LINE
   5
2E3
 100
AcDbEntity
   8
LEVEL001
 370
15
 100
AcDbLine
   6
HIDDEN
  62
2
  10
 546.15672199862
  20
 776.62847663815
  30
0.0
  11
 533.65672199862
  21
 776.62847663815
  31
0.0
   0
LINE
   5
2E4
 100
AcDbEntity
   8
LEVEL001
 370
15
 100
AcDbLine
   6
HIDDEN
  62
2
  10
 533.65672199862
  20
 776.12847663815
  30
0.0
  11
 546.65672199862
  21
 776.12847663815
  31
0.0
   0
LINE
   5
2E5
 100
AcDbEntity
   8
LEVEL001
 370
15
 100
AcDbLine
   6
HIDDEN
  62
2
  10
 546.15672199862
  20
 776.62847663815
  30
0.0
  11
 546.15672199862
  21
 766.62847663815
  31
0.0
   0
LINE
   5
2E6
 100
AcDbEntity
   8
LEVEL001
 370
15
 100
AcDbLine
   6
HIDDEN
  62
2
  10
 546.65672199862
  20
 767.12847663815
  30
0.0
  11
 546.65672199862
  21
 776.12847663815
  31
0.0
   0
LINE
   5
2E7
 100
AcDbEntity
   8
LEVEL001
 370
15
 100
AcDbLine
   6
HIDDEN
  62
2
  10
 546.15672199862
  20
 766.62847663815
  30
0.0
  11
 546.65672199862
  21
 767.12847663815
  31
0.0
   0
LINE
   5
2E8
 100
AcDbEntity
   8
LEVEL001
 370
15
 100
AcDbLine
   6
HIDDEN
  62
2
  10
 546.65672199862
  20
 767.12847663815
  30
0.0
  11
 533.65672199862
  21
 767.12847663815
  31
0.0
   0
LINE
   5
2E9
 100
AcDbEntity
   8
LEVEL001
 370
15
 100
AcDbLine
   6
HIDDEN
  62
2
  10
 533.65672199862
  20
 766.62847663815
  30
0.0
  11
 546.15672199862
  21
 766.62847663815
  31
0.0
   0
LINE
   5
2EA
 100
AcDbEntity
   8
LEVEL001
 370
15
 100
AcDbLine
   6
CONTINUOUS
  62
6
  10
 528.65672199862
  20
 764.12847663815
  30
0.0
  11
 511.65672199862
  21
 764.12847663815
  31
0.0
   0
LINE
   5
2EB
 100
AcDbEntity
   8
LEVEL001
 370
15
 100
AcDbLine
   6
CONTINUOUS
  62
6
  10
 511.65672199862
  20
 779.12847663815
  30
0.0
  11
 528.65672199862
  21
 779.12847663815
  31
0.0
   0
LINE
   5
2EC
 100
AcDbEntity
   8
LEVEL001
 370
15
 100
AcDbLine
   6
CONTINUOUS
  62
6
  10
 528.65672199862
  20
 751.62847663815
  30
0.0
  11
 530.65672199862
  21
 751.62847663815
  31
0.0
   0
LINE
   5
2ED
 100
AcDbEntity
   8
LEVEL001
 370
15
 100
AcDbLine
   6
CONTINUOUS
  62
6
  10
 511.65672199862
  20
 751.62847663815
  30
0.0
  11
 509.65672199862
  21
 751.62847663815
  31
0.0
   0
LINE
   5
2EE
 100
AcDbEntity
   8
LEVEL001
 370
15
 100
AcDbLine
   6
CONTINUOUS
  62
6
  10
 528.65672199862
  20
 791.62847663815
  30
0.0
  11
 528.65672199862
  21
 751.62847663815
  31
0.0
   0
LINE
   5
2EF
 100
AcDbEntity
   8
LEVEL001
 370
15
 100
AcDbLine
   6
CONTINUOUS
  62
6
  10
 511.65672199862
  20
 791.62847663815
  30
0.0
  11
 511.65672199862
  21
 751.62847663815
  31
0.0
   0
LINE
   5
2F0
 100
AcDbEntity
   8
LEVEL001
 370
15
 100
AcDbLine
   6
CONTINUOUS
  62
6
  10
 509.65672199862
  20
 791.62847663815
  30
0.0
  11
 511.65672199862
  21
 791.62847663815
  31
0.0
   0
LINE
   5
2F1
 100
AcDbEntity
   8
LEVEL001
 370
15
 100
AcDbLine
   6
CONTINUOUS
  62
6
  10
 528.65672199862
  20
 791.62847663815
  30
0.0
  11
 530.65672199862
  21
 791.62847663815
  31
0.0
   0
LINE
   5
2F2
 100
AcDbEntity
   8
LEVEL001
 370
15
 100
AcDbLine
   6
DASHDOT
  62
8
  10
 587.65672199862
  20
 771.62847663815
  30
0.0
  11
 494.57229161743
  21
 771.62847663815
  31
0.0
   0
ARC
   5
2F3
 100
AcDbEntity
   8
LEVEL001
 370
20
   6
CONTINUOUS
  62
7
 100
AcDbCircle
  10
 703.10732684597
  20
 771.62847663815
  30
0.0
  40
 18.500000000000
 100
AcDbArc
  50
 115.62202774724
  51
 64.377972252758
   0
ARC
   5
2F4
 100
AcDbEntity
   8
LEVEL001
 370
20
   6
CONTINUOUS
  62
7
 100
AcDbCircle
  10
 703.10732684597
  20
 771.62847663815
  30
0.0
  40
 20.000000000000
 100
AcDbArc
  50
 113.57817847820
  51
 66.421821521798
   0
LINE
   5
2F5
 100
AcDbEntity
   8
LEVEL001
 370
15
 100
AcDbLine
   6
DASHDOT
  62
8
  10
 703.10732684597
  20
 745.64736921776
  30
0.0
  11
 703.10732684597
  21
 837.39307020061
  31
0.0
   0
LINE
   5
2F6
 100
AcDbEntity
   8
LEVEL001
 370
15
 100
AcDbLine
   6
DASHDOT
  62
8
  10
 729.08843426636
  20
 771.62847663815
  30
0.0
  11
 677.12621942557
  21
 771.62847663815
  31
0.0
   0
DIMENSION
   5
2F7
 100
AcDbEntity
   8
0
 370
15
   6
CONTINUOUS
  62
8
 100
AcDbDimension
   2
*D2
  10
 711.10732684597
  20
 725.64736921776
  30
0.0
  11
 703.10732684597
  21
 725.64736921776
  31
0.0
  70
0
   3
GMM001
 100
AcDbAlignedDimension
  13
 695.10732684597
  23
 771.62847663815
  33
0.0
  14
 711.10732684597
  24
 771.62847663815
  34
0.0
 100
AcDbRotatedDimension
   0
DIMENSION
   5
2F8
 100
AcDbEntity
   8
0
 370
15
   6
CONTINUOUS
  62
8
 100
AcDbDimension
   2
*D3
  10
 723.10732684597
  20
 705.64736921776
  30
0.0
  11
 703.10732684597
  21
 705.64736921776
  31
0.0
  70
0
   3
GMM001
 100
AcDbAlignedDimension
  13
 683.10732684597
  23
 771.62847663815
  33
0.0
  14
 723.10732684597
  24
 771.62847663815
  34
0.0
 100
AcDbRotatedDimension
   0
LEADER
   5
2F9
 100
AcDbEntity
   8
0
 370
15
   6
CONTINUOUS
  62
8
 100
AcDbLeader
   3
GMM002
  73
0
  74
0
  75
0
  40
 10.000000000000
  41
 26.000000000000
  76
2
  10
 549.78892119881
  20
 776.62847663815
  30
0.0
  10
 558.77327762138
  20
 795.71876841782
  30
0.0
  77
8
 340
2FA
 213
0.0
 223
-4.0000000000000
 233
0.0
   0
MTEXT
   5
2FA
 102
{ACAD_REACTORS
 330
2F9
 102
}
 100
AcDbEntity
   8
0
 370
15
  62
8
 100
AcDbMText
  10
 558.77327762138
  20
 799.71876841782
  30
0.0
  40
 10.000000000000
  41
0.0
  71
7
  72
1
   1
\A1;Ｍ１０
   7
GMM001
   0
DIMENSION
   5
2FB
 100
AcDbEntity
   8
0
 370
15
   6
CONTINUOUS
  62
8
 100
AcDbDimension
   2
*D5
  10
 509.65672199862
  20
 811.62847663815
  30
0.0
  11
 495.49953771591
  21
 811.62847663815
  31
0.0
  70
128
   3
GMM003
 100
AcDbAlignedDimension
  13
 503.25672199862
  23
 791.62847663815
  33
0.0
  14
 509.65672199862
  24
 791.62847663815
  34
0.0
 100
AcDbRotatedDimension
   0
DIMENSION
   5
2FC
 100
AcDbEntity
   8
0
 370
15
   6
CONTINUOUS
  62
8
 100
AcDbDimension
   2
*D6
  10
 511.65672199862
  20
 811.62847663815
  30
0.0
  11
 516.54177293363
  21
 811.62847663815
  31
0.0
  70
128
   3
GMM004
 100
AcDbAlignedDimension
  13
 509.65672199862
  23
 791.62847663815
  33
0.0
  14
 511.65672199862
  24
 791.62847663815
  34
0.0
 100
AcDbRotatedDimension
   0
DIMENSION
   5
2FD
 100
AcDbEntity
   8
0
 370
15
   6
CONTINUOUS
  62
8
 100
AcDbDimension
   2
*D7
  10
 530.65672199862
  20
 725.64736921776
  30
0.0
  11
 526.35857832161
  21
 725.64736921776
  31
0.0
  70
128
   3
GMM005
 100
AcDbAlignedDimension
  13
 528.65672199862
  23
 751.62847663815
  33
0.0
  14
 530.65672199862
  24
 751.62847663815
  34
0.0
 100
AcDbRotatedDimension
   0
DIMENSION
   5
2FE
 100
AcDbEntity
   8
0
 370
15
   6
CONTINUOUS
  62
8
 100
AcDbDimension
   2
*D8
  10
 533.65672199862
  20
 725.64736921776
  30
0.0
  11
 538.79658692339
  21
 709.64736921776
  31
0.0
  70
128
   3
GMM006
 100
AcDbAlignedDimension
  13
 530.65672199862
  23
 751.62847663815
  33
0.0
  14
 533.65672199862
  24
 753.12847663815
  34
0.0
 100
AcDbRotatedDimension
   0
DIMENSION
   5
2FF
 100
AcDbEntity
   8
0
 370
15
   6
CONTINUOUS
  62
8
 100
AcDbDimension
   2
*D9
  10
 603.65672199861
  20
 725.64736921776
  30
0.0
  11
 568.65672199862
  21
 725.64736921776
  31
0.0
  70
0
   1
\A1;L
   3
GMM007
 100
AcDbAlignedDimension
  13
 533.65672199862
  23
 753.12847663815
  33
0.0
  14
 603.65672199861
  24
 783.62847663815
  34
0.0
 100
AcDbRotatedDimension
   0
LEADER
   5
300
 100
AcDbEntity
   8
0
 370
15
   6
CONTINUOUS
  62
8
 100
AcDbLeader
   3
GMM002
  73
0
  74
1
  75
0
  40
 10.000000000000
  41
 34.000000000000
  76
2
  10
 505.89704682818
  20
 773.37433628084
  30
0.0
  10
 495.23905110844
  20
 782.08202223134
  30
0.0
  77
8
 340
301
 213
0.0
 223
-4.0000000000000
 233
0.0
   0
MTEXT
   5
301
 102
{ACAD_REACTORS
 330
300
 102
}
 100
AcDbEntity
   8
0
 370
15
  62
8
 100
AcDbMText
  10
 461.23905110844
  20
 786.08202223134
  30
0.0
  40
 10.000000000000
  41
0.0
  71
7
  72
1
   1
\A1;２－%%c４
   7
GMM001
   0
LEADER
   5
302
 100
AcDbEntity
   8
0
 370
15
   6
CONTINUOUS
  62
8
 100
AcDbLeader
   3
GMM008
  73
3
  74
1
  75
0
  40
 10.000000000000
  41
0.0
  76
2
  10
 511.65672199862
  20
 771.62847663815
  30
0.0
  10
 499.06194166818
  20
 725.64736921776
  30
0.0
  77
8
   0
LEADER
   5
303
 100
AcDbEntity
   8
0
 370
15
   6
CONTINUOUS
  62
8
 100
AcDbLeader
   3
GMM002
  73
0
  74
1
  75
0
  40
 10.000000000000
  41
 41.000000000000
  76
2
  10
 521.23416234338
  20
 779.12847663815
  30
0.0
  10
 541.23082065588
  20
 830.30925698501
  30
0.0
  77
8
 340
304
 213
0.0
 223
-4.0000000000000
 233
0.0
   0
MTEXT
   5
304
 102
{ACAD_REACTORS
 330
303
 102
}
 100
AcDbEntity
   8
0
 370
15
  62
8
 100
AcDbMText
  10
 500.23082065588
  20
 834.30925698501
  30
0.0
  40
 10.000000000000
  41
0.0
  71
7
  72
1
   1
\A1;透明ﾁｭｰﾌﾞ
   7
GMM001
   0
LEADER
   5
305
 100
AcDbEntity
   8
0
 370
15
   6
CONTINUOUS
  62
8
 100
AcDbLeader
   3
GMM002
  73
0
  74
1
  75
0
  40
 10.000000000000
  41
 41.000000000000
  76
2
  10
 528.65672199862
  20
 771.62847663815
  30
0.0
  10
 499.06194166818
  20
 725.64736921776
  30
0.0
  77
8
 340
306
 213
0.0
 223
-4.0000000000000
 233
0.0
   0
MTEXT
   5
306
 102
{ACAD_REACTORS
 330
305
 102
}
 100
AcDbEntity
   8
0
 370
15
  62
8
 100
AcDbMText
  10
 458.06194166818
  20
 729.64736921776
  30
0.0
  40
 10.000000000000
  41
0.0
  71
7
  72
1
   1
\A1;透明ﾊ\U+00B0ｯｷﾝ
   7
GMM001
   0
LINE
   5
307
 100
AcDbEntity
   8
LEVEL001
 370
15
 100
AcDbLine
   6
DASHDOT
  62
8
  10
 684.80580328501
  20
 391.93263374145
  30
0.0
  11
 708.89458819177
  21
 391.93263374145
  31
0.0
   0
CIRCLE
   5
308
 100
AcDbEntity
   8
LEVEL001
 370
15
 100
AcDbCircle
   6
HIDDEN
  62
2
  10
 696.85019573839
  20
 391.93263374145
  30
0.0
  40
 6.5000000000000
   0
LINE
   5
309
 100
AcDbEntity
   8
LEVEL001
 370
20
 100
AcDbLine
   6
CONTINUOUS
  62
7
  10
 703.35019573839
  20
 446.93263374145
  30
0.0
  11
 690.35019573839
  21
 446.93263374145
  31
0.0
   0
LINE
   5
30A
 100
AcDbEntity
   8
LEVEL001
 370
15
 100
AcDbLine
   6
HIDDEN
  62
2
  10
 692.55019573839
  20
 445.73263374145
  30
0.0
  11
 692.55019573839
  21
 415.93263374145
  31
0.0
   0
LINE
   5
30B
 100
AcDbEntity
   8
LEVEL001
 370
15
 100
AcDbLine
   6
HIDDEN
  62
2
  10
 692.55019573839
  20
 415.93263374145
  30
0.0
  11
 696.85019573839
  21
 413.93263374145
  31
0.0
   0
LINE
   5
30C
 100
AcDbEntity
   8
LEVEL001
 370
15
 100
AcDbLine
   6
HIDDEN
  62
2
  10
 692.55019573839
  20
 420.81263374145
  30
0.0
  11
 691.85019573839
  21
 421.93263374145
  31
0.0
   0
LINE
   5
30D
 100
AcDbEntity
   8
LEVEL001
 370
15
 100
AcDbLine
   6
HIDDEN
  62
2
  10
 691.85019573839
  20
 421.93263374145
  30
0.0
  11
 691.85019573839
  21
 446.43263374145
  31
0.0
   0
LINE
   5
30E
 100
AcDbEntity
   8
LEVEL001
 370
15
 100
AcDbLine
   6
HIDDEN
  62
2
  10
 701.15019573839
  20
 415.93263374145
  30
0.0
  11
 692.55019573839
  21
 415.93263374145
  31
0.0
   0
LINE
   5
30F
 100
AcDbEntity
   8
LEVEL001
 370
15
 100
AcDbLine
   6
HIDDEN
  62
2
  10
 701.85019573839
  20
 421.93263374145
  30
0.0
  11
 691.85019573839
  21
 421.93263374145
  31
0.0
   0
LINE
   5
310
 100
AcDbEntity
   8
LEVEL001
 370
15
 100
AcDbLine
   6
HIDDEN
  62
2
  10
 701.15019573839
  20
 445.73263374145
  30
0.0
  11
 692.55019573839
  21
 445.73263374145
  31
0.0
   0
LINE
   5
311
 100
AcDbEntity
   8
LEVEL001
 370
15
 100
AcDbLine
   6
HIDDEN
  62
2
  10
 692.55019573839
  20
 445.73263374145
  30
0.0
  11
 691.35019573839
  21
 446.93263374145
  31
0.0
   0
LINE
   5
312
 100
AcDbEntity
   8
LEVEL001
 370
15
 100
AcDbLine
   6
HIDDEN
  62
2
  10
 701.15019573839
  20
 420.81263374145
  30
0.0
  11
 692.55019573839
  21
 420.81263374145
  31
0.0
   0
LINE
   5
313
 100
AcDbEntity
   8
LEVEL001
 370
15
 100
AcDbLine
   6
HIDDEN
  62
2
  10
 701.15019573839
  20
 415.93263374145
  30
0.0
  11
 701.15019573839
  21
 445.73263374145
  31
0.0
   0
LINE
   5
314
 100
AcDbEntity
   8
LEVEL001
 370
15
 100
AcDbLine
   6
HIDDEN
  62
2
  10
 701.85019573839
  20
 446.43263374145
  30
0.0
  11
 701.85019573839
  21
 421.93263374145
  31
0.0
   0
LINE
   5
315
 100
AcDbEntity
   8
LEVEL001
 370
15
 100
AcDbLine
   6
HIDDEN
  62
2
  10
 701.15019573839
  20
 445.73263374145
  30
0.0
  11
 702.35019573839
  21
 446.93263374145
  31
0.0
   0
LINE
   5
316
 100
AcDbEntity
   8
LEVEL001
 370
15
 100
AcDbLine
   6
HIDDEN
  62
2
  10
 696.85019573839
  20
 413.93263374145
  30
0.0
  11
 701.15019573839
  21
 415.93263374145
  31
0.0
   0
LINE
   5
317
 100
AcDbEntity
   8
LEVEL001
 370
15
 100
AcDbLine
   6
HIDDEN
  62
2
  10
 701.85019573839
  20
 421.93263374145
  30
0.0
  11
 701.15019573839
  21
 420.81263374145
  31
0.0
   0
LINE
   5
318
 100
AcDbEntity
   8
LEVEL001
 370
20
 100
AcDbLine
   6
CONTINUOUS
  62
7
  10
 688.85019573839
  20
 446.93263374145
  30
0.0
  11
 704.85019573839
  21
 446.93263374145
  31
0.0
   0
LINE
   5
319
 100
AcDbEntity
   8
LEVEL001
 370
15
 100
AcDbLine
   6
HIDDEN
  62
2
  10
 701.15019573839
  20
 445.73263374145
  30
0.0
  11
 692.55019573839
  21
 445.73263374145
  31
0.0
   0
LINE
   5
31A
 100
AcDbEntity
   8
LEVEL001
 370
15
 100
AcDbLine
   6
HIDDEN
  62
2
  10
 692.55019573839
  20
 445.73263374145
  30
0.0
  11
 691.35019573839
  21
 446.93263374145
  31
0.0
   0
LINE
   5
31B
 100
AcDbEntity
   8
LEVEL001
 370
15
 100
AcDbLine
   6
HIDDEN
  62
2
  10
 701.15019573839
  20
 445.73263374145
  30
0.0
  11
 702.35019573839
  21
 446.93263374145
  31
0.0
   0
LINE
   5
31C
 100
AcDbEntity
   8
LEVEL001
 370
20
 100
AcDbLine
   6
CONTINUOUS
  62
7
  10
 716.85019573839
  20
 448.43263374145
  30
0.0
  11
 676.85019573839
  21
 448.43263374145
  31
0.0
   0
LINE
   5
31D
 100
AcDbEntity
   8
LEVEL001
 370
20
 100
AcDbLine
   6
CONTINUOUS
  62
7
  10
 716.85019573839
  20
 449.93263374145
  30
0.0
  11
 716.85019573839
  21
 448.43263374145
  31
0.0
   0
LINE
   5
31E
 100
AcDbEntity
   8
LEVEL001
 370
20
 100
AcDbLine
   6
CONTINUOUS
  62
7
  10
 716.85019573839
  20
 448.43263374145
  30
0.0
  11
 715.35019573839
  21
 446.93263374145
  31
0.0
   0
LINE
   5
31F
 100
AcDbEntity
   8
LEVEL001
 370
20
 100
AcDbLine
   6
CONTINUOUS
  62
7
  10
 678.35019573839
  20
 446.93263374145
  30
0.0
  11
 715.35019573839
  21
 446.93263374145
  31
0.0
   0
LINE
   5
320
 100
AcDbEntity
   8
LEVEL001
 370
20
 100
AcDbLine
   6
CONTINUOUS
  62
7
  10
 676.85019573839
  20
 449.93263374145
  30
0.0
  11
 716.85019573839
  21
 449.93263374145
  31
0.0
   0
LINE
   5
321
 100
AcDbEntity
   8
LEVEL001
 370
20
 100
AcDbLine
   6
CONTINUOUS
  62
7
  10
 676.85019573839
  20
 448.43263374145
  30
0.0
  11
 678.35019573839
  21
 446.93263374145
  31
0.0
   0
LINE
   5
322
 100
AcDbEntity
   8
LEVEL001
 370
20
 100
AcDbLine
   6
CONTINUOUS
  62
7
  10
 676.85019573839
  20
 449.93263374145
  30
0.0
  11
 676.85019573839
  21
 448.43263374145
  31
0.0
   0
LINE
   5
323
 100
AcDbEntity
   8
LEVEL001
 370
20
 100
AcDbLine
   6
CONTINUOUS
  62
7
  10
 716.85019573839
  20
 477.33263374145
  30
0.0
  11
 676.85019573839
  21
 477.33263374145
  31
0.0
   0
LINE
   5
324
 100
AcDbEntity
   8
LEVEL001
 370
20
 100
AcDbLine
   6
CONTINUOUS
  62
7
  10
 676.85019573839
  20
 477.33263374145
  30
0.0
  11
 676.85019573839
  21
 470.93263374145
  31
0.0
   0
LINE
   5
325
 100
AcDbEntity
   8
LEVEL001
 370
20
 100
AcDbLine
   6
CONTINUOUS
  62
7
  10
 676.85019573839
  20
 470.93263374145
  30
0.0
  11
 716.85019573839
  21
 470.93263374145
  31
0.0
   0
LINE
   5
326
 100
AcDbEntity
   8
LEVEL001
 370
20
 100
AcDbLine
   6
CONTINUOUS
  62
7
  10
 716.85019573839
  20
 470.93263374145
  30
0.0
  11
 716.85019573839
  21
 477.33263374145
  31
0.0
   0
LINE
   5
327
 100
AcDbEntity
   8
LEVEL001
 370
20
 100
AcDbLine
   6
CONTINUOUS
  62
7
  10
 701.85019573839
  20
 468.93263374145
  30
0.0
  11
 701.85019573839
  21
 451.93263374145
  31
0.0
   0
LINE
   5
328
 100
AcDbEntity
   8
LEVEL001
 370
20
 100
AcDbLine
   6
CONTINUOUS
  62
7
  10
 691.85019573839
  20
 451.93263374145
  30
0.0
  11
 691.85019573839
  21
 468.93263374145
  31
0.0
   0
LINE
   5
329
 100
AcDbEntity
   8
LEVEL001
 370
15
 100
AcDbLine
   6
HIDDEN
  62
2
  10
 701.85019573839
  20
 434.43263374145
  30
0.0
  11
 701.85019573839
  21
 446.93263374145
  31
0.0
   0
LINE
   5
32A
 100
AcDbEntity
   8
LEVEL001
 370
15
 100
AcDbLine
   6
HIDDEN
  62
2
  10
 701.35019573839
  20
 446.93263374145
  30
0.0
  11
 701.35019573839
  21
 433.93263374145
  31
0.0
   0
LINE
   5
32B
 100
AcDbEntity
   8
LEVEL001
 370
15
 100
AcDbLine
   6
HIDDEN
  62
2
  10
 701.85019573839
  20
 434.43263374145
  30
0.0
  11
 691.85019573839
  21
 434.43263374145
  31
0.0
   0
LINE
   5
32C
 100
AcDbEntity
   8
LEVEL001
 370
15
 100
AcDbLine
   6
HIDDEN
  62
2
  10
 692.35019573839
  20
 433.93263374145
  30
0.0
  11
 701.35019573839
  21
 433.93263374145
  31
0.0
   0
LINE
   5
32D
 100
AcDbEntity
   8
LEVEL001
 370
15
 100
AcDbLine
   6
HIDDEN
  62
2
  10
 691.85019573839
  20
 434.43263374145
  30
0.0
  11
 692.35019573839
  21
 433.93263374145
  31
0.0
   0
LINE
   5
32E
 100
AcDbEntity
   8
LEVEL001
 370
15
 100
AcDbLine
   6
HIDDEN
  62
2
  10
 692.35019573839
  20
 433.93263374145
  30
0.0
  11
 692.35019573839
  21
 446.93263374145
  31
0.0
   0
LINE
   5
32F
 100
AcDbEntity
   8
LEVEL001
 370
15
 100
AcDbLine
   6
HIDDEN
  62
2
  10
 691.85019573839
  20
 446.93263374145
  30
0.0
  11
 691.85019573839
  21
 434.43263374145
  31
0.0
   0
LINE
   5
330
 100
AcDbEntity
   8
LEVEL001
 370
15
 100
AcDbLine
   6
CONTINUOUS
  62
6
  10
 689.35019573839
  20
 451.93263374145
  30
0.0
  11
 689.35019573839
  21
 468.93263374145
  31
0.0
   0
LINE
   5
331
 100
AcDbEntity
   8
LEVEL001
 370
15
 100
AcDbLine
   6
CONTINUOUS
  62
6
  10
 704.35019573839
  20
 468.93263374145
  30
0.0
  11
 704.35019573839
  21
 451.93263374145
  31
0.0
   0
LINE
   5
332
 100
AcDbEntity
   8
LEVEL001
 370
15
 100
AcDbLine
   6
CONTINUOUS
  62
6
  10
 676.85019573839
  20
 451.93263374145
  30
0.0
  11
 676.85019573839
  21
 449.93263374145
  31
0.0
   0
LINE
   5
333
 100
AcDbEntity
   8
LEVEL001
 370
15
 100
AcDbLine
   6
CONTINUOUS
  62
6
  10
 676.85019573839
  20
 468.93263374145
  30
0.0
  11
 676.85019573839
  21
 470.93263374145
  31
0.0
   0
LINE
   5
334
 100
AcDbEntity
   8
LEVEL001
 370
15
 100
AcDbLine
   6
CONTINUOUS
  62
6
  10
 716.85019573839
  20
 451.93263374145
  30
0.0
  11
 676.85019573839
  21
 451.93263374145
  31
0.0
   0
LINE
   5
335
 100
AcDbEntity
   8
LEVEL001
 370
15
 100
AcDbLine
   6
CONTINUOUS
  62
6
  10
 716.85019573839
  20
 468.93263374145
  30
0.0
  11
 676.85019573839
  21
 468.93263374145
  31
0.0
   0
LINE
   5
336
 100
AcDbEntity
   8
LEVEL001
 370
15
 100
AcDbLine
   6
CONTINUOUS
  62
6
  10
 716.85019573839
  20
 470.93263374145
  30
0.0
  11
 716.85019573839
  21
 468.93263374145
  31
0.0
   0
LINE
   5
337
 100
AcDbEntity
   8
LEVEL001
 370
15
 100
AcDbLine
   6
CONTINUOUS
  62
6
  10
 716.85019573839
  20
 451.93263374145
  30
0.0
  11
 716.85019573839
  21
 449.93263374145
  31
0.0
   0
LINE
   5
338
 100
AcDbEntity
   8
LEVEL001
 370
15
 100
AcDbLine
   6
DASHDOT
  62
8
  10
 696.85019573839
  20
 374.67300562614
  30
0.0
  11
 696.85019573839
  21
 481.00855352946
  31
0.0
   0
ARC
   5
339
 100
AcDbEntity
   8
LEVEL001
 370
15
   6
DASHDOT
  62
8
 100
AcDbCircle
  10
 582.89959089104
  20
 249.98336728862
  30
0.0
  40
 14.500000000000
 100
AcDbArc
  50
 270.00000000000
  51
0.0
   0
DIMENSION
   5
33A
 100
AcDbEntity
   8
0
 370
15
   6
CONTINUOUS
  62
8
 100
AcDbDimension
   2
*D14
  10
 634.04363071459
  20
 270.48336728862
  30
0.0
  11
 634.04363071459
  21
 252.98336728862
  31
0.0
  70
0
   3
GMM001
 100
AcDbAlignedDimension
  13
 581.39959089103
  23
 235.48336728862
  33
0.0
  14
 605.39959089104
  24
 270.48336728862
  34
0.0
  50
 90.000000000000
 100
AcDbRotatedDimension
   0
ARC
   5
33B
 100
AcDbEntity
   8
LEVEL001
 370
20
   6
CONTINUOUS
  62
7
 100
AcDbCircle
  10
 582.89959089104
  20
 249.98336728862
  30
0.0
  40
 21.000000000000
 100
AcDbArc
  50
 270.00000000000
  51
0.0
   0
ARC
   5
33C
 100
AcDbEntity
   8
LEVEL001
 370
20
   6
CONTINUOUS
  62
7
 100
AcDbCircle
  10
 582.89959089104
  20
 249.98336728862
  30
0.0
  40
 8.0000000000000
 100
AcDbArc
  50
 270.00000000000
  51
0.0
   0
LINE
   5
33D
 100
AcDbEntity
   8
LEVEL001
 370
20
 100
AcDbLine
   6
CONTINUOUS
  62
7
  10
 582.89959089104
  20
 241.98336728862
  30
0.0
  11
 542.39959089104
  21
 241.98336728862
  31
0.0
   0
LINE
   5
33E
 100
AcDbEntity
   8
LEVEL001
 370
20
 100
AcDbLine
   6
CONTINUOUS
  62
7
  10
 542.39959089104
  20
 228.98336728862
  30
0.0
  11
 582.89959089104
  21
 228.98336728862
  31
0.0
   0
LINE
   5
33F
 100
AcDbEntity
   8
LEVEL001
 370
20
 100
AcDbLine
   6
CONTINUOUS
  62
7
  10
 542.39959089104
  20
 241.98336728862
  30
0.0
  11
 542.39959089104
  21
 228.98336728862
  31
0.0
   0
LINE
   5
340
 100
AcDbEntity
   8
LEVEL001
 370
20
 100
AcDbLine
   6
CONTINUOUS
  62
7
  10
 603.89959089104
  20
 249.98336728862
  30
0.0
  11
 603.89959089104
  21
 270.48336728862
  31
0.0
   0
LINE
   5
341
 100
AcDbEntity
   8
LEVEL001
 370
20
 100
AcDbLine
   6
CONTINUOUS
  62
7
  10
 590.89959089104
  20
 270.48336728862
  30
0.0
  11
 590.89959089104
  21
 249.98336728862
  31
0.0
   0
LINE
   5
342
 100
AcDbEntity
   8
LEVEL001
 370
20
 100
AcDbLine
   6
CONTINUOUS
  62
7
  10
 703.35019573839
  20
 235.48336728862
  30
0.0
  11
 703.35019573839
  21
 270.48336728862
  31
0.0
   0
ARC
   5
343
 100
AcDbEntity
   8
LEVEL001
 370
20
   6
CONTINUOUS
  62
7
 100
AcDbCircle
  10
 696.85019573839
  20
 235.48336728862
  30
0.0
  40
 6.5000000000000
 100
AcDbArc
  50
 180.00000000000
  51
0.0
   0
LINE
   5
344
 100
AcDbEntity
   8
LEVEL001
 370
20
 100
AcDbLine
   6
CONTINUOUS
  62
7
  10
 690.35019573839
  20
 270.48336728862
  30
0.0
  11
 690.35019573839
  21
 235.48336728862
  31
0.0
   0
LINE
   5
345
 100
AcDbEntity
   8
LEVEL001
 370
15
 100
AcDbLine
   6
HIDDEN
  62
2
  10
 543.59959089104
  20
 231.18336728862
  30
0.0
  11
 573.39959089104
  21
 231.18336728862
  31
0.0
   0
LINE
   5
346
 100
AcDbEntity
   8
LEVEL001
 370
15
 100
AcDbLine
   6
HIDDEN
  62
2
  10
 573.39959089104
  20
 231.18336728862
  30
0.0
  11
 575.39959089104
  21
 235.48336728862
  31
0.0
   0
LINE
   5
347
 100
AcDbEntity
   8
LEVEL001
 370
15
 100
AcDbLine
   6
HIDDEN
  62
2
  10
 568.51959089104
  20
 231.18336728862
  30
0.0
  11
 567.39959089104
  21
 230.48336728862
  31
0.0
   0
LINE
   5
348
 100
AcDbEntity
   8
LEVEL001
 370
15
 100
AcDbLine
   6
HIDDEN
  62
2
  10
 567.39959089104
  20
 230.48336728862
  30
0.0
  11
 542.89959089104
  21
 230.48336728862
  31
0.0
   0
LINE
   5
349
 100
AcDbEntity
   8
LEVEL001
 370
15
 100
AcDbLine
   6
HIDDEN
  62
2
  10
 573.39959089104
  20
 239.78336728862
  30
0.0
  11
 573.39959089104
  21
 231.18336728862
  31
0.0
   0
LINE
   5
34A
 100
AcDbEntity
   8
LEVEL001
 370
15
 100
AcDbLine
   6
HIDDEN
  62
2
  10
 567.39959089104
  20
 240.48336728862
  30
0.0
  11
 567.39959089104
  21
 230.48336728862
  31
0.0
   0
LINE
   5
34B
 100
AcDbEntity
   8
LEVEL001
 370
15
 100
AcDbLine
   6
HIDDEN
  62
2
  10
 543.59959089104
  20
 239.78336728862
  30
0.0
  11
 543.59959089104
  21
 231.18336728862
  31
0.0
   0
LINE
   5
34C
 100
AcDbEntity
   8
LEVEL001
 370
15
 100
AcDbLine
   6
HIDDEN
  62
2
  10
 543.59959089104
  20
 231.18336728862
  30
0.0
  11
 542.39959089104
  21
 229.98336728862
  31
0.0
   0
LINE
   5
34D
 100
AcDbEntity
   8
LEVEL001
 370
15
 100
AcDbLine
   6
HIDDEN
  62
2
  10
 568.51959089104
  20
 239.78336728862
  30
0.0
  11
 568.51959089104
  21
 231.18336728862
  31
0.0
   0
LINE
   5
34E
 100
AcDbEntity
   8
LEVEL001
 370
15
 100
AcDbLine
   6
HIDDEN
  62
2
  10
 573.39959089104
  20
 239.78336728862
  30
0.0
  11
 543.59959089104
  21
 239.78336728862
  31
0.0
   0
LINE
   5
34F
 100
AcDbEntity
   8
LEVEL001
 370
15
 100
AcDbLine
   6
HIDDEN
  62
2
  10
 542.89959089104
  20
 240.48336728862
  30
0.0
  11
 567.39959089104
  21
 240.48336728862
  31
0.0
   0
LINE
   5
350
 100
AcDbEntity
   8
LEVEL001
 370
15
 100
AcDbLine
   6
HIDDEN
  62
2
  10
 543.59959089104
  20
 239.78336728862
  30
0.0
  11
 542.39959089104
  21
 240.98336728862
  31
0.0
   0
LINE
   5
351
 100
AcDbEntity
   8
LEVEL001
 370
15
 100
AcDbLine
   6
HIDDEN
  62
2
  10
 575.39959089104
  20
 235.48336728862
  30
0.0
  11
 573.39959089104
  21
 239.78336728862
  31
0.0
   0
LINE
   5
352
 100
AcDbEntity
   8
LEVEL001
 370
15
 100
AcDbLine
   6
HIDDEN
  62
2
  10
 567.39959089104
  20
 240.48336728862
  30
0.0
  11
 568.51959089104
  21
 239.78336728862
  31
0.0
   0
LINE
   5
353
 100
AcDbEntity
   8
LEVEL001
 370
20
 100
AcDbLine
   6
CONTINUOUS
  62
7
  10
 540.89959089104
  20
 255.48336728862
  30
0.0
  11
 540.89959089104
  21
 215.48336728862
  31
0.0
   0
LINE
   5
354
 100
AcDbEntity
   8
LEVEL001
 370
20
 100
AcDbLine
   6
CONTINUOUS
  62
7
  10
 539.39959089104
  20
 255.48336728862
  30
0.0
  11
 540.89959089104
  21
 255.48336728862
  31
0.0
   0
LINE
   5
355
 100
AcDbEntity
   8
LEVEL001
 370
20
 100
AcDbLine
   6
CONTINUOUS
  62
7
  10
 540.89959089104
  20
 255.48336728862
  30
0.0
  11
 542.39959089104
  21
 253.98336728862
  31
0.0
   0
LINE
   5
356
 100
AcDbEntity
   8
LEVEL001
 370
20
 100
AcDbLine
   6
CONTINUOUS
  62
7
  10
 542.39959089104
  20
 216.98336728862
  30
0.0
  11
 542.39959089104
  21
 253.98336728862
  31
0.0
   0
LINE
   5
357
 100
AcDbEntity
   8
LEVEL001
 370
20
 100
AcDbLine
   6
CONTINUOUS
  62
7
  10
 539.39959089104
  20
 215.48336728862
  30
0.0
  11
 539.39959089104
  21
 255.48336728862
  31
0.0
   0
LINE
   5
358
 100
AcDbEntity
   8
LEVEL001
 370
20
 100
AcDbLine
   6
CONTINUOUS
  62
7
  10
 540.89959089104
  20
 215.48336728862
  30
0.0
  11
 542.39959089104
  21
 216.98336728862
  31
0.0
   0
LINE
   5
359
 100
AcDbEntity
   8
LEVEL001
 370
20
 100
AcDbLine
   6
CONTINUOUS
  62
7
  10
 539.39959089104
  20
 215.48336728862
  30
0.0
  11
 540.89959089104
  21
 215.48336728862
  31
0.0
   0
LINE
   5
35A
 100
AcDbEntity
   8
LEVEL001
 370
20
 100
AcDbLine
   6
CONTINUOUS
  62
7
  10
 511.99959089104
  20
 255.48336728862
  30
0.0
  11
 511.99959089104
  21
 215.48336728862
  31
0.0
   0
LINE
   5
35B
 100
AcDbEntity
   8
LEVEL001
 370
20
 100
AcDbLine
   6
CONTINUOUS
  62
7
  10
 511.99959089104
  20
 215.48336728862
  30
0.0
  11
 518.39959089104
  21
 215.48336728862
  31
0.0
   0
LINE
   5
35C
 100
AcDbEntity
   8
LEVEL001
 370
20
 100
AcDbLine
   6
CONTINUOUS
  62
7
  10
 518.39959089104
  20
 215.48336728862
  30
0.0
  11
 518.39959089104
  21
 255.48336728862
  31
0.0
   0
LINE
   5
35D
 100
AcDbEntity
   8
LEVEL001
 370
20
 100
AcDbLine
   6
CONTINUOUS
  62
7
  10
 518.39959089104
  20
 255.48336728862
  30
0.0
  11
 511.99959089104
  21
 255.48336728862
  31
0.0
   0
LINE
   5
35E
 100
AcDbEntity
   8
LEVEL001
 370
20
 100
AcDbLine
   6
CONTINUOUS
  62
7
  10
 520.39959089104
  20
 240.48336728862
  30
0.0
  11
 537.39959089104
  21
 240.48336728862
  31
0.0
   0
LINE
   5
35F
 100
AcDbEntity
   8
LEVEL001
 370
20
 100
AcDbLine
   6
CONTINUOUS
  62
7
  10
 537.39959089104
  20
 230.48336728862
  30
0.0
  11
 520.39959089104
  21
 230.48336728862
  31
0.0
   0
CIRCLE
   5
360
 100
AcDbEntity
   8
LEVEL001
 370
20
 100
AcDbCircle
   6
CONTINUOUS
  62
7
  10
 515.19959089104
  20
 235.48336728862
  30
0.0
  40
 2.0000000000000
   0
LINE
   5
361
 100
AcDbEntity
   8
LEVEL001
 370
15
 100
AcDbLine
   6
HIDDEN
  62
2
  10
 554.89959089104
  20
 240.48336728862
  30
0.0
  11
 542.39959089104
  21
 240.48336728862
  31
0.0
   0
LINE
   5
362
 100
AcDbEntity
   8
LEVEL001
 370
15
 100
AcDbLine
   6
HIDDEN
  62
2
  10
 542.39959089104
  20
 239.98336728862
  30
0.0
  11
 555.39959089104
  21
 239.98336728862
  31
0.0
   0
LINE
   5
363
 100
AcDbEntity
   8
LEVEL001
 370
15
 100
AcDbLine
   6
HIDDEN
  62
2
  10
 554.89959089104
  20
 240.48336728862
  30
0.0
  11
 554.89959089104
  21
 230.48336728862
  31
0.0
   0
LINE
   5
364
 100
AcDbEntity
   8
LEVEL001
 370
15
 100
AcDbLine
   6
HIDDEN
  62
2
  10
 555.39959089104
  20
 230.98336728862
  30
0.0
  11
 555.39959089104
  21
 239.98336728862
  31
0.0
   0
LINE
   5
365
 100
AcDbEntity
   8
LEVEL001
 370
15
 100
AcDbLine
   6
HIDDEN
  62
2
  10
 554.89959089104
  20
 230.48336728862
  30
0.0
  11
 555.39959089104
  21
 230.98336728862
  31
0.0
   0
LINE
   5
366
 100
AcDbEntity
   8
LEVEL001
 370
15
 100
AcDbLine
   6
HIDDEN
  62
2
  10
 555.39959089104
  20
 230.98336728862
  30
0.0
  11
 542.39959089104
  21
 230.98336728862
  31
0.0
   0
LINE
   5
367
 100
AcDbEntity
   8
LEVEL001
 370
15
 100
AcDbLine
   6
HIDDEN
  62
2
  10
 542.39959089104
  20
 230.48336728862
  30
0.0
  11
 554.89959089104
  21
 230.48336728862
  31
0.0
   0
LINE
   5
368
 100
AcDbEntity
   8
LEVEL001
 370
15
 100
AcDbLine
   6
CONTINUOUS
  62
6
  10
 537.39959089104
  20
 227.98336728862
  30
0.0
  11
 520.39959089104
  21
 227.98336728862
  31
0.0
   0
LINE
   5
369
 100
AcDbEntity
   8
LEVEL001
 370
15
 100
AcDbLine
   6
CONTINUOUS
  62
6
  10
 520.39959089104
  20
 242.98336728862
  30
0.0
  11
 537.39959089104
  21
 242.98336728862
  31
0.0
   0
LINE
   5
36A
 100
AcDbEntity
   8
LEVEL001
 370
15
 100
AcDbLine
   6
CONTINUOUS
  62
6
  10
 537.39959089104
  20
 215.48336728862
  30
0.0
  11
 539.39959089104
  21
 215.48336728862
  31
0.0
   0
LINE
   5
36B
 100
AcDbEntity
   8
LEVEL001
 370
15
 100
AcDbLine
   6
CONTINUOUS
  62
6
  10
 520.39959089104
  20
 215.48336728862
  30
0.0
  11
 518.39959089104
  21
 215.48336728862
  31
0.0
   0
LINE
   5
36C
 100
AcDbEntity
   8
LEVEL001
 370
15
 100
AcDbLine
   6
CONTINUOUS
  62
6
  10
 537.39959089104
  20
 255.48336728862
  30
0.0
  11
 537.39959089104
  21
 215.48336728862
  31
0.0
   0
LINE
   5
36D
 100
AcDbEntity
   8
LEVEL001
 370
15
 100
AcDbLine
   6
CONTINUOUS
  62
6
  10
 520.39959089104
  20
 255.48336728862
  30
0.0
  11
 520.39959089104
  21
 215.48336728862
  31
0.0
   0
LINE
   5
36E
 100
AcDbEntity
   8
LEVEL001
 370
15
 100
AcDbLine
   6
CONTINUOUS
  62
6
  10
 518.39959089104
  20
 255.48336728862
  30
0.0
  11
 520.39959089104
  21
 255.48336728862
  31
0.0
   0
LINE
   5
36F
 100
AcDbEntity
   8
LEVEL001
 370
15
 100
AcDbLine
   6
CONTINUOUS
  62
6
  10
 537.39959089104
  20
 255.48336728862
  30
0.0
  11
 539.39959089104
  21
 255.48336728862
  31
0.0
   0
LINE
   5
370
 100
AcDbEntity
   8
LEVEL001
 370
15
 100
AcDbLine
   6
DASHDOT
  62
8
  10
 582.89959089104
  20
 235.48336728862
  30
0.0
  11
 507.16797155351
  21
 235.48336728862
  31
0.0
   0
ARC
   5
371
 100
AcDbEntity
   8
LEVEL001
 370
20
   6
CONTINUOUS
  62
7
 100
AcDbCircle
  10
 696.85019573839
  20
 235.48336728862
  30
0.0
  40
 18.500000000000
 100
AcDbArc
  50
 110.56999209210
  51
 69.430007907896
   0
ARC
   5
372
 100
AcDbEntity
   8
LEVEL001
 370
20
   6
CONTINUOUS
  62
7
 100
AcDbCircle
  10
 696.85019573839
  20
 235.48336728862
  30
0.0
  40
 20.000000000000
 100
AcDbArc
  50
 108.96557498885
  51
 71.034425011151
   0
LINE
   5
373
 100
AcDbEntity
   8
LEVEL001
 370
15
 100
AcDbLine
   6
DASHDOT
  62
8
  10
 696.85019573839
  20
 209.50225986823
  30
0.0
  11
 696.85019573839
  21
 291.24796085108
  31
0.0
   0
LINE
   5
374
 100
AcDbEntity
   8
0
 370
15
 100
AcDbLine
   6
DASHDOT
  62
8
  10
 670.86908831799
  20
 235.48336728862
  30
0.0
  11
 722.83130315878
  21
 235.48336728862
  31
0.0
   0
DIMENSION
   5
375
 100
AcDbEntity
   8
0
 370
15
   6
CONTINUOUS
  62
8
 100
AcDbDimension
   2
*D15
  10
 716.85019573839
  20
 169.50225986823
  30
0.0
  11
 696.85019573839
  21
 169.50225986823
  31
0.0
  70
0
   3
GMM001
 100
AcDbAlignedDimension
  13
 676.85019573839
  23
 235.48336728862
  33
0.0
  14
 716.85019573839
  24
 235.48336728862
  34
0.0
 100
AcDbRotatedDimension
   0
DIMENSION
   5
376
 100
AcDbEntity
   8
0
 370
15
   6
CONTINUOUS
  62
8
 100
AcDbDimension
   2
*D16
  10
 703.35019573839
  20
 189.50225986823
  30
0.0
  11
 696.85019573839
  21
 189.50225986823
  31
0.0
  70
0
   3
GMM001
 100
AcDbAlignedDimension
  13
 690.35019573839
  23
 235.48336728862
  33
0.0
  14
 703.35019573839
  24
 235.48336728862
  34
0.0
 100
AcDbRotatedDimension
   0
DIMENSION
   5
377
 100
AcDbEntity
   8
0
 370
15
   6
CONTINUOUS
  62
8
 100
AcDbDimension
   2
*D17
  10
 518.39959089104
  20
 275.48336728862
  30
0.0
  11
 504.24240660833
  21
 275.48336728862
  31
0.0
  70
128
   3
GMM003
 100
AcDbAlignedDimension
  13
 511.99959089104
  23
 255.48336728862
  33
0.0
  14
 518.39959089104
  24
 255.48336728862
  34
0.0
 100
AcDbRotatedDimension
   0
DIMENSION
   5
378
 100
AcDbEntity
   8
0
 370
15
   6
CONTINUOUS
  62
8
 100
AcDbDimension
   2
*D18
  10
 520.39959089104
  20
 275.48336728862
  30
0.0
  11
 525.28464182605
  21
 275.48336728862
  31
0.0
  70
128
   3
GMM004
 100
AcDbAlignedDimension
  13
 518.39959089104
  23
 255.48336728862
  33
0.0
  14
 520.39959089104
  24
 255.48336728862
  34
0.0
 100
AcDbRotatedDimension
   0
LEADER
   5
379
 100
AcDbEntity
   8
0
 370
15
   6
CONTINUOUS
  62
8
 100
AcDbLeader
   3
GMM002
  73
0
  74
1
  75
0
  40
 10.000000000000
  41
 34.000000000000
  76
2
  10
 514.63991572060
  20
 237.22922693132
  30
0.0
  10
 503.98192000086
  20
 245.93691288182
  30
0.0
  77
8
 340
37A
 213
0.0
 223
-4.0000000000000
 233
0.0
   0
MTEXT
   5
37A
 102
{ACAD_REACTORS
 330
379
 102
}
 100
AcDbEntity
   8
0
 370
15
  62
8
 100
AcDbMText
  10
 469.98192000086
  20
 249.93691288182
  30
0.0
  40
 10.000000000000
  41
0.0
  71
7
  72
1
   1
\A1;２－%%c４
   7
GMM001
   0
LEADER
   5
37B
 100
AcDbEntity
   8
0
 370
15
   6
CONTINUOUS
  62
8
 100
AcDbLeader
   3
GMM008
  73
3
  74
1
  75
0
  40
 10.000000000000
  41
0.0
  76
2
  10
 520.39959089104
  20
 235.48336728862
  30
0.0
  10
 507.80481056060
  20
 189.50225986823
  30
0.0
  77
8
   0
LEADER
   5
37C
 100
AcDbEntity
   8
0
 370
15
   6
CONTINUOUS
  62
8
 100
AcDbLeader
   3
GMM002
  73
0
  74
1
  75
0
  40
 10.000000000000
  41
 41.000000000000
  76
2
  10
 529.97703123581
  20
 242.98336728862
  30
0.0
  10
 549.97368954831
  20
 294.16414763548
  30
0.0
  77
8
 340
37D
 213
0.0
 223
-4.0000000000000
 233
0.0
   0
MTEXT
   5
37D
 102
{ACAD_REACTORS
 330
37C
 102
}
 100
AcDbEntity
   8
0
 370
15
  62
8
 100
AcDbMText
  10
 508.97368954831
  20
 298.16414763548
  30
0.0
  40
 10.000000000000
  41
0.0
  71
7
  72
1
   1
\A1;透明ﾁｭｰﾌﾞ
   7
GMM001
   0
LEADER
   5
37E
 100
AcDbEntity
   8
0
 370
15
   6
CONTINUOUS
  62
8
 100
AcDbLeader
   3
GMM002
  73
0
  74
1
  75
0
  40
 10.000000000000
  41
 41.000000000000
  76
2
  10
 537.39959089104
  20
 235.48336728862
  30
0.0
  10
 507.80481056060
  20
 189.50225986823
  30
0.0
  77
8
 340
37F
 213
0.0
 223
-4.0000000000000
 233
0.0
   0
MTEXT
   5
37F
 102
{ACAD_REACTORS
 330
37E
 102
}
 100
AcDbEntity
   8
0
 370
15
  62
8
 100
AcDbMText
  10
 466.80481056060
  20
 193.50225986823
  30
0.0
  40
 10.000000000000
  41
0.0
  71
7
  72
1
   1
\A1;透明ﾊ\U+00B0ｯｷﾝ
   7
GMM001
   0
DIMENSION
   5
380
 100
AcDbEntity
   8
0
 370
15
   6
CONTINUOUS
  62
8
 100
AcDbDimension
   2
*D23
  10
 539.39959089104
  20
 189.50225986823
  30
0.0
  11
 535.10144721403
  21
 189.50225986823
  31
0.0
  70
128
   3
GMM005
 100
AcDbAlignedDimension
  13
 537.39959089104
  23
 215.48336728862
  33
0.0
  14
 539.39959089104
  24
 215.48336728862
  34
0.0
 100
AcDbRotatedDimension
   0
DIMENSION
   5
381
 100
AcDbEntity
   8
0
 370
15
   6
CONTINUOUS
  62
8
 100
AcDbDimension
   2
*D24
  10
 542.39959089104
  20
 189.50225986823
  30
0.0
  11
 547.53945581581
  21
 173.50225986823
  31
0.0
  70
128
   3
GMM006
 100
AcDbAlignedDimension
  13
 539.39959089104
  23
 215.48336728862
  33
0.0
  14
 542.39959089104
  24
 216.98336728862
  34
0.0
 100
AcDbRotatedDimension
   0
DIMENSION
   5
382
 100
AcDbEntity
   8
0
 370
15
   6
CONTINUOUS
  62
8
 100
AcDbDimension
   2
*D25
  10
 597.39959089104
  20
 189.50225986823
  30
0.0
  11
 569.89959089104
  21
 189.50225986823
  31
0.0
  70
0
   1
\A1;L
   3
GMM007
 100
AcDbAlignedDimension
  13
 542.39959089104
  23
 216.98336728862
  33
0.0
  14
 597.39959089104
  24
 247.48336728862
  34
0.0
 100
AcDbRotatedDimension
   0
LEADER
   5
383
 100
AcDbEntity
   8
0
 370
15
   6
CONTINUOUS
  62
8
 100
AcDbLeader
   3
GMM002
  73
0
  74
0
  75
0
  40
 10.000000000000
  41
 26.000000000000
  76
2
  10
 558.53179009123
  20
 240.48336728862
  30
0.0
  10
 558.63812842750
  20
 253.62760953091
  30
0.0
  77
8
 340
384
 213
0.0
 223
-4.0000000000000
 233
0.0
   0
MTEXT
   5
384
 102
{ACAD_REACTORS
 330
383
 102
}
 100
AcDbEntity
   8
0
 370
15
  62
8
 100
AcDbMText
  10
 558.63812842750
  20
 257.62760953091
  30
0.0
  40
 10.000000000000
  41
0.0
  71
7
  72
1
   1
\A1;Ｍ１０
   7
GMM001
   0
LINE
   5
385
 100
AcDbEntity
   8
0
 370
20
 100
AcDbLine
   6
CONTINUOUS
  62
7
  10
 590.89959089104
  20
 270.48336728862
  30
0.0
  11
 603.89959089104
  21
 270.48336728862
  31
0.0
   0
LINE
   5
386
 100
AcDbEntity
   8
0
 370
20
 100
AcDbLine
   6
CONTINUOUS
  62
7
  10
 690.35019573839
  20
 270.48336728862
  30
0.0
  11
 703.35019573839
  21
 270.48336728862
  31
0.0
   0
MTEXT
   5
388
 100
AcDbEntity
   8
LEVEL001
 370
15
  62
8
 100
AcDbMText
  10
 1359.2611135294
  20
 689.00000000001
  30
0.0
  40
 12.000000000000
  41
0.0
  71
5
  72
1
   1
\T1.000000;ＰＩＫＧ２５
   7
GMM001
  44
 0.79999984000003
   0
ELLIPSE
   5
389
 100
AcDbEntity
   8
LEVEL004
 370
20
   6
CONTINUOUS
  62
1
 100
AcDbEllipse
  10
 597.39959089104
  20
 273.45336728862
  30
0.0
  11
 3.1000000000000
  21
0.0
  31
0.0
  40
 0.25784140611193
  41
 0.35236570605779E-15
  42
-3.1415926535898
   0
ARC
   5
38A
 100
AcDbEntity
   8
LEVEL004
 370
20
   6
CONTINUOUS
  62
1
 100
AcDbCircle
  10
 597.39959089104
  20
 278.78336728862
  30
0.0
  40
 8.0000000000000
 100
AcDbArc
  50
 247.20096872811
  51
 292.79903127189
   0
LINE
   5
38B
 100
AcDbEntity
   8
LEVEL004
 370
20
 100
AcDbLine
   6
CONTINUOUS
  62
1
  10
 584.89959089104
  20
 278.78336728862
  30
0.0
  11
 585.99783664005
  21
 278.78336728862
  31
0.0
   0
LINE
   5
38C
 100
AcDbEntity
   8
LEVEL004
 370
20
 100
AcDbLine
   6
CONTINUOUS
  62
1
  10
 584.89959089104
  20
 280.78336728862
  30
0.0
  11
 585.99783664005
  21
 280.78336728862
  31
0.0
   0
LINE
   5
38D
 100
AcDbEntity
   8
LEVEL004
 370
20
 100
AcDbLine
   6
CONTINUOUS
  62
1
  10
 609.89959089104
  20
 278.78336728862
  30
0.0
  11
 609.89959089104
  21
 280.78336728862
  31
0.0
   0
LINE
   5
38E
 100
AcDbEntity
   8
LEVEL004
 370
20
 100
AcDbLine
   6
CONTINUOUS
  62
1
  10
 584.89959089104
  20
 278.78336728862
  30
0.0
  11
 584.89959089104
  21
 280.78336728862
  31
0.0
   0
ARC
   5
38F
 100
AcDbEntity
   8
LEVEL007
 370
20
   6
HIDDEN
  62
1
 100
AcDbCircle
  10
 597.39959089104
  20
 278.78336728862
  30
0.0
  40
 8.0000000000000
 100
AcDbArc
  50
 187.49471745392
  51
 247.20096872810
   0
LINE
   5
390
 100
AcDbEntity
   8
LEVEL004
 370
20
 100
AcDbLine
   6
CONTINUOUS
  62
1
  10
 608.80134514203
  20
 278.78336728862
  30
0.0
  11
 609.89959089104
  21
 278.78336728862
  31
0.0
   0
ARC
   5
391
 100
AcDbEntity
   8
LEVEL004
 370
20
   6
CONTINUOUS
  62
1
 100
AcDbCircle
  10
 608.80134514203
  20
 277.28336728862
  30
0.0
  40
 1.5000000000000
 100
AcDbArc
  50
 89.999999999996
  51
 172.50528254607
   0
ARC
   5
392
 100
AcDbEntity
   8
LEVEL004
 370
20
   6
CONTINUOUS
  62
1
 100
AcDbCircle
  10
 585.99783664005
  20
 277.28336728862
  30
0.0
  40
 1.5000000000000
 100
AcDbArc
  50
 7.4947174539250
  51
 90.000000000004
   0
CIRCLE
   5
393
 100
AcDbEntity
   8
LEVEL006
 370
20
 100
AcDbCircle
   6
CONTINUOUS
  62
1
  10
 587.40233745780
  20
 278.78336728862
  30
0.0
  40
 0.10000000000000
   0
CIRCLE
   5
394
 100
AcDbEntity
   8
LEVEL006
 370
20
 100
AcDbCircle
   6
CONTINUOUS
  62
1
  10
 607.39959089104
  20
 278.78336728862
  30
0.0
  40
 0.10000000000000
   0
CIRCLE
   5
395
 100
AcDbEntity
   8
LEVEL006
 370
20
 100
AcDbCircle
   6
CONTINUOUS
  62
1
  10
 597.39959089104
  20
 268.78336728862
  30
0.0
  40
 0.10000000000000
   0
ARC
   5
396
 100
AcDbEntity
   8
LEVEL007
 370
20
   6
HIDDEN
  62
1
 100
AcDbCircle
  10
 597.39959089104
  20
 278.78336728862
  30
0.0
  40
 8.0000000000000
 100
AcDbArc
  50
 292.79903127190
  51
 352.50528254608
   0
LINE
   5
397
 100
AcDbEntity
   8
LEVEL004
 370
20
 100
AcDbLine
   6
CONTINUOUS
  62
1
  10
 584.89959089104
  20
 278.78336728862
  30
0.0
  11
 609.89959089104
  21
 278.78336728862
  31
0.0
   0
LINE
   5
398
 100
AcDbEntity
   8
LEVEL007
 370
20
 100
AcDbLine
   6
HIDDEN
  62
1
  10
 599.89959089104
  20
 280.48336728862
  30
0.0
  11
 599.89959089104
  21
 280.78336728862
  31
0.0
   0
LINE
   5
399
 100
AcDbEntity
   8
LEVEL007
 370
20
 100
AcDbLine
   6
HIDDEN
  62
1
  10
 594.89959089104
  20
 280.48336728862
  30
0.0
  11
 594.89959089104
  21
 280.78336728862
  31
0.0
   0
LINE
   5
39A
 100
AcDbEntity
   8
LEVEL007
 370
20
 100
AcDbLine
   6
HIDDEN
  62
1
  10
 594.89959089104
  20
 280.48336728862
  30
0.0
  11
 599.89959089104
  21
 280.48336728862
  31
0.0
   0
LINE
   5
39B
 100
AcDbEntity
   8
LEVEL007
 370
20
 100
AcDbLine
   6
HIDDEN
  62
1
  10
 601.69959089104
  20
 278.78336728862
  30
0.0
  11
 599.89959089104
  21
 280.48336728862
  31
0.0
   0
LINE
   5
39C
 100
AcDbEntity
   8
LEVEL007
 370
20
 100
AcDbLine
   6
HIDDEN
  62
1
  10
 594.89959089104
  20
 280.48336728862
  30
0.0
  11
 593.09959089104
  21
 278.78336728862
  31
0.0
   0
LINE
   5
39D
 100
AcDbEntity
   8
LEVEL004
 370
20
 100
AcDbLine
   6
CONTINUOUS
  62
1
  10
 585.99783664005
  20
 280.78336728862
  30
0.0
  11
 609.89959089104
  21
 280.78336728862
  31
0.0
   0
ARC
   5
39E
 100
AcDbEntity
   8
LEVEL007
 370
20
   6
HIDDEN
  62
1
 100
AcDbCircle
  10
 585.99783664005
  20
 277.28336728862
  30
0.0
  40
 3.5000000000000
 100
AcDbArc
  50
 7.4947174539202
  51
 90.000000000015
   0
ARC
   5
39F
 100
AcDbEntity
   8
LEVEL007
 370
20
   6
HIDDEN
  62
1
 100
AcDbCircle
  10
 608.80134514203
  20
 277.28336728862
  30
0.0
  40
 3.5000000000000
 100
AcDbArc
  50
 89.999999999985
  51
 172.50528254608
   0
ARC
   5
3A0
 100
AcDbEntity
   8
LEVEL004
 370
20
   6
CONTINUOUS
  62
1
 100
AcDbCircle
  10
 597.39959089104
  20
 278.78336728862
  30
0.0
  40
 10.000000000000
 100
AcDbArc
  50
 187.49471745392
  51
 236.09873800313
   0
LINE
   5
3A1
 100
AcDbEntity
   8
LEVEL004
 370
20
 100
AcDbLine
   6
CONTINUOUS
  62
1
  10
 594.29959089104
  20
 270.48336728862
  30
0.0
  11
 594.29959089104
  21
 273.45336728862
  31
0.0
   0
ARC
   5
3A2
 100
AcDbEntity
   8
LEVEL004
 370
20
   6
CONTINUOUS
  62
1
 100
AcDbCircle
  10
 597.39959089104
  20
 278.78336728862
  30
0.0
  40
 10.000000000000
 100
AcDbArc
  50
 303.90126199687
  51
 352.50528254608
   0
LINE
   5
3A3
 100
AcDbEntity
   8
LEVEL004
 370
20
 100
AcDbLine
   6
CONTINUOUS
  62
1
  10
 600.49959089104
  20
 270.48336728862
  30
0.0
  11
 600.49959089104
  21
 273.45336728862
  31
0.0
   0
ARC
   5
3A4
 100
AcDbEntity
   8
LEVEL005
 370
20
   6
HIDDEN
  62
1
 100
AcDbCircle
  10
 597.39959089104
  20
 278.78336728862
  30
0.0
  40
 10.000000000000
 100
AcDbArc
  50
 251.94076950921
  51
 288.05923049079
   0
ELLIPSE
   5
3A5
 100
AcDbEntity
   8
LEVEL004
 370
20
   6
HIDDEN
  62
1
 100
AcDbEllipse
  10
 597.39959089104
  20
 269.27600172291
  30
0.0
  11
 3.1000000000000
  21
0.0
  31
0.0
  40
 0.71708622744303E-1
  41
-3.1415926535898
  42
 0.15853204166083E-14
   0
ARC
   5
3A6
 100
AcDbEntity
   8
LEVEL004
 370
20
   6
HIDDEN
  62
1
 100
AcDbCircle
  10
 597.39959089104
  20
 278.78336728862
  30
0.0
  40
 10.000000000000
 100
AcDbArc
  50
 236.09873800313
  51
 251.94076950921
   0
LINE
   5
3A7
 100
AcDbEntity
   8
LEVEL004
 370
20
 100
AcDbLine
   6
HIDDEN
  62
1
  10
 594.29959089104
  20
 269.27600172291
  30
0.0
  11
 594.29959089104
  21
 270.48336728862
  31
0.0
   0
ARC
   5
3A8
 100
AcDbEntity
   8
LEVEL004
 370
20
   6
HIDDEN
  62
1
 100
AcDbCircle
  10
 597.39959089104
  20
 278.78336728862
  30
0.0
  40
 10.000000000000
 100
AcDbArc
  50
 288.05923049079
  51
 303.90126199687
   0
LINE
   5
3A9
 100
AcDbEntity
   8
LEVEL004
 370
20
 100
AcDbLine
   6
HIDDEN
  62
1
  10
 600.49959089104
  20
 269.27600172291
  30
0.0
  11
 600.49959089104
  21
 270.48336728862
  31
0.0
   0
DIMENSION
   5
3AA
 100
AcDbEntity
   8
0
 370
15
   6
CONTINUOUS
  62
8
 100
AcDbDimension
   2
*D27
  10
 609.89959089104
  20
 295.78336728862
  30
0.0
  11
 597.39959089104
  21
 295.78336728862
  31
0.0
  70
0
   3
GMM001
 100
AcDbAlignedDimension
  13
 584.89959089104
  23
 280.78336728862
  33
0.0
  14
 609.89959089104
  24
 280.78336728862
  34
0.0
 100
AcDbRotatedDimension
   0
ELLIPSE
   5
3AB
 100
AcDbEntity
   8
LEVEL004
 370
20
   6
CONTINUOUS
  62
1
 100
AcDbEllipse
  10
 603.65672199862
  20
 819.59847663815
  30
0.0
  11
 3.1000000000000
  21
0.0
  31
0.0
  40
 0.25784140611193
  41
 0.35236570605779E-15
  42
-3.1415926535898
   0
ARC
   5
3AC
 100
AcDbEntity
   8
LEVEL004
 370
20
   6
CONTINUOUS
  62
1
 100
AcDbCircle
  10
 603.65672199862
  20
 824.92847663815
  30
0.0
  40
 8.0000000000000
 100
AcDbArc
  50
 247.20096872811
  51
 292.79903127189
   0
LINE
   5
3AD
 100
AcDbEntity
   8
LEVEL004
 370
20
 100
AcDbLine
   6
CONTINUOUS
  62
1
  10
 591.15672199862
  20
 824.92847663815
  30
0.0
  11
 592.25496774763
  21
 824.92847663815
  31
0.0
   0
LINE
   5
3AE
 100
AcDbEntity
   8
LEVEL004
 370
20
 100
AcDbLine
   6
CONTINUOUS
  62
1
  10
 591.15672199862
  20
 826.92847663815
  30
0.0
  11
 592.25496774763
  21
 826.92847663815
  31
0.0
   0
LINE
   5
3AF
 100
AcDbEntity
   8
LEVEL004
 370
20
 100
AcDbLine
   6
CONTINUOUS
  62
1
  10
 616.15672199862
  20
 824.92847663815
  30
0.0
  11
 616.15672199862
  21
 826.92847663815
  31
0.0
   0
LINE
   5
3B0
 100
AcDbEntity
   8
LEVEL004
 370
20
 100
AcDbLine
   6
CONTINUOUS
  62
1
  10
 591.15672199862
  20
 824.92847663815
  30
0.0
  11
 591.15672199862
  21
 826.92847663815
  31
0.0
   0
ARC
   5
3B1
 100
AcDbEntity
   8
LEVEL007
 370
20
   6
HIDDEN
  62
1
 100
AcDbCircle
  10
 603.65672199862
  20
 824.92847663815
  30
0.0
  40
 8.0000000000000
 100
AcDbArc
  50
 187.49471745392
  51
 247.20096872810
   0
LINE
   5
3B2
 100
AcDbEntity
   8
LEVEL004
 370
20
 100
AcDbLine
   6
CONTINUOUS
  62
1
  10
 615.05847624961
  20
 824.92847663815
  30
0.0
  11
 616.15672199862
  21
 824.92847663815
  31
0.0
   0
ARC
   5
3B3
 100
AcDbEntity
   8
LEVEL004
 370
20
   6
CONTINUOUS
  62
1
 100
AcDbCircle
  10
 615.05847624961
  20
 823.42847663815
  30
0.0
  40
 1.5000000000000
 100
AcDbArc
  50
 89.999999999996
  51
 172.50528254607
   0
ARC
   5
3B4
 100
AcDbEntity
   8
LEVEL004
 370
20
   6
CONTINUOUS
  62
1
 100
AcDbCircle
  10
 592.25496774763
  20
 823.42847663815
  30
0.0
  40
 1.5000000000000
 100
AcDbArc
  50
 7.4947174539250
  51
 90.000000000004
   0
CIRCLE
   5
3B5
 100
AcDbEntity
   8
LEVEL006
 370
20
 100
AcDbCircle
   6
CONTINUOUS
  62
1
  10
 593.65946856538
  20
 824.92847663815
  30
0.0
  40
 0.10000000000000
   0
CIRCLE
   5
3B6
 100
AcDbEntity
   8
LEVEL006
 370
20
 100
AcDbCircle
   6
CONTINUOUS
  62
1
  10
 613.65672199862
  20
 824.92847663815
  30
0.0
  40
 0.10000000000000
   0
CIRCLE
   5
3B7
 100
AcDbEntity
   8
LEVEL006
 370
20
 100
AcDbCircle
   6
CONTINUOUS
  62
1
  10
 603.65672199862
  20
 814.92847663815
  30
0.0
  40
 0.10000000000000
   0
ARC
   5
3B8
 100
AcDbEntity
   8
LEVEL007
 370
20
   6
HIDDEN
  62
1
 100
AcDbCircle
  10
 603.65672199862
  20
 824.92847663815
  30
0.0
  40
 8.0000000000000
 100
AcDbArc
  50
 292.79903127190
  51
 352.50528254608
   0
LINE
   5
3B9
 100
AcDbEntity
   8
LEVEL004
 370
20
 100
AcDbLine
   6
CONTINUOUS
  62
1
  10
 591.15672199862
  20
 824.92847663815
  30
0.0
  11
 616.15672199862
  21
 824.92847663815
  31
0.0
   0
LINE
   5
3BA
 100
AcDbEntity
   8
LEVEL007
 370
20
 100
AcDbLine
   6
HIDDEN
  62
1
  10
 606.15672199862
  20
 826.62847663815
  30
0.0
  11
 606.15672199862
  21
 826.92847663815
  31
0.0
   0
LINE
   5
3BB
 100
AcDbEntity
   8
LEVEL007
 370
20
 100
AcDbLine
   6
HIDDEN
  62
1
  10
 601.15672199862
  20
 826.62847663815
  30
0.0
  11
 601.15672199862
  21
 826.92847663815
  31
0.0
   0
LINE
   5
3BC
 100
AcDbEntity
   8
LEVEL007
 370
20
 100
AcDbLine
   6
HIDDEN
  62
1
  10
 601.15672199862
  20
 826.62847663815
  30
0.0
  11
 606.15672199862
  21
 826.62847663815
  31
0.0
   0
LINE
   5
3BD
 100
AcDbEntity
   8
LEVEL007
 370
20
 100
AcDbLine
   6
HIDDEN
  62
1
  10
 607.95672199862
  20
 824.92847663815
  30
0.0
  11
 606.15672199862
  21
 826.62847663815
  31
0.0
   0
LINE
   5
3BE
 100
AcDbEntity
   8
LEVEL007
 370
20
 100
AcDbLine
   6
HIDDEN
  62
1
  10
 601.15672199862
  20
 826.62847663815
  30
0.0
  11
 599.35672199862
  21
 824.92847663815
  31
0.0
   0
LINE
   5
3BF
 100
AcDbEntity
   8
LEVEL004
 370
20
 100
AcDbLine
   6
CONTINUOUS
  62
1
  10
 592.25496774763
  20
 826.92847663815
  30
0.0
  11
 616.15672199862
  21
 826.92847663815
  31
0.0
   0
ARC
   5
3C0
 100
AcDbEntity
   8
LEVEL007
 370
20
   6
HIDDEN
  62
1
 100
AcDbCircle
  10
 592.25496774763
  20
 823.42847663815
  30
0.0
  40
 3.5000000000000
 100
AcDbArc
  50
 7.4947174539202
  51
 90.000000000015
   0
ARC
   5
3C1
 100
AcDbEntity
   8
LEVEL007
 370
20
   6
HIDDEN
  62
1
 100
AcDbCircle
  10
 615.05847624961
  20
 823.42847663815
  30
0.0
  40
 3.5000000000000
 100
AcDbArc
  50
 89.999999999985
  51
 172.50528254608
   0
ARC
   5
3C2
 100
AcDbEntity
   8
LEVEL004
 370
20
   6
CONTINUOUS
  62
1
 100
AcDbCircle
  10
 603.65672199862
  20
 824.92847663815
  30
0.0
  40
 10.000000000000
 100
AcDbArc
  50
 187.49471745392
  51
 236.09873800313
   0
LINE
   5
3C3
 100
AcDbEntity
   8
LEVEL004
 370
20
 100
AcDbLine
   6
CONTINUOUS
  62
1
  10
 600.55672199862
  20
 816.62847663815
  30
0.0
  11
 600.55672199862
  21
 819.59847663815
  31
0.0
   0
ARC
   5
3C4
 100
AcDbEntity
   8
LEVEL004
 370
20
   6
CONTINUOUS
  62
1
 100
AcDbCircle
  10
 603.65672199862
  20
 824.92847663815
  30
0.0
  40
 10.000000000000
 100
AcDbArc
  50
 303.90126199687
  51
 352.50528254608
   0
LINE
   5
3C5
 100
AcDbEntity
   8
LEVEL004
 370
20
 100
AcDbLine
   6
CONTINUOUS
  62
1
  10
 606.75672199862
  20
 816.62847663815
  30
0.0
  11
 606.75672199862
  21
 819.59847663815
  31
0.0
   0
ARC
   5
3C6
 100
AcDbEntity
   8
LEVEL005
 370
20
   6
HIDDEN
  62
1
 100
AcDbCircle
  10
 603.65672199862
  20
 824.92847663815
  30
0.0
  40
 10.000000000000
 100
AcDbArc
  50
 251.94076950921
  51
 288.05923049079
   0
ELLIPSE
   5
3C7
 100
AcDbEntity
   8
LEVEL004
 370
20
   6
HIDDEN
  62
1
 100
AcDbEllipse
  10
 603.65672199862
  20
 815.42111107244
  30
0.0
  11
 3.1000000000000
  21
0.0
  31
0.0
  40
 0.71708622744303E-1
  41
-3.1415926535898
  42
 0.15853204166083E-14
   0
ARC
   5
3C8
 100
AcDbEntity
   8
LEVEL004
 370
20
   6
HIDDEN
  62
1
 100
AcDbCircle
  10
 603.65672199862
  20
 824.92847663815
  30
0.0
  40
 10.000000000000
 100
AcDbArc
  50
 236.09873800313
  51
 251.94076950921
   0
LINE
   5
3C9
 100
AcDbEntity
   8
LEVEL004
 370
20
 100
AcDbLine
   6
HIDDEN
  62
1
  10
 600.55672199862
  20
 815.42111107244
  30
0.0
  11
 600.55672199862
  21
 816.62847663815
  31
0.0
   0
ARC
   5
3CA
 100
AcDbEntity
   8
LEVEL004
 370
20
   6
HIDDEN
  62
1
 100
AcDbCircle
  10
 603.65672199862
  20
 824.92847663815
  30
0.0
  40
 10.000000000000
 100
AcDbArc
  50
 288.05923049079
  51
 303.90126199687
   0
LINE
   5
3CB
 100
AcDbEntity
   8
LEVEL004
 370
20
 100
AcDbLine
   6
HIDDEN
  62
1
  10
 606.75672199862
  20
 815.42111107244
  30
0.0
  11
 606.75672199862
  21
 816.62847663815
  31
0.0
   0
DIMENSION
   5
3CC
 100
AcDbEntity
   8
0
 370
15
   6
CONTINUOUS
  62
8
 100
AcDbDimension
   2
*D28
  10
 616.15672199862
  20
 841.92847663815
  30
0.0
  11
 603.65672199862
  21
 841.92847663815
  31
0.0
  70
0
   3
GMM001
 100
AcDbAlignedDimension
  13
 591.15672199862
  23
 826.92847663815
  33
0.0
  14
 616.15672199862
  24
 826.92847663815
  34
0.0
 100
AcDbRotatedDimension
   0
LINE
   5
3CD
 100
AcDbEntity
   8
LEVEL001
 370
15
 100
AcDbLine
   6
DASHDOT
  62
8
  10
 603.65672199862
  20
 838.44486771952
  30
0.0
  11
 603.65672199862
  21
 787.62847663815
  31
0.0
   0
LINE
   5
3CE
 100
AcDbEntity
   8
LEVEL001
 370
15
 100
AcDbLine
   6
DASHDOT
  62
8
  10
 597.39959089104
  20
 291.03634641197
  30
0.0
  11
 597.39959089104
  21
 249.98336728862
  31
0.0
   0
LINE
   5
3CF
 100
AcDbEntity
   8
LEVEL004
 370
20
 100
AcDbLine
   6
CONTINUOUS
  62
1
  10
 736.85019573839
  20
 280.78336728862
  30
0.0
  11
 736.85019573839
  21
 278.78336728862
  31
0.0
   0
LINE
   5
3D0
 100
AcDbEntity
   8
LEVEL004
 370
20
 100
AcDbLine
   6
CONTINUOUS
  62
1
  10
 656.85019573839
  20
 280.78336728862
  30
0.0
  11
 656.85019573839
  21
 278.78336728862
  31
0.0
   0
LINE
   5
3D1
 100
AcDbEntity
   8
LEVEL004
 370
20
 100
AcDbLine
   6
CONTINUOUS
  62
1
  10
 656.85019573839
  20
 278.78336728862
  30
0.0
  11
 685.44844148740
  21
 278.78336728862
  31
0.0
   0
LINE
   5
3D2
 100
AcDbEntity
   8
LEVEL004
 370
20
 100
AcDbLine
   6
CONTINUOUS
  62
1
  10
 708.25194998938
  20
 278.78336728862
  30
0.0
  11
 736.85019573839
  21
 278.78336728862
  31
0.0
   0
LINE
   5
3D3
 100
AcDbEntity
   8
LEVEL004
 370
20
 100
AcDbLine
   6
CONTINUOUS
  62
1
  10
 656.85019573839
  20
 280.78336728862
  30
0.0
  11
 685.44844148740
  21
 280.78336728862
  31
0.0
   0
LINE
   5
3D4
 100
AcDbEntity
   8
LEVEL004
 370
20
 100
AcDbLine
   6
CONTINUOUS
  62
1
  10
 707.80464688849
  20
 280.78336728862
  30
0.0
  11
 736.85019573839
  21
 280.78336728862
  31
0.0
   0
LINE
   5
3D5
 100
AcDbEntity
   8
LEVEL004
 370
20
 100
AcDbLine
   6
CONTINUOUS
  62
1
  10
 707.80464688849
  20
 280.78336728862
  30
0.0
  11
 708.25194998938
  21
 280.78336728862
  31
0.0
   0
ARC
   5
3D6
 100
AcDbEntity
   8
LEVEL004
 370
20
   6
CONTINUOUS
  62
1
 100
AcDbCircle
  10
 708.25194998938
  20
 277.28336728862
  30
0.0
  40
 1.5000000000000
 100
AcDbArc
  50
 89.999999999996
  51
 172.50528254607
   0
ARC
   5
3D7
 100
AcDbEntity
   8
LEVEL004
 370
20
   6
CONTINUOUS
  62
1
 100
AcDbCircle
  10
 685.44844148740
  20
 277.28336728862
  30
0.0
  40
 1.5000000000000
 100
AcDbArc
  50
 7.4947174539250
  51
 90.000000000004
   0
LINE
   5
3D8
 100
AcDbEntity
   8
LEVEL004
 370
20
 100
AcDbLine
   6
CONTINUOUS
  62
1
  10
 708.25194998938
  20
 280.78336728862
  30
0.0
  11
 685.89574458828
  21
 280.78336728862
  31
0.0
   0
ARC
   5
3D9
 100
AcDbEntity
   8
LEVEL004
 370
20
   6
HIDDEN
  62
1
 100
AcDbCircle
  10
 696.85019573839
  20
 278.78336728862
  30
0.0
  40
 8.0000000000000
 100
AcDbArc
  50
 187.49471745390
  51
 352.50528254610
   0
ARC
   5
3DA
 100
AcDbEntity
   8
LEVEL004
 370
20
   6
HIDDEN
  62
1
 100
AcDbCircle
  10
 708.25194998938
  20
 277.28336728862
  30
0.0
  40
 3.5000000000000
 100
AcDbArc
  50
 90.000000000015
  51
 172.50528254608
   0
LINE
   5
3DB
 100
AcDbEntity
   8
LEVEL004
 370
20
 100
AcDbLine
   6
HIDDEN
  62
1
  10
 701.07410344322
  20
 271.98935494678
  30
0.0
  11
 699.95019573839
  21
 269.27600172291
  31
0.0
   0
LINE
   5
3DC
 100
AcDbEntity
   8
LEVEL004
 370
20
 100
AcDbLine
   6
HIDDEN
  62
1
  10
 689.05934975881
  20
 276.96602887144
  30
0.0
  11
 687.93544205398
  21
 274.25267564757
  31
0.0
   0
ARC
   5
3DD
 100
AcDbEntity
   8
LEVEL004
 370
20
   6
HIDDEN
  62
1
 100
AcDbCircle
  10
 685.44844148739
  20
 277.28336728862
  30
0.0
  40
 3.5000000000000
 100
AcDbArc
  50
 7.4947174539202
  51
 89.999999999985
   0
LINE
   5
3DE
 100
AcDbEntity
   8
LEVEL004
 370
20
 100
AcDbLine
   6
HIDDEN
  62
1
  10
 724.25019573839
  20
 280.48336728862
  30
0.0
  11
 729.45019573839
  21
 280.48336728862
  31
0.0
   0
LINE
   5
3DF
 100
AcDbEntity
   8
LEVEL004
 370
20
 100
AcDbLine
   6
HIDDEN
  62
1
  10
 724.25019573839
  20
 280.48336728862
  30
0.0
  11
 722.55019573839
  21
 278.78336728862
  31
0.0
   0
LINE
   5
3E0
 100
AcDbEntity
   8
LEVEL004
 370
20
 100
AcDbLine
   6
HIDDEN
  62
1
  10
 724.25019573839
  20
 280.48336728862
  30
0.0
  11
 724.25019573839
  21
 280.78336728862
  31
0.0
   0
LINE
   5
3E1
 100
AcDbEntity
   8
LEVEL004
 370
20
 100
AcDbLine
   6
HIDDEN
  62
1
  10
 729.45019573839
  20
 280.48336728862
  30
0.0
  11
 731.15019573839
  21
 278.78336728862
  31
0.0
   0
LINE
   5
3E2
 100
AcDbEntity
   8
LEVEL004
 370
20
 100
AcDbLine
   6
HIDDEN
  62
1
  10
 729.45019573839
  20
 280.48336728862
  30
0.0
  11
 729.45019573839
  21
 280.78336728862
  31
0.0
   0
LINE
   5
3E3
 100
AcDbEntity
   8
LEVEL004
 370
20
 100
AcDbLine
   6
HIDDEN
  62
1
  10
 669.45019573839
  20
 280.48336728862
  30
0.0
  11
 671.15019573839
  21
 278.78336728862
  31
0.0
   0
LINE
   5
3E4
 100
AcDbEntity
   8
LEVEL004
 370
20
 100
AcDbLine
   6
HIDDEN
  62
1
  10
 669.45019573839
  20
 280.48336728862
  30
0.0
  11
 669.45019573839
  21
 280.78336728862
  31
0.0
   0
LINE
   5
3E5
 100
AcDbEntity
   8
LEVEL004
 370
20
 100
AcDbLine
   6
HIDDEN
  62
1
  10
 669.45019573839
  20
 280.48336728862
  30
0.0
  11
 664.25019573838
  21
 280.48336728862
  31
0.0
   0
LINE
   5
3E6
 100
AcDbEntity
   8
LEVEL004
 370
20
 100
AcDbLine
   6
HIDDEN
  62
1
  10
 664.25019573838
  20
 280.48336728862
  30
0.0
  11
 662.55019573839
  21
 278.78336728862
  31
0.0
   0
LINE
   5
3E7
 100
AcDbEntity
   8
LEVEL004
 370
20
 100
AcDbLine
   6
HIDDEN
  62
1
  10
 664.25019573838
  20
 280.48336728862
  30
0.0
  11
 664.25019573838
  21
 280.78336728862
  31
0.0
   0
ARC
   5
3E8
 100
AcDbEntity
   8
LEVEL004
 370
20
   6
CONTINUOUS
  62
1
 100
AcDbCircle
  10
 696.85019573839
  20
 278.78336728862
  30
0.0
  40
 10.000000000000
 100
AcDbArc
  50
 303.90126199687
  51
 352.50528254608
   0
ARC
   5
3E9
 100
AcDbEntity
   8
LEVEL004
 370
20
   6
CONTINUOUS
  62
1
 100
AcDbCircle
  10
 696.85019573839
  20
 278.78336728862
  30
0.0
  40
 10.000000000000
 100
AcDbArc
  50
 187.49471745393
  51
 236.09873800315
   0
ARC
   5
3EA
 100
AcDbEntity
   8
LEVEL004
 370
20
   6
HIDDEN
  62
1
 100
AcDbCircle
  10
 696.85019573839
  20
 278.78336728862
  30
0.0
  40
 10.000000000000
 100
AcDbArc
  50
 236.09873800314
  51
 303.90126199686
   0
LINE
   5
3EB
 100
AcDbEntity
   8
LEVEL006
 370
15
 100
AcDbLine
   6
DASHDOT
  62
8
  10
 694.32550232855
  20
 272.68821821775
  30
0.0
  11
 692.13981720698
  21
 267.41150755419
  31
0.0
   0
LINE
   5
3EC
 100
AcDbEntity
   8
LEVEL005
 370
15
 100
AcDbLine
   6
DASHDOT
  62
8
  10
 666.85019573839
  20
 282.21094274974
  30
0.0
  11
 666.85019573839
  21
 277.12015712737
  31
0.0
   0
LINE
   5
3ED
 100
AcDbEntity
   8
LEVEL005
 370
15
 100
AcDbLine
   6
DASHDOT
  62
8
  10
 726.85019573839
  20
 282.21094274974
  30
0.0
  11
 726.85019573839
  21
 277.12015712737
  31
0.0
   0
DIMENSION
   5
3EE
 100
AcDbEntity
   8
0
 370
15
   6
CONTINUOUS
  62
8
 100
AcDbDimension
   2
*D29
  10
 758.72751148332
  20
 280.78336728862
  30
0.0
  11
 758.72751148332
  21
 288.31009092339
  31
0.0
  70
128
   3
GMM009
 100
AcDbAlignedDimension
  13
 736.85019573839
  23
 278.78336728862
  33
0.0
  14
 736.85019573839
  24
 280.78336728862
  34
0.0
  50
 90.000000000000
 100
AcDbRotatedDimension
   0
DIMENSION
   5
3EF
 100
AcDbEntity
   8
0
 370
15
   6
CONTINUOUS
  62
8
 100
AcDbDimension
   2
*D30
  10
 736.85019573839
  20
 295.78336728862
  30
0.0
  11
 696.85019573839
  21
 295.78336728862
  31
0.0
  70
0
   3
GMM001
 100
AcDbAlignedDimension
  13
 656.85019573839
  23
 280.78336728862
  33
0.0
  14
 736.85019573839
  24
 280.78336728862
  34
0.0
 100
AcDbRotatedDimension
   0
LINE
   5
3F0
 100
AcDbEntity
   8
LEVEL004
 370
20
 100
AcDbLine
   6
CONTINUOUS
  62
1
  10
 743.10732684597
  20
 826.92847663815
  30
0.0
  11
 743.10732684597
  21
 824.92847663815
  31
0.0
   0
LINE
   5
3F1
 100
AcDbEntity
   8
LEVEL004
 370
20
 100
AcDbLine
   6
CONTINUOUS
  62
1
  10
 663.10732684597
  20
 826.92847663815
  30
0.0
  11
 663.10732684597
  21
 824.92847663815
  31
0.0
   0
LINE
   5
3F2
 100
AcDbEntity
   8
LEVEL004
 370
20
 100
AcDbLine
   6
CONTINUOUS
  62
1
  10
 663.10732684597
  20
 824.92847663815
  30
0.0
  11
 691.70557259497
  21
 824.92847663815
  31
0.0
   0
LINE
   5
3F3
 100
AcDbEntity
   8
LEVEL004
 370
20
 100
AcDbLine
   6
CONTINUOUS
  62
1
  10
 714.50908109696
  20
 824.92847663815
  30
0.0
  11
 743.10732684597
  21
 824.92847663815
  31
0.0
   0
LINE
   5
3F4
 100
AcDbEntity
   8
LEVEL004
 370
20
 100
AcDbLine
   6
CONTINUOUS
  62
1
  10
 663.10732684597
  20
 826.92847663815
  30
0.0
  11
 691.70557259497
  21
 826.92847663815
  31
0.0
   0
LINE
   5
3F5
 100
AcDbEntity
   8
LEVEL004
 370
20
 100
AcDbLine
   6
CONTINUOUS
  62
1
  10
 714.06177799607
  20
 826.92847663815
  30
0.0
  11
 743.10732684597
  21
 826.92847663815
  31
0.0
   0
LINE
   5
3F6
 100
AcDbEntity
   8
LEVEL004
 370
20
 100
AcDbLine
   6
CONTINUOUS
  62
1
  10
 714.06177799607
  20
 826.92847663815
  30
0.0
  11
 714.50908109696
  21
 826.92847663815
  31
0.0
   0
ARC
   5
3F7
 100
AcDbEntity
   8
LEVEL004
 370
20
   6
CONTINUOUS
  62
1
 100
AcDbCircle
  10
 714.50908109696
  20
 823.42847663815
  30
0.0
  40
 1.5000000000000
 100
AcDbArc
  50
 89.999999999996
  51
 172.50528254607
   0
ARC
   5
3F8
 100
AcDbEntity
   8
LEVEL004
 370
20
   6
CONTINUOUS
  62
1
 100
AcDbCircle
  10
 691.70557259497
  20
 823.42847663815
  30
0.0
  40
 1.5000000000000
 100
AcDbArc
  50
 7.4947174539250
  51
 90.000000000004
   0
LINE
   5
3F9
 100
AcDbEntity
   8
LEVEL004
 370
20
 100
AcDbLine
   6
CONTINUOUS
  62
1
  10
 714.50908109696
  20
 826.92847663815
  30
0.0
  11
 692.15287569586
  21
 826.92847663815
  31
0.0
   0
ARC
   5
3FA
 100
AcDbEntity
   8
LEVEL004
 370
20
   6
HIDDEN
  62
1
 100
AcDbCircle
  10
 703.10732684596
  20
 824.92847663815
  30
0.0
  40
 8.0000000000000
 100
AcDbArc
  50
 187.49471745390
  51
 352.50528254610
   0
ARC
   5
3FB
 100
AcDbEntity
   8
LEVEL004
 370
20
   6
HIDDEN
  62
1
 100
AcDbCircle
  10
 714.50908109696
  20
 823.42847663815
  30
0.0
  40
 3.5000000000000
 100
AcDbArc
  50
 90.000000000015
  51
 172.50528254608
   0
LINE
   5
3FC
 100
AcDbEntity
   8
LEVEL004
 370
20
 100
AcDbLine
   6
HIDDEN
  62
1
  10
 707.33123455080
  20
 818.13446429631
  30
0.0
  11
 706.20732684596
  21
 815.42111107244
  31
0.0
   0
LINE
   5
3FD
 100
AcDbEntity
   8
LEVEL004
 370
20
 100
AcDbLine
   6
HIDDEN
  62
1
  10
 695.31648086639
  20
 823.11113822097
  30
0.0
  11
 694.19257316156
  21
 820.39778499710
  31
0.0
   0
ARC
   5
3FE
 100
AcDbEntity
   8
LEVEL004
 370
20
   6
HIDDEN
  62
1
 100
AcDbCircle
  10
 691.70557259497
  20
 823.42847663815
  30
0.0
  40
 3.5000000000000
 100
AcDbArc
  50
 7.4947174539202
  51
 89.999999999985
   0
LINE
   5
3FF
 100
AcDbEntity
   8
LEVEL004
 370
20
 100
AcDbLine
   6
HIDDEN
  62
1
  10
 730.50732684597
  20
 826.62847663815
  30
0.0
  11
 735.70732684596
  21
 826.62847663815
  31
0.0
   0
LINE
   5
400
 100
AcDbEntity
   8
LEVEL004
 370
20
 100
AcDbLine
   6
HIDDEN
  62
1
  10
 730.50732684597
  20
 826.62847663815
  30
0.0
  11
 728.80732684596
  21
 824.92847663815
  31
0.0
   0
LINE
   5
401
 100
AcDbEntity
   8
LEVEL004
 370
20
 100
AcDbLine
   6
HIDDEN
  62
1
  10
 730.50732684597
  20
 826.62847663815
  30
0.0
  11
 730.50732684597
  21
 826.92847663815
  31
0.0
   0
LINE
   5
402
 100
AcDbEntity
   8
LEVEL004
 370
20
 100
AcDbLine
   6
HIDDEN
  62
1
  10
 735.70732684596
  20
 826.62847663815
  30
0.0
  11
 737.40732684597
  21
 824.92847663815
  31
0.0
   0
LINE
   5
403
 100
AcDbEntity
   8
LEVEL004
 370
20
 100
AcDbLine
   6
HIDDEN
  62
1
  10
 735.70732684596
  20
 826.62847663815
  30
0.0
  11
 735.70732684596
  21
 826.92847663815
  31
0.0
   0
LINE
   5
404
 100
AcDbEntity
   8
LEVEL004
 370
20
 100
AcDbLine
   6
HIDDEN
  62
1
  10
 675.70732684596
  20
 826.62847663815
  30
0.0
  11
 677.40732684597
  21
 824.92847663815
  31
0.0
   0
LINE
   5
405
 100
AcDbEntity
   8
LEVEL004
 370
20
 100
AcDbLine
   6
HIDDEN
  62
1
  10
 675.70732684596
  20
 826.62847663815
  30
0.0
  11
 675.70732684596
  21
 826.92847663815
  31
0.0
   0
LINE
   5
406
 100
AcDbEntity
   8
LEVEL004
 370
20
 100
AcDbLine
   6
HIDDEN
  62
1
  10
 675.70732684596
  20
 826.62847663815
  30
0.0
  11
 670.50732684596
  21
 826.62847663815
  31
0.0
   0
LINE
   5
407
 100
AcDbEntity
   8
LEVEL004
 370
20
 100
AcDbLine
   6
HIDDEN
  62
1
  10
 670.50732684596
  20
 826.62847663815
  30
0.0
  11
 668.80732684596
  21
 824.92847663815
  31
0.0
   0
LINE
   5
408
 100
AcDbEntity
   8
LEVEL004
 370
20
 100
AcDbLine
   6
HIDDEN
  62
1
  10
 670.50732684596
  20
 826.62847663815
  30
0.0
  11
 670.50732684596
  21
 826.92847663815
  31
0.0
   0
ARC
   5
409
 100
AcDbEntity
   8
LEVEL004
 370
20
   6
CONTINUOUS
  62
1
 100
AcDbCircle
  10
 703.10732684596
  20
 824.92847663815
  30
0.0
  40
 10.000000000000
 100
AcDbArc
  50
 303.90126199687
  51
 352.50528254608
   0
ARC
   5
40A
 100
AcDbEntity
   8
LEVEL004
 370
20
   6
CONTINUOUS
  62
1
 100
AcDbCircle
  10
 703.10732684597
  20
 824.92847663815
  30
0.0
  40
 10.000000000000
 100
AcDbArc
  50
 187.49471745393
  51
 236.09873800315
   0
ARC
   5
40B
 100
AcDbEntity
   8
LEVEL004
 370
20
   6
HIDDEN
  62
1
 100
AcDbCircle
  10
 703.10732684597
  20
 824.92847663815
  30
0.0
  40
 10.000000000000
 100
AcDbArc
  50
 236.09873800314
  51
 303.90126199686
   0
LINE
   5
40C
 100
AcDbEntity
   8
LEVEL006
 370
15
 100
AcDbLine
   6
DASHDOT
  62
8
  10
 700.58263343612
  20
 818.83332756728
  30
0.0
  11
 698.39694831456
  21
 813.55661690372
  31
0.0
   0
LINE
   5
40D
 100
AcDbEntity
   8
LEVEL005
 370
15
 100
AcDbLine
   6
DASHDOT
  62
8
  10
 673.10732684596
  20
 828.35605209926
  30
0.0
  11
 673.10732684596
  21
 823.26526647690
  31
0.0
   0
LINE
   5
40E
 100
AcDbEntity
   8
LEVEL005
 370
15
 100
AcDbLine
   6
DASHDOT
  62
8
  10
 733.10732684597
  20
 828.35605209926
  30
0.0
  11
 733.10732684597
  21
 823.26526647690
  31
0.0
   0
DIMENSION
   5
40F
 100
AcDbEntity
   8
0
 370
15
   6
CONTINUOUS
  62
8
 100
AcDbDimension
   2
*D31
  10
 764.98464259090
  20
 826.92847663815
  30
0.0
  11
 764.98464259090
  21
 834.45520027292
  31
0.0
  70
128
   3
GMM009
 100
AcDbAlignedDimension
  13
 743.10732684597
  23
 824.92847663815
  33
0.0
  14
 743.10732684597
  24
 826.92847663815
  34
0.0
  50
 90.000000000000
 100
AcDbRotatedDimension
   0
DIMENSION
   5
410
 100
AcDbEntity
   8
0
 370
15
   6
CONTINUOUS
  62
8
 100
AcDbDimension
   2
*D32
  10
 743.10732684597
  20
 841.92847663815
  30
0.0
  11
 703.10732684597
  21
 841.92847663815
  31
0.0
  70
0
   3
GMM001
 100
AcDbAlignedDimension
  13
 663.10732684597
  23
 826.92847663815
  33
0.0
  14
 743.10732684597
  24
 826.92847663815
  34
0.0
 100
AcDbRotatedDimension
   0
LINE
   5
411
 100
AcDbEntity
   8
LEVEL004
 370
20
 100
AcDbLine
   6
CONTINUOUS
  62
1
  10
 656.85019573839
  20
 402.43263374145
  30
0.0
  11
 656.85019573839
  21
 381.43263374145
  31
0.0
   0
LINE
   5
412
 100
AcDbEntity
   8
LEVEL004
 370
20
 100
AcDbLine
   6
CONTINUOUS
  62
1
  10
 736.85019573839
  20
 402.43263374145
  30
0.0
  11
 736.85019573839
  21
 381.43263374145
  31
0.0
   0
CIRCLE
   5
413
 100
AcDbEntity
   8
LEVEL004
 370
20
 100
AcDbCircle
   6
CONTINUOUS
  62
1
  10
 696.85019573839
  20
 391.93263374145
  30
0.0
  40
 10.000000000000
   0
ARC
   5
414
 100
AcDbEntity
   8
LEVEL004
 370
20
   6
CONTINUOUS
  62
1
 100
AcDbCircle
  10
 696.85019573839
  20
 391.93263374145
  30
0.0
  40
 3.1000000000000
 100
AcDbArc
  50
 270.00000000000
  51
 90.000000000000
   0
ELLIPSE
   5
415
 100
AcDbEntity
   8
LEVEL004
 370
20
   6
CONTINUOUS
  62
1
 100
AcDbEllipse
  10
 688.88894676785
  20
 391.93263374145
  30
0.0
  11
0.0
  21
-3.1000000000000
  31
0.0
  40
 0.30758216576479
  41
 3.1415926535898
  42
-0.14455775985966E-13
   0
ELLIPSE
   5
416
 100
AcDbEntity
   8
LEVEL004
 370
20
   6
CONTINUOUS
  62
1
 100
AcDbEllipse
  10
 690.00370045226
  20
 391.93263374145
  30
0.0
  11
0.0
  21
-3.1000000000000
  31
0.0
  40
 0.30758216576479
  41
 3.1415926535898
  42
-0.14455775985966E-13
   0
CIRCLE
   5
417
 100
AcDbEntity
   8
LEVEL004
 370
20
 100
AcDbCircle
   6
CONTINUOUS
  62
1
  10
 726.85019573839
  20
 391.93263374145
  30
0.0
  40
 2.5000000000000
   0
LINE
   5
418
 100
AcDbEntity
   8
LEVEL004
 370
20
 100
AcDbLine
   6
CONTINUOUS
  62
1
  10
 658.85019573839
  20
 404.43263374145
  30
0.0
  11
 734.85019573839
  21
 404.43263374145
  31
0.0
   0
LINE
   5
419
 100
AcDbEntity
   8
LEVEL004
 370
20
 100
AcDbLine
   6
CONTINUOUS
  62
1
  10
 734.85019573839
  20
 379.43263374145
  30
0.0
  11
 658.85019573839
  21
 379.43263374145
  31
0.0
   0
ARC
   5
41A
 100
AcDbEntity
   8
LEVEL004
 370
20
   6
CONTINUOUS
  62
1
 100
AcDbCircle
  10
 734.85019573839
  20
 402.43263374145
  30
0.0
  40
 2.0000000000000
 100
AcDbArc
  50
0.0
  51
 90.000000000000
   0
ARC
   5
41B
 100
AcDbEntity
   8
LEVEL004
 370
20
   6
CONTINUOUS
  62
1
 100
AcDbCircle
  10
 658.85019573839
  20
 402.43263374145
  30
0.0
  40
 2.0000000000000
 100
AcDbArc
  50
 90.000000000000
  51
 180.00000000000
   0
ARC
   5
41C
 100
AcDbEntity
   8
LEVEL004
 370
20
   6
CONTINUOUS
  62
1
 100
AcDbCircle
  10
 734.85019573839
  20
 381.43263374145
  30
0.0
  40
 2.0000000000000
 100
AcDbArc
  50
 270.00000000000
  51
0.0
   0
CIRCLE
   5
41D
 100
AcDbEntity
   8
LEVEL004
 370
20
 100
AcDbCircle
   6
CONTINUOUS
  62
1
  10
 666.85019573839
  20
 391.93263374145
  30
0.0
  40
 2.5000000000000
   0
ARC
   5
41E
 100
AcDbEntity
   8
LEVEL004
 370
20
   6
CONTINUOUS
  62
1
 100
AcDbCircle
  10
 658.85019573839
  20
 381.43263374145
  30
0.0
  40
 2.0000000000000
 100
AcDbArc
  50
 180.00000000000
  51
 270.00000000000
   0
CIRCLE
   5
41F
 100
AcDbEntity
   8
LEVEL004
 370
20
 100
AcDbCircle
   6
HIDDEN
  62
1
  10
 726.85019573839
  20
 391.93263374145
  30
0.0
  40
 4.3000000000000
   0
CIRCLE
   5
420
 100
AcDbEntity
   8
LEVEL004
 370
20
 100
AcDbCircle
   6
HIDDEN
  62
1
  10
 666.85019573839
  20
 391.93263374145
  30
0.0
  40
 4.3000000000000
   0
LINE
   5
421
 100
AcDbEntity
   8
LEVEL004
 370
20
 100
AcDbLine
   6
CONTINUOUS
  62
1
  10
 696.85019573839
  20
 388.83263374145
  30
0.0
  11
 692.00741761008
  21
 388.83263374145
  31
0.0
   0
LINE
   5
422
 100
AcDbEntity
   8
LEVEL004
 370
20
 100
AcDbLine
   6
CONTINUOUS
  62
1
  10
 692.00741761008
  20
 388.83263374145
  30
0.0
  11
 688.88894676785
  21
 388.83263374145
  31
0.0
   0
LINE
   5
423
 100
AcDbEntity
   8
LEVEL004
 370
20
 100
AcDbLine
   6
CONTINUOUS
  62
1
  10
 696.85019573839
  20
 395.03263374145
  30
0.0
  11
 692.00741761008
  21
 395.03263374145
  31
0.0
   0
LINE
   5
424
 100
AcDbEntity
   8
LEVEL004
 370
20
 100
AcDbLine
   6
CONTINUOUS
  62
1
  10
 692.00741761008
  20
 395.03263374145
  30
0.0
  11
 688.88894676785
  21
 395.03263374145
  31
0.0
   0
LINE
   5
425
 100
AcDbEntity
   8
0
 370
15
 100
AcDbLine
   6
DASHDOT
  62
8
  10
 726.85019573839
  20
 385.17220468197
  30
0.0
  11
 726.85019573839
  21
 398.69306280093
  31
0.0
   0
LINE
   5
426
 100
AcDbEntity
   8
0
 370
15
 100
AcDbLine
   6
DASHDOT
  62
8
  10
 732.49188168317
  20
 391.93263374145
  30
0.0
  11
 721.20850979361
  21
 391.93263374145
  31
0.0
   0
DIMENSION
   5
427
 100
AcDbEntity
   8
0
 370
15
   6
CONTINUOUS
  62
8
 100
AcDbDimension
   2
*D33
  10
 726.85019573839
  20
 359.43263374145
  30
0.0
  11
 696.85019573839
  21
 359.43263374145
  31
0.0
  70
0
   3
GMM001
 100
AcDbAlignedDimension
  13
 666.85019573839
  23
 385.17220468197
  33
0.0
  14
 726.85019573839
  24
 385.17220468197
  34
0.0
 100
AcDbRotatedDimension
   0
LINE
   5
428
 100
AcDbEntity
   8
0
 370
15
 100
AcDbLine
   6
DASHDOT
  62
8
  10
 666.85019573839
  20
 385.17220468197
  30
0.0
  11
 666.85019573839
  21
 398.69306280093
  31
0.0
   0
LINE
   5
429
 100
AcDbEntity
   8
0
 370
15
 100
AcDbLine
   6
DASHDOT
  62
8
  10
 672.49188168317
  20
 391.93263374145
  30
0.0
  11
 661.20850979361
  21
 391.93263374145
  31
0.0
   0
DIMENSION
   5
42A
 100
AcDbEntity
   8
0
 370
15
   6
CONTINUOUS
  62
8
 100
AcDbDimension
   2
*D34
  10
 736.85019573839
  20
 339.43263374145
  30
0.0
  11
 696.85019573839
  21
 339.43263374145
  31
0.0
  70
0
   3
GMM001
 100
AcDbAlignedDimension
  13
 656.85019573839
  23
 381.43263374145
  33
0.0
  14
 736.85019573839
  24
 381.43263374145
  34
0.0
 100
AcDbRotatedDimension
   0
ARC
   5
42B
 100
AcDbEntity
   8
LEVEL002
 370
15
   6
CONTINUOUS
  62
5
 100
AcDbCircle
  10
 696.85019573839
  20
 391.93263374145
  30
0.0
  40
 3.1500000000000
 100
AcDbArc
  50
 352.40872336399
  51
 7.5912766360084
   0
ARC
   5
42C
 100
AcDbEntity
   8
LEVEL002
 370
15
   6
CONTINUOUS
  62
5
 100
AcDbCircle
  10
 699.87346451659
  20
 391.52971204345
  30
0.0
  40
 0.10000000000000
 100
AcDbArc
  50
 272.64135881594
  51
 352.40872337667
   0
ARC
   5
42D
 100
AcDbEntity
   8
LEVEL002
 370
15
   6
CONTINUOUS
  62
5
 100
AcDbCircle
  10
 700.00019573839
  20
 388.78263374145
  30
0.0
  40
 2.6500000000000
 100
AcDbArc
  50
 92.641358814901
  51
 177.35864118510
   0
CIRCLE
   5
42E
 100
AcDbEntity
   8
LEVEL002
 370
15
 100
AcDbCircle
   6
CONTINUOUS
  62
5
  10
 696.85019573839
  20
 391.93263374145
  30
0.0
  40
 5.7500000000000
   0
ARC
   5
42F
 100
AcDbEntity
   8
LEVEL002
 370
15
   6
CONTINUOUS
  62
5
 100
AcDbCircle
  10
 699.87346451660
  20
 392.33555543943
  30
0.0
  40
 0.10000000000000
 100
AcDbArc
  50
 7.5912766367316
  51
 87.358641189998
   0
ARC
   5
430
 100
AcDbEntity
   8
LEVEL002
 370
15
   6
CONTINUOUS
  62
5
 100
AcDbCircle
  10
 700.00019573839
  20
 395.08263374145
  30
0.0
  40
 2.6500000000000
 100
AcDbArc
  50
 182.64135881488
  51
 267.35864118510
   0
ARC
   5
431
 100
AcDbEntity
   8
LEVEL002
 370
15
   6
CONTINUOUS
  62
5
 100
AcDbCircle
  10
 696.85019573839
  20
 391.93263374145
  30
0.0
  40
 3.1500000000000
 100
AcDbArc
  50
 82.408723364038
  51
 97.591276636088
   0
ARC
   5
432
 100
AcDbEntity
   8
LEVEL002
 370
15
   6
CONTINUOUS
  62
5
 100
AcDbCircle
  10
 697.25311743632
  20
 394.95590251966
  30
0.0
  40
 0.10000000000000
 100
AcDbArc
  50
 2.6413588101660
  51
 82.408723337014
   0
ARC
   5
433
 100
AcDbEntity
   8
LEVEL002
 370
15
   6
CONTINUOUS
  62
5
 100
AcDbCircle
  10
 696.44727404041
  20
 394.95590251968
  30
0.0
  40
 0.10000000000000
 100
AcDbArc
  50
 97.591276639265
  51
 177.35864119975
   0
ARC
   5
434
 100
AcDbEntity
   8
LEVEL002
 370
15
   6
CONTINUOUS
  62
5
 100
AcDbCircle
  10
 693.70019573839
  20
 395.08263374145
  30
0.0
  40
 2.6500000000000
 100
AcDbArc
  50
 272.64135881490
  51
 357.35864118512
   0
ARC
   5
435
 100
AcDbEntity
   8
LEVEL002
 370
15
   6
CONTINUOUS
  62
5
 100
AcDbCircle
  10
 696.85019573839
  20
 391.93263374145
  30
0.0
  40
 3.1500000000000
 100
AcDbArc
  50
 172.40872336399
  51
 187.59127663601
   0
ARC
   5
436
 100
AcDbEntity
   8
LEVEL002
 370
15
   6
CONTINUOUS
  62
5
 100
AcDbCircle
  10
 693.82692696018
  20
 392.33555543943
  30
0.0
  40
 0.10000000000000
 100
AcDbArc
  50
 92.641358813913
  51
 172.40872336133
   0
ARC
   5
437
 100
AcDbEntity
   8
LEVEL002
 370
15
   6
CONTINUOUS
  62
5
 100
AcDbCircle
  10
 693.70019573839
  20
 388.78263374145
  30
0.0
  40
 2.6500000000000
 100
AcDbArc
  50
 2.6413588149008
  51
 87.358641185099
   0
ARC
   5
438
 100
AcDbEntity
   8
LEVEL002
 370
15
   6
CONTINUOUS
  62
5
 100
AcDbCircle
  10
 693.82692696020
  20
 391.52971204347
  30
0.0
  40
 0.10000000000000
 100
AcDbArc
  50
 187.59127663322
  51
 267.35864117076
   0
ARC
   5
439
 100
AcDbEntity
   8
LEVEL002
 370
15
   6
CONTINUOUS
  62
5
 100
AcDbCircle
  10
 696.85019573839
  20
 391.93263374145
  30
0.0
  40
 3.1500000000000
 100
AcDbArc
  50
 262.40872336397
  51
 277.59127663603
   0
ARC
   5
43A
 100
AcDbEntity
   8
LEVEL002
 370
15
   6
CONTINUOUS
  62
5
 100
AcDbCircle
  10
 697.25311743637
  20
 388.90936496320
  30
0.0
  40
 0.10000000000000
 100
AcDbArc
  50
 277.59127663953
  51
 357.35864120500
   0
ARC
   5
43B
 100
AcDbEntity
   8
LEVEL002
 370
15
   6
CONTINUOUS
  62
5
 100
AcDbCircle
  10
 696.85019573839
  20
 391.93263374145
  30
0.0
  40
 5.2500000000000
 100
AcDbArc
  50
 202.71545977072
  51
 157.28454022928
   0
ARC
   5
43C
 100
AcDbEntity
   8
LEVEL002
 370
15
   6
CONTINUOUS
  62
5
 100
AcDbCircle
  10
 696.85019573839
  20
 391.93263374145
  30
0.0
  40
 5.2500000000000
 100
AcDbArc
  50
 157.28454022928
  51
 202.71545977072
   0
LINE
   5
43D
 100
AcDbEntity
   8
LEVEL004
 370
20
 100
AcDbLine
   6
CONTINUOUS
  62
1
  10
 663.10732684597
  20
 948.57774309098
  30
0.0
  11
 663.10732684597
  21
 927.57774309098
  31
0.0
   0
LINE
   5
43E
 100
AcDbEntity
   8
LEVEL004
 370
20
 100
AcDbLine
   6
CONTINUOUS
  62
1
  10
 743.10732684597
  20
 948.57774309098
  30
0.0
  11
 743.10732684597
  21
 927.57774309098
  31
0.0
   0
CIRCLE
   5
43F
 100
AcDbEntity
   8
LEVEL004
 370
20
 100
AcDbCircle
   6
CONTINUOUS
  62
1
  10
 703.10732684597
  20
 938.07774309098
  30
0.0
  40
 10.000000000000
   0
ARC
   5
440
 100
AcDbEntity
   8
LEVEL004
 370
20
   6
CONTINUOUS
  62
1
 100
AcDbCircle
  10
 703.10732684597
  20
 938.07774309098
  30
0.0
  40
 3.1000000000000
 100
AcDbArc
  50
 270.00000000000
  51
 90.000000000000
   0
ELLIPSE
   5
441
 100
AcDbEntity
   8
LEVEL004
 370
20
   6
CONTINUOUS
  62
1
 100
AcDbEllipse
  10
 695.14607787543
  20
 938.07774309098
  30
0.0
  11
0.0
  21
-3.1000000000000
  31
0.0
  40
 0.30758216576479
  41
 3.1415926535898
  42
-0.14455775985966E-13
   0
ELLIPSE
   5
442
 100
AcDbEntity
   8
LEVEL004
 370
20
   6
CONTINUOUS
  62
1
 100
AcDbEllipse
  10
 696.26083155984
  20
 938.07774309098
  30
0.0
  11
0.0
  21
-3.1000000000000
  31
0.0
  40
 0.30758216576479
  41
 3.1415926535898
  42
-0.14455775985966E-13
   0
CIRCLE
   5
443
 100
AcDbEntity
   8
LEVEL004
 370
20
 100
AcDbCircle
   6
CONTINUOUS
  62
1
  10
 733.10732684597
  20
 938.07774309098
  30
0.0
  40
 2.5000000000000
   0
LINE
   5
444
 100
AcDbEntity
   8
LEVEL004
 370
20
 100
AcDbLine
   6
CONTINUOUS
  62
1
  10
 665.10732684597
  20
 950.57774309098
  30
0.0
  11
 741.10732684597
  21
 950.57774309098
  31
0.0
   0
LINE
   5
445
 100
AcDbEntity
   8
LEVEL004
 370
20
 100
AcDbLine
   6
CONTINUOUS
  62
1
  10
 741.10732684597
  20
 925.57774309098
  30
0.0
  11
 665.10732684597
  21
 925.57774309098
  31
0.0
   0
ARC
   5
446
 100
AcDbEntity
   8
LEVEL004
 370
20
   6
CONTINUOUS
  62
1
 100
AcDbCircle
  10
 741.10732684597
  20
 948.57774309098
  30
0.0
  40
 2.0000000000000
 100
AcDbArc
  50
0.0
  51
 90.000000000000
   0
ARC
   5
447
 100
AcDbEntity
   8
LEVEL004
 370
20
   6
CONTINUOUS
  62
1
 100
AcDbCircle
  10
 665.10732684597
  20
 948.57774309098
  30
0.0
  40
 2.0000000000000
 100
AcDbArc
  50
 90.000000000000
  51
 180.00000000000
   0
ARC
   5
448
 100
AcDbEntity
   8
LEVEL004
 370
20
   6
CONTINUOUS
  62
1
 100
AcDbCircle
  10
 741.10732684597
  20
 927.57774309098
  30
0.0
  40
 2.0000000000000
 100
AcDbArc
  50
 270.00000000000
  51
0.0
   0
CIRCLE
   5
449
 100
AcDbEntity
   8
LEVEL004
 370
20
 100
AcDbCircle
   6
CONTINUOUS
  62
1
  10
 673.10732684597
  20
 938.07774309098
  30
0.0
  40
 2.5000000000000
   0
ARC
   5
44A
 100
AcDbEntity
   8
LEVEL004
 370
20
   6
CONTINUOUS
  62
1
 100
AcDbCircle
  10
 665.10732684597
  20
 927.57774309098
  30
0.0
  40
 2.0000000000000
 100
AcDbArc
  50
 180.00000000000
  51
 270.00000000000
   0
CIRCLE
   5
44B
 100
AcDbEntity
   8
LEVEL004
 370
20
 100
AcDbCircle
   6
HIDDEN
  62
1
  10
 733.10732684597
  20
 938.07774309098
  30
0.0
  40
 4.3000000000000
   0
CIRCLE
   5
44C
 100
AcDbEntity
   8
LEVEL004
 370
20
 100
AcDbCircle
   6
HIDDEN
  62
1
  10
 673.10732684597
  20
 938.07774309098
  30
0.0
  40
 4.3000000000000
   0
LINE
   5
44D
 100
AcDbEntity
   8
LEVEL004
 370
20
 100
AcDbLine
   6
CONTINUOUS
  62
1
  10
 703.10732684597
  20
 934.97774309098
  30
0.0
  11
 698.26454871766
  21
 934.97774309098
  31
0.0
   0
LINE
   5
44E
 100
AcDbEntity
   8
LEVEL004
 370
20
 100
AcDbLine
   6
CONTINUOUS
  62
1
  10
 698.26454871766
  20
 934.97774309098
  30
0.0
  11
 695.14607787543
  21
 934.97774309098
  31
0.0
   0
LINE
   5
44F
 100
AcDbEntity
   8
LEVEL004
 370
20
 100
AcDbLine
   6
CONTINUOUS
  62
1
  10
 703.10732684597
  20
 941.17774309098
  30
0.0
  11
 698.26454871766
  21
 941.17774309098
  31
0.0
   0
LINE
   5
450
 100
AcDbEntity
   8
LEVEL004
 370
20
 100
AcDbLine
   6
CONTINUOUS
  62
1
  10
 698.26454871766
  20
 941.17774309098
  30
0.0
  11
 695.14607787543
  21
 941.17774309098
  31
0.0
   0
LINE
   5
451
 100
AcDbEntity
   8
0
 370
15
 100
AcDbLine
   6
DASHDOT
  62
8
  10
 733.10732684597
  20
 931.31731403150
  30
0.0
  11
 733.10732684597
  21
 944.83817215045
  31
0.0
   0
LINE
   5
452
 100
AcDbEntity
   8
0
 370
15
 100
AcDbLine
   6
DASHDOT
  62
8
  10
 738.74901279075
  20
 938.07774309098
  30
0.0
  11
 727.46564090119
  21
 938.07774309098
  31
0.0
   0
DIMENSION
   5
453
 100
AcDbEntity
   8
0
 370
15
   6
CONTINUOUS
  62
8
 100
AcDbDimension
   2
*D35
  10
 733.10732684597
  20
 905.57774309098
  30
0.0
  11
 703.10732684597
  21
 905.57774309098
  31
0.0
  70
0
   3
GMM001
 100
AcDbAlignedDimension
  13
 673.10732684597
  23
 931.31731403150
  33
0.0
  14
 733.10732684597
  24
 931.31731403150
  34
0.0
 100
AcDbRotatedDimension
   0
LINE
   5
454
 100
AcDbEntity
   8
0
 370
15
 100
AcDbLine
   6
DASHDOT
  62
8
  10
 673.10732684597
  20
 931.31731403150
  30
0.0
  11
 673.10732684597
  21
 944.83817215045
  31
0.0
   0
LINE
   5
455
 100
AcDbEntity
   8
0
 370
15
 100
AcDbLine
   6
DASHDOT
  62
8
  10
 678.74901279075
  20
 938.07774309098
  30
0.0
  11
 667.46564090119
  21
 938.07774309098
  31
0.0
   0
DIMENSION
   5
456
 100
AcDbEntity
   8
0
 370
15
   6
CONTINUOUS
  62
8
 100
AcDbDimension
   2
*D36
  10
 743.10732684597
  20
 885.57774309098
  30
0.0
  11
 703.10732684597
  21
 885.57774309098
  31
0.0
  70
0
   3
GMM001
 100
AcDbAlignedDimension
  13
 663.10732684597
  23
 927.57774309098
  33
0.0
  14
 743.10732684597
  24
 927.57774309098
  34
0.0
 100
AcDbRotatedDimension
   0
ARC
   5
457
 100
AcDbEntity
   8
LEVEL002
 370
15
   6
CONTINUOUS
  62
5
 100
AcDbCircle
  10
 703.10732684597
  20
 938.07774309098
  30
0.0
  40
 3.1500000000000
 100
AcDbArc
  50
 352.40872336399
  51
 7.5912766360084
   0
ARC
   5
458
 100
AcDbEntity
   8
LEVEL002
 370
15
   6
CONTINUOUS
  62
5
 100
AcDbCircle
  10
 706.13059562417
  20
 937.67482139297
  30
0.0
  40
 0.10000000000000
 100
AcDbArc
  50
 272.64135881594
  51
 352.40872337670
   0
ARC
   5
459
 100
AcDbEntity
   8
LEVEL002
 370
15
   6
CONTINUOUS
  62
5
 100
AcDbCircle
  10
 706.25732684597
  20
 934.92774309098
  30
0.0
  40
 2.6500000000000
 100
AcDbArc
  50
 92.641358814901
  51
 177.35864118510
   0
CIRCLE
   5
45A
 100
AcDbEntity
   8
LEVEL002
 370
15
 100
AcDbCircle
   6
CONTINUOUS
  62
5
  10
 703.10732684597
  20
 938.07774309098
  30
0.0
  40
 5.7500000000000
   0
ARC
   5
45B
 100
AcDbEntity
   8
LEVEL002
 370
15
   6
CONTINUOUS
  62
5
 100
AcDbCircle
  10
 706.13059562418
  20
 938.48066478896
  30
0.0
  40
 0.10000000000000
 100
AcDbArc
  50
 7.5912766367639
  51
 87.358641190000
   0
ARC
   5
45C
 100
AcDbEntity
   8
LEVEL002
 370
15
   6
CONTINUOUS
  62
5
 100
AcDbCircle
  10
 706.25732684597
  20
 941.22774309098
  30
0.0
  40
 2.6500000000000
 100
AcDbArc
  50
 182.64135881488
  51
 267.35864118510
   0
ARC
   5
45D
 100
AcDbEntity
   8
LEVEL002
 370
15
   6
CONTINUOUS
  62
5
 100
AcDbCircle
  10
 703.10732684597
  20
 938.07774309098
  30
0.0
  40
 3.1500000000000
 100
AcDbArc
  50
 82.408723364038
  51
 97.591276636088
   0
ARC
   5
45E
 100
AcDbEntity
   8
LEVEL002
 370
15
   6
CONTINUOUS
  62
5
 100
AcDbCircle
  10
 703.51024854390
  20
 941.10101186919
  30
0.0
  40
 0.10000000000000
 100
AcDbArc
  50
 2.6413588101986
  51
 82.408723337018
   0
ARC
   5
45F
 100
AcDbEntity
   8
LEVEL002
 370
15
   6
CONTINUOUS
  62
5
 100
AcDbCircle
  10
 702.70440514799
  20
 941.10101186921
  30
0.0
  40
 0.10000000000000
 100
AcDbArc
  50
 97.591276639260
  51
 177.35864119971
   0
ARC
   5
460
 100
AcDbEntity
   8
LEVEL002
 370
15
   6
CONTINUOUS
  62
5
 100
AcDbCircle
  10
 699.95732684597
  20
 941.22774309098
  30
0.0
  40
 2.6500000000000
 100
AcDbArc
  50
 272.64135881490
  51
 357.35864118512
   0
ARC
   5
461
 100
AcDbEntity
   8
LEVEL002
 370
15
   6
CONTINUOUS
  62
5
 100
AcDbCircle
  10
 703.10732684597
  20
 938.07774309098
  30
0.0
  40
 3.1500000000000
 100
AcDbArc
  50
 172.40872336399
  51
 187.59127663601
   0
ARC
   5
462
 100
AcDbEntity
   8
LEVEL002
 370
15
   6
CONTINUOUS
  62
5
 100
AcDbCircle
  10
 700.08405806776
  20
 938.48066478895
  30
0.0
  40
 0.10000000000000
 100
AcDbArc
  50
 92.641358813913
  51
 172.40872336133
   0
ARC
   5
463
 100
AcDbEntity
   8
LEVEL002
 370
15
   6
CONTINUOUS
  62
5
 100
AcDbCircle
  10
 699.95732684597
  20
 934.92774309098
  30
0.0
  40
 2.6500000000000
 100
AcDbArc
  50
 2.6413588149008
  51
 87.358641185099
   0
ARC
   5
464
 100
AcDbEntity
   8
LEVEL002
 370
15
   6
CONTINUOUS
  62
5
 100
AcDbCircle
  10
 700.08405806778
  20
 937.67482139300
  30
0.0
  40
 0.10000000000000
 100
AcDbArc
  50
 187.59127663322
  51
 267.35864117076
   0
ARC
   5
465
 100
AcDbEntity
   8
LEVEL002
 370
15
   6
CONTINUOUS
  62
5
 100
AcDbCircle
  10
 703.10732684597
  20
 938.07774309098
  30
0.0
  40
 3.1500000000000
 100
AcDbArc
  50
 262.40872336397
  51
 277.59127663603
   0
ARC
   5
466
 100
AcDbEntity
   8
LEVEL002
 370
15
   6
CONTINUOUS
  62
5
 100
AcDbCircle
  10
 703.51024854395
  20
 935.05447431273
  30
0.0
  40
 0.10000000000000
 100
AcDbArc
  50
 277.59127663953
  51
 357.35864120500
   0
ARC
   5
467
 100
AcDbEntity
   8
LEVEL002
 370
15
   6
CONTINUOUS
  62
5
 100
AcDbCircle
  10
 703.10732684597
  20
 938.07774309098
  30
0.0
  40
 5.2500000000000
 100
AcDbArc
  50
 202.71545977072
  51
 157.28454022928
   0
ARC
   5
468
 100
AcDbEntity
   8
LEVEL002
 370
15
   6
CONTINUOUS
  62
5
 100
AcDbCircle
  10
 703.10732684597
  20
 938.07774309098
  30
0.0
  40
 5.2500000000000
 100
AcDbArc
  50
 157.28454022928
  51
 202.71545977072
   0
LINE
   5
469
 100
AcDbEntity
   8
LEVEL001
 370
15
 100
AcDbLine
   6
HIDDEN
  62
2
  10
 695.10732684597
  20
 938.07774309098
  30
0.0
  11
 695.10732684597
  21
 950.57774309098
  31
0.0
   0
LINE
   5
46A
 100
AcDbEntity
   8
LEVEL001
 370
20
 100
AcDbLine
   6
CONTINUOUS
  62
7
  10
 695.10732684597
  20
 950.57774309098
  30
0.0
  11
 695.10732684597
  21
 996.07774309098
  31
0.0
   0
LINE
   5
46B
 100
AcDbEntity
   8
LEVEL001
 370
15
 100
AcDbLine
   6
HIDDEN
  62
2
  10
 711.10732684597
  20
 950.57774309098
  30
0.0
  11
 711.10732684597
  21
 938.07774309098
  31
0.0
   0
LINE
   5
46C
 100
AcDbEntity
   8
LEVEL001
 370
20
 100
AcDbLine
   6
CONTINUOUS
  62
7
  10
 711.10732684597
  20
 996.07774309098
  30
0.0
  11
 711.10732684597
  21
 950.57774309098
  31
0.0
   0
LINE
   5
46D
 100
AcDbEntity
   8
LEVEL001
 370
15
 100
AcDbLine
   6
HIDDEN
  62
2
  10
 690.35019573840
  20
 391.93263374145
  30
0.0
  11
 690.35019573840
  21
 404.43263374145
  31
0.0
   0
LINE
   5
46E
 100
AcDbEntity
   8
LEVEL001
 370
20
 100
AcDbLine
   6
CONTINUOUS
  62
7
  10
 690.35019573840
  20
 404.43263374145
  30
0.0
  11
 690.35019573840
  21
 446.93263374145
  31
0.0
   0
LINE
   5
46F
 100
AcDbEntity
   8
LEVEL001
 370
15
 100
AcDbLine
   6
HIDDEN
  62
2
  10
 703.35019573840
  20
 404.43263374145
  30
0.0
  11
 703.35019573840
  21
 391.93263374145
  31
0.0
   0
LINE
   5
470
 100
AcDbEntity
   8
LEVEL001
 370
20
 100
AcDbLine
   6
CONTINUOUS
  62
7
  10
 703.35019573840
  20
 446.93263374145
  30
0.0
  11
 703.35019573840
  21
 404.43263374145
  31
0.0
   0
MTEXT
   5
472
 100
AcDbEntity
   8
LEVEL001
 370
15
  62
8
 100
AcDbMText
  10
 1287.2799276686
  20
 636.92436335994
  30
0.0
  40
 12.000000000000
  41
0.0
  71
1
  72
1
   1
{\W1.000000;\T1.000000;※出寸法Ｌは軸の中心までの寸法です。}\P{\W1.000000;\T1.000000;※傾斜角度は片方向に０～４５%%dの範囲です。}\P{\W1.000000;\T1.000000;※ガラス厚は１２～１８\W0.500000;\T1.000000;m/m\W1.000000;\T1.000000;に限ります。}
   7
GMM001
  44
 0.79999984000003
   0
MTEXT
   5
474
 100
AcDbEntity
   8
LEVEL001
 370
15
  62
8
 100
AcDbMText
  10
 1305.5062713797
  20
 838.26225769669
  30
0.0
  40
 12.000000000000
  41
0.0
  71
1
  72
1
   1
{\T1.000000;材　質／ＳＵＳ３０４・ＰＶＣ}\P{\T1.000000;仕上げ／ＨＬ}\P{\T1.000000;軸　径／%%c１６・%%c１３}
   7
GMM001
  44
 0.79999984000003
   0
LEADER
   5
475
 100
AcDbEntity
   8
0
 370
15
   6
CONTINUOUS
  62
8
 100
AcDbLeader
   3
GMM002
  73
0
  74
0
  75
0
  40
 10.000000000000
  41
 62.000000000000
  76
2
  10
 729.88340027434
  20
 394.69119681743
  30
0.0
  10
 745.33890451505
  20
 410.19320221474
  30
0.0
  77
8
 340
476
 213
0.0
 223
-4.0000000000000
 233
0.0
   0
MTEXT
   5
476
 102
{ACAD_REACTORS
 330
475
 102
}
 100
AcDbEntity
   8
0
 370
15
  62
8
 100
AcDbMText
  10
 745.33890451505
  20
 414.19320221474
  30
0.0
  40
 10.000000000000
  41
0.0
  71
7
  72
1
   1
\A1;下穴%%c５/皿%%c８
   7
GMM001
   0
LEADER
   5
477
 100
AcDbEntity
   8
0
 370
15
   6
CONTINUOUS
  62
8
 100
AcDbLeader
   3
GMM002
  73
0
  74
0
  75
0
  40
 10.000000000000
  41
 62.000000000000
  76
2
  10
 736.14053138192
  20
 940.83630616696
  30
0.0
  10
 751.59603562263
  20
 956.33831156427
  30
0.0
  77
8
 340
478
 213
0.0
 223
-4.0000000000000
 233
0.0
   0
MTEXT
   5
478
 102
{ACAD_REACTORS
 330
477
 102
}
 100
AcDbEntity
   8
0
 370
15
  62
8
 100
AcDbMText
  10
 751.59603562263
  20
 960.33831156427
  30
0.0
  40
 10.000000000000
  41
0.0
  71
7
  72
1
   1
\A1;下穴%%c５/皿%%c８
   7
GMM001
   0
MTEXT
   5
47A
 100
AcDbEntity
   8
LEVEL001
 370
15
  62
8
 100
AcDbMText
  10
 1573.2000000001
  20
 194.66666666668
  30
0.0
  40
 8.0000000000000
  41
0.0
  71
5
  72
1
   1
\T1.000000;平成３１年　２月　１日
   7
GMM001
  44
 0.79999984000003
   0
ENDSEC
  0
SECTION
  2
OBJECTS
  0
DICTIONARY
  5
C
100
AcDbDictionary
  3
ACAD_GROUP
350
D
  3
ACAD_MLINESTYLE
350
1B
  3
DWGPROPS
350
1C
  0
DICTIONARY
  5
D
102
{ACAD_REACTORS
330
C
102
}
100
AcDbDictionary
  0
DICTIONARY
  5
1B
102
{ACAD_REACTORS
330
C
102
}
100
AcDbDictionary
  3
STANDARD
350
1D
  0
MLINESTYLE
  5
1D
102
{ACAD_REACTORS
330
1B
102
}
100
AcDbMlineStyle
  2
STANDARD
 70
     0
  3

 62
   256
 51
90.0
 52
90.0
 71
     2
 49
0.5
 62
   256
  6
BYLAYER
 49
-0.5
 62
   256
  6
BYLAYER
   0
XRECORD
   5
1C
 102
{ACAD_REACTORS
 330
C
 102
}
 330
C
 100
AcDbXrecord
 280
1
   1
DWGPROPS COOKIE
   2
 
   3
 
   4
haruna
   6
 
   7
PIKG(16軸･13軸)
   8
haruna
   9

 300
 = 
 301
 = 
 302
 = 
 303
 = 
 304
 = 
 305
 = 
 306
 = 
 307
 = 
 308
 = 
 309
 = 
  40
0.0
  41
 2458515.5000000
  42
 2458519.5000000
   1

  90
10
   0
ENDSEC
   0
EOF
