   0
SECTION
   2
HEADER
   9
$ACADVER
   1
AC1015
   9
$DWGCODEPAGE
   3
ANSI_932
   9
$LIMMIN
  10
0.0
  20
0.0
   9
$LIMMAX
  10
 1680.0000000000
  20
 1188.0000000000
   9
$EXTMIN
  10
0.0
  20
0.0
  30
0.0
   9
$EXTMAX
  10
 1680.0000000000
  20
 1188.0000000000
  30
0.0
   9
$LTSCALE
  40
 33.600000000000
   9
$HANDSEED
   5
3F3
   0
ENDSEC
   0
SECTION
   2
TABLES
  0
TABLE
  2
VPORT
  5
8
100
AcDbSymbolTable
 70
     1
  0
VPORT
  5
3F2
100
AcDbSymbolTableRecord
100
AcDbViewportTableRecord
  2
*ACTIVE
 70
     0
 10
0.0
 20
0.0
 11
1.0
 21
1.0
  12
 840.00000000000
  22
 594.00000000000
 13
0.0
 23
0.0
 14
1.0
 24
1.0
 15
0.0
 25
0.0
 16
0.0
 26
0.0
 36
1.0
 17
0.0
 27
0.0
 37
0.0
  40
 1680.0000000000
  41
 1.4787878787879
 42
50.0
 43
0.0
 44
0.0
 50
0.0
 51
0.0
 71
     0
 72
   100
 73
     1
 74
     1
 75
     0
 76
     0
 77
     0
 78
     0
  0
ENDTAB
  0
TABLE
  2
LTYPE
  5
5
100
AcDbSymbolTable
 70
    25
  0
LTYPE
  5
12
100
AcDbSymbolTableRecord
100
AcDbLinetypeTableRecord
  2
BYBLOCK
 70
     0
  3

 72
    65
 73
     0
 40
0.0
  0
LTYPE
  5
13
100
AcDbSymbolTableRecord
100
AcDbLinetypeTableRecord
  2
BYLAYER
 70
     0
  3

 72
    65
 73
     0
 40
0.0
  0
LTYPE
  5
14
100
AcDbSymbolTableRecord
100
AcDbLinetypeTableRecord
  2
CONTINUOUS
 70
     0
  3
Solid line
 72
    65
 73
     0
 40
0.0
  0
LTYPE
  5
20
100
AcDbSymbolTableRecord
100
AcDbLinetypeTableRecord
  2
BORDER
 70
     0
  3
__ __ . __ __ . __ __ . __ __ . __ __ . __ __ .
 72
    65
 73
     6
 40
1.75
 49
0.5
 74
     0
 49
-0.25
 74
     0
 49
0.5
 74
     0
 49
-0.25
 74
     0
 49
0.0
 74
     0
 49
-0.25
 74
     0
  0
LTYPE
  5
21
100
AcDbSymbolTableRecord
100
AcDbLinetypeTableRecord
  2
BORDER2
 70
     0
  3
__.__.__.__.__.__.__.__.__.__.__.__.__.__.__.__
 72
    65
 73
     6
 40
0.875
 49
0.25
 74
     0
 49
-0.125
 74
     0
 49
0.25
 74
     0
 49
-0.125
 74
     0
 49
0.0
 74
     0
 49
-0.125
 74
     0
  0
LTYPE
  5
22
100
AcDbSymbolTableRecord
100
AcDbLinetypeTableRecord
  2
BORDERX2
 70
     0
  3
____  ____  .  ____  ____  .  ____  ____  .  __
 72
    65
 73
     6
 40
3.5
 49
1.0
 74
     0
 49
-0.5
 74
     0
 49
1.0
 74
     0
 49
-0.5
 74
     0
 49
0.0
 74
     0
 49
-0.5
 74
     0
  0
LTYPE
  5
23
100
AcDbSymbolTableRecord
100
AcDbLinetypeTableRecord
  2
CENTER
 70
     0
  3
____ _ ____ _ ____ _ ____ _ ____ _ ____ _ ____ 
 72
    65
 73
     4
 40
2.0
 49
1.25
 74
     0
 49
-0.25
 74
     0
 49
0.25
 74
     0
 49
-0.25
 74
     0
  0
LTYPE
  5
24
100
AcDbSymbolTableRecord
100
AcDbLinetypeTableRecord
  2
CENTER2
 70
     0
  3
___ _ ___ _ ___ _ ___ _ ___ _ ___ _ ___ _ ___ _
 72
    65
 73
     4
 40
1.125
 49
0.75
 74
     0
 49
-0.125
 74
     0
 49
0.125
 74
     0
 49
-0.125
 74
     0
  0
LTYPE
  5
25
100
AcDbSymbolTableRecord
100
AcDbLinetypeTableRecord
  2
CENTERX2
 70
     0
  3
________  __  ________  __  ________  __  _____
 72
    65
 73
     4
 40
4.0
 49
2.5
 74
     0
 49
-0.5
 74
     0
 49
0.5
 74
     0
 49
-0.5
 74
     0
  0
LTYPE
  5
26
100
AcDbSymbolTableRecord
100
AcDbLinetypeTableRecord
  2
DASHDOT
 70
     0
  3
__ . __ . __ . __ . __ . __ . __ . __ . __ . __
 72
    65
 73
     4
 40
1.0
 49
0.5
 74
     0
 49
-0.25
 74
     0
 49
0.0
 74
     0
 49
-0.25
 74
     0
  0
LTYPE
  5
27
100
AcDbSymbolTableRecord
100
AcDbLinetypeTableRecord
  2
DASHDOT2
 70
     0
  3
_._._._._._._._._._._._._._._._._._._._._._._._
 72
    65
 73
     4
 40
0.5
 49
0.25
 74
     0
 49
-0.125
 74
     0
 49
0.0
 74
     0
 49
-0.125
 74
     0
  0
LTYPE
  5
28
100
AcDbSymbolTableRecord
100
AcDbLinetypeTableRecord
  2
DASHDOTX2
 70
     0
  3
____  .  ____  .  ____  .  ____  .  ____  .  __
 72
    65
 73
     4
 40
2.0
 49
1.0
 74
     0
 49
-0.5
 74
     0
 49
0.0
 74
     0
 49
-0.5
 74
     0
  0
LTYPE
  5
29
100
AcDbSymbolTableRecord
100
AcDbLinetypeTableRecord
  2
DASHED
 70
     0
  3
__ __ __ __ __ __ __ __ __ __ __ __ __ __ __ __
 72
    65
 73
     2
 40
0.75
 49
0.5
 74
     0
 49
-0.25
 74
     0
  0
LTYPE
  5
2A
100
AcDbSymbolTableRecord
100
AcDbLinetypeTableRecord
  2
DASHED2
 70
     0
  3
_ _ _ _ _ _ _ _ _ _ _ _ _ _ _ _ _ _ _ _ _ _ _ _
 72
    65
 73
     2
 40
0.375
 49
0.25
 74
     0
 49
-0.125
 74
     0
  0
LTYPE
  5
2B
100
AcDbSymbolTableRecord
100
AcDbLinetypeTableRecord
  2
DASHEDX2
 70
     0
  3
____  ____  ____  ____  ____  ____  ____  ____ 
 72
    65
 73
     2
 40
1.5
 49
1.0
 74
     0
 49
-0.5
 74
     0
  0
LTYPE
  5
2C
100
AcDbSymbolTableRecord
100
AcDbLinetypeTableRecord
  2
DIVIDE
 70
     0
  3
____ . . ____ . . ____ . . ____ . . ____ . . __
 72
    65
 73
     6
 40
1.25
 49
0.5
 74
     0
 49
-0.25
 74
     0
 49
0.0
 74
     0
 49
-0.25
 74
     0
 49
0.0
 74
     0
 49
-0.25
 74
     0
  0
LTYPE
  5
2D
100
AcDbSymbolTableRecord
100
AcDbLinetypeTableRecord
  2
DIVIDE2
 70
     0
  3
__..__..__..__..__..__..__..__..__..__..__..__.
 72
    65
 73
     6
 40
0.625
 49
0.25
 74
     0
 49
-0.125
 74
     0
 49
0.0
 74
     0
 49
-0.125
 74
     0
 49
0.0
 74
     0
 49
-0.125
 74
     0
  0
LTYPE
  5
2E
100
AcDbSymbolTableRecord
100
AcDbLinetypeTableRecord
  2
DIVIDEX2
 70
     0
  3
________  .  .  ________  .  .  ________  .  . 
 72
    65
 73
     6
 40
2.5
 49
1.0
 74
     0
 49
-0.5
 74
     0
 49
0.0
 74
     0
 49
-0.5
 74
     0
 49
0.0
 74
     0
 49
-0.5
 74
     0
  0
LTYPE
  5
2F
100
AcDbSymbolTableRecord
100
AcDbLinetypeTableRecord
  2
DOT
 70
     0
  3
. . . . . . . . . . . . . . . . . . . . . . . .
 72
    65
 73
     2
 40
0.25
 49
0.0
 74
     0
 49
-0.25
 74
     0
  0
LTYPE
  5
30
100
AcDbSymbolTableRecord
100
AcDbLinetypeTableRecord
  2
DOT2
 70
     0
  3
...............................................
 72
    65
 73
     2
 40
0.125
 49
0.0
 74
     0
 49
-0.125
 74
     0
  0
LTYPE
  5
31
100
AcDbSymbolTableRecord
100
AcDbLinetypeTableRecord
  2
DOTX2
 70
     0
  3
.  .  .  .  .  .  .  .  .  .  .  .  .  .  .  . 
 72
    65
 73
     2
 40
0.5
 49
0.0
 74
     0
 49
-0.5
 74
     0
  0
LTYPE
  5
32
100
AcDbSymbolTableRecord
100
AcDbLinetypeTableRecord
  2
HIDDEN
 70
     0
  3
__ __ __ __ __ __ __ __ __ __ __ __ __ __ __ __
 72
    65
 73
     2
 40
0.375
 49
0.25
 74
     0
 49
-0.125
 74
     0
  0
LTYPE
  5
33
100
AcDbSymbolTableRecord
100
AcDbLinetypeTableRecord
  2
HIDDEN2
 70
     0
  3
_ _ _ _ _ _ _ _ _ _ _ _ _ _ _ _ _ _ _ _ _ _ _ _
 72
    65
 73
     2
 40
0.1875
 49
0.125
 74
     0
 49
-0.0625
 74
     0
  0
LTYPE
  5
34
100
AcDbSymbolTableRecord
100
AcDbLinetypeTableRecord
  2
HIDDENX2
 70
     0
  3
____ ____ ____ ____ ____ ____ ____ ____ ____ __
 72
    65
 73
     2
 40
0.75
 49
0.5
 74
     0
 49
-0.25
 74
     0
  0
LTYPE
  5
35
100
AcDbSymbolTableRecord
100
AcDbLinetypeTableRecord
  2
PHANTOM
 70
     0
  3
______  __  __  ______  __  __  ______  __  __ 
 72
    65
 73
     6
 40
2.5
 49
1.25
 74
     0
 49
-0.25
 74
     0
 49
0.25
 74
     0
 49
-0.25
 74
     0
 49
0.25
 74
     0
 49
-0.25
 74
     0
  0
LTYPE
  5
36
100
AcDbSymbolTableRecord
100
AcDbLinetypeTableRecord
  2
PHANTOM2
 70
     0
  3
___ _ _ ___ _ _ ___ _ _ ___ _ _ ___ _ _ ___ _ _
 72
    65
 73
     6
 40
1.25
 49
0.625
 74
     0
 49
-0.125
 74
     0
 49
0.125
 74
     0
 49
-0.125
 74
     0
 49
0.125
 74
     0
 49
-0.125
 74
     0
  0
LTYPE
  5
37
100
AcDbSymbolTableRecord
100
AcDbLinetypeTableRecord
  2
PHANTOMX2
 70
     0
  3
____________    ____    ____    ____________   
 72
    65
 73
     6
 40
5.0
 49
2.5
 74
     0
 49
-0.5
 74
     0
 49
0.5
 74
     0
 49
-0.5
 74
     0
 49
0.5
 74
     0
 49
-0.5
 74
     0
  0
ENDTAB
   0
TABLE
   2
LAYER
   5
2
 100
AcDbSymbolTable
  70
7
   0
LAYER
   5
E
 100
AcDbSymbolTableRecord
 100
AcDbLayerTableRecord
   2
0
  70
0
  62
7
   6
CONTINUOUS
 390
30
   0
LAYER
   5
39
 100
AcDbSymbolTableRecord
 100
AcDbLayerTableRecord
   2
LEVEL001
  70
0
  62
7
   6
CONTINUOUS
 390
30
   0
LAYER
   5
3A
 100
AcDbSymbolTableRecord
 100
AcDbLayerTableRecord
   2
LEVEL002
  70
0
  62
7
   6
CONTINUOUS
 390
30
   0
LAYER
   5
3B
 100
AcDbSymbolTableRecord
 100
AcDbLayerTableRecord
   2
LEVEL004
  70
0
  62
7
   6
CONTINUOUS
 390
30
   0
LAYER
   5
3C
 100
AcDbSymbolTableRecord
 100
AcDbLayerTableRecord
   2
LEVEL005
  70
0
  62
7
   6
CONTINUOUS
 390
30
   0
LAYER
   5
3D
 100
AcDbSymbolTableRecord
 100
AcDbLayerTableRecord
   2
LEVEL006
  70
0
  62
7
   6
CONTINUOUS
 390
30
   0
LAYER
   5
3E
 100
AcDbSymbolTableRecord
 100
AcDbLayerTableRecord
   2
LEVEL007
  70
0
  62
7
   6
CONTINUOUS
 390
30
   0
ENDTAB
  0
TABLE
  2
STYLE
  5
3
100
AcDbSymbolTable
  70
4
  0
STYLE
  5
F
100
AcDbSymbolTableRecord
100
AcDbTextStyleTableRecord
  2
STANDARD
 70
     0
 40
0.0
 41
1.0
 50
0.0
 71
     0
 42
0.2
  3
TXT
  4
BIGFONT
  0
STYLE
  5
38
100
AcDbSymbolTableRecord
100
AcDbTextStyleTableRecord
  2
STANDARD1
 70
     4
 40
0.0
 41
1.0
 50
0.0
 71
     0
 42
0.2
  3
TXT
  4
BIGFONT
   0
STYLE
   5
3F
 100
AcDbSymbolTableRecord
 100
AcDbTextStyleTableRecord
   2
GMM001
  70
0
  40
0.0
  41
 1.0000000000000
  50
0.0
  71
     0
  42
1.0
   3
txt.shx
   4
bigfont.shx
   0
STYLE
   5
40
 100
AcDbSymbolTableRecord
 100
AcDbTextStyleTableRecord
   2
GMM002
  70
0
  40
0.0
  41
 0.80000000000000
  50
0.0
  71
     0
  42
1.0
   3
txt.shx
   4
bigfont.shx
   0
ENDTAB
  0
TABLE
  2
VIEW
  5
6
100
AcDbSymbolTable
 70
     0
  0
ENDTAB
  0
TABLE
  2
UCS
  5
7
100
AcDbSymbolTable
 70
     0
  0
ENDTAB
  0
TABLE
  2
APPID
  5
9
100
AcDbSymbolTable
 70
     1
  0
APPID
  5
10
100
AcDbSymbolTableRecord
100
AcDbRegAppTableRecord
  2
ACAD
 70
     0
  0
ENDTAB
   0
TABLE
   2
DIMSTYLE
   5
A
 100
AcDbSymbolTable
  70
10
 100
AcDbDimStyleTable
  0
DIMSTYLE
105
1D
100
AcDbSymbolTableRecord
100
AcDbDimStyleTableRecord
  2
STANDARD
 70
     0
  3

  4

  5

  6

  7

 40
1.0
 41
0.18
 42
0.0625
 43
0.38
 44
0.18
 45
0.0
 46
0.0
 47
0.0
 48
0.0
140
0.18
141
0.09
142
0.0
143
25.4
144
1.0
145
0.0
146
1.0
147
0.09
 71
     0
 72
     0
 73
     1
 74
     1
 75
     0
 76
     0
 77
     0
 78
     0
170
     0
171
     2
172
     0
173
     0
174
     0
175
     0
176
     0
177
     0
178
     0
270
     2
271
     4
272
     4
273
     2
274
     2
340
F
275
     0
280
     0
281
     0
282
     0
283
     1
284
     0
285
     0
286
     0
287
     3
288
     0
   0
DIMSTYLE
 105
41
 100
AcDbSymbolTableRecord
 100
AcDbDimStyleTableRecord
   2
GMM001
  70
0
   3

   4

   5

   6

   7

  40
 1.0000000000000
  41
 8.0000000000000
  42
 4.0000000000000
  43
 32.000000000000
  44
 4.0000000000000
  45
0.0
  46
0.0
  47
0.0
  48
0.0
 140
 10.000000000000
 141
 4.0000000000000
 142
0.0
 143
 0.39400000000000E-1
 144
 1.0000000000000
 145
0.0
 146
 1.0000000000000
 147
 4.0000000000000
  71
0
  72
0
  73
0
  74
0
  75
0
  76
0
  77
3
  78
8
 170
0
 171
2
 172
1
 173
1
 174
0
 175
0
 176
8
 177
8
 178
8
 270
2
 271
6
 272
0
 273
2
 274
2
 340
3F
 275
1
 280
0
 281
0
 282
0
 283
1
 284
0
 285
0
 286
0
 287
3
 288
0
   0
DIMSTYLE
 105
42
 100
AcDbSymbolTableRecord
 100
AcDbDimStyleTableRecord
   2
GMM002
  70
0
   3

   4

   5

   6

   7
_NONE
  40
 1.0000000000000
  41
 8.0000000000000
  42
 4.0000000000000
  43
 32.000000000000
  44
 4.0000000000000
  45
0.0
  46
0.0
  47
0.0
  48
0.0
 140
 10.000000000000
 141
 4.0000000000000
 142
0.0
 143
 0.39400000000000E-1
 144
 1.0000000000000
 145
0.0
 146
 1.0000000000000
 147
 4.0000000000000
  71
0
  72
0
  73
0
  74
0
  75
0
  76
0
  77
3
  78
8
 170
0
 171
2
 172
1
 173
1
 174
0
 175
0
 176
8
 177
8
 178
8
 270
2
 271
6
 272
0
 273
2
 274
2
 340
3F
 275
1
 280
0
 281
0
 282
0
 283
1
 284
0
 285
0
 286
0
 287
3
 288
1
   0
DIMSTYLE
 105
43
 100
AcDbSymbolTableRecord
 100
AcDbDimStyleTableRecord
   2
GMM003
  70
0
   3

   4

   5

   6

   7

  40
 1.0000000000000
  41
 8.0000000000000
  42
 4.0000000000000
  43
 32.000000000000
  44
 4.0000000000000
  45
0.0
  46
0.0
  47
0.0
  48
0.0
 140
 10.000000000000
 141
 4.0000000000000
 142
0.0
 143
 0.39400000000000E-1
 144
 1.0000000000000
 145
0.0
 146
 1.0000000000000
 147
 4.0000000000000
  71
0
  72
0
  73
0
  74
0
  75
0
  76
0
  77
3
  78
8
 170
0
 171
2
 172
1
 173
1
 174
0
 175
0
 176
8
 177
8
 178
8
 270
2
 271
6
 272
0
 273
2
 274
2
 340
3F
 275
1
 280
0
 281
0
 282
0
 283
1
 284
0
 285
0
 286
0
 287
3
 288
0
   0
DIMSTYLE
 105
44
 100
AcDbSymbolTableRecord
 100
AcDbDimStyleTableRecord
   2
GMM004
  70
0
   3

   4

   5

   6

   7

  40
 1.0000000000000
  41
 8.0000000000000
  42
 4.0000000000000
  43
 32.000000000000
  44
 4.0000000000000
  45
0.0
  46
0.0
  47
0.0
  48
0.0
 140
 10.000000000000
 141
 4.0000000000000
 142
0.0
 143
 0.39400000000000E-1
 144
 1.0000000000000
 145
0.0
 146
 1.0000000000000
 147
 3.3266499582188
  71
0
  72
0
  73
0
  74
0
  75
0
  76
0
  77
3
  78
8
 170
0
 171
2
 172
1
 173
1
 174
0
 175
0
 176
8
 177
8
 178
8
 270
2
 271
6
 272
0
 273
2
 274
2
 340
3F
 275
1
 280
0
 281
0
 282
0
 283
1
 284
0
 285
0
 286
0
 287
3
 288
1
   0
DIMSTYLE
 105
45
 100
AcDbSymbolTableRecord
 100
AcDbDimStyleTableRecord
   2
GMM005
  70
0
   3

   4

   5

   6

   7

  40
 1.0000000000000
  41
 8.0000000000000
  42
 4.0000000000000
  43
 32.000000000000
  44
 4.0000000000000
  45
0.0
  46
0.0
  47
0.0
  48
0.0
 140
 10.000000000000
 141
 4.0000000000000
 142
0.0
 143
 0.39400000000000E-1
 144
 1.0000000000000
 145
0.0
 146
 1.0000000000000
 147
0.0
  71
0
  72
0
  73
0
  74
0
  75
0
  76
0
  77
1
  78
8
 170
0
 171
2
 172
1
 173
1
 174
0
 175
0
 176
8
 177
8
 178
8
 270
2
 271
6
 272
0
 273
2
 274
2
 340
3F
 275
1
 280
0
 281
0
 282
0
 283
1
 284
0
 285
0
 286
0
 287
3
 288
0
   0
DIMSTYLE
 105
46
 100
AcDbSymbolTableRecord
 100
AcDbDimStyleTableRecord
   2
GMM006
  70
0
   3

   4

   5

   6

   7

  40
 1.0000000000000
  41
 8.0000000000000
  42
 4.0000000000000
  43
 32.000000000000
  44
 4.0000000000000
  45
0.0
  46
0.0
  47
0.0
  48
0.0
 140
 10.000000000000
 141
 4.0000000000000
 142
0.0
 143
 0.39400000000000E-1
 144
 1.0000000000000
 145
0.0
 146
 1.0000000000000
 147
 2.5485937064894
  71
0
  72
0
  73
0
  74
0
  75
0
  76
0
  77
3
  78
8
 170
0
 171
2
 172
1
 173
1
 174
0
 175
0
 176
8
 177
8
 178
8
 270
2
 271
6
 272
0
 273
2
 274
2
 340
3F
 275
1
 280
0
 281
0
 282
0
 283
1
 284
0
 285
0
 286
0
 287
3
 288
1
   0
DIMSTYLE
 105
47
 100
AcDbSymbolTableRecord
 100
AcDbDimStyleTableRecord
   2
GMM007
  70
0
   3

   4

   5

   6

   7
_NONE
  40
 1.0000000000000
  41
 8.0000000000000
  42
 4.0000000000000
  43
 32.000000000000
  44
 4.0000000000000
  45
0.0
  46
0.0
  47
0.0
  48
0.0
 140
 10.000000000000
 141
 4.0000000000000
 142
0.0
 143
 0.39400000000000E-1
 144
 1.0000000000000
 145
0.0
 146
 1.0000000000000
 147
 3.2674278288326
  71
0
  72
0
  73
0
  74
0
  75
0
  76
0
  77
3
  78
8
 170
0
 171
2
 172
1
 173
1
 174
0
 175
0
 176
8
 177
8
 178
8
 270
2
 271
6
 272
0
 273
2
 274
2
 340
3F
 275
1
 280
0
 281
0
 282
0
 283
1
 284
0
 285
0
 286
0
 287
3
 288
1
   0
DIMSTYLE
 105
48
 100
AcDbSymbolTableRecord
 100
AcDbDimStyleTableRecord
   2
GMM008
  70
0
   3

   4

   5

   6

   7

  40
 1.0000000000000
  41
 8.0000000000000
  42
 4.0000000000000
  43
 32.000000000000
  44
 4.0000000000000
  45
0.0
  46
0.0
  47
0.0
  48
0.0
 140
 10.000000000000
 141
 4.0000000000000
 142
0.0
 143
 0.39400000000000E-1
 144
 1.0000000000000
 145
0.0
 146
 1.0000000000000
 147
 4.5090504038217
  71
0
  72
0
  73
0
  74
0
  75
0
  76
0
  77
3
  78
8
 170
0
 171
2
 172
1
 173
1
 174
0
 175
0
 176
8
 177
8
 178
8
 270
2
 271
6
 272
0
 273
2
 274
2
 340
3F
 275
1
 280
0
 281
0
 282
0
 283
1
 284
0
 285
0
 286
0
 287
3
 288
1
   0
ENDTAB
  0
TABLE
  2
BLOCK_RECORD
  5
1
100
AcDbSymbolTable
 70
     0
  0
BLOCK_RECORD
  5
18
100
AcDbSymbolTableRecord
100
AcDbBlockTableRecord
  2
*MODEL_SPACE
  0
BLOCK_RECORD
  5
15
100
AcDbSymbolTableRecord
100
AcDbBlockTableRecord
  2
*PAPER_SPACE
   0
BLOCK_RECORD
   5
49
 100
AcDbSymbolTableRecord
 100
AcDbBlockTableRecord
   2
*D1
   0
BLOCK_RECORD
   5
4A
 100
AcDbSymbolTableRecord
 100
AcDbBlockTableRecord
   2
*D2
   0
BLOCK_RECORD
   5
4B
 100
AcDbSymbolTableRecord
 100
AcDbBlockTableRecord
   2
*D3
   0
BLOCK_RECORD
   5
4C
 100
AcDbSymbolTableRecord
 100
AcDbBlockTableRecord
   2
*D4
   0
BLOCK_RECORD
   5
4D
 100
AcDbSymbolTableRecord
 100
AcDbBlockTableRecord
   2
*D5
   0
BLOCK_RECORD
   5
4E
 100
AcDbSymbolTableRecord
 100
AcDbBlockTableRecord
   2
*D6
   0
BLOCK_RECORD
   5
4F
 100
AcDbSymbolTableRecord
 100
AcDbBlockTableRecord
   2
*D8
   0
BLOCK_RECORD
   5
50
 100
AcDbSymbolTableRecord
 100
AcDbBlockTableRecord
   2
*D9
   0
BLOCK_RECORD
   5
51
 100
AcDbSymbolTableRecord
 100
AcDbBlockTableRecord
   2
*D10
   0
BLOCK_RECORD
   5
52
 100
AcDbSymbolTableRecord
 100
AcDbBlockTableRecord
   2
*D11
   0
BLOCK_RECORD
   5
53
 100
AcDbSymbolTableRecord
 100
AcDbBlockTableRecord
   2
*D12
   0
BLOCK_RECORD
   5
54
 100
AcDbSymbolTableRecord
 100
AcDbBlockTableRecord
   2
*D13
   0
BLOCK_RECORD
   5
55
 100
AcDbSymbolTableRecord
 100
AcDbBlockTableRecord
   2
*D15
   0
BLOCK_RECORD
   5
56
 100
AcDbSymbolTableRecord
 100
AcDbBlockTableRecord
   2
*D16
   0
BLOCK_RECORD
   5
57
 100
AcDbSymbolTableRecord
 100
AcDbBlockTableRecord
   2
*D17
   0
BLOCK_RECORD
   5
58
 100
AcDbSymbolTableRecord
 100
AcDbBlockTableRecord
   2
*D18
   0
BLOCK_RECORD
   5
59
 100
AcDbSymbolTableRecord
 100
AcDbBlockTableRecord
   2
*D19
   0
BLOCK_RECORD
   5
5A
 100
AcDbSymbolTableRecord
 100
AcDbBlockTableRecord
   2
*D20
   0
BLOCK_RECORD
   5
5B
 100
AcDbSymbolTableRecord
 100
AcDbBlockTableRecord
   2
*D21
   0
BLOCK_RECORD
   5
5C
 100
AcDbSymbolTableRecord
 100
AcDbBlockTableRecord
   2
*D22
   0
BLOCK_RECORD
   5
5D
 100
AcDbSymbolTableRecord
 100
AcDbBlockTableRecord
   2
*D23
   0
BLOCK_RECORD
   5
5E
 100
AcDbSymbolTableRecord
 100
AcDbBlockTableRecord
   2
*D24
   0
BLOCK_RECORD
   5
5F
 100
AcDbSymbolTableRecord
 100
AcDbBlockTableRecord
   2
_ARCHTICK
   0
BLOCK_RECORD
   5
60
 100
AcDbSymbolTableRecord
 100
AcDbBlockTableRecord
   2
_BOXBLANK
   0
BLOCK_RECORD
   5
61
 100
AcDbSymbolTableRecord
 100
AcDbBlockTableRecord
   2
_BOXFILLED
   0
BLOCK_RECORD
   5
62
 100
AcDbSymbolTableRecord
 100
AcDbBlockTableRecord
   2
_CLOSED
   0
BLOCK_RECORD
   5
63
 100
AcDbSymbolTableRecord
 100
AcDbBlockTableRecord
   2
_CLOSEDBLANK
   0
BLOCK_RECORD
   5
64
 100
AcDbSymbolTableRecord
 100
AcDbBlockTableRecord
   2
_DATUMBLANK
   0
BLOCK_RECORD
   5
65
 100
AcDbSymbolTableRecord
 100
AcDbBlockTableRecord
   2
_DATUMFILLED
   0
BLOCK_RECORD
   5
66
 100
AcDbSymbolTableRecord
 100
AcDbBlockTableRecord
   2
_DOT
   0
BLOCK_RECORD
   5
67
 100
AcDbSymbolTableRecord
 100
AcDbBlockTableRecord
   2
_DOTBLANK
   0
BLOCK_RECORD
   5
68
 100
AcDbSymbolTableRecord
 100
AcDbBlockTableRecord
   2
_DOTSMALL
   0
BLOCK_RECORD
   5
69
 100
AcDbSymbolTableRecord
 100
AcDbBlockTableRecord
   2
_INTEGRAL
   0
BLOCK_RECORD
   5
6A
 100
AcDbSymbolTableRecord
 100
AcDbBlockTableRecord
   2
_NONE
   0
BLOCK_RECORD
   5
6B
 100
AcDbSymbolTableRecord
 100
AcDbBlockTableRecord
   2
_OBLIQUE
   0
BLOCK_RECORD
   5
6C
 100
AcDbSymbolTableRecord
 100
AcDbBlockTableRecord
   2
_OPEN
   0
BLOCK_RECORD
   5
6D
 100
AcDbSymbolTableRecord
 100
AcDbBlockTableRecord
   2
_OPEN30
   0
BLOCK_RECORD
   5
6E
 100
AcDbSymbolTableRecord
 100
AcDbBlockTableRecord
   2
_OPEN90
   0
BLOCK_RECORD
   5
6F
 100
AcDbSymbolTableRecord
 100
AcDbBlockTableRecord
   2
_ORIGIN
   0
ENDTAB
   0
ENDSEC
  0
SECTION
  2
BLOCKS
  0
BLOCK
  5
19
100
AcDbEntity
  8
0
100
AcDbBlockBegin
  2
*MODEL_SPACE
 70
     0
 10
0.0
 20
0.0
 30
0.0
  3
*MODEL_SPACE
  1

  0
ENDBLK
  5
1A
100
AcDbEntity
  8
0
100
AcDbBlockEnd
  0
BLOCK
  5
16
100
AcDbEntity
 67
     1
  8
0
100
AcDbBlockBegin
  2
*PAPER_SPACE
 70
     0
 10
0.0
 20
0.0
 30
0.0
  3
*PAPER_SPACE
  1

  0
ENDBLK
  5
17
100
AcDbEntity
 67
     1
  8
0
100
AcDbBlockEnd
   0
BLOCK
   5
70
 100
AcDbEntity
   8
0
 100
AcDbBlockBegin
   2
_ARCHTICK
  70
0
  10
0.0
  20
0.0
  30
0.0
   3
_ARCHTICK
   0
POLYLINE
   5
71
 100
AcDbEntity
   8
0
 370
-2
   6
BYBLOCK
  62
0
 100
AcDb2dPolyline
  66
1
  10
0.0
  20
0.0
  30
0.0
  70
1
  40
 0.15000000000000
  41
 0.15000000000000
   0
VERTEX
   5
72
 100
AcDbEntity
   8
0
   6
BYBLOCK
  62
0
 100
AcDbVertex
 100
AcDb2dVertex
  10
-0.50000000000000
  20
-0.50000000000000
  30
0.0
  40
 0.15000000000000
  41
 0.15000000000000
   0
VERTEX
   5
73
 100
AcDbEntity
   8
0
   6
BYBLOCK
  62
0
 100
AcDbVertex
 100
AcDb2dVertex
  10
 0.50000000000000
  20
 0.50000000000000
  30
0.0
  40
 0.15000000000000
  41
 0.15000000000000
   0
SEQEND
   5
74
 100
AcDbEntity
   8
0
   6
BYBLOCK
  62
0
   0
ENDBLK
   5
75
 100
AcDbEntity
   8
0
 100
AcDbBlockEnd
   0
BLOCK
   5
76
 100
AcDbEntity
   8
0
 100
AcDbBlockBegin
   2
_OBLIQUE
  70
0
  10
0.0
  20
0.0
  30
0.0
   3
_OBLIQUE
   0
LINE
   5
77
 100
AcDbEntity
   8
0
 370
-2
 100
AcDbLine
   6
BYBLOCK
  62
0
  10
-0.50000000000000
  20
-0.50000000000000
  30
0.0
  11
 0.50000000000000
  21
 0.50000000000000
  31
0.0
   0
ENDBLK
   5
78
 100
AcDbEntity
   8
0
 100
AcDbBlockEnd
   0
BLOCK
   5
79
 100
AcDbEntity
   8
0
 100
AcDbBlockBegin
   2
_BOXBLANK
  70
0
  10
0.0
  20
0.0
  30
0.0
   3
_BOXBLANK
   0
LINE
   5
7A
 100
AcDbEntity
   8
0
 370
-2
 100
AcDbLine
   6
BYBLOCK
  62
0
  10
-0.50000000000000
  20
-0.50000000000000
  30
0.0
  11
 0.50000000000000
  21
-0.50000000000000
  31
0.0
   0
LINE
   5
7B
 100
AcDbEntity
   8
0
 370
-2
 100
AcDbLine
   6
BYBLOCK
  62
0
  10
 0.50000000000000
  20
-0.50000000000000
  30
0.0
  11
 0.50000000000000
  21
 0.50000000000000
  31
0.0
   0
LINE
   5
7C
 100
AcDbEntity
   8
0
 370
-2
 100
AcDbLine
   6
BYBLOCK
  62
0
  10
 0.50000000000000
  20
 0.50000000000000
  30
0.0
  11
-0.50000000000000
  21
 0.50000000000000
  31
0.0
   0
LINE
   5
7D
 100
AcDbEntity
   8
0
 370
-2
 100
AcDbLine
   6
BYBLOCK
  62
0
  10
-0.50000000000000
  20
 0.50000000000000
  30
0.0
  11
-0.50000000000000
  21
-0.50000000000000
  31
0.0
   0
LINE
   5
7E
 100
AcDbEntity
   8
0
 370
-2
 100
AcDbLine
   6
BYBLOCK
  62
0
  10
-0.50000000000000
  20
0.0
  30
0.0
  11
-1.0000000000000
  21
0.0
  31
0.0
   0
ENDBLK
   5
7F
 100
AcDbEntity
   8
0
 100
AcDbBlockEnd
   0
BLOCK
   5
80
 100
AcDbEntity
   8
0
 100
AcDbBlockBegin
   2
_BOXFILLED
  70
0
  10
0.0
  20
0.0
  30
0.0
   3
_BOXFILLED
   0
SOLID
   5
81
 100
AcDbEntity
   8
0
 100
AcDbTrace
   6
BYBLOCK
  62
0
  10
-0.50000000000000
  20
 0.50000000000000
  30
0.0
  11
 0.50000000000000
  21
 0.50000000000000
  31
0.0
  12
-0.50000000000000
  22
-0.50000000000000
  32
0.0
  13
 0.50000000000000
  23
-0.50000000000000
  33
0.0
   0
LINE
   5
82
 100
AcDbEntity
   8
0
 370
-2
 100
AcDbLine
   6
BYBLOCK
  62
0
  10
-0.50000000000000
  20
0.0
  30
0.0
  11
-1.0000000000000
  21
0.0
  31
0.0
   0
ENDBLK
   5
83
 100
AcDbEntity
   8
0
 100
AcDbBlockEnd
   0
BLOCK
   5
84
 100
AcDbEntity
   8
0
 100
AcDbBlockBegin
   2
_CLOSED
  70
0
  10
0.0
  20
0.0
  30
0.0
   3
_CLOSED
   0
LINE
   5
85
 100
AcDbEntity
   8
0
 370
-2
 100
AcDbLine
   6
BYBLOCK
  62
0
  10
-1.0000000000000
  20
 0.16666666666667
  30
0.0
  11
0.0
  21
0.0
  31
0.0
   0
LINE
   5
86
 100
AcDbEntity
   8
0
 370
-2
 100
AcDbLine
   6
BYBLOCK
  62
0
  10
0.0
  20
0.0
  30
0.0
  11
-1.0000000000000
  21
-0.16666666666667
  31
0.0
   0
LINE
   5
87
 100
AcDbEntity
   8
0
 370
-2
 100
AcDbLine
   6
BYBLOCK
  62
0
  10
-1.0000000000000
  20
 0.16666666666667
  30
0.0
  11
-1.0000000000000
  21
-0.16666666666667
  31
0.0
   0
LINE
   5
88
 100
AcDbEntity
   8
0
 370
-2
 100
AcDbLine
   6
BYBLOCK
  62
0
  10
0.0
  20
0.0
  30
0.0
  11
-1.0000000000000
  21
0.0
  31
0.0
   0
ENDBLK
   5
89
 100
AcDbEntity
   8
0
 100
AcDbBlockEnd
   0
BLOCK
   5
8A
 100
AcDbEntity
   8
0
 100
AcDbBlockBegin
   2
_OPEN
  70
0
  10
0.0
  20
0.0
  30
0.0
   3
_OPEN
   0
LINE
   5
8B
 100
AcDbEntity
   8
0
 370
-2
 100
AcDbLine
   6
BYBLOCK
  62
0
  10
-1.0000000000000
  20
 0.16666666666667
  30
0.0
  11
0.0
  21
0.0
  31
0.0
   0
LINE
   5
8C
 100
AcDbEntity
   8
0
 370
-2
 100
AcDbLine
   6
BYBLOCK
  62
0
  10
0.0
  20
0.0
  30
0.0
  11
-1.0000000000000
  21
-0.16666666666667
  31
0.0
   0
LINE
   5
8D
 100
AcDbEntity
   8
0
 370
-2
 100
AcDbLine
   6
BYBLOCK
  62
0
  10
0.0
  20
0.0
  30
0.0
  11
-1.0000000000000
  21
0.0
  31
0.0
   0
ENDBLK
   5
8E
 100
AcDbEntity
   8
0
 100
AcDbBlockEnd
   0
BLOCK
   5
8F
 100
AcDbEntity
   8
0
 100
AcDbBlockBegin
   2
_OPEN30
  70
0
  10
0.0
  20
0.0
  30
0.0
   3
_OPEN30
   0
LINE
   5
90
 100
AcDbEntity
   8
0
 370
-2
 100
AcDbLine
   6
BYBLOCK
  62
0
  10
-1.0000000000000
  20
 0.26794919243110
  30
0.0
  11
0.0
  21
0.0
  31
0.0
   0
LINE
   5
91
 100
AcDbEntity
   8
0
 370
-2
 100
AcDbLine
   6
BYBLOCK
  62
0
  10
0.0
  20
0.0
  30
0.0
  11
-1.0000000000000
  21
-0.26794919243110
  31
0.0
   0
LINE
   5
92
 100
AcDbEntity
   8
0
 370
-2
 100
AcDbLine
   6
BYBLOCK
  62
0
  10
0.0
  20
0.0
  30
0.0
  11
-1.0000000000000
  21
0.0
  31
0.0
   0
ENDBLK
   5
93
 100
AcDbEntity
   8
0
 100
AcDbBlockEnd
   0
BLOCK
   5
94
 100
AcDbEntity
   8
0
 100
AcDbBlockBegin
   2
_OPEN90
  70
0
  10
0.0
  20
0.0
  30
0.0
   3
_OPEN90
   0
LINE
   5
95
 100
AcDbEntity
   8
0
 370
-2
 100
AcDbLine
   6
BYBLOCK
  62
0
  10
-0.50000000000000
  20
 0.50000000000000
  30
0.0
  11
0.0
  21
0.0
  31
0.0
   0
LINE
   5
96
 100
AcDbEntity
   8
0
 370
-2
 100
AcDbLine
   6
BYBLOCK
  62
0
  10
0.0
  20
0.0
  30
0.0
  11
-0.50000000000000
  21
-0.50000000000000
  31
0.0
   0
LINE
   5
97
 100
AcDbEntity
   8
0
 370
-2
 100
AcDbLine
   6
BYBLOCK
  62
0
  10
0.0
  20
0.0
  30
0.0
  11
-1.0000000000000
  21
0.0
  31
0.0
   0
ENDBLK
   5
98
 100
AcDbEntity
   8
0
 100
AcDbBlockEnd
   0
BLOCK
   5
99
 100
AcDbEntity
   8
0
 100
AcDbBlockBegin
   2
_CLOSEDBLANK
  70
0
  10
0.0
  20
0.0
  30
0.0
   3
_CLOSEDBLANK
   0
LINE
   5
9A
 100
AcDbEntity
   8
0
 370
-2
 100
AcDbLine
   6
BYBLOCK
  62
0
  10
-1.0000000000000
  20
 0.16666666666667
  30
0.0
  11
0.0
  21
0.0
  31
0.0
   0
LINE
   5
9B
 100
AcDbEntity
   8
0
 370
-2
 100
AcDbLine
   6
BYBLOCK
  62
0
  10
0.0
  20
0.0
  30
0.0
  11
-1.0000000000000
  21
-0.16666666666667
  31
0.0
   0
LINE
   5
9C
 100
AcDbEntity
   8
0
 370
-2
 100
AcDbLine
   6
BYBLOCK
  62
0
  10
-1.0000000000000
  20
 0.16666666666667
  30
0.0
  11
-1.0000000000000
  21
-0.16666666666667
  31
0.0
   0
ENDBLK
   5
9D
 100
AcDbEntity
   8
0
 100
AcDbBlockEnd
   0
BLOCK
   5
9E
 100
AcDbEntity
   8
0
 100
AcDbBlockBegin
   2
_DOT
  70
0
  10
0.0
  20
0.0
  30
0.0
   3
_DOT
   0
POLYLINE
   5
9F
 100
AcDbEntity
   8
0
 370
-2
   6
BYBLOCK
  62
0
 100
AcDb2dPolyline
  66
1
  10
0.0
  20
0.0
  30
0.0
  70
1
  40
 0.50000000000000
  41
 0.50000000000000
   0
VERTEX
   5
A0
 100
AcDbEntity
   8
0
   6
BYBLOCK
  62
0
 100
AcDbVertex
 100
AcDb2dVertex
  10
-0.25000000000000
  20
0.0
  30
0.0
  42
 1.0000000000000
  40
 0.50000000000000
  41
 0.50000000000000
   0
VERTEX
   5
A1
 100
AcDbEntity
   8
0
   6
BYBLOCK
  62
0
 100
AcDbVertex
 100
AcDb2dVertex
  10
 0.25000000000000
  20
0.0
  30
0.0
  42
 1.0000000000000
  40
 0.50000000000000
  41
 0.50000000000000
   0
SEQEND
   5
A2
 100
AcDbEntity
   8
0
   6
BYBLOCK
  62
0
   0
LINE
   5
A3
 100
AcDbEntity
   8
0
 370
-2
 100
AcDbLine
   6
BYBLOCK
  62
0
  10
-0.50000000000000
  20
0.0
  30
0.0
  11
-1.0000000000000
  21
0.0
  31
0.0
   0
ENDBLK
   5
A4
 100
AcDbEntity
   8
0
 100
AcDbBlockEnd
   0
BLOCK
   5
A5
 100
AcDbEntity
   8
0
 100
AcDbBlockBegin
   2
_DOTSMALL
  70
0
  10
0.0
  20
0.0
  30
0.0
   3
_DOTSMALL
   0
POLYLINE
   5
A6
 100
AcDbEntity
   8
0
 370
-2
   6
BYBLOCK
  62
0
 100
AcDb2dPolyline
  66
1
  10
0.0
  20
0.0
  30
0.0
  70
1
  40
 0.50000000000000
  41
 0.50000000000000
   0
VERTEX
   5
A7
 100
AcDbEntity
   8
0
   6
BYBLOCK
  62
0
 100
AcDbVertex
 100
AcDb2dVertex
  10
-0.62500000000000E-1
  20
0.0
  30
0.0
  42
 1.0000000000000
  40
 0.50000000000000
  41
 0.50000000000000
   0
VERTEX
   5
A8
 100
AcDbEntity
   8
0
   6
BYBLOCK
  62
0
 100
AcDbVertex
 100
AcDb2dVertex
  10
 0.62500000000000E-1
  20
0.0
  30
0.0
  42
 1.0000000000000
  40
 0.50000000000000
  41
 0.50000000000000
   0
SEQEND
   5
A9
 100
AcDbEntity
   8
0
   6
BYBLOCK
  62
0
   0
ENDBLK
   5
AA
 100
AcDbEntity
   8
0
 100
AcDbBlockEnd
   0
BLOCK
   5
AB
 100
AcDbEntity
   8
0
 100
AcDbBlockBegin
   2
_DATUMBLANK
  70
0
  10
0.0
  20
0.0
  30
0.0
   3
_DATUMBLANK
   0
LINE
   5
AC
 100
AcDbEntity
   8
0
 370
-2
 100
AcDbLine
   6
BYBLOCK
  62
0
  10
0.0
  20
 0.57735027000000
  30
0.0
  11
-1.0000000000000
  21
0.0
  31
0.0
   0
LINE
   5
AD
 100
AcDbEntity
   8
0
 370
-2
 100
AcDbLine
   6
BYBLOCK
  62
0
  10
-1.0000000000000
  20
0.0
  30
0.0
  11
0.0
  21
-0.57735027000000
  31
0.0
   0
LINE
   5
AE
 100
AcDbEntity
   8
0
 370
-2
 100
AcDbLine
   6
BYBLOCK
  62
0
  10
0.0
  20
-0.57735027000000
  30
0.0
  11
0.0
  21
 0.57735027000000
  31
0.0
   0
ENDBLK
   5
AF
 100
AcDbEntity
   8
0
 100
AcDbBlockEnd
   0
BLOCK
   5
B0
 100
AcDbEntity
   8
0
 100
AcDbBlockBegin
   2
_DATUMFILLED
  70
0
  10
0.0
  20
0.0
  30
0.0
   3
_DATUMFILLED
   0
SOLID
   5
B1
 100
AcDbEntity
   8
0
 100
AcDbTrace
   6
BYBLOCK
  62
0
  10
0.0
  20
 0.57735027000000
  30
0.0
  11
-1.0000000000000
  21
0.0
  31
0.0
  12
0.0
  22
-0.57735027000000
  32
0.0
  13
0.0
  23
-0.57735027000000
  33
0.0
   0
ENDBLK
   5
B2
 100
AcDbEntity
   8
0
 100
AcDbBlockEnd
   0
BLOCK
   5
B3
 100
AcDbEntity
   8
0
 100
AcDbBlockBegin
   2
_ORIGIN
  70
0
  10
0.0
  20
0.0
  30
0.0
   3
_ORIGIN
   0
CIRCLE
   5
B4
 100
AcDbEntity
   8
0
 370
-2
 100
AcDbCircle
   6
BYBLOCK
  62
0
  10
0.0
  20
0.0
  30
0.0
  40
 0.50000000000000
   0
LINE
   5
B5
 100
AcDbEntity
   8
0
 370
-2
 100
AcDbLine
   6
BYBLOCK
  62
0
  10
0.0
  20
0.0
  30
0.0
  11
-1.0000000000000
  21
0.0
  31
0.0
   0
ENDBLK
   5
B6
 100
AcDbEntity
   8
0
 100
AcDbBlockEnd
   0
BLOCK
   5
B7
 100
AcDbEntity
   8
0
 100
AcDbBlockBegin
   2
_NONE
  70
0
  10
0.0
  20
0.0
  30
0.0
   3
_NONE
   0
CIRCLE
   5
B8
 100
AcDbEntity
   8
0
 370
-2
 100
AcDbCircle
   6
BYBLOCK
  62
0
  10
0.0
  20
0.0
  30
0.0
  40
 0.25000000000000
   0
ENDBLK
   5
B9
 100
AcDbEntity
   8
0
 100
AcDbBlockEnd
   0
BLOCK
   5
BA
 100
AcDbEntity
   8
0
 100
AcDbBlockBegin
   2
_DOTBLANK
  70
0
  10
0.0
  20
0.0
  30
0.0
   3
_DOTBLANK
   0
CIRCLE
   5
BB
 100
AcDbEntity
   8
0
 370
-2
 100
AcDbCircle
   6
BYBLOCK
  62
0
  10
0.0
  20
0.0
  30
0.0
  40
 0.50000000000000
   0
LINE
   5
BC
 100
AcDbEntity
   8
0
 370
-2
 100
AcDbLine
   6
BYBLOCK
  62
0
  10
-0.50000000000000
  20
0.0
  30
0.0
  11
-1.0000000000000
  21
0.0
  31
0.0
   0
ENDBLK
   5
BD
 100
AcDbEntity
   8
0
 100
AcDbBlockEnd
   0
BLOCK
   5
BE
 100
AcDbEntity
   8
0
 100
AcDbBlockBegin
   2
_INTEGRAL
  70
0
  10
0.0
  20
0.0
  30
0.0
   3
_INTEGRAL
   0
ARC
   5
BF
 100
AcDbEntity
   8
0
 370
-2
   6
BYBLOCK
  62
0
 100
AcDbCircle
  10
 0.44488800000000
  20
-0.91335000000000E-1
  30
0.0
  40
 0.45416700000000
 100
AcDbArc
  50
 102.00000000000
  51
 168.00000000000
   0
ARC
   5
C0
 100
AcDbEntity
   8
0
 370
-2
   6
BYBLOCK
  62
0
 100
AcDbCircle
  10
-0.44488800000000
  20
 0.91335000000000E-1
  30
0.0
  40
 0.45416700000000
 100
AcDbArc
  50
 282.00000000000
  51
 348.00000000000
   0
ENDBLK
   5
C1
 100
AcDbEntity
   8
0
 100
AcDbBlockEnd
   0
BLOCK
   5
C2
 100
AcDbEntity
   8
0
 100
AcDbBlockBegin
   2
*D1
  70
65
  10
0.0
  20
0.0
  30
0.0
   3
*D1
   0
LINE
   5
C3
 100
AcDbEntity
   8
0
 370
15
 100
AcDbLine
   6
CONTINUOUS
  62
8
  10
 581.73131002148
  20
 796.41537478664
  30
0.0
  11
 634.37534984504
  21
 796.41537478664
  31
0.0
   0
LINE
   5
C4
 100
AcDbEntity
   8
0
 370
15
 100
AcDbLine
   6
CONTINUOUS
  62
8
  10
 605.73131002149
  20
 841.41537478664
  30
0.0
  11
 634.37534984504
  21
 841.41537478664
  31
0.0
   0
LINE
   5
C5
 100
AcDbEntity
   8
0
 370
15
 100
AcDbLine
   6
CONTINUOUS
  62
8
  10
 630.37534984504
  20
 796.41537478664
  30
0.0
  11
 630.37534984504
  21
 818.91537478664
  31
0.0
   0
LINE
   5
C6
 100
AcDbEntity
   8
0
 370
15
 100
AcDbLine
   6
CONTINUOUS
  62
8
  10
 630.37534984504
  20
 841.41537478664
  30
0.0
  11
 630.37534984504
  21
 818.91537478664
  31
0.0
   0
SOLID
   5
C7
 100
AcDbEntity
   8
0
 100
AcDbTrace
   6
CONTINUOUS
  62
8
  10
 630.37534984504
  20
 796.41537478664
  30
0.0
  11
 631.78596569071
  21
 804.41537478664
  31
0.0
  12
 628.96473399937
  22
 804.41537478664
  32
0.0
  13
 628.96473399937
  23
 804.41537478664
  33
0.0
   0
SOLID
   5
C8
 100
AcDbEntity
   8
0
 100
AcDbTrace
   6
CONTINUOUS
  62
8
  10
 630.37534984504
  20
 841.41537478664
  30
0.0
  11
 628.96473399937
  21
 833.41537478664
  31
0.0
  12
 631.78596569071
  22
 833.41537478664
  32
0.0
  13
 631.78596569071
  23
 833.41537478664
  33
0.0
   0
MTEXT
   5
C9
 100
AcDbEntity
   8
0
 370
15
  62
8
 100
AcDbMText
  10
 626.37534984504
  20
 818.91537478664
  30
0.0
  40
 10.000000000000
  41
0.0
  71
8
  72
1
   1
\A1;45
   7
GMM001
  11
0.0
  21
 1.0000000000000
  31
0.0
   0
ENDBLK
   5
CA
 100
AcDbEntity
   8
0
 100
AcDbBlockEnd
   0
BLOCK
   5
CB
 100
AcDbEntity
   8
0
 100
AcDbBlockBegin
   2
*D2
  70
65
  10
0.0
  20
0.0
  30
0.0
   3
*D2
   0
LINE
   5
CC
 100
AcDbEntity
   8
0
 370
15
 100
AcDbLine
   6
CONTINUOUS
  62
8
  10
 520.23131002149
  20
 764.91537478664
  30
0.0
  11
 520.23131002149
  21
 734.91537478664
  31
0.0
   0
LINE
   5
CD
 100
AcDbEntity
   8
0
 370
15
 100
AcDbLine
   6
CONTINUOUS
  62
8
  10
 486.83231841617
  20
 738.91537478664
  30
0.0
  11
 521.98131002149
  21
 738.91537478664
  31
0.0
   0
LINE
   5
CE
 100
AcDbEntity
   8
0
 370
15
 100
AcDbLine
   6
CONTINUOUS
  62
8
  10
 523.73131002149
  20
 738.91537478664
  30
0.0
  11
 521.98131002149
  21
 738.91537478664
  31
0.0
   0
SOLID
   5
CF
 100
AcDbEntity
   8
0
 100
AcDbTrace
   6
CONTINUOUS
  62
8
  10
 520.23131002149
  20
 738.91537478664
  30
0.0
  11
 512.23131002149
  21
 740.32599063231
  31
0.0
  12
 512.23131002149
  22
 737.50475894098
  32
0.0
  13
 512.23131002149
  23
 737.50475894098
  33
0.0
   0
MTEXT
   5
D0
 100
AcDbEntity
   8
0
 370
15
  62
8
 100
AcDbMText
  10
 497.83231841617
  20
 742.91537478664
  30
0.0
  40
 10.000000000000
  41
0.0
  71
8
  72
1
   1
\A1;3.5
   7
GMM001
   0
ENDBLK
   5
D1
 100
AcDbEntity
   8
0
 100
AcDbBlockEnd
   0
BLOCK
   5
D2
 100
AcDbEntity
   8
0
 100
AcDbBlockBegin
   2
*D3
  70
65
  10
0.0
  20
0.0
  30
0.0
   3
*D3
   0
LINE
   5
D3
 100
AcDbEntity
   8
0
 370
15
 100
AcDbLine
   6
CONTINUOUS
  62
8
  10
 523.73131002149
  20
 766.41537478664
  30
0.0
  11
 523.73131002149
  21
 734.91537478664
  31
0.0
   0
LINE
   5
D4
 100
AcDbEntity
   8
0
 370
15
 100
AcDbLine
   6
CONTINUOUS
  62
8
  10
 593.73131002148
  20
 808.41537478664
  30
0.0
  11
 593.73131002148
  21
 734.91537478664
  31
0.0
   0
LINE
   5
D5
 100
AcDbEntity
   8
0
 370
15
 100
AcDbLine
   6
CONTINUOUS
  62
8
  10
 523.73131002149
  20
 738.91537478664
  30
0.0
  11
 558.73131002148
  21
 738.91537478664
  31
0.0
   0
LINE
   5
D6
 100
AcDbEntity
   8
0
 370
15
 100
AcDbLine
   6
CONTINUOUS
  62
8
  10
 593.73131002148
  20
 738.91537478664
  30
0.0
  11
 558.73131002148
  21
 738.91537478664
  31
0.0
   0
SOLID
   5
D7
 100
AcDbEntity
   8
0
 100
AcDbTrace
   6
CONTINUOUS
  62
8
  10
 523.73131002149
  20
 738.91537478664
  30
0.0
  11
 531.73131002149
  21
 737.50475894098
  31
0.0
  12
 531.73131002149
  22
 740.32599063231
  32
0.0
  13
 531.73131002149
  23
 740.32599063231
  33
0.0
   0
SOLID
   5
D8
 100
AcDbEntity
   8
0
 100
AcDbTrace
   6
CONTINUOUS
  62
8
  10
 593.73131002148
  20
 738.91537478664
  30
0.0
  11
 585.73131002148
  21
 740.32599063231
  31
0.0
  12
 585.73131002148
  22
 737.50475894098
  32
0.0
  13
 585.73131002148
  23
 737.50475894098
  33
0.0
   0
MTEXT
   5
D9
 100
AcDbEntity
   8
0
 370
15
  62
8
 100
AcDbMText
  10
 558.73131002148
  20
 742.91537478664
  30
0.0
  40
 10.000000000000
  41
0.0
  71
8
  72
1
   1
\A1;L
   7
GMM001
   0
ENDBLK
   5
DA
 100
AcDbEntity
   8
0
 100
AcDbBlockEnd
   0
BLOCK
   5
DB
 100
AcDbEntity
   8
0
 100
AcDbBlockBegin
   2
*D4
  70
65
  10
0.0
  20
0.0
  30
0.0
   3
*D4
   0
LINE
   5
DC
 100
AcDbEntity
   8
0
 370
15
 100
AcDbLine
   6
CONTINUOUS
  62
8
  10
 685.18191486883
  20
 792.41537478664
  30
0.0
  11
 685.18191486883
  21
 734.91537478664
  31
0.0
   0
LINE
   5
DD
 100
AcDbEntity
   8
0
 370
15
 100
AcDbLine
   6
CONTINUOUS
  62
8
  10
 701.18191486883
  20
 792.41537478664
  30
0.0
  11
 701.18191486883
  21
 734.91537478664
  31
0.0
   0
LINE
   5
DE
 100
AcDbEntity
   8
0
 370
15
 100
AcDbLine
   6
CONTINUOUS
  62
8
  10
 675.18191486883
  20
 738.91537478664
  30
0.0
  11
 693.18191486883
  21
 738.91537478664
  31
0.0
   0
LINE
   5
DF
 100
AcDbEntity
   8
0
 370
15
 100
AcDbLine
   6
CONTINUOUS
  62
8
  10
 754.43003516948
  20
 738.91537478664
  30
0.0
  11
 693.18191486883
  21
 738.91537478664
  31
0.0
   0
SOLID
   5
E0
 100
AcDbEntity
   8
0
 100
AcDbTrace
   6
CONTINUOUS
  62
8
  10
 685.18191486883
  20
 738.91537478664
  30
0.0
  11
 677.18191486883
  21
 740.32599063231
  31
0.0
  12
 677.18191486883
  22
 737.50475894098
  32
0.0
  13
 677.18191486883
  23
 737.50475894098
  33
0.0
   0
SOLID
   5
E1
 100
AcDbEntity
   8
0
 100
AcDbTrace
   6
CONTINUOUS
  62
8
  10
 701.18191486883
  20
 738.91537478664
  30
0.0
  11
 709.18191486883
  21
 737.50475894098
  31
0.0
  12
 709.18191486883
  22
 740.32599063231
  32
0.0
  13
 709.18191486883
  23
 740.32599063231
  33
0.0
   0
MTEXT
   5
E2
 100
AcDbEntity
   8
0
 370
15
  62
8
 100
AcDbMText
  10
 745.43003516948
  20
 742.24202474486
  30
0.0
  40
 10.000000000000
  41
0.0
  71
8
  72
1
   1
\A1;16
   7
GMM001
   0
ENDBLK
   5
E3
 100
AcDbEntity
   8
0
 100
AcDbBlockEnd
   0
BLOCK
   5
E4
 100
AcDbEntity
   8
0
 100
AcDbBlockBegin
   2
*D5
  70
65
  10
0.0
  20
0.0
  30
0.0
   3
*D5
   0
LINE
   5
E5
 100
AcDbEntity
   8
0
 370
15
 100
AcDbLine
   6
CONTINUOUS
  62
8
  10
 665.68191486883
  20
 792.41537478664
  30
0.0
  11
 665.68191486883
  21
 704.91537478664
  31
0.0
   0
LINE
   5
E6
 100
AcDbEntity
   8
0
 370
15
 100
AcDbLine
   6
CONTINUOUS
  62
8
  10
 720.68191486883
  20
 792.41537478664
  30
0.0
  11
 720.68191486883
  21
 704.91537478664
  31
0.0
   0
LINE
   5
E7
 100
AcDbEntity
   8
0
 370
15
 100
AcDbLine
   6
CONTINUOUS
  62
8
  10
 665.68191486883
  20
 708.91537478664
  30
0.0
  11
 693.18191486883
  21
 708.91537478664
  31
0.0
   0
LINE
   5
E8
 100
AcDbEntity
   8
0
 370
15
 100
AcDbLine
   6
CONTINUOUS
  62
8
  10
 720.68191486883
  20
 708.91537478664
  30
0.0
  11
 693.18191486883
  21
 708.91537478664
  31
0.0
   0
SOLID
   5
E9
 100
AcDbEntity
   8
0
 100
AcDbTrace
   6
CONTINUOUS
  62
8
  10
 665.68191486883
  20
 708.91537478664
  30
0.0
  11
 673.68191486883
  21
 707.50475894098
  31
0.0
  12
 673.68191486883
  22
 710.32599063231
  32
0.0
  13
 673.68191486883
  23
 710.32599063231
  33
0.0
   0
SOLID
   5
EA
 100
AcDbEntity
   8
0
 100
AcDbTrace
   6
CONTINUOUS
  62
8
  10
 720.68191486883
  20
 708.91537478664
  30
0.0
  11
 712.68191486883
  21
 710.32599063231
  31
0.0
  12
 712.68191486883
  22
 707.50475894098
  32
0.0
  13
 712.68191486883
  23
 707.50475894098
  33
0.0
   0
MTEXT
   5
EB
 100
AcDbEntity
   8
0
 370
15
  62
8
 100
AcDbMText
  10
 693.18191486883
  20
 712.91537478664
  30
0.0
  40
 10.000000000000
  41
0.0
  71
8
  72
1
   1
\A1;55
   7
GMM001
   0
ENDBLK
   5
EC
 100
AcDbEntity
   8
0
 100
AcDbBlockEnd
   0
BLOCK
   5
ED
 100
AcDbEntity
   8
0
 100
AcDbBlockBegin
   2
*D6
  70
65
  10
0.0
  20
0.0
  30
0.0
   3
*D6
   0
LINE
   5
EE
 100
AcDbEntity
   8
0
 370
15
 100
AcDbLine
   6
CONTINUOUS
  62
8
  10
 516.23131002149
  20
 823.91537478664
  30
0.0
  11
 502.06747651708
  21
 823.91537478664
  31
0.0
   0
LINE
   5
EF
 100
AcDbEntity
   8
0
 370
15
 100
AcDbLine
   6
CONTINUOUS
  62
8
  10
 516.23131002149
  20
 768.91537478664
  30
0.0
  11
 502.06747651708
  21
 768.91537478664
  31
0.0
   0
LINE
   5
F0
 100
AcDbEntity
   8
0
 370
15
 100
AcDbLine
   6
CONTINUOUS
  62
8
  10
 506.06747651708
  20
 823.91537478664
  30
0.0
  11
 506.06747651708
  21
 796.41537478664
  31
0.0
   0
LINE
   5
F1
 100
AcDbEntity
   8
0
 370
15
 100
AcDbLine
   6
CONTINUOUS
  62
8
  10
 506.06747651708
  20
 768.91537478664
  30
0.0
  11
 506.06747651708
  21
 796.41537478664
  31
0.0
   0
SOLID
   5
F2
 100
AcDbEntity
   8
0
 100
AcDbTrace
   6
CONTINUOUS
  62
8
  10
 506.06747651708
  20
 823.91537478664
  30
0.0
  11
 504.65686067141
  21
 815.91537478664
  31
0.0
  12
 507.47809236275
  22
 815.91537478664
  32
0.0
  13
 507.47809236275
  23
 815.91537478664
  33
0.0
   0
SOLID
   5
F3
 100
AcDbEntity
   8
0
 100
AcDbTrace
   6
CONTINUOUS
  62
8
  10
 506.06747651708
  20
 768.91537478664
  30
0.0
  11
 507.47809236275
  21
 776.91537478664
  31
0.0
  12
 504.65686067141
  22
 776.91537478664
  32
0.0
  13
 504.65686067141
  23
 776.91537478664
  33
0.0
   0
MTEXT
   5
F4
 100
AcDbEntity
   8
0
 370
15
  62
8
 100
AcDbMText
  10
 502.06747651708
  20
 796.41537478664
  30
0.0
  40
 10.000000000000
  41
0.0
  71
8
  72
1
   1
\A1;55
   7
GMM001
  11
0.0
  21
 1.0000000000000
  31
0.0
   0
ENDBLK
   5
F5
 100
AcDbEntity
   8
0
 100
AcDbBlockEnd
   0
BLOCK
   5
F6
 100
AcDbEntity
   8
0
 100
AcDbBlockBegin
   2
*D8
  70
65
  10
0.0
  20
0.0
  30
0.0
   3
*D8
   0
LINE
   5
F7
 100
AcDbEntity
   8
0
 370
15
 100
AcDbLine
   6
CONTINUOUS
  62
8
  10
 585.39959089103
  20
 248.44688840738
  30
0.0
  11
 638.04363071459
  21
 248.44688840738
  31
0.0
   0
LINE
   5
F8
 100
AcDbEntity
   8
0
 370
15
 100
AcDbLine
   6
CONTINUOUS
  62
8
  10
 609.39959089104
  20
 283.44688840738
  30
0.0
  11
 638.04363071459
  21
 283.44688840738
  31
0.0
   0
LINE
   5
F9
 100
AcDbEntity
   8
0
 370
15
 100
AcDbLine
   6
CONTINUOUS
  62
8
  10
 634.04363071459
  20
 248.44688840738
  30
0.0
  11
 634.04363071459
  21
 265.94688840738
  31
0.0
   0
LINE
   5
FA
 100
AcDbEntity
   8
0
 370
15
 100
AcDbLine
   6
CONTINUOUS
  62
8
  10
 634.04363071459
  20
 283.44688840738
  30
0.0
  11
 634.04363071459
  21
 265.94688840738
  31
0.0
   0
SOLID
   5
FB
 100
AcDbEntity
   8
0
 100
AcDbTrace
   6
CONTINUOUS
  62
8
  10
 634.04363071459
  20
 248.44688840738
  30
0.0
  11
 635.45424656026
  21
 256.44688840738
  31
0.0
  12
 632.63301486893
  22
 256.44688840738
  32
0.0
  13
 632.63301486893
  23
 256.44688840738
  33
0.0
   0
SOLID
   5
FC
 100
AcDbEntity
   8
0
 100
AcDbTrace
   6
CONTINUOUS
  62
8
  10
 634.04363071459
  20
 283.44688840738
  30
0.0
  11
 632.63301486893
  21
 275.44688840738
  31
0.0
  12
 635.45424656026
  22
 275.44688840738
  32
0.0
  13
 635.45424656026
  23
 275.44688840738
  33
0.0
   0
MTEXT
   5
FD
 100
AcDbEntity
   8
0
 370
15
  62
8
 100
AcDbMText
  10
 630.04363071459
  20
 265.94688840738
  30
0.0
  40
 10.000000000000
  41
0.0
  71
8
  72
1
   1
\A1;35
   7
GMM001
  11
0.0
  21
 1.0000000000000
  31
0.0
   0
ENDBLK
   5
FE
 100
AcDbEntity
   8
0
 100
AcDbBlockEnd
   0
BLOCK
   5
FF
 100
AcDbEntity
   8
0
 100
AcDbBlockBegin
   2
*D9
  70
65
  10
0.0
  20
0.0
  30
0.0
   3
*D9
   0
LINE
   5
100
 100
AcDbEntity
   8
0
 370
15
 100
AcDbLine
   6
CONTINUOUS
  62
8
  10
 674.35019573839
  20
 244.44688840738
  30
0.0
  11
 674.35019573839
  21
 173.14390701704
  31
0.0
   0
LINE
   5
101
 100
AcDbEntity
   8
0
 370
15
 100
AcDbLine
   6
CONTINUOUS
  62
8
  10
 719.35019573839
  20
 244.44688840738
  30
0.0
  11
 719.35019573839
  21
 173.14390701704
  31
0.0
   0
LINE
   5
102
 100
AcDbEntity
   8
0
 370
15
 100
AcDbLine
   6
CONTINUOUS
  62
8
  10
 674.35019573839
  20
 177.14390701704
  30
0.0
  11
 696.85019573839
  21
 177.14390701704
  31
0.0
   0
LINE
   5
103
 100
AcDbEntity
   8
0
 370
15
 100
AcDbLine
   6
CONTINUOUS
  62
8
  10
 719.35019573839
  20
 177.14390701704
  30
0.0
  11
 696.85019573839
  21
 177.14390701704
  31
0.0
   0
SOLID
   5
104
 100
AcDbEntity
   8
0
 100
AcDbTrace
   6
CONTINUOUS
  62
8
  10
 674.35019573839
  20
 177.14390701704
  30
0.0
  11
 682.35019573839
  21
 175.73329117137
  31
0.0
  12
 682.35019573839
  22
 178.55452286270
  32
0.0
  13
 682.35019573839
  23
 178.55452286270
  33
0.0
   0
SOLID
   5
105
 100
AcDbEntity
   8
0
 100
AcDbTrace
   6
CONTINUOUS
  62
8
  10
 719.35019573839
  20
 177.14390701704
  30
0.0
  11
 711.35019573839
  21
 178.55452286270
  31
0.0
  12
 711.35019573839
  22
 175.73329117137
  32
0.0
  13
 711.35019573839
  23
 175.73329117137
  33
0.0
   0
MTEXT
   5
106
 100
AcDbEntity
   8
0
 370
15
  62
8
 100
AcDbMText
  10
 696.85019573839
  20
 181.14390701704
  30
0.0
  40
 10.000000000000
  41
0.0
  71
8
  72
1
   1
\A1;45
   7
GMM001
   0
ENDBLK
   5
107
 100
AcDbEntity
   8
0
 100
AcDbBlockEnd
   0
BLOCK
   5
108
 100
AcDbEntity
   8
0
 100
AcDbBlockBegin
   2
*D10
  70
65
  10
0.0
  20
0.0
  30
0.0
   3
*D10
   0
LINE
   5
109
 100
AcDbEntity
   8
0
 370
15
 100
AcDbLine
   6
CONTINUOUS
  62
8
  10
 690.35019573839
  20
 244.44688840738
  30
0.0
  11
 690.35019573839
  21
 197.74763856815
  31
0.0
   0
LINE
   5
10A
 100
AcDbEntity
   8
0
 370
15
 100
AcDbLine
   6
CONTINUOUS
  62
8
  10
 703.35019573839
  20
 244.44688840738
  30
0.0
  11
 703.35019573839
  21
 197.74763856815
  31
0.0
   0
LINE
   5
10B
 100
AcDbEntity
   8
0
 370
15
 100
AcDbLine
   6
CONTINUOUS
  62
8
  10
 680.35019573839
  20
 201.74763856815
  30
0.0
  11
 696.85019573839
  21
 201.74763856815
  31
0.0
   0
LINE
   5
10C
 100
AcDbEntity
   8
0
 370
15
 100
AcDbLine
   6
CONTINUOUS
  62
8
  10
 737.85733724739
  20
 201.74763856815
  30
0.0
  11
 696.85019573839
  21
 201.74763856815
  31
0.0
   0
SOLID
   5
10D
 100
AcDbEntity
   8
0
 100
AcDbTrace
   6
CONTINUOUS
  62
8
  10
 690.35019573839
  20
 201.74763856815
  30
0.0
  11
 682.35019573839
  21
 203.15825441382
  31
0.0
  12
 682.35019573839
  22
 200.33702272248
  32
0.0
  13
 682.35019573839
  23
 200.33702272248
  33
0.0
   0
SOLID
   5
10E
 100
AcDbEntity
   8
0
 100
AcDbTrace
   6
CONTINUOUS
  62
8
  10
 703.35019573839
  20
 201.74763856815
  30
0.0
  11
 711.35019573839
  21
 200.33702272248
  31
0.0
  12
 711.35019573839
  22
 203.15825441382
  32
0.0
  13
 711.35019573839
  23
 203.15825441382
  33
0.0
   0
MTEXT
   5
10F
 100
AcDbEntity
   8
0
 370
15
  62
8
 100
AcDbMText
  10
 719.85733724739
  20
 204.29623227464
  30
0.0
  40
 10.000000000000
  41
0.0
  71
7
  72
1
   1
\A1;13
   7
GMM001
   0
ENDBLK
   5
110
 100
AcDbEntity
   8
0
 100
AcDbBlockEnd
   0
BLOCK
   5
111
 100
AcDbEntity
   8
0
 100
AcDbBlockBegin
   2
*D11
  70
65
  10
0.0
  20
0.0
  30
0.0
   3
*D11
   0
LINE
   5
112
 100
AcDbEntity
   8
0
 370
15
 100
AcDbLine
   6
CONTINUOUS
  62
8
  10
 538.39959089104
  20
 221.94688840738
  30
0.0
  11
 538.39959089104
  21
 197.74763856815
  31
0.0
   0
LINE
   5
113
 100
AcDbEntity
   8
0
 370
15
 100
AcDbLine
   6
CONTINUOUS
  62
8
  10
 511.41790533420
  20
 201.74763856815
  30
0.0
  11
 540.39959089104
  21
 201.74763856815
  31
0.0
   0
LINE
   5
114
 100
AcDbEntity
   8
0
 370
15
 100
AcDbLine
   6
CONTINUOUS
  62
8
  10
 542.39959089104
  20
 201.74763856815
  30
0.0
  11
 540.39959089104
  21
 201.74763856815
  31
0.0
   0
SOLID
   5
115
 100
AcDbEntity
   8
0
 100
AcDbTrace
   6
CONTINUOUS
  62
8
  10
 538.39959089104
  20
 201.74763856815
  30
0.0
  11
 530.39959089104
  21
 203.15825441382
  31
0.0
  12
 530.39959089104
  22
 200.33702272248
  32
0.0
  13
 530.39959089104
  23
 200.33702272248
  33
0.0
   0
MTEXT
   5
116
 100
AcDbEntity
   8
0
 370
15
  62
8
 100
AcDbMText
  10
 533.41790533420
  20
 205.01506639698
  30
0.0
  40
 10.000000000000
  41
0.0
  71
9
  72
1
   1
\A1;3.5
   7
GMM001
   0
ENDBLK
   5
117
 100
AcDbEntity
   8
0
 100
AcDbBlockEnd
   0
BLOCK
   5
118
 100
AcDbEntity
   8
0
 100
AcDbBlockBegin
   2
*D12
  70
65
  10
0.0
  20
0.0
  30
0.0
   3
*D12
   0
LINE
   5
119
 100
AcDbEntity
   8
0
 370
15
 100
AcDbLine
   6
CONTINUOUS
  62
8
  10
 542.39959089104
  20
 223.44688840738
  30
0.0
  11
 542.39959089104
  21
 197.74763856815
  31
0.0
   0
LINE
   5
11A
 100
AcDbEntity
   8
0
 370
15
 100
AcDbLine
   6
CONTINUOUS
  62
8
  10
 597.39959089104
  20
 258.94688840738
  30
0.0
  11
 597.39959089104
  21
 197.74763856815
  31
0.0
   0
LINE
   5
11B
 100
AcDbEntity
   8
0
 370
15
 100
AcDbLine
   6
CONTINUOUS
  62
8
  10
 542.39959089104
  20
 201.74763856815
  30
0.0
  11
 569.89959089104
  21
 201.74763856815
  31
0.0
   0
LINE
   5
11C
 100
AcDbEntity
   8
0
 370
15
 100
AcDbLine
   6
CONTINUOUS
  62
8
  10
 597.39959089104
  20
 201.74763856815
  30
0.0
  11
 569.89959089104
  21
 201.74763856815
  31
0.0
   0
SOLID
   5
11D
 100
AcDbEntity
   8
0
 100
AcDbTrace
   6
CONTINUOUS
  62
8
  10
 542.39959089104
  20
 201.74763856815
  30
0.0
  11
 550.39959089104
  21
 200.33702272248
  31
0.0
  12
 550.39959089104
  22
 203.15825441382
  32
0.0
  13
 550.39959089104
  23
 203.15825441382
  33
0.0
   0
SOLID
   5
11E
 100
AcDbEntity
   8
0
 100
AcDbTrace
   6
CONTINUOUS
  62
8
  10
 597.39959089104
  20
 201.74763856815
  30
0.0
  11
 589.39959089104
  21
 203.15825441382
  31
0.0
  12
 589.39959089104
  22
 200.33702272248
  32
0.0
  13
 589.39959089104
  23
 200.33702272248
  33
0.0
   0
MTEXT
   5
11F
 100
AcDbEntity
   8
0
 370
15
  62
8
 100
AcDbMText
  10
 569.89959089104
  20
 205.74763856815
  30
0.0
  40
 10.000000000000
  41
0.0
  71
8
  72
1
   1
\A1;L
   7
GMM001
   0
ENDBLK
   5
120
 100
AcDbEntity
   8
0
 100
AcDbBlockEnd
   0
BLOCK
   5
121
 100
AcDbEntity
   8
0
 100
AcDbBlockBegin
   2
*D13
  70
65
  10
0.0
  20
0.0
  30
0.0
   3
*D13
   0
LINE
   5
122
 100
AcDbEntity
   8
0
 370
15
 100
AcDbLine
   6
CONTINUOUS
  62
8
  10
 534.39959089104
  20
 225.94688840738
  30
0.0
  11
 515.89075412283
  21
 225.94688840738
  31
0.0
   0
LINE
   5
123
 100
AcDbEntity
   8
0
 370
15
 100
AcDbLine
   6
CONTINUOUS
  62
8
  10
 534.39959089104
  20
 270.94688840738
  30
0.0
  11
 515.89075412283
  21
 270.94688840738
  31
0.0
   0
LINE
   5
124
 100
AcDbEntity
   8
0
 370
15
 100
AcDbLine
   6
CONTINUOUS
  62
8
  10
 519.89075412283
  20
 225.94688840738
  30
0.0
  11
 519.89075412283
  21
 248.44688840738
  31
0.0
   0
LINE
   5
125
 100
AcDbEntity
   8
0
 370
15
 100
AcDbLine
   6
CONTINUOUS
  62
8
  10
 519.89075412283
  20
 270.94688840738
  30
0.0
  11
 519.89075412283
  21
 248.44688840738
  31
0.0
   0
SOLID
   5
126
 100
AcDbEntity
   8
0
 100
AcDbTrace
   6
CONTINUOUS
  62
8
  10
 519.89075412283
  20
 225.94688840738
  30
0.0
  11
 521.30136996849
  21
 233.94688840738
  31
0.0
  12
 518.48013827716
  22
 233.94688840738
  32
0.0
  13
 518.48013827716
  23
 233.94688840738
  33
0.0
   0
SOLID
   5
127
 100
AcDbEntity
   8
0
 100
AcDbTrace
   6
CONTINUOUS
  62
8
  10
 519.89075412283
  20
 270.94688840738
  30
0.0
  11
 518.48013827716
  21
 262.94688840738
  31
0.0
  12
 521.30136996849
  22
 262.94688840738
  32
0.0
  13
 521.30136996849
  23
 262.94688840738
  33
0.0
   0
MTEXT
   5
128
 100
AcDbEntity
   8
0
 370
15
  62
8
 100
AcDbMText
  10
 515.89075412283
  20
 248.44688840738
  30
0.0
  40
 10.000000000000
  41
0.0
  71
8
  72
1
   1
\A1;45
   7
GMM001
  11
0.0
  21
 1.0000000000000
  31
0.0
   0
ENDBLK
   5
129
 100
AcDbEntity
   8
0
 100
AcDbBlockEnd
   0
BLOCK
   5
12A
 100
AcDbEntity
   8
0
 100
AcDbBlockBegin
   2
*D15
  70
65
  10
0.0
  20
0.0
  30
0.0
   3
*D15
   0
LINE
   5
12B
 100
AcDbEntity
   8
0
 370
15
 100
AcDbLine
   6
CONTINUOUS
  62
8
  10
 584.89959089104
  20
 297.74688840738
  30
0.0
  11
 584.89959089104
  21
 312.74688840738
  31
0.0
   0
LINE
   5
12C
 100
AcDbEntity
   8
0
 370
15
 100
AcDbLine
   6
CONTINUOUS
  62
8
  10
 609.89959089104
  20
 297.74688840738
  30
0.0
  11
 609.89959089104
  21
 312.74688840738
  31
0.0
   0
LINE
   5
12D
 100
AcDbEntity
   8
0
 370
15
 100
AcDbLine
   6
CONTINUOUS
  62
8
  10
 584.89959089104
  20
 308.74688840738
  30
0.0
  11
 597.39959089104
  21
 308.74688840738
  31
0.0
   0
LINE
   5
12E
 100
AcDbEntity
   8
0
 370
15
 100
AcDbLine
   6
CONTINUOUS
  62
8
  10
 609.89959089104
  20
 308.74688840738
  30
0.0
  11
 597.39959089104
  21
 308.74688840738
  31
0.0
   0
SOLID
   5
12F
 100
AcDbEntity
   8
0
 100
AcDbTrace
   6
CONTINUOUS
  62
8
  10
 584.89959089104
  20
 308.74688840738
  30
0.0
  11
 592.89959089104
  21
 307.33627256172
  31
0.0
  12
 592.89959089104
  22
 310.15750425305
  32
0.0
  13
 592.89959089104
  23
 310.15750425305
  33
0.0
   0
SOLID
   5
130
 100
AcDbEntity
   8
0
 100
AcDbTrace
   6
CONTINUOUS
  62
8
  10
 609.89959089104
  20
 308.74688840738
  30
0.0
  11
 601.89959089104
  21
 310.15750425305
  31
0.0
  12
 601.89959089104
  22
 307.33627256172
  32
0.0
  13
 601.89959089104
  23
 307.33627256172
  33
0.0
   0
MTEXT
   5
131
 100
AcDbEntity
   8
0
 370
15
  62
8
 100
AcDbMText
  10
 597.39959089104
  20
 312.74688840738
  30
0.0
  40
 10.000000000000
  41
0.0
  71
8
  72
1
   1
\A1;25
   7
GMM001
   0
ENDBLK
   5
132
 100
AcDbEntity
   8
0
 100
AcDbBlockEnd
   0
BLOCK
   5
133
 100
AcDbEntity
   8
0
 100
AcDbBlockBegin
   2
*D16
  70
65
  10
0.0
  20
0.0
  30
0.0
   3
*D16
   0
LINE
   5
134
 100
AcDbEntity
   8
0
 370
15
 100
AcDbLine
   6
CONTINUOUS
  62
8
  10
 581.23131002149
  20
 855.71537478664
  30
0.0
  11
 581.23131002149
  21
 870.71537478664
  31
0.0
   0
LINE
   5
135
 100
AcDbEntity
   8
0
 370
15
 100
AcDbLine
   6
CONTINUOUS
  62
8
  10
 606.23131002149
  20
 855.71537478664
  30
0.0
  11
 606.23131002149
  21
 870.71537478664
  31
0.0
   0
LINE
   5
136
 100
AcDbEntity
   8
0
 370
15
 100
AcDbLine
   6
CONTINUOUS
  62
8
  10
 581.23131002149
  20
 866.71537478664
  30
0.0
  11
 593.73131002149
  21
 866.71537478664
  31
0.0
   0
LINE
   5
137
 100
AcDbEntity
   8
0
 370
15
 100
AcDbLine
   6
CONTINUOUS
  62
8
  10
 606.23131002149
  20
 866.71537478664
  30
0.0
  11
 593.73131002149
  21
 866.71537478664
  31
0.0
   0
SOLID
   5
138
 100
AcDbEntity
   8
0
 100
AcDbTrace
   6
CONTINUOUS
  62
8
  10
 581.23131002149
  20
 866.71537478664
  30
0.0
  11
 589.23131002149
  21
 865.30475894098
  31
0.0
  12
 589.23131002149
  22
 868.12599063231
  32
0.0
  13
 589.23131002149
  23
 868.12599063231
  33
0.0
   0
SOLID
   5
139
 100
AcDbEntity
   8
0
 100
AcDbTrace
   6
CONTINUOUS
  62
8
  10
 606.23131002149
  20
 866.71537478664
  30
0.0
  11
 598.23131002149
  21
 868.12599063231
  31
0.0
  12
 598.23131002149
  22
 865.30475894098
  32
0.0
  13
 598.23131002149
  23
 865.30475894098
  33
0.0
   0
MTEXT
   5
13A
 100
AcDbEntity
   8
0
 370
15
  62
8
 100
AcDbMText
  10
 593.73131002149
  20
 870.71537478664
  30
0.0
  40
 10.000000000000
  41
0.0
  71
8
  72
1
   1
\A1;25
   7
GMM001
   0
ENDBLK
   5
13B
 100
AcDbEntity
   8
0
 100
AcDbBlockEnd
   0
BLOCK
   5
13C
 100
AcDbEntity
   8
0
 100
AcDbBlockBegin
   2
*D17
  70
65
  10
0.0
  20
0.0
  30
0.0
   3
*D17
   0
LINE
   5
13D
 100
AcDbEntity
   8
0
 370
15
 100
AcDbLine
   6
CONTINUOUS
  62
8
  10
 740.85019573839
  20
 291.74688840738
  30
0.0
  11
 762.72751148332
  21
 291.74688840738
  31
0.0
   0
LINE
   5
13E
 100
AcDbEntity
   8
0
 370
15
 100
AcDbLine
   6
CONTINUOUS
  62
8
  10
 740.85019573839
  20
 293.74688840738
  30
0.0
  11
 762.72751148332
  21
 293.74688840738
  31
0.0
   0
LINE
   5
13F
 100
AcDbEntity
   8
0
 370
15
 100
AcDbLine
   6
CONTINUOUS
  62
8
  10
 758.72751148332
  20
 281.74688840738
  30
0.0
  11
 758.72751148332
  21
 292.74688840738
  31
0.0
   0
LINE
   5
140
 100
AcDbEntity
   8
0
 370
15
 100
AcDbLine
   6
CONTINUOUS
  62
8
  10
 758.72751148332
  20
 311.27361204216
  30
0.0
  11
 758.72751148332
  21
 292.74688840738
  31
0.0
   0
SOLID
   5
141
 100
AcDbEntity
   8
0
 100
AcDbTrace
   6
CONTINUOUS
  62
8
  10
 758.72751148332
  20
 291.74688840738
  30
0.0
  11
 757.31689563765
  21
 283.74688840738
  31
0.0
  12
 760.13812732899
  22
 283.74688840738
  32
0.0
  13
 760.13812732899
  23
 283.74688840738
  33
0.0
   0
SOLID
   5
142
 100
AcDbEntity
   8
0
 100
AcDbTrace
   6
CONTINUOUS
  62
8
  10
 758.72751148332
  20
 293.74688840738
  30
0.0
  11
 760.13812732899
  21
 301.74688840738
  31
0.0
  12
 757.31689563765
  22
 301.74688840738
  32
0.0
  13
 757.31689563765
  23
 301.74688840738
  33
0.0
   0
MTEXT
   5
143
 100
AcDbEntity
   8
0
 370
15
  62
8
 100
AcDbMText
  10
 754.21846107950
  20
 301.27361204216
  30
0.0
  40
 10.000000000000
  41
0.0
  71
7
  72
1
   1
\A1;2
   7
GMM001
  11
0.0
  21
 1.0000000000000
  31
0.0
   0
ENDBLK
   5
144
 100
AcDbEntity
   8
0
 100
AcDbBlockEnd
   0
BLOCK
   5
145
 100
AcDbEntity
   8
0
 100
AcDbBlockBegin
   2
*D18
  70
65
  10
0.0
  20
0.0
  30
0.0
   3
*D18
   0
LINE
   5
146
 100
AcDbEntity
   8
0
 370
15
 100
AcDbLine
   6
CONTINUOUS
  62
8
  10
 656.85019573839
  20
 297.74688840738
  30
0.0
  11
 656.85019573839
  21
 312.74688840738
  31
0.0
   0
LINE
   5
147
 100
AcDbEntity
   8
0
 370
15
 100
AcDbLine
   6
CONTINUOUS
  62
8
  10
 736.85019573839
  20
 297.74688840738
  30
0.0
  11
 736.85019573839
  21
 312.74688840738
  31
0.0
   0
LINE
   5
148
 100
AcDbEntity
   8
0
 370
15
 100
AcDbLine
   6
CONTINUOUS
  62
8
  10
 656.85019573839
  20
 308.74688840738
  30
0.0
  11
 696.85019573839
  21
 308.74688840738
  31
0.0
   0
LINE
   5
149
 100
AcDbEntity
   8
0
 370
15
 100
AcDbLine
   6
CONTINUOUS
  62
8
  10
 736.85019573839
  20
 308.74688840738
  30
0.0
  11
 696.85019573839
  21
 308.74688840738
  31
0.0
   0
SOLID
   5
14A
 100
AcDbEntity
   8
0
 100
AcDbTrace
   6
CONTINUOUS
  62
8
  10
 656.85019573839
  20
 308.74688840738
  30
0.0
  11
 664.85019573839
  21
 307.33627256172
  31
0.0
  12
 664.85019573839
  22
 310.15750425305
  32
0.0
  13
 664.85019573839
  23
 310.15750425305
  33
0.0
   0
SOLID
   5
14B
 100
AcDbEntity
   8
0
 100
AcDbTrace
   6
CONTINUOUS
  62
8
  10
 736.85019573839
  20
 308.74688840738
  30
0.0
  11
 728.85019573839
  21
 310.15750425305
  31
0.0
  12
 728.85019573839
  22
 307.33627256172
  32
0.0
  13
 728.85019573839
  23
 307.33627256172
  33
0.0
   0
MTEXT
   5
14C
 100
AcDbEntity
   8
0
 370
15
  62
8
 100
AcDbMText
  10
 696.85019573839
  20
 312.74688840738
  30
0.0
  40
 10.000000000000
  41
0.0
  71
8
  72
1
   1
\A1;80
   7
GMM001
   0
ENDBLK
   5
14D
 100
AcDbEntity
   8
0
 100
AcDbBlockEnd
   0
BLOCK
   5
14E
 100
AcDbEntity
   8
0
 100
AcDbBlockBegin
   2
*D19
  70
65
  10
0.0
  20
0.0
  30
0.0
   3
*D19
   0
LINE
   5
14F
 100
AcDbEntity
   8
0
 370
15
 100
AcDbLine
   6
CONTINUOUS
  62
8
  10
 737.18191486883
  20
 849.71537478664
  30
0.0
  11
 759.05923061376
  21
 849.71537478664
  31
0.0
   0
LINE
   5
150
 100
AcDbEntity
   8
0
 370
15
 100
AcDbLine
   6
CONTINUOUS
  62
8
  10
 737.18191486883
  20
 851.71537478664
  30
0.0
  11
 759.05923061376
  21
 851.71537478664
  31
0.0
   0
LINE
   5
151
 100
AcDbEntity
   8
0
 370
15
 100
AcDbLine
   6
CONTINUOUS
  62
8
  10
 755.05923061376
  20
 839.71537478664
  30
0.0
  11
 755.05923061376
  21
 850.71537478664
  31
0.0
   0
LINE
   5
152
 100
AcDbEntity
   8
0
 370
15
 100
AcDbLine
   6
CONTINUOUS
  62
8
  10
 755.05923061376
  20
 869.24209842142
  30
0.0
  11
 755.05923061376
  21
 850.71537478664
  31
0.0
   0
SOLID
   5
153
 100
AcDbEntity
   8
0
 100
AcDbTrace
   6
CONTINUOUS
  62
8
  10
 755.05923061376
  20
 849.71537478664
  30
0.0
  11
 753.64861476810
  21
 841.71537478664
  31
0.0
  12
 756.46984645943
  22
 841.71537478664
  32
0.0
  13
 756.46984645943
  23
 841.71537478664
  33
0.0
   0
SOLID
   5
154
 100
AcDbEntity
   8
0
 100
AcDbTrace
   6
CONTINUOUS
  62
8
  10
 755.05923061376
  20
 851.71537478664
  30
0.0
  11
 756.46984645943
  21
 859.71537478664
  31
0.0
  12
 753.64861476810
  22
 859.71537478664
  32
0.0
  13
 753.64861476810
  23
 859.71537478664
  33
0.0
   0
MTEXT
   5
155
 100
AcDbEntity
   8
0
 370
15
  62
8
 100
AcDbMText
  10
 750.55018020994
  20
 859.24209842142
  30
0.0
  40
 10.000000000000
  41
0.0
  71
7
  72
1
   1
\A1;2
   7
GMM001
  11
0.0
  21
 1.0000000000000
  31
0.0
   0
ENDBLK
   5
156
 100
AcDbEntity
   8
0
 100
AcDbBlockEnd
   0
BLOCK
   5
157
 100
AcDbEntity
   8
0
 100
AcDbBlockBegin
   2
*D20
  70
65
  10
0.0
  20
0.0
  30
0.0
   3
*D20
   0
LINE
   5
158
 100
AcDbEntity
   8
0
 370
15
 100
AcDbLine
   6
CONTINUOUS
  62
8
  10
 653.18191486883
  20
 855.71537478664
  30
0.0
  11
 653.18191486883
  21
 870.71537478664
  31
0.0
   0
LINE
   5
159
 100
AcDbEntity
   8
0
 370
15
 100
AcDbLine
   6
CONTINUOUS
  62
8
  10
 733.18191486883
  20
 855.71537478664
  30
0.0
  11
 733.18191486883
  21
 870.71537478664
  31
0.0
   0
LINE
   5
15A
 100
AcDbEntity
   8
0
 370
15
 100
AcDbLine
   6
CONTINUOUS
  62
8
  10
 653.18191486883
  20
 866.71537478664
  30
0.0
  11
 693.18191486883
  21
 866.71537478664
  31
0.0
   0
LINE
   5
15B
 100
AcDbEntity
   8
0
 370
15
 100
AcDbLine
   6
CONTINUOUS
  62
8
  10
 733.18191486883
  20
 866.71537478664
  30
0.0
  11
 693.18191486883
  21
 866.71537478664
  31
0.0
   0
SOLID
   5
15C
 100
AcDbEntity
   8
0
 100
AcDbTrace
   6
CONTINUOUS
  62
8
  10
 653.18191486883
  20
 866.71537478664
  30
0.0
  11
 661.18191486883
  21
 865.30475894098
  31
0.0
  12
 661.18191486883
  22
 868.12599063231
  32
0.0
  13
 661.18191486883
  23
 868.12599063231
  33
0.0
   0
SOLID
   5
15D
 100
AcDbEntity
   8
0
 100
AcDbTrace
   6
CONTINUOUS
  62
8
  10
 733.18191486883
  20
 866.71537478664
  30
0.0
  11
 725.18191486883
  21
 868.12599063231
  31
0.0
  12
 725.18191486883
  22
 865.30475894098
  32
0.0
  13
 725.18191486883
  23
 865.30475894098
  33
0.0
   0
MTEXT
   5
15E
 100
AcDbEntity
   8
0
 370
15
  62
8
 100
AcDbMText
  10
 693.18191486883
  20
 870.71537478664
  30
0.0
  40
 10.000000000000
  41
0.0
  71
8
  72
1
   1
\A1;80
   7
GMM001
   0
ENDBLK
   5
15F
 100
AcDbEntity
   8
0
 100
AcDbBlockEnd
   0
BLOCK
   5
160
 100
AcDbEntity
   8
0
 100
AcDbBlockBegin
   2
*D21
  70
65
  10
0.0
  20
0.0
  30
0.0
   3
*D21
   0
LINE
   5
161
 100
AcDbEntity
   8
0
 370
15
 100
AcDbLine
   6
CONTINUOUS
  62
8
  10
 666.85019573839
  20
 394.13572580073
  30
0.0
  11
 666.85019573839
  21
 368.39615486021
  31
0.0
   0
LINE
   5
162
 100
AcDbEntity
   8
0
 370
15
 100
AcDbLine
   6
CONTINUOUS
  62
8
  10
 726.85019573839
  20
 394.13572580073
  30
0.0
  11
 726.85019573839
  21
 368.39615486021
  31
0.0
   0
LINE
   5
163
 100
AcDbEntity
   8
0
 370
15
 100
AcDbLine
   6
CONTINUOUS
  62
8
  10
 666.85019573839
  20
 372.39615486021
  30
0.0
  11
 696.85019573839
  21
 372.39615486021
  31
0.0
   0
LINE
   5
164
 100
AcDbEntity
   8
0
 370
15
 100
AcDbLine
   6
CONTINUOUS
  62
8
  10
 726.85019573839
  20
 372.39615486021
  30
0.0
  11
 696.85019573839
  21
 372.39615486021
  31
0.0
   0
SOLID
   5
165
 100
AcDbEntity
   8
0
 100
AcDbTrace
   6
CONTINUOUS
  62
8
  10
 666.85019573839
  20
 372.39615486021
  30
0.0
  11
 674.85019573839
  21
 370.98553901454
  31
0.0
  12
 674.85019573839
  22
 373.80677070588
  32
0.0
  13
 674.85019573839
  23
 373.80677070588
  33
0.0
   0
SOLID
   5
166
 100
AcDbEntity
   8
0
 100
AcDbTrace
   6
CONTINUOUS
  62
8
  10
 726.85019573839
  20
 372.39615486021
  30
0.0
  11
 718.85019573839
  21
 373.80677070588
  31
0.0
  12
 718.85019573839
  22
 370.98553901454
  32
0.0
  13
 718.85019573839
  23
 370.98553901454
  33
0.0
   0
MTEXT
   5
167
 100
AcDbEntity
   8
0
 370
15
  62
8
 100
AcDbMText
  10
 696.85019573839
  20
 376.39615486021
  30
0.0
  40
 10.000000000000
  41
0.0
  71
8
  72
1
   1
\A1;60
   7
GMM001
   0
ENDBLK
   5
168
 100
AcDbEntity
   8
0
 100
AcDbBlockEnd
   0
BLOCK
   5
169
 100
AcDbEntity
   8
0
 100
AcDbBlockBegin
   2
*D22
  70
65
  10
0.0
  20
0.0
  30
0.0
   3
*D22
   0
LINE
   5
16A
 100
AcDbEntity
   8
0
 370
15
 100
AcDbLine
   6
CONTINUOUS
  62
8
  10
 656.85019573839
  20
 390.39615486021
  30
0.0
  11
 656.85019573839
  21
 348.39615486021
  31
0.0
   0
LINE
   5
16B
 100
AcDbEntity
   8
0
 370
15
 100
AcDbLine
   6
CONTINUOUS
  62
8
  10
 736.85019573839
  20
 390.39615486021
  30
0.0
  11
 736.85019573839
  21
 348.39615486021
  31
0.0
   0
LINE
   5
16C
 100
AcDbEntity
   8
0
 370
15
 100
AcDbLine
   6
CONTINUOUS
  62
8
  10
 656.85019573839
  20
 352.39615486021
  30
0.0
  11
 696.85019573839
  21
 352.39615486021
  31
0.0
   0
LINE
   5
16D
 100
AcDbEntity
   8
0
 370
15
 100
AcDbLine
   6
CONTINUOUS
  62
8
  10
 736.85019573839
  20
 352.39615486021
  30
0.0
  11
 696.85019573839
  21
 352.39615486021
  31
0.0
   0
SOLID
   5
16E
 100
AcDbEntity
   8
0
 100
AcDbTrace
   6
CONTINUOUS
  62
8
  10
 656.85019573839
  20
 352.39615486021
  30
0.0
  11
 664.85019573839
  21
 350.98553901454
  31
0.0
  12
 664.85019573839
  22
 353.80677070588
  32
0.0
  13
 664.85019573839
  23
 353.80677070588
  33
0.0
   0
SOLID
   5
16F
 100
AcDbEntity
   8
0
 100
AcDbTrace
   6
CONTINUOUS
  62
8
  10
 736.85019573839
  20
 352.39615486021
  30
0.0
  11
 728.85019573839
  21
 353.80677070588
  31
0.0
  12
 728.85019573839
  22
 350.98553901454
  32
0.0
  13
 728.85019573839
  23
 350.98553901454
  33
0.0
   0
MTEXT
   5
170
 100
AcDbEntity
   8
0
 370
15
  62
8
 100
AcDbMText
  10
 696.85019573839
  20
 356.39615486021
  30
0.0
  40
 10.000000000000
  41
0.0
  71
8
  72
1
   1
\A1;80
   7
GMM001
   0
ENDBLK
   5
171
 100
AcDbEntity
   8
0
 100
AcDbBlockEnd
   0
BLOCK
   5
172
 100
AcDbEntity
   8
0
 100
AcDbBlockBegin
   2
*D23
  70
65
  10
0.0
  20
0.0
  30
0.0
   3
*D23
   0
LINE
   5
173
 100
AcDbEntity
   8
0
 370
15
 100
AcDbLine
   6
CONTINUOUS
  62
8
  10
 663.18191486883
  20
 952.10421217999
  30
0.0
  11
 663.18191486883
  21
 926.36464123947
  31
0.0
   0
LINE
   5
174
 100
AcDbEntity
   8
0
 370
15
 100
AcDbLine
   6
CONTINUOUS
  62
8
  10
 723.18191486883
  20
 952.10421217999
  30
0.0
  11
 723.18191486883
  21
 926.36464123947
  31
0.0
   0
LINE
   5
175
 100
AcDbEntity
   8
0
 370
15
 100
AcDbLine
   6
CONTINUOUS
  62
8
  10
 663.18191486883
  20
 930.36464123947
  30
0.0
  11
 693.18191486883
  21
 930.36464123947
  31
0.0
   0
LINE
   5
176
 100
AcDbEntity
   8
0
 370
15
 100
AcDbLine
   6
CONTINUOUS
  62
8
  10
 723.18191486883
  20
 930.36464123947
  30
0.0
  11
 693.18191486883
  21
 930.36464123947
  31
0.0
   0
SOLID
   5
177
 100
AcDbEntity
   8
0
 100
AcDbTrace
   6
CONTINUOUS
  62
8
  10
 663.18191486883
  20
 930.36464123947
  30
0.0
  11
 671.18191486883
  21
 928.95402539380
  31
0.0
  12
 671.18191486883
  22
 931.77525708514
  32
0.0
  13
 671.18191486883
  23
 931.77525708514
  33
0.0
   0
SOLID
   5
178
 100
AcDbEntity
   8
0
 100
AcDbTrace
   6
CONTINUOUS
  62
8
  10
 723.18191486883
  20
 930.36464123947
  30
0.0
  11
 715.18191486883
  21
 931.77525708514
  31
0.0
  12
 715.18191486883
  22
 928.95402539380
  32
0.0
  13
 715.18191486883
  23
 928.95402539380
  33
0.0
   0
MTEXT
   5
179
 100
AcDbEntity
   8
0
 370
15
  62
8
 100
AcDbMText
  10
 693.18191486883
  20
 934.36464123947
  30
0.0
  40
 10.000000000000
  41
0.0
  71
8
  72
1
   1
\A1;60
   7
GMM001
   0
ENDBLK
   5
17A
 100
AcDbEntity
   8
0
 100
AcDbBlockEnd
   0
BLOCK
   5
17B
 100
AcDbEntity
   8
0
 100
AcDbBlockBegin
   2
*D24
  70
65
  10
0.0
  20
0.0
  30
0.0
   3
*D24
   0
LINE
   5
17C
 100
AcDbEntity
   8
0
 370
15
 100
AcDbLine
   6
CONTINUOUS
  62
8
  10
 653.18191486883
  20
 948.36464123947
  30
0.0
  11
 653.18191486883
  21
 906.36464123947
  31
0.0
   0
LINE
   5
17D
 100
AcDbEntity
   8
0
 370
15
 100
AcDbLine
   6
CONTINUOUS
  62
8
  10
 733.18191486883
  20
 948.36464123947
  30
0.0
  11
 733.18191486883
  21
 906.36464123947
  31
0.0
   0
LINE
   5
17E
 100
AcDbEntity
   8
0
 370
15
 100
AcDbLine
   6
CONTINUOUS
  62
8
  10
 653.18191486883
  20
 910.36464123947
  30
0.0
  11
 693.18191486883
  21
 910.36464123947
  31
0.0
   0
LINE
   5
17F
 100
AcDbEntity
   8
0
 370
15
 100
AcDbLine
   6
CONTINUOUS
  62
8
  10
 733.18191486883
  20
 910.36464123947
  30
0.0
  11
 693.18191486883
  21
 910.36464123947
  31
0.0
   0
SOLID
   5
180
 100
AcDbEntity
   8
0
 100
AcDbTrace
   6
CONTINUOUS
  62
8
  10
 653.18191486883
  20
 910.36464123947
  30
0.0
  11
 661.18191486883
  21
 908.95402539380
  31
0.0
  12
 661.18191486883
  22
 911.77525708514
  32
0.0
  13
 661.18191486883
  23
 911.77525708514
  33
0.0
   0
SOLID
   5
181
 100
AcDbEntity
   8
0
 100
AcDbTrace
   6
CONTINUOUS
  62
8
  10
 733.18191486883
  20
 910.36464123947
  30
0.0
  11
 725.18191486883
  21
 911.77525708514
  31
0.0
  12
 725.18191486883
  22
 908.95402539380
  32
0.0
  13
 725.18191486883
  23
 908.95402539380
  33
0.0
   0
MTEXT
   5
182
 100
AcDbEntity
   8
0
 370
15
  62
8
 100
AcDbMText
  10
 693.18191486883
  20
 914.36464123947
  30
0.0
  40
 10.000000000000
  41
0.0
  71
8
  72
1
   1
\A1;80
   7
GMM001
   0
ENDBLK
   5
183
 100
AcDbEntity
   8
0
 100
AcDbBlockEnd
   0
ENDSEC
   0
SECTION
   2
ENTITIES
   0
LINE
   5
184
 100
AcDbEntity
   8
LEVEL001
 370
40
 100
AcDbLine
   6
CONTINUOUS
  62
3
  10
 1268.0000000001
  20
 1027.0000000000
  30
0.0
  11
 1618.0000000001
  21
 1027.0000000000
  31
0.0
   0
LINE
   5
185
 100
AcDbEntity
   8
LEVEL001
 370
40
 100
AcDbLine
   6
CONTINUOUS
  62
3
  10
 1268.0000000001
  20
 947.00000000001
  30
0.0
  11
 1618.0000000001
  21
 947.00000000001
  31
0.0
   0
LINE
   5
186
 100
AcDbEntity
   8
LEVEL001
 370
40
 100
AcDbLine
   6
CONTINUOUS
  62
3
  10
 1268.0000000001
  20
 867.00000000001
  30
0.0
  11
 1618.0000000001
  21
 867.00000000001
  31
0.0
   0
LINE
   5
187
 100
AcDbEntity
   8
LEVEL001
 370
40
 100
AcDbLine
   6
CONTINUOUS
  62
3
  10
 1468.0000000001
  20
 208.00000000001
  30
0.0
  11
 1468.0000000001
  21
 48.000000000009
  31
0.0
   0
LINE
   5
188
 100
AcDbEntity
   8
LEVEL001
 370
40
 100
AcDbLine
   6
CONTINUOUS
  62
3
  10
 1268.0000000001
  20
 288.00000000001
  30
0.0
  11
 1618.0000000001
  21
 288.00000000001
  31
0.0
   0
LINE
   5
189
 100
AcDbEntity
   8
LEVEL001
 370
40
 100
AcDbLine
   6
CONTINUOUS
  62
3
  10
 1268.0000000001
  20
 208.00000000001
  30
0.0
  11
 1618.0000000001
  21
 208.00000000001
  31
0.0
   0
LINE
   5
18A
 100
AcDbEntity
   8
LEVEL001
 370
40
 100
AcDbLine
   6
CONTINUOUS
  62
3
  10
 1268.0000000001
  20
 128.00000000001
  30
0.0
  11
 1618.0000000001
  21
 128.00000000001
  31
0.0
   0
LINE
   5
18B
 100
AcDbEntity
   8
LEVEL001
 370
40
 100
AcDbLine
   6
CONTINUOUS
  62
3
  10
 1468.0000000001
  20
 181.33333333334
  30
0.0
  11
 1618.0000000001
  21
 181.33333333334
  31
0.0
   0
LINE
   5
18C
 100
AcDbEntity
   8
LEVEL001
 370
40
 100
AcDbLine
   6
CONTINUOUS
  62
3
  10
 1468.0000000001
  20
 154.66666666668
  30
0.0
  11
 1618.0000000001
  21
 154.66666666668
  31
0.0
   0
LINE
   5
18D
 100
AcDbEntity
   8
LEVEL001
 370
40
 100
AcDbLine
   6
CONTINUOUS
  62
3
  10
 1409.8800000003
  20
 1087.3400000000
  30
0.0
  11
 1386.8400000003
  21
 1087.3400000000
  31
0.0
   0
LINE
   5
18E
 100
AcDbEntity
   8
LEVEL001
 370
40
 100
AcDbLine
   6
CONTINUOUS
  62
3
  10
 1386.8400000003
  20
 1087.3400000000
  30
0.0
  11
 1386.8400000003
  21
 1052.7800000000
  31
0.0
   0
LINE
   5
18F
 100
AcDbEntity
   8
LEVEL001
 370
40
 100
AcDbLine
   6
CONTINUOUS
  62
3
  10
 1386.8400000003
  20
 1052.7800000000
  30
0.0
  11
 1398.3600000003
  21
 1052.7800000000
  31
0.0
   0
LINE
   5
190
 100
AcDbEntity
   8
LEVEL001
 370
40
 100
AcDbLine
   6
CONTINUOUS
  62
3
  10
 1398.3600000003
  20
 1052.7800000000
  30
0.0
  11
 1398.3600000003
  21
 1058.5400000000
  31
0.0
   0
LINE
   5
191
 100
AcDbEntity
   8
LEVEL001
 370
40
 100
AcDbLine
   6
CONTINUOUS
  62
3
  10
 1398.3600000003
  20
 1058.5400000000
  30
0.0
  11
 1409.8800000003
  21
 1058.5400000000
  31
0.0
   0
ARC
   5
192
 100
AcDbEntity
   8
LEVEL001
 370
40
   6
CONTINUOUS
  62
3
 100
AcDbCircle
  10
 1409.8800000003
  20
 1072.9400000000
  30
0.0
  40
 14.400000000000
 100
AcDbArc
  50
 270.00000000000
  51
 90.000000000000
   0
LINE
   5
193
 100
AcDbEntity
   8
LEVEL001
 370
40
 100
AcDbLine
   6
CONTINUOUS
  62
3
  10
 1398.3600000003
  20
 1070.0600000000
  30
0.0
  11
 1409.8800000003
  21
 1070.0600000000
  31
0.0
   0
ARC
   5
194
 100
AcDbEntity
   8
LEVEL001
 370
40
   6
CONTINUOUS
  62
3
 100
AcDbCircle
  10
 1409.8800000003
  20
 1072.9400000000
  30
0.0
  40
 2.8800000000000
 100
AcDbArc
  50
 270.00000000000
  51
 90.000000000000
   0
LINE
   5
195
 100
AcDbEntity
   8
LEVEL001
 370
40
 100
AcDbLine
   6
CONTINUOUS
  62
3
  10
 1409.8800000003
  20
 1075.8200000000
  30
0.0
  11
 1398.3600000003
  21
 1075.8200000000
  31
0.0
   0
LINE
   5
196
 100
AcDbEntity
   8
LEVEL001
 370
40
 100
AcDbLine
   6
CONTINUOUS
  62
3
  10
 1398.3600000003
  20
 1075.8200000000
  30
0.0
  11
 1398.3600000003
  21
 1070.0600000000
  31
0.0
   0
LINE
   5
197
 100
AcDbEntity
   8
LEVEL001
 370
40
 100
AcDbLine
   6
CONTINUOUS
  62
3
  10
 1415.6400000003
  20
 1052.7800000000
  30
0.0
  11
 1438.6800000003
  21
 1087.3400000000
  31
0.0
   0
LINE
   5
198
 100
AcDbEntity
   8
LEVEL001
 370
40
 100
AcDbLine
   6
CONTINUOUS
  62
3
  10
 1438.6800000003
  20
 1087.3400000000
  30
0.0
  11
 1467.4800000003
  21
 1087.3400000000
  31
0.0
   0
LINE
   5
199
 100
AcDbEntity
   8
LEVEL001
 370
40
 100
AcDbLine
   6
CONTINUOUS
  62
3
  10
 1467.4800000003
  20
 1087.3400000000
  30
0.0
  11
 1467.4800000003
  21
 1064.3000000000
  31
0.0
   0
LINE
   5
19A
 100
AcDbEntity
   8
LEVEL001
 370
40
 100
AcDbLine
   6
CONTINUOUS
  62
3
  10
 1467.4800000003
  20
 1064.3000000000
  30
0.0
  11
 1484.7600000003
  21
 1064.3000000000
  31
0.0
   0
LINE
   5
19B
 100
AcDbEntity
   8
LEVEL001
 370
40
 100
AcDbLine
   6
CONTINUOUS
  62
3
  10
 1484.7600000003
  20
 1064.3000000000
  30
0.0
  11
 1484.7600000003
  21
 1075.8200000000
  31
0.0
   0
LINE
   5
19C
 100
AcDbEntity
   8
LEVEL001
 370
40
 100
AcDbLine
   6
CONTINUOUS
  62
3
  10
 1484.7600000003
  20
 1075.8200000000
  30
0.0
  11
 1473.2400000003
  21
 1075.8200000000
  31
0.0
   0
LINE
   5
19D
 100
AcDbEntity
   8
LEVEL001
 370
40
 100
AcDbLine
   6
CONTINUOUS
  62
3
  10
 1473.2400000003
  20
 1075.8200000000
  30
0.0
  11
 1473.2400000003
  21
 1087.3400000000
  31
0.0
   0
LINE
   5
19E
 100
AcDbEntity
   8
LEVEL001
 370
40
 100
AcDbLine
   6
CONTINUOUS
  62
3
  10
 1473.2400000003
  20
 1087.3400000000
  30
0.0
  11
 1542.3600000003
  21
 1087.3400000000
  31
0.0
   0
LINE
   5
19F
 100
AcDbEntity
   8
LEVEL001
 370
40
 100
AcDbLine
   6
CONTINUOUS
  62
3
  10
 1542.3600000003
  20
 1087.3400000000
  30
0.0
  11
 1542.3600000003
  21
 1075.8200000000
  31
0.0
   0
LINE
   5
1A0
 100
AcDbEntity
   8
LEVEL001
 370
40
 100
AcDbLine
   6
CONTINUOUS
  62
3
  10
 1542.3600000003
  20
 1075.8200000000
  30
0.0
  11
 1519.3200000003
  21
 1075.8200000000
  31
0.0
   0
LINE
   5
1A1
 100
AcDbEntity
   8
LEVEL001
 370
40
 100
AcDbLine
   6
CONTINUOUS
  62
3
  10
 1519.3200000003
  20
 1075.8200000000
  30
0.0
  11
 1519.3200000003
  21
 1072.9400000000
  31
0.0
   0
LINE
   5
1A2
 100
AcDbEntity
   8
LEVEL001
 370
40
 100
AcDbLine
   6
CONTINUOUS
  62
3
  10
 1519.3200000003
  20
 1072.9400000000
  30
0.0
  11
 1539.4800000003
  21
 1072.9400000000
  31
0.0
   0
LINE
   5
1A3
 100
AcDbEntity
   8
LEVEL001
 370
40
 100
AcDbLine
   6
CONTINUOUS
  62
3
  10
 1539.4800000003
  20
 1072.9400000000
  30
0.0
  11
 1539.4800000003
  21
 1067.1800000000
  31
0.0
   0
LINE
   5
1A4
 100
AcDbEntity
   8
LEVEL001
 370
40
 100
AcDbLine
   6
CONTINUOUS
  62
3
  10
 1539.4800000003
  20
 1067.1800000000
  30
0.0
  11
 1519.3200000003
  21
 1067.1800000000
  31
0.0
   0
LINE
   5
1A5
 100
AcDbEntity
   8
LEVEL001
 370
40
 100
AcDbLine
   6
CONTINUOUS
  62
3
  10
 1519.3200000003
  20
 1067.1800000000
  30
0.0
  11
 1519.3200000003
  21
 1064.3000000000
  31
0.0
   0
LINE
   5
1A6
 100
AcDbEntity
   8
LEVEL001
 370
40
 100
AcDbLine
   6
CONTINUOUS
  62
3
  10
 1519.3200000003
  20
 1064.3000000000
  30
0.0
  11
 1542.3600000003
  21
 1064.3000000000
  31
0.0
   0
LINE
   5
1A7
 100
AcDbEntity
   8
LEVEL001
 370
40
 100
AcDbLine
   6
CONTINUOUS
  62
3
  10
 1542.3600000003
  20
 1064.3000000000
  30
0.0
  11
 1542.3600000003
  21
 1052.7800000000
  31
0.0
   0
LINE
   5
1A8
 100
AcDbEntity
   8
LEVEL001
 370
40
 100
AcDbLine
   6
CONTINUOUS
  62
3
  10
 1542.3600000003
  20
 1052.7800000000
  30
0.0
  11
 1507.8000000003
  21
 1052.7800000000
  31
0.0
   0
LINE
   5
1A9
 100
AcDbEntity
   8
LEVEL001
 370
40
 100
AcDbLine
   6
CONTINUOUS
  62
3
  10
 1507.8000000003
  20
 1052.7800000000
  30
0.0
  11
 1507.8000000003
  21
 1075.8200000000
  31
0.0
   0
LINE
   5
1AA
 100
AcDbEntity
   8
LEVEL001
 370
40
 100
AcDbLine
   6
CONTINUOUS
  62
3
  10
 1507.8000000003
  20
 1075.8200000000
  30
0.0
  11
 1496.2800000003
  21
 1075.8200000000
  31
0.0
   0
LINE
   5
1AB
 100
AcDbEntity
   8
LEVEL001
 370
40
 100
AcDbLine
   6
CONTINUOUS
  62
3
  10
 1496.2800000003
  20
 1075.8200000000
  30
0.0
  11
 1496.2800000003
  21
 1052.7800000000
  31
0.0
   0
LINE
   5
1AC
 100
AcDbEntity
   8
LEVEL001
 370
40
 100
AcDbLine
   6
CONTINUOUS
  62
3
  10
 1496.2800000003
  20
 1052.7800000000
  30
0.0
  11
 1455.9600000003
  21
 1052.7800000000
  31
0.0
   0
LINE
   5
1AD
 100
AcDbEntity
   8
LEVEL001
 370
40
 100
AcDbLine
   6
CONTINUOUS
  62
3
  10
 1455.9600000003
  20
 1052.7800000000
  30
0.0
  11
 1455.9600000003
  21
 1087.3400000000
  31
0.0
   0
LINE
   5
1AE
 100
AcDbEntity
   8
LEVEL001
 370
40
 100
AcDbLine
   6
CONTINUOUS
  62
3
  10
 1455.9600000003
  20
 1087.3400000000
  30
0.0
  11
 1432.9200000003
  21
 1052.7800000000
  31
0.0
   0
LINE
   5
1AF
 100
AcDbEntity
   8
LEVEL001
 370
40
 100
AcDbLine
   6
CONTINUOUS
  62
3
  10
 1432.9200000003
  20
 1052.7800000000
  30
0.0
  11
 1415.6400000003
  21
 1052.7800000000
  31
0.0
   0
LINE
   5
1B0
 100
AcDbEntity
   8
LEVEL001
 370
40
 100
AcDbLine
   6
CONTINUOUS
  62
3
  10
 1452.1200000003
  20
 1074.6573415511
  30
0.0
  11
 1437.5351056329
  21
 1052.7800000000
  31
0.0
   0
LINE
   5
1B1
 100
AcDbEntity
   8
LEVEL001
 370
40
 100
AcDbLine
   6
CONTINUOUS
  62
3
  10
 1437.5351056329
  20
 1052.7800000000
  30
0.0
  11
 1452.1200000003
  21
 1052.7800000000
  31
0.0
   0
LINE
   5
1B2
 100
AcDbEntity
   8
LEVEL001
 370
40
 100
AcDbLine
   6
CONTINUOUS
  62
3
  10
 1452.1200000003
  20
 1052.7800000000
  30
0.0
  11
 1452.1200000003
  21
 1074.6573415511
  31
0.0
   0
ARC
   5
1B3
 100
AcDbEntity
   8
LEVEL001
 370
40
   6
CONTINUOUS
  62
3
 100
AcDbCircle
  10
 1559.6400000003
  20
 1070.0600000000
  30
0.0
  40
 17.280000000000
 100
AcDbArc
  50
 90.000000000000
  51
 270.00000000000
   0
ARC
   5
1B4
 100
AcDbEntity
   8
LEVEL001
 370
40
   6
CONTINUOUS
  62
3
 100
AcDbCircle
  10
 1559.6400000003
  20
 1070.0600000000
  30
0.0
  40
 5.7600000000000
 100
AcDbArc
  50
 90.000000000000
  51
 270.00000000000
   0
LINE
   5
1B5
 100
AcDbEntity
   8
LEVEL001
 370
40
 100
AcDbLine
   6
CONTINUOUS
  62
3
  10
 1559.6400000003
  20
 1087.3400000000
  30
0.0
  11
 1576.9200000003
  21
 1087.3400000000
  31
0.0
   0
LINE
   5
1B6
 100
AcDbEntity
   8
LEVEL001
 370
40
 100
AcDbLine
   6
CONTINUOUS
  62
3
  10
 1576.9200000003
  20
 1087.3400000000
  30
0.0
  11
 1576.9200000003
  21
 1075.8200000000
  31
0.0
   0
LINE
   5
1B7
 100
AcDbEntity
   8
LEVEL001
 370
40
 100
AcDbLine
   6
CONTINUOUS
  62
3
  10
 1576.9200000003
  20
 1075.8200000000
  30
0.0
  11
 1559.6400000003
  21
 1075.8200000000
  31
0.0
   0
LINE
   5
1B8
 100
AcDbEntity
   8
LEVEL001
 370
40
 100
AcDbLine
   6
CONTINUOUS
  62
3
  10
 1386.8400000003
  20
 1087.3400000000
  30
0.0
  11
 1386.8400000003
  21
 1052.7800000000
  31
0.0
   0
LINE
   5
1B9
 100
AcDbEntity
   8
LEVEL001
 370
40
 100
AcDbLine
   6
CONTINUOUS
  62
3
  10
 1386.8400000003
  20
 1052.7800000000
  30
0.0
  11
 1398.3600000003
  21
 1052.7800000000
  31
0.0
   0
LINE
   5
1BA
 100
AcDbEntity
   8
LEVEL001
 370
40
 100
AcDbLine
   6
CONTINUOUS
  62
3
  10
 1398.3600000003
  20
 1052.7800000000
  30
0.0
  11
 1398.3600000003
  21
 1058.5400000000
  31
0.0
   0
LINE
   5
1BB
 100
AcDbEntity
   8
LEVEL001
 370
40
 100
AcDbLine
   6
CONTINUOUS
  62
3
  10
 1398.3600000003
  20
 1058.5400000000
  30
0.0
  11
 1409.8800000003
  21
 1058.5400000000
  31
0.0
   0
ARC
   5
1BC
 100
AcDbEntity
   8
LEVEL001
 370
40
   6
CONTINUOUS
  62
3
 100
AcDbCircle
  10
 1409.8800000003
  20
 1072.9400000000
  30
0.0
  40
 14.400000000000
 100
AcDbArc
  50
 270.00000000000
  51
 90.000000000000
   0
LINE
   5
1BD
 100
AcDbEntity
   8
LEVEL001
 370
40
 100
AcDbLine
   6
CONTINUOUS
  62
3
  10
 1409.8800000003
  20
 1087.3400000000
  30
0.0
  11
 1386.8400000003
  21
 1087.3400000000
  31
0.0
   0
LINE
   5
1BE
 100
AcDbEntity
   8
LEVEL001
 370
40
 100
AcDbLine
   6
CONTINUOUS
  62
3
  10
 1398.3600000003
  20
 1075.8200000000
  30
0.0
  11
 1398.3600000003
  21
 1070.0600000000
  31
0.0
   0
LINE
   5
1BF
 100
AcDbEntity
   8
LEVEL001
 370
40
 100
AcDbLine
   6
CONTINUOUS
  62
3
  10
 1398.3600000003
  20
 1070.0600000000
  30
0.0
  11
 1409.8800000003
  21
 1070.0600000000
  31
0.0
   0
ARC
   5
1C0
 100
AcDbEntity
   8
LEVEL001
 370
40
   6
CONTINUOUS
  62
3
 100
AcDbCircle
  10
 1409.8800000003
  20
 1072.9400000000
  30
0.0
  40
 2.8800000000000
 100
AcDbArc
  50
 270.00000000000
  51
 90.000000000000
   0
LINE
   5
1C1
 100
AcDbEntity
   8
LEVEL001
 370
40
 100
AcDbLine
   6
CONTINUOUS
  62
3
  10
 1409.8800000003
  20
 1075.8200000000
  30
0.0
  11
 1398.3600000003
  21
 1075.8200000000
  31
0.0
   0
LINE
   5
1C2
 100
AcDbEntity
   8
LEVEL001
 370
40
 100
AcDbLine
   6
CONTINUOUS
  62
3
  10
 1438.6800000003
  20
 1087.3400000000
  30
0.0
  11
 1415.6400000003
  21
 1052.7800000000
  31
0.0
   0
LINE
   5
1C3
 100
AcDbEntity
   8
LEVEL001
 370
40
 100
AcDbLine
   6
CONTINUOUS
  62
3
  10
 1415.6400000003
  20
 1052.7800000000
  30
0.0
  11
 1432.9200000003
  21
 1052.7800000000
  31
0.0
   0
LINE
   5
1C4
 100
AcDbEntity
   8
LEVEL001
 370
40
 100
AcDbLine
   6
CONTINUOUS
  62
3
  10
 1432.9200000003
  20
 1052.7800000000
  30
0.0
  11
 1455.9600000003
  21
 1087.3400000000
  31
0.0
   0
LINE
   5
1C5
 100
AcDbEntity
   8
LEVEL001
 370
40
 100
AcDbLine
   6
CONTINUOUS
  62
3
  10
 1455.9600000003
  20
 1087.3400000000
  30
0.0
  11
 1438.6800000003
  21
 1087.3400000000
  31
0.0
   0
LINE
   5
1C6
 100
AcDbEntity
   8
LEVEL001
 370
40
 100
AcDbLine
   6
CONTINUOUS
  62
3
  10
 1452.1200000003
  20
 1052.7800000000
  30
0.0
  11
 1452.1200000003
  21
 1074.6573415511
  31
0.0
   0
LINE
   5
1C7
 100
AcDbEntity
   8
LEVEL001
 370
40
 100
AcDbLine
   6
CONTINUOUS
  62
3
  10
 1452.1200000003
  20
 1074.6573415511
  30
0.0
  11
 1437.5351056329
  21
 1052.7800000000
  31
0.0
   0
LINE
   5
1C8
 100
AcDbEntity
   8
LEVEL001
 370
40
 100
AcDbLine
   6
CONTINUOUS
  62
3
  10
 1437.5351056329
  20
 1052.7800000000
  30
0.0
  11
 1452.1200000003
  21
 1052.7800000000
  31
0.0
   0
LINE
   5
1C9
 100
AcDbEntity
   8
LEVEL001
 370
40
 100
AcDbLine
   6
CONTINUOUS
  62
3
  10
 1455.9600000003
  20
 1052.7800000000
  30
0.0
  11
 1496.2800000003
  21
 1052.7800000000
  31
0.0
   0
LINE
   5
1CA
 100
AcDbEntity
   8
LEVEL001
 370
40
 100
AcDbLine
   6
CONTINUOUS
  62
3
  10
 1496.2800000003
  20
 1052.7800000000
  30
0.0
  11
 1496.2800000003
  21
 1075.8200000000
  31
0.0
   0
LINE
   5
1CB
 100
AcDbEntity
   8
LEVEL001
 370
40
 100
AcDbLine
   6
CONTINUOUS
  62
3
  10
 1496.2800000003
  20
 1075.8200000000
  30
0.0
  11
 1507.8000000003
  21
 1075.8200000000
  31
0.0
   0
LINE
   5
1CC
 100
AcDbEntity
   8
LEVEL001
 370
40
 100
AcDbLine
   6
CONTINUOUS
  62
3
  10
 1507.8000000003
  20
 1075.8200000000
  30
0.0
  11
 1507.8000000003
  21
 1052.7800000000
  31
0.0
   0
LINE
   5
1CD
 100
AcDbEntity
   8
LEVEL001
 370
40
 100
AcDbLine
   6
CONTINUOUS
  62
3
  10
 1507.8000000003
  20
 1052.7800000000
  30
0.0
  11
 1542.3600000003
  21
 1052.7800000000
  31
0.0
   0
LINE
   5
1CE
 100
AcDbEntity
   8
LEVEL001
 370
40
 100
AcDbLine
   6
CONTINUOUS
  62
3
  10
 1542.3600000003
  20
 1052.7800000000
  30
0.0
  11
 1542.3600000003
  21
 1064.3000000000
  31
0.0
   0
LINE
   5
1CF
 100
AcDbEntity
   8
LEVEL001
 370
40
 100
AcDbLine
   6
CONTINUOUS
  62
3
  10
 1542.3600000003
  20
 1064.3000000000
  30
0.0
  11
 1519.3200000003
  21
 1064.3000000000
  31
0.0
   0
LINE
   5
1D0
 100
AcDbEntity
   8
LEVEL001
 370
40
 100
AcDbLine
   6
CONTINUOUS
  62
3
  10
 1519.3200000003
  20
 1064.3000000000
  30
0.0
  11
 1519.3200000003
  21
 1067.1800000000
  31
0.0
   0
LINE
   5
1D1
 100
AcDbEntity
   8
LEVEL001
 370
40
 100
AcDbLine
   6
CONTINUOUS
  62
3
  10
 1519.3200000003
  20
 1067.1800000000
  30
0.0
  11
 1539.4800000003
  21
 1067.1800000000
  31
0.0
   0
LINE
   5
1D2
 100
AcDbEntity
   8
LEVEL001
 370
40
 100
AcDbLine
   6
CONTINUOUS
  62
3
  10
 1539.4800000003
  20
 1067.1800000000
  30
0.0
  11
 1539.4800000003
  21
 1072.9400000000
  31
0.0
   0
LINE
   5
1D3
 100
AcDbEntity
   8
LEVEL001
 370
40
 100
AcDbLine
   6
CONTINUOUS
  62
3
  10
 1539.4800000003
  20
 1072.9400000000
  30
0.0
  11
 1519.3200000003
  21
 1072.9400000000
  31
0.0
   0
LINE
   5
1D4
 100
AcDbEntity
   8
LEVEL001
 370
40
 100
AcDbLine
   6
CONTINUOUS
  62
3
  10
 1519.3200000003
  20
 1072.9400000000
  30
0.0
  11
 1519.3200000003
  21
 1075.8200000000
  31
0.0
   0
LINE
   5
1D5
 100
AcDbEntity
   8
LEVEL001
 370
40
 100
AcDbLine
   6
CONTINUOUS
  62
3
  10
 1519.3200000003
  20
 1075.8200000000
  30
0.0
  11
 1542.3600000003
  21
 1075.8200000000
  31
0.0
   0
LINE
   5
1D6
 100
AcDbEntity
   8
LEVEL001
 370
40
 100
AcDbLine
   6
CONTINUOUS
  62
3
  10
 1542.3600000003
  20
 1075.8200000000
  30
0.0
  11
 1542.3600000003
  21
 1087.3400000000
  31
0.0
   0
LINE
   5
1D7
 100
AcDbEntity
   8
LEVEL001
 370
40
 100
AcDbLine
   6
CONTINUOUS
  62
3
  10
 1542.3600000003
  20
 1087.3400000000
  30
0.0
  11
 1473.2400000003
  21
 1087.3400000000
  31
0.0
   0
LINE
   5
1D8
 100
AcDbEntity
   8
LEVEL001
 370
40
 100
AcDbLine
   6
CONTINUOUS
  62
3
  10
 1473.2400000003
  20
 1087.3400000000
  30
0.0
  11
 1473.2400000003
  21
 1075.8200000000
  31
0.0
   0
LINE
   5
1D9
 100
AcDbEntity
   8
LEVEL001
 370
40
 100
AcDbLine
   6
CONTINUOUS
  62
3
  10
 1473.2400000003
  20
 1075.8200000000
  30
0.0
  11
 1484.7600000003
  21
 1075.8200000000
  31
0.0
   0
LINE
   5
1DA
 100
AcDbEntity
   8
LEVEL001
 370
40
 100
AcDbLine
   6
CONTINUOUS
  62
3
  10
 1484.7600000003
  20
 1075.8200000000
  30
0.0
  11
 1484.7600000003
  21
 1064.3000000000
  31
0.0
   0
LINE
   5
1DB
 100
AcDbEntity
   8
LEVEL001
 370
40
 100
AcDbLine
   6
CONTINUOUS
  62
3
  10
 1484.7600000003
  20
 1064.3000000000
  30
0.0
  11
 1467.4800000003
  21
 1064.3000000000
  31
0.0
   0
LINE
   5
1DC
 100
AcDbEntity
   8
LEVEL001
 370
40
 100
AcDbLine
   6
CONTINUOUS
  62
3
  10
 1467.4800000003
  20
 1064.3000000000
  30
0.0
  11
 1467.4800000003
  21
 1087.3400000000
  31
0.0
   0
LINE
   5
1DD
 100
AcDbEntity
   8
LEVEL001
 370
40
 100
AcDbLine
   6
CONTINUOUS
  62
3
  10
 1467.4800000003
  20
 1087.3400000000
  30
0.0
  11
 1455.9600000003
  21
 1087.3400000000
  31
0.0
   0
LINE
   5
1DE
 100
AcDbEntity
   8
LEVEL001
 370
40
 100
AcDbLine
   6
CONTINUOUS
  62
3
  10
 1455.9600000003
  20
 1087.3400000000
  30
0.0
  11
 1455.9600000003
  21
 1052.7800000000
  31
0.0
   0
LINE
   5
1DF
 100
AcDbEntity
   8
LEVEL001
 370
40
 100
AcDbLine
   6
CONTINUOUS
  62
3
  10
 1559.6400000003
  20
 1052.7800000000
  30
0.0
  11
 1576.9200000003
  21
 1052.7800000000
  31
0.0
   0
LINE
   5
1E0
 100
AcDbEntity
   8
LEVEL001
 370
40
 100
AcDbLine
   6
CONTINUOUS
  62
3
  10
 1576.9200000003
  20
 1052.7800000000
  30
0.0
  11
 1576.9200000003
  21
 1064.3000000000
  31
0.0
   0
LINE
   5
1E1
 100
AcDbEntity
   8
LEVEL001
 370
40
 100
AcDbLine
   6
CONTINUOUS
  62
3
  10
 1576.9200000003
  20
 1064.3000000000
  30
0.0
  11
 1559.6400000003
  21
 1064.3000000000
  31
0.0
   0
ARC
   5
1E2
 100
AcDbEntity
   8
LEVEL001
 370
40
   6
CONTINUOUS
  62
3
 100
AcDbCircle
  10
 1559.6400000003
  20
 1070.0600000000
  30
0.0
  40
 5.7600000000000
 100
AcDbArc
  50
 90.000000000000
  51
 270.00000000000
   0
LINE
   5
1E3
 100
AcDbEntity
   8
LEVEL001
 370
40
 100
AcDbLine
   6
CONTINUOUS
  62
3
  10
 1559.6400000003
  20
 1075.8200000000
  30
0.0
  11
 1576.9200000003
  21
 1075.8200000000
  31
0.0
   0
LINE
   5
1E4
 100
AcDbEntity
   8
LEVEL001
 370
40
 100
AcDbLine
   6
CONTINUOUS
  62
3
  10
 1576.9200000003
  20
 1075.8200000000
  30
0.0
  11
 1576.9200000003
  21
 1087.3400000000
  31
0.0
   0
LINE
   5
1E5
 100
AcDbEntity
   8
LEVEL001
 370
40
 100
AcDbLine
   6
CONTINUOUS
  62
3
  10
 1576.9200000003
  20
 1087.3400000000
  30
0.0
  11
 1559.6400000003
  21
 1087.3400000000
  31
0.0
   0
ARC
   5
1E6
 100
AcDbEntity
   8
LEVEL001
 370
40
   6
CONTINUOUS
  62
3
 100
AcDbCircle
  10
 1559.6400000003
  20
 1070.0600000000
  30
0.0
  40
 17.280000000000
 100
AcDbArc
  50
 90.000000000000
  51
 270.00000000000
   0
LINE
   5
1E7
 100
AcDbEntity
   8
LEVEL001
 370
40
 100
AcDbLine
   6
CONTINUOUS
  62
3
  10
 1375.3200000003
  20
 1060.4600000000
  30
0.0
  11
 1360.9200000003
  21
 1083.5000000000
  31
0.0
   0
LINE
   5
1E8
 100
AcDbEntity
   8
LEVEL001
 370
40
 100
AcDbLine
   6
CONTINUOUS
  62
3
  10
 1360.9200000003
  20
 1083.5000000000
  30
0.0
  11
 1375.3200000003
  21
 1083.5000000000
  31
0.0
   0
LINE
   5
1E9
 100
AcDbEntity
   8
LEVEL001
 370
40
 100
AcDbLine
   6
CONTINUOUS
  62
3
  10
 1375.3200000003
  20
 1083.5000000000
  30
0.0
  11
 1375.3200000003
  21
 1060.4600000000
  31
0.0
   0
LINE
   5
1EA
 100
AcDbEntity
   8
LEVEL001
 370
40
 100
AcDbLine
   6
CONTINUOUS
  62
3
  10
 1360.9200000003
  20
 1083.5000000000
  30
0.0
  11
 1375.3200000003
  21
 1060.4600000000
  31
0.0
   0
LINE
   5
1EB
 100
AcDbEntity
   8
LEVEL001
 370
40
 100
AcDbLine
   6
CONTINUOUS
  62
3
  10
 1375.3200000003
  20
 1060.4600000000
  30
0.0
  11
 1375.3200000003
  21
 1083.5000000000
  31
0.0
   0
LINE
   5
1EC
 100
AcDbEntity
   8
LEVEL001
 370
40
 100
AcDbLine
   6
CONTINUOUS
  62
3
  10
 1375.3200000003
  20
 1083.5000000000
  30
0.0
  11
 1360.9200000003
  21
 1083.5000000000
  31
0.0
   0
LINE
   5
1ED
 100
AcDbEntity
   8
LEVEL001
 370
40
 100
AcDbLine
   6
CONTINUOUS
  62
3
  10
 1329.5600000003
  20
 1114.2200000000
  30
0.0
  11
 1309.0800000003
  21
 1083.5000000000
  31
0.0
   0
LINE
   5
1EE
 100
AcDbEntity
   8
LEVEL001
 370
40
 100
AcDbLine
   6
CONTINUOUS
  62
3
  10
 1309.0800000003
  20
 1083.5000000000
  30
0.0
  11
 1329.5600000003
  21
 1052.7800000000
  31
0.0
   0
LINE
   5
1EF
 100
AcDbEntity
   8
LEVEL001
 370
40
 100
AcDbLine
   6
CONTINUOUS
  62
3
  10
 1346.8400000003
  20
 1052.7800000000
  30
0.0
  11
 1326.3600000003
  21
 1083.5000000000
  31
0.0
   0
LINE
   5
1F0
 100
AcDbEntity
   8
LEVEL001
 370
40
 100
AcDbLine
   6
CONTINUOUS
  62
3
  10
 1326.3600000003
  20
 1083.5000000000
  30
0.0
  11
 1346.8400000003
  21
 1114.2200000000
  31
0.0
   0
LINE
   5
1F1
 100
AcDbEntity
   8
LEVEL001
 370
40
 100
AcDbLine
   6
CONTINUOUS
  62
3
  10
 1355.4800000003
  20
 1114.2200000000
  30
0.0
  11
 1335.0000000003
  21
 1083.5000000000
  31
0.0
   0
LINE
   5
1F2
 100
AcDbEntity
   8
LEVEL001
 370
40
 100
AcDbLine
   6
CONTINUOUS
  62
3
  10
 1335.0000000003
  20
 1083.5000000000
  30
0.0
  11
 1355.4800000003
  21
 1052.7800000000
  31
0.0
   0
LINE
   5
1F3
 100
AcDbEntity
   8
LEVEL001
 370
40
 100
AcDbLine
   6
CONTINUOUS
  62
3
  10
 1372.7600000003
  20
 1052.7800000000
  30
0.0
  11
 1352.2800000003
  21
 1083.5000000000
  31
0.0
   0
LINE
   5
1F4
 100
AcDbEntity
   8
LEVEL001
 370
40
 100
AcDbLine
   6
CONTINUOUS
  62
3
  10
 1352.2800000003
  20
 1083.5000000000
  30
0.0
  11
 1372.7600000003
  21
 1114.2200000000
  31
0.0
   0
LINE
   5
1F5
 100
AcDbEntity
   8
LEVEL001
 370
40
 100
AcDbLine
   6
CONTINUOUS
  62
3
  10
 1329.5600000003
  20
 1052.7800000000
  30
0.0
  11
 1309.0800000003
  21
 1083.5000000000
  31
0.0
   0
LINE
   5
1F6
 100
AcDbEntity
   8
LEVEL001
 370
40
 100
AcDbLine
   6
CONTINUOUS
  62
3
  10
 1309.0800000003
  20
 1083.5000000000
  30
0.0
  11
 1329.5600000003
  21
 1114.2200000000
  31
0.0
   0
LINE
   5
1F7
 100
AcDbEntity
   8
LEVEL001
 370
40
 100
AcDbLine
   6
CONTINUOUS
  62
3
  10
 1329.5600000003
  20
 1114.2200000000
  30
0.0
  11
 1346.8400000003
  21
 1114.2200000000
  31
0.0
   0
LINE
   5
1F8
 100
AcDbEntity
   8
LEVEL001
 370
40
 100
AcDbLine
   6
CONTINUOUS
  62
3
  10
 1346.8400000003
  20
 1114.2200000000
  30
0.0
  11
 1326.3600000003
  21
 1083.5000000000
  31
0.0
   0
LINE
   5
1F9
 100
AcDbEntity
   8
LEVEL001
 370
40
 100
AcDbLine
   6
CONTINUOUS
  62
3
  10
 1326.3600000003
  20
 1083.5000000000
  30
0.0
  11
 1346.8400000003
  21
 1052.7800000000
  31
0.0
   0
LINE
   5
1FA
 100
AcDbEntity
   8
LEVEL001
 370
40
 100
AcDbLine
   6
CONTINUOUS
  62
3
  10
 1346.8400000003
  20
 1052.7800000000
  30
0.0
  11
 1329.5600000003
  21
 1052.7800000000
  31
0.0
   0
LINE
   5
1FB
 100
AcDbEntity
   8
LEVEL001
 370
40
 100
AcDbLine
   6
CONTINUOUS
  62
3
  10
 1355.4800000003
  20
 1052.7800000000
  30
0.0
  11
 1335.0000000003
  21
 1083.5000000000
  31
0.0
   0
LINE
   5
1FC
 100
AcDbEntity
   8
LEVEL001
 370
40
 100
AcDbLine
   6
CONTINUOUS
  62
3
  10
 1335.0000000003
  20
 1083.5000000000
  30
0.0
  11
 1355.4800000003
  21
 1114.2200000000
  31
0.0
   0
LINE
   5
1FD
 100
AcDbEntity
   8
LEVEL001
 370
40
 100
AcDbLine
   6
CONTINUOUS
  62
3
  10
 1355.4800000003
  20
 1114.2200000000
  30
0.0
  11
 1372.7600000003
  21
 1114.2200000000
  31
0.0
   0
LINE
   5
1FE
 100
AcDbEntity
   8
LEVEL001
 370
40
 100
AcDbLine
   6
CONTINUOUS
  62
3
  10
 1372.7600000003
  20
 1114.2200000000
  30
0.0
  11
 1352.2800000003
  21
 1083.5000000000
  31
0.0
   0
LINE
   5
1FF
 100
AcDbEntity
   8
LEVEL001
 370
40
 100
AcDbLine
   6
CONTINUOUS
  62
3
  10
 1352.2800000003
  20
 1083.5000000000
  30
0.0
  11
 1372.7600000003
  21
 1052.7800000000
  31
0.0
   0
LINE
   5
200
 100
AcDbEntity
   8
LEVEL001
 370
40
 100
AcDbLine
   6
CONTINUOUS
  62
3
  10
 1372.7600000003
  20
 1052.7800000000
  30
0.0
  11
 1355.4800000003
  21
 1052.7800000000
  31
0.0
   0
LINE
   5
201
 100
AcDbEntity
   8
LEVEL001
 370
40
 100
AcDbLine
   6
CONTINUOUS
  62
3
  10
 1268.0000000001
  20
 333.38360969059
  30
0.0
  11
 1618.0000000001
  21
 333.38360969059
  31
0.0
   0
HATCH
   5
202
 100
AcDbEntity
   8
0
  62
1
 100
AcDbHatch
  10
0.0
  20
0.0
  30
0.0
 210
0.0
 220
0.0
 230
 1.0000000000000
   2
SOLID
  70
1
  71
1
  91
1
  92
1
  93
6
  72
1
  10
 1326.3600000003
  20
 1083.5000000000
  11
 1346.8400000003
  21
 1052.7800000000
  72
1
  10
 1346.8400000003
  20
 1052.7800000000
  11
 1329.5600000003
  21
 1052.7800000000
  72
1
  10
 1329.5600000003
  20
 1052.7800000000
  11
 1309.0800000003
  21
 1083.5000000000
  72
1
  10
 1309.0800000003
  20
 1083.5000000000
  11
 1329.5600000003
  21
 1114.2200000000
  72
1
  10
 1329.5600000003
  20
 1114.2200000000
  11
 1346.8400000003
  21
 1114.2200000000
  72
1
  10
 1346.8400000003
  20
 1114.2200000000
  11
 1326.3600000003
  21
 1083.5000000000
  97
1
 330

  75
0
  76
1
  98
1
  10
0.0
  20
0.0
   0
HATCH
   5
203
 100
AcDbEntity
   8
0
  62
1
 100
AcDbHatch
  10
0.0
  20
0.0
  30
0.0
 210
0.0
 220
0.0
 230
 1.0000000000000
   2
SOLID
  70
1
  71
1
  91
1
  92
1
  93
6
  72
1
  10
 1355.4800000003
  20
 1114.2200000000
  11
 1372.7600000003
  21
 1114.2200000000
  72
1
  10
 1372.7600000003
  20
 1114.2200000000
  11
 1352.2800000003
  21
 1083.5000000000
  72
1
  10
 1352.2800000003
  20
 1083.5000000000
  11
 1372.7600000003
  21
 1052.7800000000
  72
1
  10
 1372.7600000003
  20
 1052.7800000000
  11
 1355.4800000003
  21
 1052.7800000000
  72
1
  10
 1355.4800000003
  20
 1052.7800000000
  11
 1335.0000000003
  21
 1083.5000000000
  72
1
  10
 1335.0000000003
  20
 1083.5000000000
  11
 1355.4800000003
  21
 1114.2200000000
  97
1
 330

  75
0
  76
1
  98
1
  10
0.0
  20
0.0
   0
HATCH
   5
204
 100
AcDbEntity
   8
0
  62
1
 100
AcDbHatch
  10
0.0
  20
0.0
  30
0.0
 210
0.0
 220
0.0
 230
 1.0000000000000
   2
SOLID
  70
1
  71
1
  91
1
  92
1
  93
3
  72
1
  10
 1360.9200000003
  20
 1083.5000000000
  11
 1375.3200000003
  21
 1083.5000000000
  72
1
  10
 1375.3200000003
  20
 1083.5000000000
  11
 1375.3200000003
  21
 1060.4600000000
  72
1
  10
 1375.3200000003
  20
 1060.4600000000
  11
 1360.9200000003
  21
 1083.5000000000
  97
1
 330

  75
0
  76
1
  98
1
  10
0.0
  20
0.0
   0
HATCH
   5
205
 100
AcDbEntity
   8
0
  62
1
 100
AcDbHatch
  10
0.0
  20
0.0
  30
0.0
 210
0.0
 220
0.0
 230
 1.0000000000000
   2
SOLID
  70
1
  71
1
  91
2
  92
1
  93
6
  72
2
  10
 1409.8800000003
  20
 1072.9400000000
  40
 14.400000000000
  50
 270.00000000000
  51
 90.000000000000
  73
0
  72
1
  10
 1409.8800000003
  20
 1058.5400000000
  11
 1398.3600000003
  21
 1058.5400000000
  72
1
  10
 1398.3600000003
  20
 1058.5400000000
  11
 1398.3600000003
  21
 1052.7800000000
  72
1
  10
 1398.3600000003
  20
 1052.7800000000
  11
 1386.8400000003
  21
 1052.7800000000
  72
1
  10
 1386.8400000003
  20
 1052.7800000000
  11
 1386.8400000003
  21
 1087.3400000000
  72
1
  10
 1386.8400000003
  20
 1087.3400000000
  11
 1409.8800000003
  21
 1087.3400000000
  97
1
 330

  92
16
  93
4
  72
2
  10
 1409.8800000003
  20
 1072.9400000000
  40
 2.8800000000000
  50
 270.00000000000
  51
 90.000000000000
  73
1
  72
1
  10
 1409.8800000003
  20
 1075.8200000000
  11
 1398.3600000003
  21
 1075.8200000000
  72
1
  10
 1398.3600000003
  20
 1075.8200000000
  11
 1398.3600000003
  21
 1070.0600000000
  72
1
  10
 1398.3600000003
  20
 1070.0600000000
  11
 1409.8800000003
  21
 1070.0600000000
  97
1
 330

  75
0
  76
1
  98
1
  10
0.0
  20
0.0
   0
HATCH
   5
206
 100
AcDbEntity
   8
0
  62
1
 100
AcDbHatch
  10
0.0
  20
0.0
  30
0.0
 210
0.0
 220
0.0
 230
 1.0000000000000
   2
SOLID
  70
1
  71
1
  91
1
  92
1
  93
4
  72
1
  10
 1438.6800000003
  20
 1087.3400000000
  11
 1455.9600000003
  21
 1087.3400000000
  72
1
  10
 1455.9600000003
  20
 1087.3400000000
  11
 1432.9200000003
  21
 1052.7800000000
  72
1
  10
 1432.9200000003
  20
 1052.7800000000
  11
 1415.6400000003
  21
 1052.7800000000
  72
1
  10
 1415.6400000003
  20
 1052.7800000000
  11
 1438.6800000003
  21
 1087.3400000000
  97
1
 330

  75
0
  76
1
  98
1
  10
0.0
  20
0.0
   0
HATCH
   5
207
 100
AcDbEntity
   8
0
  62
1
 100
AcDbHatch
  10
0.0
  20
0.0
  30
0.0
 210
0.0
 220
0.0
 230
 1.0000000000000
   2
SOLID
  70
1
  71
1
  91
1
  92
1
  93
3
  72
1
  10
 1437.5351056329
  20
 1052.7800000000
  11
 1452.1200000003
  21
 1074.6573415511
  72
1
  10
 1452.1200000003
  20
 1074.6573415511
  11
 1452.1200000003
  21
 1052.7800000000
  72
1
  10
 1452.1200000003
  20
 1052.7800000000
  11
 1437.5351056329
  21
 1052.7800000000
  97
1
 330

  75
0
  76
1
  98
1
  10
0.0
  20
0.0
   0
HATCH
   5
208
 100
AcDbEntity
   8
0
  62
1
 100
AcDbHatch
  10
0.0
  20
0.0
  30
0.0
 210
0.0
 220
0.0
 230
 1.0000000000000
   2
SOLID
  70
1
  71
1
  91
1
  92
1
  93
22
  72
1
  10
 1519.3200000003
  20
 1064.3000000000
  11
 1542.3600000003
  21
 1064.3000000000
  72
1
  10
 1542.3600000003
  20
 1064.3000000000
  11
 1542.3600000003
  21
 1052.7800000000
  72
1
  10
 1542.3600000003
  20
 1052.7800000000
  11
 1507.8000000003
  21
 1052.7800000000
  72
1
  10
 1507.8000000003
  20
 1052.7800000000
  11
 1507.8000000003
  21
 1075.8200000000
  72
1
  10
 1507.8000000003
  20
 1075.8200000000
  11
 1496.2800000003
  21
 1075.8200000000
  72
1
  10
 1496.2800000003
  20
 1075.8200000000
  11
 1496.2800000003
  21
 1052.7800000000
  72
1
  10
 1496.2800000003
  20
 1052.7800000000
  11
 1455.9600000003
  21
 1052.7800000000
  72
1
  10
 1455.9600000003
  20
 1052.7800000000
  11
 1455.9600000003
  21
 1087.3400000000
  72
1
  10
 1455.9600000003
  20
 1087.3400000000
  11
 1467.4800000003
  21
 1087.3400000000
  72
1
  10
 1467.4800000003
  20
 1087.3400000000
  11
 1467.4800000003
  21
 1064.3000000000
  72
1
  10
 1467.4800000003
  20
 1064.3000000000
  11
 1484.7600000003
  21
 1064.3000000000
  72
1
  10
 1484.7600000003
  20
 1064.3000000000
  11
 1484.7600000003
  21
 1075.8200000000
  72
1
  10
 1484.7600000003
  20
 1075.8200000000
  11
 1473.2400000003
  21
 1075.8200000000
  72
1
  10
 1473.2400000003
  20
 1075.8200000000
  11
 1473.2400000003
  21
 1087.3400000000
  72
1
  10
 1473.2400000003
  20
 1087.3400000000
  11
 1542.3600000003
  21
 1087.3400000000
  72
1
  10
 1542.3600000003
  20
 1087.3400000000
  11
 1542.3600000003
  21
 1075.8200000000
  72
1
  10
 1542.3600000003
  20
 1075.8200000000
  11
 1519.3200000003
  21
 1075.8200000000
  72
1
  10
 1519.3200000003
  20
 1075.8200000000
  11
 1519.3200000003
  21
 1072.9400000000
  72
1
  10
 1519.3200000003
  20
 1072.9400000000
  11
 1539.4800000003
  21
 1072.9400000000
  72
1
  10
 1539.4800000003
  20
 1072.9400000000
  11
 1539.4800000003
  21
 1067.1800000000
  72
1
  10
 1539.4800000003
  20
 1067.1800000000
  11
 1519.3200000003
  21
 1067.1800000000
  72
1
  10
 1519.3200000003
  20
 1067.1800000000
  11
 1519.3200000003
  21
 1064.3000000000
  97
1
 330

  75
0
  76
1
  98
1
  10
0.0
  20
0.0
   0
HATCH
   5
209
 100
AcDbEntity
   8
0
  62
1
 100
AcDbHatch
  10
0.0
  20
0.0
  30
0.0
 210
0.0
 220
0.0
 230
 1.0000000000000
   2
SOLID
  70
1
  71
1
  91
1
  92
1
  93
8
  72
1
  10
 1559.6400000003
  20
 1087.3400000000
  11
 1576.9200000003
  21
 1087.3400000000
  72
1
  10
 1576.9200000003
  20
 1087.3400000000
  11
 1576.9200000003
  21
 1075.8200000000
  72
1
  10
 1576.9200000003
  20
 1075.8200000000
  11
 1559.6400000003
  21
 1075.8200000000
  72
2
  10
 1559.6400000003
  20
 1070.0600000000
  40
 5.7600000000000
  50
 90.000000000000
  51
 270.00000000000
  73
1
  72
1
  10
 1559.6400000003
  20
 1064.3000000000
  11
 1576.9200000003
  21
 1064.3000000000
  72
1
  10
 1576.9200000003
  20
 1064.3000000000
  11
 1576.9200000003
  21
 1052.7800000000
  72
1
  10
 1576.9200000003
  20
 1052.7800000000
  11
 1559.6400000003
  21
 1052.7800000000
  72
2
  10
 1559.6400000003
  20
 1070.0600000000
  40
 17.280000000000
  50
 90.000000000000
  51
 270.00000000000
  73
0
  97
1
 330

  75
0
  76
1
  98
1
  10
0.0
  20
0.0
   0
LINE
   5
20A
 100
AcDbEntity
   8
LEVEL001
 370
50
 100
AcDbLine
   6
CONTINUOUS
  62
4
  10
 1268.0000000001
  20
 1140.0000000000
  30
0.0
  11
 1268.0000000001
  21
 48.000000000020
  31
0.0
   0
LINE
   5
20B
 100
AcDbEntity
   8
LEVEL001
 370
50
 100
AcDbLine
   6
CONTINUOUS
  62
4
  10
 1268.0000000001
  20
 1140.0000000000
  30
0.0
  11
 1268.0000000001
  21
 48.000000000009
  31
0.0
   0
LINE
   5
20C
 100
AcDbEntity
   8
LEVEL001
 370
50
 100
AcDbLine
   6
CONTINUOUS
  62
4
  10
 1618.0000000001
  20
 48.000000000009
  30
0.0
  11
 1618.0000000001
  21
 1140.0000000000
  31
0.0
   0
LINE
   5
20D
 100
AcDbEntity
   8
LEVEL001
 370
50
 100
AcDbLine
   6
CONTINUOUS
  62
4
  10
 1618.0000000001
  20
 1140.0000000000
  30
0.0
  11
 62.000000000102
  21
 1140.0000000000
  31
0.0
   0
LINE
   5
20E
 100
AcDbEntity
   8
LEVEL001
 370
50
 100
AcDbLine
   6
CONTINUOUS
  62
4
  10
 62.000000000102
  20
 1140.0000000000
  30
0.0
  11
 62.000000000102
  21
 48.000000000020
  31
0.0
   0
LINE
   5
20F
 100
AcDbEntity
   8
LEVEL001
 370
50
 100
AcDbLine
   6
CONTINUOUS
  62
4
  10
 62.000000000102
  20
 48.000000000020
  30
0.0
  11
 1618.0000000001
  21
 48.000000000020
  31
0.0
   0
MTEXT
   5
211
 100
AcDbEntity
   8
LEVEL001
 370
20
  62
7
 100
AcDbMText
  10
 1386.8400000003
  20
 1093.1000000000
  30
0.0
  40
 12.000000000000
  41
0.0
  71
7
  72
1
   1
\T1.000000;ケージーパルテック株式会社
   7
GMM001
  44
 0.79999984000003
   0
MTEXT
   5
213
 100
AcDbEntity
   8
LEVEL001
 370
15
  62
8
 100
AcDbMText
  10
 1499.2000000001
  20
 194.66666666668
  30
0.0
  40
 11.200000000000
  41
0.0
  71
5
  72
1
   1
\T1.000000;作成日付：
   7
GMM002
  44
 0.79999984000003
   0
MTEXT
   5
215
 100
AcDbEntity
   8
LEVEL001
 370
15
  62
8
 100
AcDbMText
  10
 1499.2000000001
  20
 168.00000000001
  30
0.0
  40
 11.200000000000
  41
0.0
  71
5
  72
1
   1
\T1.000000;変更日付：
   7
GMM002
  44
 0.79999984000003
   0
MTEXT
   5
217
 100
AcDbEntity
   8
LEVEL001
 370
15
  62
8
 100
AcDbMText
  10
 1443.0000000001
  20
 248.00000000001
  30
0.0
  40
 15.000000000000
  41
0.0
  71
5
  72
1
   1
\T1.000000;三面図
   7
GMM002
  44
 0.79999984000003
   0
MTEXT
   5
219
 100
AcDbEntity
   8
LEVEL001
 370
15
  62
8
 100
AcDbMText
  10
 1276.7858875373
  20
 312.89545107619
  30
0.0
  40
 12.000000000000
  41
0.0
  71
7
  72
1
   1
\T1.000000;※本製品は予告無しに変更する事があります。
   7
GMM002
  44
 0.79999984000003
   0
LINE
   5
21A
 100
AcDbEntity
   8
0
 370
15
 100
AcDbLine
   6
DOT
  62
2
  10
 1680.0000000000
  20
 1188.0000000000
  30
0.0
  11
0.0
  21
 1188.0000000000
  31
0.0
   0
LINE
   5
21B
 100
AcDbEntity
   8
0
 370
15
 100
AcDbLine
   6
DOT
  62
2
  10
0.0
  20
0.0
  30
0.0
  11
 1680.0000000000
  21
0.0
  31
0.0
   0
LINE
   5
21C
 100
AcDbEntity
   8
0
 370
15
 100
AcDbLine
   6
DOT
  62
2
  10
0.0
  20
 1188.0000000000
  30
0.0
  11
0.0
  21
0.0
  31
0.0
   0
MTEXT
   5
21E
 100
AcDbEntity
   8
LEVEL001
 370
15
  62
8
 100
AcDbMText
  10
 1293.2000000001
  20
 1012.0000000000
  30
0.0
  40
 12.000000000000
  41
0.0
  71
5
  72
1
   1
\T1.000000;商品名：
   7
GMM001
  44
 0.79999984000003
   0
MTEXT
   5
220
 100
AcDbEntity
   8
LEVEL001
 370
15
  62
8
 100
AcDbMText
  10
 1287.2000000001
  20
 932.00000000001
  30
0.0
  40
 12.000000000000
  41
0.0
  71
5
  72
1
   1
\T1.000000;形式：
   7
GMM001
  44
 0.79999984000003
   0
MTEXT
   5
222
 100
AcDbEntity
   8
LEVEL001
 370
15
  62
8
 100
AcDbMText
  10
 1287.2000000001
  20
 852.00000000001
  30
0.0
  40
 12.000000000000
  41
0.0
  71
5
  72
1
   1
\T1.000000;仕様：
   7
GMM001
  44
 0.79999984000003
   0
MTEXT
   5
224
 100
AcDbEntity
   8
LEVEL001
 370
15
  62
8
 100
AcDbMText
  10
 1299.2000000001
  20
 273.00000000001
  30
0.0
  40
 12.000000000000
  41
0.0
  71
5
  72
1
   1
\T1.000000;図面名称：
   7
GMM001
  44
 0.79999984000003
   0
MTEXT
   5
226
 100
AcDbEntity
   8
LEVEL001
 370
15
  62
8
 100
AcDbMText
  10
 1287.2000000001
  20
 193.00000000001
  30
0.0
  40
 12.000000000000
  41
0.0
  71
5
  72
1
   1
\T1.000000;縮尺：
   7
GMM001
  44
 0.79999984000003
   0
MTEXT
   5
228
 100
AcDbEntity
   8
LEVEL001
 370
15
  62
8
 100
AcDbMText
  10
 1305.2000000001
  20
 114.88614091451
  30
0.0
  40
 12.000000000000
  41
0.0
  71
5
  72
1
   1
\T1.000000;用紙サイズ：
   7
GMM001
  44
 0.79999984000003
   0
MTEXT
   5
22A
 100
AcDbEntity
   8
LEVEL001
 370
15
  62
8
 100
AcDbMText
  10
 1505.2000000001
  20
 113.00000000001
  30
0.0
  40
 12.000000000000
  41
0.0
  71
5
  72
1
   1
\T1.000000;ファイル名：
   7
GMM001
  44
 0.79999984000003
   0
MTEXT
   5
22C
 100
AcDbEntity
   8
LEVEL001
 370
15
  62
8
 100
AcDbMText
  10
 1335.0000000001
  20
 978.00000000001
  30
0.0
  40
 18.000000000000
  41
0.0
  71
7
  72
1
   1
\T1.000000;手摺金具　Ｌ型　Ｐタイプ
   7
GMM001
  44
 0.79999984000003
   0
MTEXT
   5
22E
 100
AcDbEntity
   8
LEVEL001
 370
15
  62
8
 100
AcDbMText
  10
 1368.0000000001
  20
 168.00000000001
  30
0.0
  40
 15.000000000000
  41
0.0
  71
5
  72
1
   1
\T1.000000;Ｓ＝１：４
   7
GMM001
  44
 0.79999984000003
   0
MTEXT
   5
230
 100
AcDbEntity
   8
LEVEL001
 370
15
  62
8
 100
AcDbMText
  10
 1368.0000000001
  20
 88.000000000009
  30
0.0
  40
 15.000000000000
  41
0.0
  71
5
  72
1
   1
\T1.000000;Ａ３
   7
GMM001
  44
 0.79999984000003
   0
MTEXT
   5
232
 100
AcDbEntity
   8
LEVEL001
 370
15
  62
8
 100
AcDbMText
  10
 1573.2000000001
  20
 141.33333333334
  30
0.0
  40
 8.0000000000000
  41
0.0
  71
5
  72
1
   1
\T1.000000;平成　　年　　月　　日
   7
GMM001
  44
 0.79999984000003
   0
MTEXT
   5
234
 100
AcDbEntity
   8
LEVEL001
 370
15
  62
8
 100
AcDbMText
  10
 1573.2000000001
  20
 168.00000000001
  30
0.0
  40
 8.0000000000000
  41
0.0
  71
5
  72
1
   1
\T1.000000;平成　　年　　月　　日
   7
GMM001
  44
 0.79999984000003
   0
LINE
   5
235
 100
AcDbEntity
   8
0
 370
15
 100
AcDbLine
   6
DOT
  62
2
  10
 1680.0000000000
  20
 1188.0000000000
  30
0.0
  11
 1680.0000000000
  21
0.0
  31
0.0
   0
MTEXT
   5
237
 100
AcDbEntity
   8
LEVEL001
 370
15
  62
8
 100
AcDbMText
  10
 1305.5062713797
  20
 838.26225769669
  30
0.0
  40
 12.000000000000
  41
0.0
  71
1
  72
1
   1
{\T1.000000;材　質／ＳＵＳ３０４}\P{\T1.000000;仕上げ／ＨＬ}\P{\T1.000000;軸　径／%%c１６・%%c１３}
   7
GMM001
  44
 0.79999984000003
   0
LINE
   5
238
 100
AcDbEntity
   8
LEVEL001
 370
20
 100
AcDbLine
   6
CONTINUOUS
  62
7
  10
 1434.2611135294
  20
 755.00000000001
  30
0.0
  11
 1584.2611135294
  21
 755.00000000001
  31
0.0
   0
LINE
   5
239
 100
AcDbEntity
   8
LEVEL001
 370
20
 100
AcDbLine
   6
CONTINUOUS
  62
7
  10
 1434.2611135294
  20
 776.00000000001
  30
0.0
  11
 1434.2611135294
  21
 644.00000000001
  31
0.0
   0
LINE
   5
23A
 100
AcDbEntity
   8
LEVEL001
 370
20
 100
AcDbLine
   6
CONTINUOUS
  62
7
  10
 1509.2611135294
  20
 755.00000000001
  30
0.0
  11
 1509.2611135294
  21
 644.00000000001
  31
0.0
   0
LINE
   5
23B
 100
AcDbEntity
   8
LEVEL001
 370
20
 100
AcDbLine
   6
CONTINUOUS
  62
7
  10
 1584.2611135294
  20
 776.00000000001
  30
0.0
  11
 1584.2611135294
  21
 644.00000000001
  31
0.0
   0
MTEXT
   5
23D
 100
AcDbEntity
   8
LEVEL001
 370
15
  62
8
 100
AcDbMText
  10
 1471.7611135294
  20
 744.50000000001
  30
0.0
  40
 12.000000000000
  41
0.0
  71
5
  72
1
   1
\T1.000000;１６軸
   7
GMM001
  44
 0.79999984000003
   0
MTEXT
   5
23F
 100
AcDbEntity
   8
LEVEL001
 370
15
  62
8
 100
AcDbMText
  10
 1546.7611135294
  20
 744.50000000001
  30
0.0
  40
 12.000000000000
  41
0.0
  71
5
  72
1
   1
\T1.000000;１３軸
   7
GMM001
  44
 0.79999984000003
   0
MTEXT
   5
241
 100
AcDbEntity
   8
LEVEL001
 370
15
  62
8
 100
AcDbMText
  10
 1471.7611135294
  20
 725.00000000001
  30
0.0
  40
 12.000000000000
  41
0.0
  71
5
  72
1
   1
\T1.000000;５８
   7
GMM001
  44
 0.79999984000003
   0
MTEXT
   5
243
 100
AcDbEntity
   8
LEVEL001
 370
15
  62
8
 100
AcDbMText
  10
 1471.7611135294
  20
 713.00000000001
  30
0.0
  40
 12.000000000000
  41
0.0
  71
5
  72
1
   1
\T1.000000;７０
   7
GMM001
  44
 0.79999984000003
   0
MTEXT
   5
245
 100
AcDbEntity
   8
LEVEL001
 370
15
  62
8
 100
AcDbMText
  10
 1471.7611135294
  20
 701.00000000001
  30
0.0
  40
 12.000000000000
  41
0.0
  71
5
  72
1
   1
\T1.000000;８０
   7
GMM001
  44
 0.79999984000003
   0
MTEXT
   5
247
 100
AcDbEntity
   8
LEVEL001
 370
15
  62
8
 100
AcDbMText
  10
 1471.7611135294
  20
 689.00000000001
  30
0.0
  40
 12.000000000000
  41
0.0
  71
5
  72
1
   1
\T1.000000;１００
   7
GMM001
  44
 0.79999984000003
   0
MTEXT
   5
249
 100
AcDbEntity
   8
LEVEL001
 370
15
  62
8
 100
AcDbMText
  10
 1471.7611135294
  20
 665.00000000001
  30
0.0
  40
 12.000000000000
  41
0.0
  71
5
  72
1
   1
\T1.000000;１５０
   7
GMM001
  44
 0.79999984000003
   0
MTEXT
   5
24B
 100
AcDbEntity
   8
LEVEL001
 370
15
  62
8
 100
AcDbMText
  10
 1471.7611135294
  20
 653.00000000001
  30
0.0
  40
 12.000000000000
  41
0.0
  71
5
  72
1
   1
\T1.000000;２００
   7
GMM001
  44
 0.79999984000003
   0
MTEXT
   5
24D
 100
AcDbEntity
   8
LEVEL001
 370
15
  62
8
 100
AcDbMText
  10
 1471.7611135294
  20
 677.00000000001
  30
0.0
  40
 12.000000000000
  41
0.0
  71
5
  72
1
   1
\T1.000000;１２０
   7
GMM001
  44
 0.79999984000003
   0
MTEXT
   5
24F
 100
AcDbEntity
   8
LEVEL001
 370
15
  62
8
 100
AcDbMText
  10
 1546.7611135294
  20
 713.00000000001
  30
0.0
  40
 12.000000000000
  41
0.0
  71
5
  72
1
   1
\T1.000000;７０
   7
GMM001
  44
 0.79999984000003
   0
MTEXT
   5
251
 100
AcDbEntity
   8
LEVEL001
 370
15
  62
8
 100
AcDbMText
  10
 1546.7611135294
  20
 725.00000000001
  30
0.0
  40
 12.000000000000
  41
0.0
  71
5
  72
1
   1
\T1.000000;５５
   7
GMM001
  44
 0.79999984000003
   0
LINE
   5
252
 100
AcDbEntity
   8
LEVEL001
 370
20
 100
AcDbLine
   6
CONTINUOUS
  62
7
  10
 1284.2611135294
  20
 776.00000000001
  30
0.0
  11
 1284.2611135294
  21
 644.00000000001
  31
0.0
   0
LINE
   5
253
 100
AcDbEntity
   8
LEVEL001
 370
20
 100
AcDbLine
   6
CONTINUOUS
  62
7
  10
 1284.2611135294
  20
 734.00000000001
  30
0.0
  11
 1584.2611135294
  21
 734.00000000001
  31
0.0
   0
LINE
   5
254
 100
AcDbEntity
   8
LEVEL001
 370
20
 100
AcDbLine
   6
CONTINUOUS
  62
7
  10
 1284.2611135294
  20
 644.00000000001
  30
0.0
  11
 1584.2611135294
  21
 644.00000000001
  31
0.0
   0
MTEXT
   5
256
 100
AcDbEntity
   8
LEVEL001
 370
15
  62
8
 100
AcDbMText
  10
 1359.2611135294
  20
 755.00000000001
  30
0.0
  40
 12.000000000000
  41
0.0
  71
5
  72
1
   1
\T1.000000;品番
   7
GMM001
  44
 0.79999984000003
   0
MTEXT
   5
258
 100
AcDbEntity
   8
LEVEL001
 370
15
  62
8
 100
AcDbMText
  10
 1509.2611135294
  20
 765.50000000001
  30
0.0
  40
 12.000000000000
  41
0.0
  71
5
  72
1
   1
\W1.000000;\T1.000000;出寸法Ｌ\W0.500000;\T1.000000;(m/m\W1.000000;\T1.000000;）
   7
GMM001
  44
 0.79999984000003
   0
LINE
   5
259
 100
AcDbEntity
   8
LEVEL001
 370
20
 100
AcDbLine
   6
CONTINUOUS
  62
7
  10
 1284.2611135294
  20
 776.00000000001
  30
0.0
  11
 1584.2611135294
  21
 776.00000000001
  31
0.0
   0
LINE
   5
25A
 100
AcDbEntity
   8
0
 370
40
 100
AcDbLine
   6
CONTINUOUS
  62
3
  10
 62.000000000102
  20
 596.25076754632
  30
0.0
  11
 1268.0000000001
  21
 596.25076754632
  31
0.0
   0
MTEXT
   5
25C
 100
AcDbEntity
   8
0
 370
15
  62
8
 100
AcDbMText
  10
-418.75647742605
  20
 1132.5945415873
  30
0.0
  40
 100.00000000000
  41
0.0
  71
4
  72
1
   1
\T1.000000;ＰＩＫＫ
   7
GMM001
  44
 0.79999984000003
   0
MTEXT
   5
25E
 100
AcDbEntity
   8
LEVEL001
 370
15
  62
8
 100
AcDbMText
  10
 1278.5000000001
  20
 900.00000000001
  30
0.0
  40
 14.000000000000
  41
0.0
  71
7
  72
1
   1
\W1.000000;\T1.000000;傾斜平受固定アンカー座\W0.500000;\T1.000000; \W1.000000;\T1.000000;ＰＩＫＫ\W0.500000;\T1.000000;(\W1.000000;\T1.000000;１６軸\W0.500000;\T1.000000;)/(\W1.000000;\T1.000000;１３軸\W0.500000;\T1.000000;)
   7
GMM001
  44
 0.79999984000003
   0
MTEXT
   5
260
 100
AcDbEntity
   8
LEVEL001
 370
15
  62
8
 100
AcDbMText
  10
 1359.2611135294
  20
 689.00000000001
  30
0.0
  40
 12.000000000000
  41
0.0
  71
5
  72
1
   1
\T1.000000;ＰＩＫＫ２５
   7
GMM001
  44
 0.79999984000003
   0
MTEXT
   5
262
 100
AcDbEntity
   8
LEVEL001
 370
15
  62
8
 100
AcDbMText
  10
 63.200000000103
  20
 1122.2507675463
  30
0.0
  40
 12.000000000000
  41
0.0
  71
4
  72
1
   1
\T1.000000;　ＰＩＫＫ２５（１６軸）
   7
GMM001
  44
 0.79999984000003
   0
CIRCLE
   5
263
 100
AcDbEntity
   8
LEVEL001
 370
15
 100
AcDbCircle
   6
HIDDEN
  62
2
  10
 693.18191486883
  20
 962.86464123947
  30
0.0
  40
 8.0000000000000
   0
LINE
   5
264
 100
AcDbEntity
   8
LEVEL001
 370
15
 100
AcDbLine
   6
DASHDOT
  62
8
  10
 681.13752241545
  20
 962.86464123947
  30
0.0
  11
 705.22630732221
  21
 962.86464123947
  31
0.0
   0
LINE
   5
265
 100
AcDbEntity
   8
LEVEL001
 370
15
 100
AcDbLine
   6
DASHDOT
  62
8
  10
 693.18191486883
  20
 945.60501312416
  30
0.0
  11
 693.18191486883
  21
 1031.3353927599
  31
0.0
   0
LINE
   5
266
 100
AcDbEntity
   8
LEVEL001
 370
20
 100
AcDbLine
   6
CONTINUOUS
  62
7
  10
 720.68191486883
  20
 1022.3646412395
  30
0.0
  11
 665.68191486883
  21
 1022.3646412395
  31
0.0
   0
LINE
   5
267
 100
AcDbEntity
   8
LEVEL001
 370
20
 100
AcDbLine
   6
CONTINUOUS
  62
7
  10
 667.18191486883
  20
 1020.8646412395
  30
0.0
  11
 719.18191486883
  21
 1020.8646412395
  31
0.0
   0
LINE
   5
268
 100
AcDbEntity
   8
LEVEL001
 370
20
 100
AcDbLine
   6
CONTINUOUS
  62
7
  10
 719.18191486883
  20
 1020.8646412395
  30
0.0
  11
 720.68191486883
  21
 1022.3646412395
  31
0.0
   0
LINE
   5
269
 100
AcDbEntity
   8
LEVEL001
 370
20
 100
AcDbLine
   6
CONTINUOUS
  62
7
  10
 720.68191486883
  20
 1024.3646412395
  30
0.0
  11
 665.68191486883
  21
 1024.3646412395
  31
0.0
   0
LINE
   5
26A
 100
AcDbEntity
   8
LEVEL001
 370
20
 100
AcDbLine
   6
CONTINUOUS
  62
7
  10
 720.68191486883
  20
 1022.3646412395
  30
0.0
  11
 720.68191486883
  21
 1024.3646412395
  31
0.0
   0
LINE
   5
26B
 100
AcDbEntity
   8
LEVEL001
 370
15
 100
AcDbLine
   6
HIDDEN
  62
2
  10
 688.88191486883
  20
 1019.6646412395
  30
0.0
  11
 688.88191486883
  21
 989.86464123947
  31
0.0
   0
LINE
   5
26C
 100
AcDbEntity
   8
LEVEL001
 370
15
 100
AcDbLine
   6
HIDDEN
  62
2
  10
 688.88191486883
  20
 989.86464123947
  30
0.0
  11
 693.18191486883
  21
 987.86464123947
  31
0.0
   0
LINE
   5
26D
 100
AcDbEntity
   8
LEVEL001
 370
15
 100
AcDbLine
   6
HIDDEN
  62
2
  10
 688.88191486883
  20
 994.74464123947
  30
0.0
  11
 688.18191486883
  21
 995.86464123947
  31
0.0
   0
LINE
   5
26E
 100
AcDbEntity
   8
LEVEL001
 370
15
 100
AcDbLine
   6
HIDDEN
  62
2
  10
 688.18191486883
  20
 995.86464123947
  30
0.0
  11
 688.18191486883
  21
 1020.3646412395
  31
0.0
   0
LINE
   5
26F
 100
AcDbEntity
   8
LEVEL001
 370
15
 100
AcDbLine
   6
HIDDEN
  62
2
  10
 697.48191486883
  20
 989.86464123947
  30
0.0
  11
 688.88191486883
  21
 989.86464123947
  31
0.0
   0
LINE
   5
270
 100
AcDbEntity
   8
LEVEL001
 370
15
 100
AcDbLine
   6
HIDDEN
  62
2
  10
 698.18191486883
  20
 995.86464123947
  30
0.0
  11
 688.18191486883
  21
 995.86464123947
  31
0.0
   0
LINE
   5
271
 100
AcDbEntity
   8
LEVEL001
 370
15
 100
AcDbLine
   6
HIDDEN
  62
2
  10
 697.48191486883
  20
 1019.6646412395
  30
0.0
  11
 688.88191486883
  21
 1019.6646412395
  31
0.0
   0
LINE
   5
272
 100
AcDbEntity
   8
LEVEL001
 370
15
 100
AcDbLine
   6
HIDDEN
  62
2
  10
 688.88191486883
  20
 1019.6646412395
  30
0.0
  11
 687.68191486883
  21
 1020.8646412395
  31
0.0
   0
LINE
   5
273
 100
AcDbEntity
   8
LEVEL001
 370
15
 100
AcDbLine
   6
HIDDEN
  62
2
  10
 697.48191486883
  20
 994.74464123947
  30
0.0
  11
 688.88191486883
  21
 994.74464123947
  31
0.0
   0
LINE
   5
274
 100
AcDbEntity
   8
LEVEL001
 370
15
 100
AcDbLine
   6
HIDDEN
  62
2
  10
 697.48191486883
  20
 989.86464123947
  30
0.0
  11
 697.48191486883
  21
 1019.6646412395
  31
0.0
   0
LINE
   5
275
 100
AcDbEntity
   8
LEVEL001
 370
15
 100
AcDbLine
   6
HIDDEN
  62
2
  10
 698.18191486883
  20
 1020.3646412395
  30
0.0
  11
 698.18191486883
  21
 995.86464123947
  31
0.0
   0
LINE
   5
276
 100
AcDbEntity
   8
LEVEL001
 370
15
 100
AcDbLine
   6
HIDDEN
  62
2
  10
 697.48191486883
  20
 1019.6646412395
  30
0.0
  11
 698.68191486883
  21
 1020.8646412395
  31
0.0
   0
LINE
   5
277
 100
AcDbEntity
   8
LEVEL001
 370
15
 100
AcDbLine
   6
HIDDEN
  62
2
  10
 693.18191486883
  20
 987.86464123947
  30
0.0
  11
 697.48191486883
  21
 989.86464123947
  31
0.0
   0
LINE
   5
278
 100
AcDbEntity
   8
LEVEL001
 370
15
 100
AcDbLine
   6
HIDDEN
  62
2
  10
 698.18191486883
  20
 995.86464123947
  30
0.0
  11
 697.48191486883
  21
 994.74464123947
  31
0.0
   0
LINE
   5
279
 100
AcDbEntity
   8
LEVEL001
 370
15
 100
AcDbLine
   6
HIDDEN
  62
2
  10
 698.33191486888
  20
 1020.8646412395
  30
0.0
  11
 698.33191486888
  21
 1024.3646412395
  31
0.0
   0
LINE
   5
27A
 100
AcDbEntity
   8
LEVEL001
 370
15
 100
AcDbLine
   6
HIDDEN
  62
2
  10
 688.03191486877
  20
 1020.8646412395
  30
0.0
  11
 688.03191486877
  21
 1024.3646412395
  31
0.0
   0
LINE
   5
27B
 100
AcDbEntity
   8
LEVEL001
 370
20
 100
AcDbLine
   6
CONTINUOUS
  62
7
  10
 665.68191486883
  20
 1022.3646412395
  30
0.0
  11
 667.18191486883
  21
 1020.8646412395
  31
0.0
   0
LINE
   5
27C
 100
AcDbEntity
   8
LEVEL001
 370
20
 100
AcDbLine
   6
CONTINUOUS
  62
7
  10
 665.68191486883
  20
 1024.3646412395
  30
0.0
  11
 665.68191486883
  21
 1022.3646412395
  31
0.0
   0
ARC
   5
27D
 100
AcDbEntity
   8
LEVEL001
 370
20
   6
CONTINUOUS
  62
7
 100
AcDbCircle
  10
 577.73131002149
  20
 812.41537478664
  30
0.0
  40
 8.0000000000000
 100
AcDbArc
  50
 270.00000000000
  51
0.0
   0
ARC
   5
27E
 100
AcDbEntity
   8
LEVEL001
 370
20
   6
CONTINUOUS
  62
7
 100
AcDbCircle
  10
 577.73131002149
  20
 812.41537478664
  30
0.0
  40
 24.000000000000
 100
AcDbArc
  50
 270.00000000000
  51
0.0
   0
LINE
   5
27F
 100
AcDbEntity
   8
LEVEL001
 370
20
 100
AcDbLine
   6
CONTINUOUS
  62
7
  10
 585.73131002149
  20
 812.41537478664
  30
0.0
  11
 585.73131002149
  21
 841.41537478664
  31
0.0
   0
LINE
   5
280
 100
AcDbEntity
   8
LEVEL001
 370
20
 100
AcDbLine
   6
CONTINUOUS
  62
7
  10
 585.73131002149
  20
 841.41537478664
  30
0.0
  11
 601.73131002149
  21
 841.41537478664
  31
0.0
   0
LINE
   5
281
 100
AcDbEntity
   8
LEVEL001
 370
20
 100
AcDbLine
   6
CONTINUOUS
  62
7
  10
 601.73131002149
  20
 841.41537478664
  30
0.0
  11
 601.73131002149
  21
 812.41537478664
  31
0.0
   0
LINE
   5
282
 100
AcDbEntity
   8
LEVEL001
 370
20
 100
AcDbLine
   6
CONTINUOUS
  62
7
  10
 587.23131002149
  20
 841.41537478664
  30
0.0
  11
 600.23131002149
  21
 841.41537478664
  31
0.0
   0
LINE
   5
283
 100
AcDbEntity
   8
LEVEL001
 370
20
 100
AcDbLine
   6
CONTINUOUS
  62
7
  10
 522.23131002149
  20
 823.91537478664
  30
0.0
  11
 522.23131002149
  21
 768.91537478664
  31
0.0
   0
LINE
   5
284
 100
AcDbEntity
   8
LEVEL001
 370
20
 100
AcDbLine
   6
CONTINUOUS
  62
7
  10
 522.23131002149
  20
 768.91537478664
  30
0.0
  11
 523.73131002149
  21
 770.41537478664
  31
0.0
   0
LINE
   5
285
 100
AcDbEntity
   8
LEVEL001
 370
20
 100
AcDbLine
   6
CONTINUOUS
  62
7
  10
 523.73131002149
  20
 770.41537478664
  30
0.0
  11
 523.73131002149
  21
 822.41537478664
  31
0.0
   0
LINE
   5
286
 100
AcDbEntity
   8
LEVEL001
 370
20
 100
AcDbLine
   6
CONTINUOUS
  62
7
  10
 523.73131002149
  20
 822.41537478664
  30
0.0
  11
 522.23131002149
  21
 823.91537478664
  31
0.0
   0
LINE
   5
287
 100
AcDbEntity
   8
LEVEL001
 370
20
 100
AcDbLine
   6
CONTINUOUS
  62
7
  10
 523.73131002149
  20
 804.41537478664
  30
0.0
  11
 577.73131002149
  21
 804.41537478664
  31
0.0
   0
LINE
   5
288
 100
AcDbEntity
   8
LEVEL001
 370
20
 100
AcDbLine
   6
CONTINUOUS
  62
7
  10
 577.73131002149
  20
 788.41537478664
  30
0.0
  11
 523.73131002149
  21
 788.41537478664
  31
0.0
   0
LINE
   5
289
 100
AcDbEntity
   8
LEVEL001
 370
20
 100
AcDbLine
   6
CONTINUOUS
  62
7
  10
 520.23131002149
  20
 823.91537478664
  30
0.0
  11
 520.23131002149
  21
 768.91537478664
  31
0.0
   0
LINE
   5
28A
 100
AcDbEntity
   8
LEVEL001
 370
20
 100
AcDbLine
   6
CONTINUOUS
  62
7
  10
 520.23131002149
  20
 768.91537478664
  30
0.0
  11
 522.23131002149
  21
 768.91537478664
  31
0.0
   0
LINE
   5
28B
 100
AcDbEntity
   8
LEVEL001
 370
20
 100
AcDbLine
   6
CONTINUOUS
  62
7
  10
 522.23131002149
  20
 823.91537478664
  30
0.0
  11
 520.23131002149
  21
 823.91537478664
  31
0.0
   0
ARC
   5
28C
 100
AcDbEntity
   8
LEVEL001
 370
15
   6
DASHDOT
  62
8
 100
AcDbCircle
  10
 577.73131002148
  20
 812.41537478664
  30
0.0
  40
 16.000000000000
 100
AcDbArc
  50
 270.00000000000
  51
0.0
   0
LINE
   5
28D
 100
AcDbEntity
   8
LEVEL001
 370
15
 100
AcDbLine
   6
DASHDOT
  62
8
  10
 577.73131002149
  20
 796.41537478664
  30
0.0
  11
 513.49819557079
  21
 796.41537478664
  31
0.0
   0
DIMENSION
   5
28E
 100
AcDbEntity
   8
0
 370
15
   6
CONTINUOUS
  62
8
 100
AcDbDimension
   2
*D1
  10
 630.37534984504
  20
 841.41537478664
  30
0.0
  11
 630.37534984504
  21
 818.91537478664
  31
0.0
  70
0
   3
GMM001
 100
AcDbAlignedDimension
  13
 577.73131002148
  23
 796.41537478664
  33
0.0
  14
 601.73131002149
  24
 841.41537478664
  34
0.0
  50
 90.000000000000
 100
AcDbRotatedDimension
   0
DIMENSION
   5
28F
 100
AcDbEntity
   8
0
 370
15
   6
CONTINUOUS
  62
8
 100
AcDbDimension
   2
*D2
  10
 523.73131002149
  20
 738.91537478664
  30
0.0
  11
 497.83231841617
  21
 738.91537478664
  31
0.0
  70
128
   3
GMM002
 100
AcDbAlignedDimension
  13
 520.23131002149
  23
 768.91537478664
  33
0.0
  14
 523.73131002149
  24
 770.41537478664
  34
0.0
 100
AcDbRotatedDimension
   0
DIMENSION
   5
290
 100
AcDbEntity
   8
0
 370
15
   6
CONTINUOUS
  62
8
 100
AcDbDimension
   2
*D3
  10
 593.73131002148
  20
 738.91537478664
  30
0.0
  11
 558.73131002148
  21
 738.91537478664
  31
0.0
  70
0
   1
\A1;L
   3
GMM003
 100
AcDbAlignedDimension
  13
 523.73131002149
  23
 770.41537478664
  33
0.0
  14
 593.73131002148
  24
 812.41537478664
  34
0.0
 100
AcDbRotatedDimension
   0
LINE
   5
291
 100
AcDbEntity
   8
LEVEL004
 370
20
 100
AcDbLine
   6
CONTINUOUS
  62
7
  10
 586.28915140129
  20
 841.41537478664
  30
0.0
  11
 601.17346864168
  21
 841.41537478664
  31
0.0
   0
LINE
   5
292
 100
AcDbEntity
   8
LEVEL001
 370
20
 100
AcDbLine
   6
CONTINUOUS
  62
7
  10
 685.18191486883
  20
 796.41537478664
  30
0.0
  11
 685.18191486883
  21
 841.41537478664
  31
0.0
   0
LINE
   5
293
 100
AcDbEntity
   8
LEVEL001
 370
20
 100
AcDbLine
   6
CONTINUOUS
  62
7
  10
 685.18191486883
  20
 841.41537478664
  30
0.0
  11
 701.18191486883
  21
 841.41537478664
  31
0.0
   0
LINE
   5
294
 100
AcDbEntity
   8
LEVEL001
 370
20
 100
AcDbLine
   6
CONTINUOUS
  62
7
  10
 701.18191486883
  20
 841.41537478664
  30
0.0
  11
 701.18191486883
  21
 796.41537478664
  31
0.0
   0
ARC
   5
295
 100
AcDbEntity
   8
LEVEL001
 370
20
   6
CONTINUOUS
  62
7
 100
AcDbCircle
  10
 693.18191486883
  20
 796.41537478664
  30
0.0
  40
 8.0000000000000
 100
AcDbArc
  50
 180.00000000000
  51
0.0
   0
ARC
   5
296
 100
AcDbEntity
   8
LEVEL001
 370
20
   6
CONTINUOUS
  62
7
 100
AcDbCircle
  10
 693.18191486883
  20
 796.41537478664
  30
0.0
  40
 27.500000000000
 100
AcDbArc
  50
 106.91238980342
  51
 73.087610196568
   0
ARC
   5
297
 100
AcDbEntity
   8
LEVEL001
 370
20
   6
CONTINUOUS
  62
7
 100
AcDbCircle
  10
 693.18191486883
  20
 796.41537478664
  30
0.0
  40
 26.000000000000
 100
AcDbArc
  50
 107.92021313939
  51
 72.079786860595
   0
LINE
   5
298
 100
AcDbEntity
   8
LEVEL001
 370
15
 100
AcDbLine
   6
DASHDOT
  62
8
  10
 725.54847209418
  20
 796.41537478664
  30
0.0
  11
 660.81535764348
  21
 796.41537478664
  31
0.0
   0
LINE
   5
299
 100
AcDbEntity
   8
LEVEL001
 370
15
 100
AcDbLine
   6
DASHDOT
  62
8
  10
 693.18191486883
  20
 761.73590025119
  30
0.0
  11
 693.18191486883
  21
 862.17996834910
  31
0.0
   0
DIMENSION
   5
29A
 100
AcDbEntity
   8
0
 370
15
   6
CONTINUOUS
  62
8
 100
AcDbDimension
   2
*D4
  10
 701.18191486883
  20
 738.91537478664
  30
0.0
  11
 745.43003516948
  21
 738.91537478664
  31
0.0
  70
128
  53
0.0
   3
GMM004
 100
AcDbAlignedDimension
  13
 685.18191486883
  23
 796.41537478664
  33
0.0
  14
 701.18191486883
  24
 796.41537478664
  34
0.0
 100
AcDbRotatedDimension
   0
DIMENSION
   5
29B
 100
AcDbEntity
   8
0
 370
15
   6
CONTINUOUS
  62
8
 100
AcDbDimension
   2
*D5
  10
 720.68191486883
  20
 708.91537478664
  30
0.0
  11
 693.18191486883
  21
 708.91537478664
  31
0.0
  70
0
   3
GMM001
 100
AcDbAlignedDimension
  13
 665.68191486883
  23
 796.41537478664
  33
0.0
  14
 720.68191486883
  24
 796.41537478664
  34
0.0
 100
AcDbRotatedDimension
   0
LINE
   5
29C
 100
AcDbEntity
   8
LEVEL004
 370
20
 100
AcDbLine
   6
CONTINUOUS
  62
7
  10
 685.89011880133
  20
 841.41537478664
  30
0.0
  11
 700.47371093633
  21
 841.41537478664
  31
0.0
   0
DIMENSION
   5
29D
 100
AcDbEntity
   8
0
 370
15
   6
CONTINUOUS
  62
8
 100
AcDbDimension
   2
*D6
  10
 506.06747651708
  20
 768.91537478664
  30
0.0
  11
 506.06747651708
  21
 796.41537478664
  31
0.0
  70
0
   3
GMM001
 100
AcDbAlignedDimension
  13
 520.23131002149
  23
 823.91537478664
  33
0.0
  14
 520.23131002149
  24
 768.91537478664
  34
0.0
  50
 270.00000000000
 100
AcDbRotatedDimension
   0
LINE
   5
29E
 100
AcDbEntity
   8
LEVEL001
 370
15
 100
AcDbLine
   6
HIDDEN
  62
2
  10
 524.93131002148
  20
 792.11537478664
  30
0.0
  11
 554.73131002149
  21
 792.11537478664
  31
0.0
   0
LINE
   5
29F
 100
AcDbEntity
   8
LEVEL001
 370
15
 100
AcDbLine
   6
HIDDEN
  62
2
  10
 554.73131002149
  20
 792.11537478664
  30
0.0
  11
 556.73131002149
  21
 796.41537478664
  31
0.0
   0
LINE
   5
2A0
 100
AcDbEntity
   8
LEVEL001
 370
15
 100
AcDbLine
   6
HIDDEN
  62
2
  10
 549.85131002149
  20
 792.11537478664
  30
0.0
  11
 548.73131002149
  21
 791.41537478664
  31
0.0
   0
LINE
   5
2A1
 100
AcDbEntity
   8
LEVEL001
 370
15
 100
AcDbLine
   6
HIDDEN
  62
2
  10
 548.73131002149
  20
 791.41537478664
  30
0.0
  11
 524.23131002149
  21
 791.41537478664
  31
0.0
   0
LINE
   5
2A2
 100
AcDbEntity
   8
LEVEL001
 370
15
 100
AcDbLine
   6
HIDDEN
  62
2
  10
 554.73131002149
  20
 800.71537478664
  30
0.0
  11
 554.73131002149
  21
 792.11537478664
  31
0.0
   0
LINE
   5
2A3
 100
AcDbEntity
   8
LEVEL001
 370
15
 100
AcDbLine
   6
HIDDEN
  62
2
  10
 548.73131002149
  20
 801.41537478664
  30
0.0
  11
 548.73131002149
  21
 791.41537478664
  31
0.0
   0
LINE
   5
2A4
 100
AcDbEntity
   8
LEVEL001
 370
15
 100
AcDbLine
   6
HIDDEN
  62
2
  10
 524.93131002148
  20
 800.71537478664
  30
0.0
  11
 524.93131002148
  21
 792.11537478664
  31
0.0
   0
LINE
   5
2A5
 100
AcDbEntity
   8
LEVEL001
 370
15
 100
AcDbLine
   6
HIDDEN
  62
2
  10
 524.93131002148
  20
 792.11537478664
  30
0.0
  11
 523.73131002149
  21
 790.91537478664
  31
0.0
   0
LINE
   5
2A6
 100
AcDbEntity
   8
LEVEL001
 370
15
 100
AcDbLine
   6
HIDDEN
  62
2
  10
 549.85131002149
  20
 800.71537478664
  30
0.0
  11
 549.85131002149
  21
 792.11537478664
  31
0.0
   0
LINE
   5
2A7
 100
AcDbEntity
   8
LEVEL001
 370
15
 100
AcDbLine
   6
HIDDEN
  62
2
  10
 554.73131002149
  20
 800.71537478664
  30
0.0
  11
 524.93131002148
  21
 800.71537478664
  31
0.0
   0
LINE
   5
2A8
 100
AcDbEntity
   8
LEVEL001
 370
15
 100
AcDbLine
   6
HIDDEN
  62
2
  10
 524.23131002149
  20
 801.41537478664
  30
0.0
  11
 548.73131002149
  21
 801.41537478664
  31
0.0
   0
LINE
   5
2A9
 100
AcDbEntity
   8
LEVEL001
 370
15
 100
AcDbLine
   6
HIDDEN
  62
2
  10
 524.93131002148
  20
 800.71537478664
  30
0.0
  11
 523.73131002149
  21
 801.91537478664
  31
0.0
   0
LINE
   5
2AA
 100
AcDbEntity
   8
LEVEL001
 370
15
 100
AcDbLine
   6
HIDDEN
  62
2
  10
 556.73131002149
  20
 796.41537478664
  30
0.0
  11
 554.73131002149
  21
 800.71537478664
  31
0.0
   0
LINE
   5
2AB
 100
AcDbEntity
   8
LEVEL001
 370
15
 100
AcDbLine
   6
HIDDEN
  62
2
  10
 548.73131002149
  20
 801.41537478664
  30
0.0
  11
 549.85131002149
  21
 800.71537478664
  31
0.0
   0
LINE
   5
2AC
 100
AcDbEntity
   8
LEVEL001
 370
15
 100
AcDbLine
   6
HIDDEN
  62
2
  10
 523.73131002149
  20
 801.56537478669
  30
0.0
  11
 520.23131002149
  21
 801.56537478669
  31
0.0
   0
LINE
   5
2AD
 100
AcDbEntity
   8
LEVEL001
 370
15
 100
AcDbLine
   6
HIDDEN
  62
2
  10
 523.73131002149
  20
 791.26537478658
  30
0.0
  11
 520.23131002149
  21
 791.26537478658
  31
0.0
   0
LEADER
   5
2AE
 100
AcDbEntity
   8
0
 370
15
   6
CONTINUOUS
  62
8
 100
AcDbLeader
   3
GMM005
  73
0
  74
1
  75
0
  40
 10.000000000000
  41
 26.000000000000
  76
2
  10
 539.86350922168
  20
 801.41537478664
  30
0.0
  10
 524.13357605240
  20
 841.69857913212
  30
0.0
  77
8
 340
2AF
 213
0.0
 223
-4.0000000000000
 233
0.0
   0
MTEXT
   5
2AF
 102
{ACAD_REACTORS
 330
2AE
 102
}
 100
AcDbEntity
   8
0
 370
15
  62
8
 100
AcDbMText
  10
 498.13357605240
  20
 845.69857913212
  30
0.0
  40
 10.000000000000
  41
0.0
  71
7
  72
1
   1
\A1;Ｍ１０
   7
GMM001
   0
LINE
   5
2B0
 100
AcDbEntity
   8
LEVEL001
 370
15
 100
AcDbLine
   6
DASHDOT
  62
8
  10
 684.80580328501
  20
 404.89615486021
  30
0.0
  11
 708.89458819177
  21
 404.89615486021
  31
0.0
   0
LINE
   5
2B1
 100
AcDbEntity
   8
LEVEL001
 370
15
 100
AcDbLine
   6
DASHDOT
  62
8
  10
 696.85019573839
  20
 387.63652674490
  30
0.0
  11
 696.85019573839
  21
 473.36690638063
  31
0.0
   0
CIRCLE
   5
2B2
 100
AcDbEntity
   8
LEVEL001
 370
15
 100
AcDbCircle
   6
HIDDEN
  62
2
  10
 696.85019573839
  20
 404.89615486021
  30
0.0
  40
 6.5000000000000
   0
LINE
   5
2B3
 100
AcDbEntity
   8
LEVEL001
 370
20
 100
AcDbLine
   6
CONTINUOUS
  62
7
  10
 703.35019573839
  20
 459.89615486021
  30
0.0
  11
 717.85019573839
  21
 459.89615486021
  31
0.0
   0
LINE
   5
2B4
 100
AcDbEntity
   8
LEVEL001
 370
20
 100
AcDbLine
   6
CONTINUOUS
  62
7
  10
 719.35019573839
  20
 461.39615486021
  30
0.0
  11
 674.35019573839
  21
 461.39615486021
  31
0.0
   0
LINE
   5
2B5
 100
AcDbEntity
   8
LEVEL001
 370
20
 100
AcDbLine
   6
CONTINUOUS
  62
7
  10
 719.35019573839
  20
 463.89615486021
  30
0.0
  11
 674.35019573839
  21
 463.89615486021
  31
0.0
   0
LINE
   5
2B6
 100
AcDbEntity
   8
LEVEL001
 370
20
 100
AcDbLine
   6
CONTINUOUS
  62
7
  10
 719.35019573839
  20
 463.89615486021
  30
0.0
  11
 719.35019573839
  21
 461.39615486021
  31
0.0
   0
LINE
   5
2B7
 100
AcDbEntity
   8
LEVEL001
 370
20
 100
AcDbLine
   6
CONTINUOUS
  62
7
  10
 719.35019573839
  20
 461.39615486021
  30
0.0
  11
 717.85019573839
  21
 459.89615486021
  31
0.0
   0
LINE
   5
2B8
 100
AcDbEntity
   8
LEVEL001
 370
20
 100
AcDbLine
   6
CONTINUOUS
  62
7
  10
 675.85019573839
  20
 459.89615486021
  30
0.0
  11
 690.35019573839
  21
 459.89615486021
  31
0.0
   0
LINE
   5
2B9
 100
AcDbEntity
   8
LEVEL001
 370
20
 100
AcDbLine
   6
CONTINUOUS
  62
7
  10
 674.35019573839
  20
 463.89615486021
  30
0.0
  11
 674.35019573839
  21
 461.39615486021
  31
0.0
   0
LINE
   5
2BA
 100
AcDbEntity
   8
LEVEL001
 370
20
 100
AcDbLine
   6
CONTINUOUS
  62
7
  10
 674.35019573839
  20
 461.39615486021
  30
0.0
  11
 675.85019573839
  21
 459.89615486021
  31
0.0
   0
LINE
   5
2BB
 100
AcDbEntity
   8
LEVEL001
 370
20
 100
AcDbLine
   6
CONTINUOUS
  62
7
  10
 703.35019573839
  20
 459.89615486021
  30
0.0
  11
 690.35019573839
  21
 459.89615486021
  31
0.0
   0
LINE
   5
2BC
 100
AcDbEntity
   8
LEVEL001
 370
15
 100
AcDbLine
   6
HIDDEN
  62
2
  10
 692.55019573839
  20
 459.19615486021
  30
0.0
  11
 692.55019573839
  21
 429.39615486021
  31
0.0
   0
LINE
   5
2BD
 100
AcDbEntity
   8
LEVEL001
 370
15
 100
AcDbLine
   6
HIDDEN
  62
2
  10
 692.55019573839
  20
 429.39615486021
  30
0.0
  11
 696.85019573839
  21
 427.39615486021
  31
0.0
   0
LINE
   5
2BE
 100
AcDbEntity
   8
LEVEL001
 370
15
 100
AcDbLine
   6
HIDDEN
  62
2
  10
 692.55019573839
  20
 434.27615486021
  30
0.0
  11
 691.85019573839
  21
 435.39615486021
  31
0.0
   0
LINE
   5
2BF
 100
AcDbEntity
   8
LEVEL001
 370
15
 100
AcDbLine
   6
HIDDEN
  62
2
  10
 691.85019573839
  20
 435.39615486021
  30
0.0
  11
 691.85019573839
  21
 459.89615486021
  31
0.0
   0
LINE
   5
2C0
 100
AcDbEntity
   8
LEVEL001
 370
15
 100
AcDbLine
   6
HIDDEN
  62
2
  10
 701.15019573839
  20
 429.39615486021
  30
0.0
  11
 692.55019573839
  21
 429.39615486021
  31
0.0
   0
LINE
   5
2C1
 100
AcDbEntity
   8
LEVEL001
 370
15
 100
AcDbLine
   6
HIDDEN
  62
2
  10
 701.85019573839
  20
 435.39615486021
  30
0.0
  11
 691.85019573839
  21
 435.39615486021
  31
0.0
   0
LINE
   5
2C2
 100
AcDbEntity
   8
LEVEL001
 370
15
 100
AcDbLine
   6
HIDDEN
  62
2
  10
 701.15019573839
  20
 459.19615486021
  30
0.0
  11
 692.55019573839
  21
 459.19615486021
  31
0.0
   0
LINE
   5
2C3
 100
AcDbEntity
   8
LEVEL001
 370
15
 100
AcDbLine
   6
HIDDEN
  62
2
  10
 692.55019573839
  20
 459.19615486021
  30
0.0
  11
 691.35019573839
  21
 460.39615486021
  31
0.0
   0
LINE
   5
2C4
 100
AcDbEntity
   8
LEVEL001
 370
15
 100
AcDbLine
   6
HIDDEN
  62
2
  10
 701.15019573839
  20
 434.27615486021
  30
0.0
  11
 692.55019573839
  21
 434.27615486021
  31
0.0
   0
LINE
   5
2C5
 100
AcDbEntity
   8
LEVEL001
 370
15
 100
AcDbLine
   6
HIDDEN
  62
2
  10
 701.15019573839
  20
 429.39615486021
  30
0.0
  11
 701.15019573839
  21
 459.19615486021
  31
0.0
   0
LINE
   5
2C6
 100
AcDbEntity
   8
LEVEL001
 370
15
 100
AcDbLine
   6
HIDDEN
  62
2
  10
 701.85019573839
  20
 459.89615486021
  30
0.0
  11
 701.85019573839
  21
 435.39615486021
  31
0.0
   0
LINE
   5
2C7
 100
AcDbEntity
   8
LEVEL001
 370
15
 100
AcDbLine
   6
HIDDEN
  62
2
  10
 701.15019573839
  20
 459.19615486021
  30
0.0
  11
 702.35019573839
  21
 460.39615486021
  31
0.0
   0
LINE
   5
2C8
 100
AcDbEntity
   8
LEVEL001
 370
15
 100
AcDbLine
   6
HIDDEN
  62
2
  10
 696.85019573839
  20
 427.39615486021
  30
0.0
  11
 701.15019573839
  21
 429.39615486021
  31
0.0
   0
LINE
   5
2C9
 100
AcDbEntity
   8
LEVEL001
 370
15
 100
AcDbLine
   6
HIDDEN
  62
2
  10
 701.85019573839
  20
 435.39615486021
  30
0.0
  11
 701.15019573839
  21
 434.27615486021
  31
0.0
   0
LINE
   5
2CA
 100
AcDbEntity
   8
LEVEL001
 370
15
 100
AcDbLine
   6
HIDDEN
  62
2
  10
 702.00019573844
  20
 460.39615486021
  30
0.0
  11
 702.00019573844
  21
 463.89615486021
  31
0.0
   0
LINE
   5
2CB
 100
AcDbEntity
   8
LEVEL001
 370
15
 100
AcDbLine
   6
HIDDEN
  62
2
  10
 691.70019573833
  20
 460.39615486021
  30
0.0
  11
 691.70019573833
  21
 463.89615486021
  31
0.0
   0
LINE
   5
2CC
 100
AcDbEntity
   8
LEVEL001
 370
20
 100
AcDbLine
   6
CONTINUOUS
  62
7
  10
 590.89959089104
  20
 283.44688840738
  30
0.0
  11
 603.89959089104
  21
 283.44688840738
  31
0.0
   0
LINE
   5
2CD
 100
AcDbEntity
   8
LEVEL001
 370
15
 100
AcDbLine
   6
DASHDOT
  62
8
  10
 582.89959089104
  20
 248.44688840738
  30
0.0
  11
 530.55538658841
  21
 248.44688840738
  31
0.0
   0
ARC
   5
2CE
 100
AcDbEntity
   8
LEVEL001
 370
15
   6
DASHDOT
  62
8
 100
AcDbCircle
  10
 582.89959089104
  20
 262.94688840738
  30
0.0
  40
 14.500000000000
 100
AcDbArc
  50
 270.00000000000
  51
0.0
   0
DIMENSION
   5
2CF
 100
AcDbEntity
   8
0
 370
15
   6
CONTINUOUS
  62
8
 100
AcDbDimension
   2
*D8
  10
 634.04363071459
  20
 283.44688840738
  30
0.0
  11
 634.04363071459
  21
 265.94688840738
  31
0.0
  70
0
   3
GMM001
 100
AcDbAlignedDimension
  13
 581.39959089103
  23
 248.44688840738
  33
0.0
  14
 605.39959089104
  24
 283.44688840738
  34
0.0
  50
 90.000000000000
 100
AcDbRotatedDimension
   0
LINE
   5
2D0
 100
AcDbEntity
   8
LEVEL001
 370
15
 100
AcDbLine
   6
DASHDOT
  62
8
  10
 696.85019573839
  20
 219.58779451357
  30
0.0
  11
 696.85019573839
  21
 304.21148196984
  31
0.0
   0
LINE
   5
2D1
 100
AcDbEntity
   8
0
 370
15
 100
AcDbLine
   6
DASHDOT
  62
8
  10
 665.60169814962
  20
 248.44688840738
  30
0.0
  11
 728.09869332715
  21
 248.44688840738
  31
0.0
   0
DIMENSION
   5
2D2
 100
AcDbEntity
   8
0
 370
15
   6
CONTINUOUS
  62
8
 100
AcDbDimension
   2
*D9
  10
 719.35019573839
  20
 177.14390701704
  30
0.0
  11
 696.85019573839
  21
 177.14390701704
  31
0.0
  70
0
   3
GMM001
 100
AcDbAlignedDimension
  13
 674.35019573839
  23
 248.44688840738
  33
0.0
  14
 719.35019573839
  24
 248.44688840738
  34
0.0
 100
AcDbRotatedDimension
   0
DIMENSION
   5
2D3
 100
AcDbEntity
   8
0
 370
15
   6
CONTINUOUS
  62
8
 100
AcDbDimension
   2
*D10
  10
 703.35019573839
  20
 201.74763856815
  30
0.0
  11
 719.85733724739
  21
 201.74763856815
  31
0.0
  70
128
   3
GMM006
 100
AcDbAlignedDimension
  13
 690.35019573839
  23
 248.44688840738
  33
0.0
  14
 703.35019573839
  24
 248.44688840738
  34
0.0
 100
AcDbRotatedDimension
   0
DIMENSION
   5
2D4
 100
AcDbEntity
   8
0
 370
15
   6
CONTINUOUS
  62
8
 100
AcDbDimension
   2
*D11
  10
 542.39959089104
  20
 201.74763856815
  30
0.0
  11
 533.41790533420
  21
 201.74763856815
  31
0.0
  70
128
   1
\A1;3.5
   3
GMM007
 100
AcDbAlignedDimension
  13
 538.39959089104
  23
 225.94688840738
  33
0.0
  14
 542.39959089104
  24
 227.44688840738
  34
0.0
 100
AcDbRotatedDimension
   0
DIMENSION
   5
2D5
 100
AcDbEntity
   8
0
 370
15
   6
CONTINUOUS
  62
8
 100
AcDbDimension
   2
*D12
  10
 597.39959089104
  20
 201.74763856815
  30
0.0
  11
 569.89959089104
  21
 201.74763856815
  31
0.0
  70
0
   1
\A1;L
   3
GMM003
 100
AcDbAlignedDimension
  13
 542.39959089104
  23
 227.44688840738
  33
0.0
  14
 597.39959089104
  24
 262.94688840738
  34
0.0
 100
AcDbRotatedDimension
   0
DIMENSION
   5
2D6
 100
AcDbEntity
   8
0
 370
15
   6
CONTINUOUS
  62
8
 100
AcDbDimension
   2
*D13
  10
 519.89075412283
  20
 270.94688840738
  30
0.0
  11
 519.89075412283
  21
 248.44688840738
  31
0.0
  70
0
   3
GMM001
 100
AcDbAlignedDimension
  13
 538.39959089104
  23
 225.94688840738
  33
0.0
  14
 538.39959089104
  24
 270.94688840738
  34
0.0
  50
 90.000000000000
 100
AcDbRotatedDimension
   0
ARC
   5
2D7
 100
AcDbEntity
   8
LEVEL001
 370
20
   6
CONTINUOUS
  62
7
 100
AcDbCircle
  10
 582.89959089104
  20
 262.94688840738
  30
0.0
  40
 21.000000000000
 100
AcDbArc
  50
 270.00000000000
  51
0.0
   0
ARC
   5
2D8
 100
AcDbEntity
   8
LEVEL001
 370
20
   6
CONTINUOUS
  62
7
 100
AcDbCircle
  10
 582.89959089104
  20
 262.94688840738
  30
0.0
  40
 8.0000000000000
 100
AcDbArc
  50
 270.00000000000
  51
0.0
   0
LINE
   5
2D9
 100
AcDbEntity
   8
LEVEL001
 370
20
 100
AcDbLine
   6
CONTINUOUS
  62
7
  10
 582.89959089104
  20
 254.94688840738
  30
0.0
  11
 542.39959089104
  21
 254.94688840738
  31
0.0
   0
LINE
   5
2DA
 100
AcDbEntity
   8
LEVEL001
 370
20
 100
AcDbLine
   6
CONTINUOUS
  62
7
  10
 542.39959089104
  20
 241.94688840738
  30
0.0
  11
 582.89959089104
  21
 241.94688840738
  31
0.0
   0
LINE
   5
2DB
 100
AcDbEntity
   8
LEVEL001
 370
20
 100
AcDbLine
   6
CONTINUOUS
  62
7
  10
 542.39959089104
  20
 254.94688840738
  30
0.0
  11
 542.39959089104
  21
 269.44688840738
  31
0.0
   0
LINE
   5
2DC
 100
AcDbEntity
   8
LEVEL001
 370
20
 100
AcDbLine
   6
CONTINUOUS
  62
7
  10
 538.39959089104
  20
 270.94688840738
  30
0.0
  11
 540.89959089104
  21
 270.94688840738
  31
0.0
   0
LINE
   5
2DD
 100
AcDbEntity
   8
LEVEL001
 370
20
 100
AcDbLine
   6
CONTINUOUS
  62
7
  10
 540.89959089104
  20
 270.94688840738
  30
0.0
  11
 542.39959089104
  21
 269.44688840738
  31
0.0
   0
LINE
   5
2DE
 100
AcDbEntity
   8
LEVEL001
 370
20
 100
AcDbLine
   6
CONTINUOUS
  62
7
  10
 540.89959089104
  20
 270.94688840738
  30
0.0
  11
 540.89959089104
  21
 225.94688840738
  31
0.0
   0
LINE
   5
2DF
 100
AcDbEntity
   8
LEVEL001
 370
20
 100
AcDbLine
   6
CONTINUOUS
  62
7
  10
 542.39959089104
  20
 227.44688840738
  30
0.0
  11
 542.39959089104
  21
 241.94688840738
  31
0.0
   0
LINE
   5
2E0
 100
AcDbEntity
   8
LEVEL001
 370
20
 100
AcDbLine
   6
CONTINUOUS
  62
7
  10
 538.39959089104
  20
 225.94688840738
  30
0.0
  11
 540.89959089104
  21
 225.94688840738
  31
0.0
   0
LINE
   5
2E1
 100
AcDbEntity
   8
LEVEL001
 370
20
 100
AcDbLine
   6
CONTINUOUS
  62
7
  10
 540.89959089104
  20
 225.94688840738
  30
0.0
  11
 542.39959089104
  21
 227.44688840738
  31
0.0
   0
LINE
   5
2E2
 100
AcDbEntity
   8
LEVEL001
 370
20
 100
AcDbLine
   6
CONTINUOUS
  62
7
  10
 538.39959089104
  20
 270.94688840738
  30
0.0
  11
 538.39959089104
  21
 225.94688840738
  31
0.0
   0
LINE
   5
2E3
 100
AcDbEntity
   8
LEVEL001
 370
20
 100
AcDbLine
   6
CONTINUOUS
  62
7
  10
 542.39959089104
  20
 254.94688840738
  30
0.0
  11
 542.39959089104
  21
 241.94688840738
  31
0.0
   0
LINE
   5
2E4
 100
AcDbEntity
   8
LEVEL001
 370
20
 100
AcDbLine
   6
CONTINUOUS
  62
7
  10
 603.89959089104
  20
 262.94688840738
  30
0.0
  11
 603.89959089104
  21
 283.44688840738
  31
0.0
   0
LINE
   5
2E5
 100
AcDbEntity
   8
LEVEL001
 370
20
 100
AcDbLine
   6
CONTINUOUS
  62
7
  10
 590.89959089104
  20
 283.44688840738
  30
0.0
  11
 590.89959089104
  21
 262.94688840738
  31
0.0
   0
LINE
   5
2E6
 100
AcDbEntity
   8
LEVEL001
 370
20
 100
AcDbLine
   6
CONTINUOUS
  62
7
  10
 703.35019573839
  20
 248.44688840738
  30
0.0
  11
 703.35019573839
  21
 283.44688840738
  31
0.0
   0
ARC
   5
2E7
 100
AcDbEntity
   8
LEVEL001
 370
20
   6
CONTINUOUS
  62
7
 100
AcDbCircle
  10
 696.85019573839
  20
 248.44688840738
  30
0.0
  40
 6.5000000000000
 100
AcDbArc
  50
 180.00000000000
  51
0.0
   0
LINE
   5
2E8
 100
AcDbEntity
   8
LEVEL001
 370
20
 100
AcDbLine
   6
CONTINUOUS
  62
7
  10
 690.35019573839
  20
 283.44688840738
  30
0.0
  11
 690.35019573839
  21
 248.44688840738
  31
0.0
   0
ARC
   5
2E9
 100
AcDbEntity
   8
LEVEL001
 370
20
   6
CONTINUOUS
  62
7
 100
AcDbCircle
  10
 696.85019573839
  20
 248.44688840738
  30
0.0
  40
 22.500000000000
 100
AcDbArc
  50
 106.79144711459
  51
 73.208552885411
   0
ARC
   5
2EA
 100
AcDbEntity
   8
LEVEL001
 370
20
   6
CONTINUOUS
  62
7
 100
AcDbCircle
  10
 696.85019573839
  20
 248.44688840738
  30
0.0
  40
 21.000000000000
 100
AcDbArc
  50
 108.03053539334
  51
 71.969464606662
   0
LINE
   5
2EB
 100
AcDbEntity
   8
LEVEL001
 370
15
 100
AcDbLine
   6
HIDDEN
  62
2
  10
 543.09959089104
  20
 244.14688840738
  30
0.0
  11
 572.89959089104
  21
 244.14688840738
  31
0.0
   0
LINE
   5
2EC
 100
AcDbEntity
   8
LEVEL001
 370
15
 100
AcDbLine
   6
HIDDEN
  62
2
  10
 572.89959089104
  20
 244.14688840738
  30
0.0
  11
 574.89959089104
  21
 248.44688840738
  31
0.0
   0
LINE
   5
2ED
 100
AcDbEntity
   8
LEVEL001
 370
15
 100
AcDbLine
   6
HIDDEN
  62
2
  10
 568.01959089104
  20
 244.14688840738
  30
0.0
  11
 566.89959089104
  21
 243.44688840738
  31
0.0
   0
LINE
   5
2EE
 100
AcDbEntity
   8
LEVEL001
 370
15
 100
AcDbLine
   6
HIDDEN
  62
2
  10
 566.89959089104
  20
 243.44688840738
  30
0.0
  11
 542.39959089104
  21
 243.44688840738
  31
0.0
   0
LINE
   5
2EF
 100
AcDbEntity
   8
LEVEL001
 370
15
 100
AcDbLine
   6
HIDDEN
  62
2
  10
 572.89959089104
  20
 252.74688840738
  30
0.0
  11
 572.89959089104
  21
 244.14688840738
  31
0.0
   0
LINE
   5
2F0
 100
AcDbEntity
   8
LEVEL001
 370
15
 100
AcDbLine
   6
HIDDEN
  62
2
  10
 566.89959089104
  20
 253.44688840738
  30
0.0
  11
 566.89959089104
  21
 243.44688840738
  31
0.0
   0
LINE
   5
2F1
 100
AcDbEntity
   8
LEVEL001
 370
15
 100
AcDbLine
   6
HIDDEN
  62
2
  10
 543.09959089104
  20
 252.74688840738
  30
0.0
  11
 543.09959089104
  21
 244.14688840738
  31
0.0
   0
LINE
   5
2F2
 100
AcDbEntity
   8
LEVEL001
 370
15
 100
AcDbLine
   6
HIDDEN
  62
2
  10
 543.09959089104
  20
 244.14688840738
  30
0.0
  11
 541.89959089104
  21
 242.94688840738
  31
0.0
   0
LINE
   5
2F3
 100
AcDbEntity
   8
LEVEL001
 370
15
 100
AcDbLine
   6
HIDDEN
  62
2
  10
 568.01959089104
  20
 252.74688840738
  30
0.0
  11
 568.01959089104
  21
 244.14688840738
  31
0.0
   0
LINE
   5
2F4
 100
AcDbEntity
   8
LEVEL001
 370
15
 100
AcDbLine
   6
HIDDEN
  62
2
  10
 572.89959089104
  20
 252.74688840738
  30
0.0
  11
 543.09959089104
  21
 252.74688840738
  31
0.0
   0
LINE
   5
2F5
 100
AcDbEntity
   8
LEVEL001
 370
15
 100
AcDbLine
   6
HIDDEN
  62
2
  10
 542.39959089104
  20
 253.44688840738
  30
0.0
  11
 566.89959089104
  21
 253.44688840738
  31
0.0
   0
LINE
   5
2F6
 100
AcDbEntity
   8
LEVEL001
 370
15
 100
AcDbLine
   6
HIDDEN
  62
2
  10
 543.09959089104
  20
 252.74688840738
  30
0.0
  11
 541.89959089104
  21
 253.94688840738
  31
0.0
   0
LINE
   5
2F7
 100
AcDbEntity
   8
LEVEL001
 370
15
 100
AcDbLine
   6
HIDDEN
  62
2
  10
 574.89959089104
  20
 248.44688840738
  30
0.0
  11
 572.89959089104
  21
 252.74688840738
  31
0.0
   0
LINE
   5
2F8
 100
AcDbEntity
   8
LEVEL001
 370
15
 100
AcDbLine
   6
HIDDEN
  62
2
  10
 566.89959089104
  20
 253.44688840738
  30
0.0
  11
 568.01959089104
  21
 252.74688840738
  31
0.0
   0
LINE
   5
2F9
 100
AcDbEntity
   8
LEVEL001
 370
15
 100
AcDbLine
   6
HIDDEN
  62
2
  10
 541.89959089104
  20
 253.59688840743
  30
0.0
  11
 538.39959089104
  21
 253.59688840743
  31
0.0
   0
LINE
   5
2FA
 100
AcDbEntity
   8
LEVEL001
 370
15
 100
AcDbLine
   6
HIDDEN
  62
2
  10
 541.89959089104
  20
 243.29688840732
  30
0.0
  11
 538.39959089104
  21
 243.29688840732
  31
0.0
   0
LEADER
   5
2FB
 100
AcDbEntity
   8
0
 370
15
   6
CONTINUOUS
  62
8
 100
AcDbLeader
   3
GMM005
  73
0
  74
1
  75
0
  40
 10.000000000000
  41
 26.000000000000
  76
2
  10
 558.03179009123
  20
 253.44688840738
  30
0.0
  10
 542.30185692195
  20
 293.73009275286
  30
0.0
  77
8
 340
2FC
 213
0.0
 223
-4.0000000000000
 233
0.0
   0
MTEXT
   5
2FC
 102
{ACAD_REACTORS
 330
2FB
 102
}
 100
AcDbEntity
   8
0
 370
15
  62
8
 100
AcDbMText
  10
 516.30185692195
  20
 297.73009275286
  30
0.0
  40
 10.000000000000
  41
0.0
  71
7
  72
1
   1
\A1;Ｍ１０
   7
GMM001
   0
LINE
   5
2FD
 100
AcDbEntity
   8
0
 370
20
 100
AcDbLine
   6
CONTINUOUS
  62
7
  10
 690.35019573839
  20
 283.44688840738
  30
0.0
  11
 703.35019573839
  21
 283.44688840738
  31
0.0
   0
MTEXT
   5
2FF
 100
AcDbEntity
   8
LEVEL001
 370
15
  62
8
 100
AcDbMText
  10
 1543.0000000001
  20
 88.000000000010
  30
0.0
  40
 10.000000000000
  41
0.0
  71
2
  72
1
   1
{\W1.000000;\T1.000000;手摺金具－ＰＩＫＫ}\P{\W1.000000;\T1.000000;　　　　　\W0.500000;\T1.000000;(\W1.000000;\T1.000000;１６軸\W0.500000;\T1.000000;)(\W1.000000;\T1.000000;１３軸\W0.500000;\T1.000000;)}
   7
GMM001
  44
 0.79999984000003
   0
ELLIPSE
   5
300
 100
AcDbEntity
   8
LEVEL004
 370
20
   6
CONTINUOUS
  62
1
 100
AcDbEllipse
  10
 597.39959089104
  20
 286.41688840738
  30
0.0
  11
 3.1000000000000
  21
0.0
  31
0.0
  40
 0.25784140611193
  41
 0.35236570605779E-15
  42
-3.1415926535898
   0
ARC
   5
301
 100
AcDbEntity
   8
LEVEL004
 370
20
   6
CONTINUOUS
  62
1
 100
AcDbCircle
  10
 597.39959089104
  20
 291.74688840738
  30
0.0
  40
 8.0000000000000
 100
AcDbArc
  50
 247.20096872811
  51
 292.79903127189
   0
LINE
   5
302
 100
AcDbEntity
   8
LEVEL004
 370
20
 100
AcDbLine
   6
CONTINUOUS
  62
1
  10
 584.89959089104
  20
 291.74688840738
  30
0.0
  11
 585.99783664005
  21
 291.74688840738
  31
0.0
   0
LINE
   5
303
 100
AcDbEntity
   8
LEVEL004
 370
20
 100
AcDbLine
   6
CONTINUOUS
  62
1
  10
 584.89959089104
  20
 293.74688840738
  30
0.0
  11
 585.99783664005
  21
 293.74688840738
  31
0.0
   0
LINE
   5
304
 100
AcDbEntity
   8
LEVEL004
 370
20
 100
AcDbLine
   6
CONTINUOUS
  62
1
  10
 609.89959089104
  20
 291.74688840738
  30
0.0
  11
 609.89959089104
  21
 293.74688840738
  31
0.0
   0
LINE
   5
305
 100
AcDbEntity
   8
LEVEL004
 370
20
 100
AcDbLine
   6
CONTINUOUS
  62
1
  10
 584.89959089104
  20
 291.74688840738
  30
0.0
  11
 584.89959089104
  21
 293.74688840738
  31
0.0
   0
ARC
   5
306
 100
AcDbEntity
   8
LEVEL007
 370
20
   6
HIDDEN
  62
1
 100
AcDbCircle
  10
 597.39959089104
  20
 291.74688840738
  30
0.0
  40
 8.0000000000000
 100
AcDbArc
  50
 187.49471745393
  51
 247.20096872810
   0
LINE
   5
307
 100
AcDbEntity
   8
LEVEL004
 370
20
 100
AcDbLine
   6
CONTINUOUS
  62
1
  10
 608.80134514203
  20
 291.74688840738
  30
0.0
  11
 609.89959089104
  21
 291.74688840738
  31
0.0
   0
ARC
   5
308
 100
AcDbEntity
   8
LEVEL004
 370
20
   6
CONTINUOUS
  62
1
 100
AcDbCircle
  10
 608.80134514203
  20
 290.24688840738
  30
0.0
  40
 1.5000000000000
 100
AcDbArc
  50
 89.999999999996
  51
 172.50528254607
   0
ARC
   5
309
 100
AcDbEntity
   8
LEVEL004
 370
20
   6
CONTINUOUS
  62
1
 100
AcDbCircle
  10
 585.99783664005
  20
 290.24688840738
  30
0.0
  40
 1.5000000000000
 100
AcDbArc
  50
 7.4947174539428
  51
 90.000000000009
   0
CIRCLE
   5
30A
 100
AcDbEntity
   8
LEVEL006
 370
20
 100
AcDbCircle
   6
CONTINUOUS
  62
1
  10
 587.40233745780
  20
 291.74688840738
  30
0.0
  40
 0.10000000000000
   0
CIRCLE
   5
30B
 100
AcDbEntity
   8
LEVEL006
 370
20
 100
AcDbCircle
   6
CONTINUOUS
  62
1
  10
 607.39959089104
  20
 291.74688840738
  30
0.0
  40
 0.10000000000000
   0
CIRCLE
   5
30C
 100
AcDbEntity
   8
LEVEL006
 370
20
 100
AcDbCircle
   6
CONTINUOUS
  62
1
  10
 597.39959089104
  20
 281.74688840738
  30
0.0
  40
 0.10000000000000
   0
ARC
   5
30D
 100
AcDbEntity
   8
LEVEL007
 370
20
   6
HIDDEN
  62
1
 100
AcDbCircle
  10
 597.39959089104
  20
 291.74688840738
  30
0.0
  40
 8.0000000000000
 100
AcDbArc
  50
 292.79903127190
  51
 352.50528254608
   0
LINE
   5
30E
 100
AcDbEntity
   8
LEVEL004
 370
20
 100
AcDbLine
   6
CONTINUOUS
  62
1
  10
 584.89959089104
  20
 291.74688840738
  30
0.0
  11
 609.89959089104
  21
 291.74688840738
  31
0.0
   0
LINE
   5
30F
 100
AcDbEntity
   8
LEVEL007
 370
20
 100
AcDbLine
   6
HIDDEN
  62
1
  10
 599.89959089104
  20
 293.44688840738
  30
0.0
  11
 599.89959089104
  21
 293.74688840738
  31
0.0
   0
LINE
   5
310
 100
AcDbEntity
   8
LEVEL007
 370
20
 100
AcDbLine
   6
HIDDEN
  62
1
  10
 594.89959089104
  20
 293.44688840738
  30
0.0
  11
 594.89959089104
  21
 293.74688840738
  31
0.0
   0
LINE
   5
311
 100
AcDbEntity
   8
LEVEL007
 370
20
 100
AcDbLine
   6
HIDDEN
  62
1
  10
 594.89959089104
  20
 293.44688840738
  30
0.0
  11
 599.89959089104
  21
 293.44688840738
  31
0.0
   0
LINE
   5
312
 100
AcDbEntity
   8
LEVEL007
 370
20
 100
AcDbLine
   6
HIDDEN
  62
1
  10
 601.69959089104
  20
 291.74688840738
  30
0.0
  11
 599.89959089104
  21
 293.44688840738
  31
0.0
   0
LINE
   5
313
 100
AcDbEntity
   8
LEVEL007
 370
20
 100
AcDbLine
   6
HIDDEN
  62
1
  10
 594.89959089104
  20
 293.44688840738
  30
0.0
  11
 593.09959089104
  21
 291.74688840738
  31
0.0
   0
LINE
   5
314
 100
AcDbEntity
   8
LEVEL004
 370
20
 100
AcDbLine
   6
CONTINUOUS
  62
1
  10
 585.99783664005
  20
 293.74688840738
  30
0.0
  11
 609.89959089104
  21
 293.74688840738
  31
0.0
   0
ARC
   5
315
 100
AcDbEntity
   8
LEVEL007
 370
20
   6
HIDDEN
  62
1
 100
AcDbCircle
  10
 585.99783664005
  20
 290.24688840738
  30
0.0
  40
 3.5000000000000
 100
AcDbArc
  50
 7.4947174539276
  51
 90.000000000015
   0
ARC
   5
316
 100
AcDbEntity
   8
LEVEL007
 370
20
   6
HIDDEN
  62
1
 100
AcDbCircle
  10
 608.80134514203
  20
 290.24688840738
  30
0.0
  40
 3.5000000000000
 100
AcDbArc
  50
 89.999999999985
  51
 172.50528254607
   0
ARC
   5
317
 100
AcDbEntity
   8
LEVEL004
 370
20
   6
CONTINUOUS
  62
1
 100
AcDbCircle
  10
 597.39959089104
  20
 291.74688840738
  30
0.0
  40
 10.000000000000
 100
AcDbArc
  50
 187.49471745393
  51
 236.09873800313
   0
LINE
   5
318
 100
AcDbEntity
   8
LEVEL004
 370
20
 100
AcDbLine
   6
CONTINUOUS
  62
1
  10
 594.29959089104
  20
 283.44688840738
  30
0.0
  11
 594.29959089104
  21
 286.41688840738
  31
0.0
   0
ARC
   5
319
 100
AcDbEntity
   8
LEVEL004
 370
20
   6
CONTINUOUS
  62
1
 100
AcDbCircle
  10
 597.39959089104
  20
 291.74688840738
  30
0.0
  40
 10.000000000000
 100
AcDbArc
  50
 303.90126199687
  51
 352.50528254608
   0
LINE
   5
31A
 100
AcDbEntity
   8
LEVEL004
 370
20
 100
AcDbLine
   6
CONTINUOUS
  62
1
  10
 600.49959089104
  20
 283.44688840738
  30
0.0
  11
 600.49959089104
  21
 286.41688840738
  31
0.0
   0
ARC
   5
31B
 100
AcDbEntity
   8
LEVEL005
 370
20
   6
HIDDEN
  62
1
 100
AcDbCircle
  10
 597.39959089104
  20
 291.74688840738
  30
0.0
  40
 10.000000000000
 100
AcDbArc
  50
 251.94076950921
  51
 288.05923049079
   0
ELLIPSE
   5
31C
 100
AcDbEntity
   8
LEVEL004
 370
20
   6
HIDDEN
  62
1
 100
AcDbEllipse
  10
 597.39959089104
  20
 282.23952284168
  30
0.0
  11
 3.1000000000000
  21
0.0
  31
0.0
  40
 0.71708622744303E-1
  41
-3.1415926535898
  42
 0.15853204166083E-14
   0
ARC
   5
31D
 100
AcDbEntity
   8
LEVEL004
 370
20
   6
HIDDEN
  62
1
 100
AcDbCircle
  10
 597.39959089104
  20
 291.74688840738
  30
0.0
  40
 10.000000000000
 100
AcDbArc
  50
 236.09873800314
  51
 251.94076950922
   0
LINE
   5
31E
 100
AcDbEntity
   8
LEVEL004
 370
20
 100
AcDbLine
   6
HIDDEN
  62
1
  10
 594.29959089104
  20
 282.23952284168
  30
0.0
  11
 594.29959089104
  21
 283.44688840738
  31
0.0
   0
ARC
   5
31F
 100
AcDbEntity
   8
LEVEL004
 370
20
   6
HIDDEN
  62
1
 100
AcDbCircle
  10
 597.39959089104
  20
 291.74688840738
  30
0.0
  40
 10.000000000000
 100
AcDbArc
  50
 288.05923049078
  51
 303.90126199686
   0
LINE
   5
320
 100
AcDbEntity
   8
LEVEL004
 370
20
 100
AcDbLine
   6
HIDDEN
  62
1
  10
 600.49959089104
  20
 282.23952284168
  30
0.0
  11
 600.49959089104
  21
 283.44688840738
  31
0.0
   0
DIMENSION
   5
321
 100
AcDbEntity
   8
0
 370
15
   6
CONTINUOUS
  62
8
 100
AcDbDimension
   2
*D15
  10
 609.89959089104
  20
 308.74688840738
  30
0.0
  11
 597.39959089104
  21
 308.74688840738
  31
0.0
  70
0
   3
GMM001
 100
AcDbAlignedDimension
  13
 584.89959089104
  23
 293.74688840738
  33
0.0
  14
 609.89959089104
  24
 293.74688840738
  34
0.0
 100
AcDbRotatedDimension
   0
ELLIPSE
   5
322
 100
AcDbEntity
   8
LEVEL004
 370
20
   6
CONTINUOUS
  62
1
 100
AcDbEllipse
  10
 593.73131002149
  20
 844.38537478664
  30
0.0
  11
 3.1000000000000
  21
0.0
  31
0.0
  40
 0.25784140611193
  41
 0.35236570605779E-15
  42
-3.1415926535898
   0
ARC
   5
323
 100
AcDbEntity
   8
LEVEL004
 370
20
   6
CONTINUOUS
  62
1
 100
AcDbCircle
  10
 593.73131002149
  20
 849.71537478664
  30
0.0
  40
 8.0000000000000
 100
AcDbArc
  50
 247.20096872811
  51
 292.79903127189
   0
LINE
   5
324
 100
AcDbEntity
   8
LEVEL004
 370
20
 100
AcDbLine
   6
CONTINUOUS
  62
1
  10
 581.23131002149
  20
 849.71537478664
  30
0.0
  11
 582.32955577050
  21
 849.71537478664
  31
0.0
   0
LINE
   5
325
 100
AcDbEntity
   8
LEVEL004
 370
20
 100
AcDbLine
   6
CONTINUOUS
  62
1
  10
 581.23131002149
  20
 851.71537478664
  30
0.0
  11
 582.32955577050
  21
 851.71537478664
  31
0.0
   0
LINE
   5
326
 100
AcDbEntity
   8
LEVEL004
 370
20
 100
AcDbLine
   6
CONTINUOUS
  62
1
  10
 606.23131002149
  20
 849.71537478664
  30
0.0
  11
 606.23131002149
  21
 851.71537478664
  31
0.0
   0
LINE
   5
327
 100
AcDbEntity
   8
LEVEL004
 370
20
 100
AcDbLine
   6
CONTINUOUS
  62
1
  10
 581.23131002149
  20
 849.71537478664
  30
0.0
  11
 581.23131002149
  21
 851.71537478664
  31
0.0
   0
ARC
   5
328
 100
AcDbEntity
   8
LEVEL007
 370
20
   6
HIDDEN
  62
1
 100
AcDbCircle
  10
 593.73131002149
  20
 849.71537478664
  30
0.0
  40
 8.0000000000000
 100
AcDbArc
  50
 187.49471745393
  51
 247.20096872810
   0
LINE
   5
329
 100
AcDbEntity
   8
LEVEL004
 370
20
 100
AcDbLine
   6
CONTINUOUS
  62
1
  10
 605.13306427248
  20
 849.71537478664
  30
0.0
  11
 606.23131002149
  21
 849.71537478664
  31
0.0
   0
ARC
   5
32A
 100
AcDbEntity
   8
LEVEL004
 370
20
   6
CONTINUOUS
  62
1
 100
AcDbCircle
  10
 605.13306427248
  20
 848.21537478664
  30
0.0
  40
 1.5000000000000
 100
AcDbArc
  50
 89.999999999996
  51
 172.50528254607
   0
ARC
   5
32B
 100
AcDbEntity
   8
LEVEL004
 370
20
   6
CONTINUOUS
  62
1
 100
AcDbCircle
  10
 582.32955577050
  20
 848.21537478664
  30
0.0
  40
 1.5000000000000
 100
AcDbArc
  50
 7.4947174539428
  51
 90.000000000009
   0
CIRCLE
   5
32C
 100
AcDbEntity
   8
LEVEL006
 370
20
 100
AcDbCircle
   6
CONTINUOUS
  62
1
  10
 583.73405658825
  20
 849.71537478664
  30
0.0
  40
 0.10000000000000
   0
CIRCLE
   5
32D
 100
AcDbEntity
   8
LEVEL006
 370
20
 100
AcDbCircle
   6
CONTINUOUS
  62
1
  10
 603.73131002149
  20
 849.71537478664
  30
0.0
  40
 0.10000000000000
   0
CIRCLE
   5
32E
 100
AcDbEntity
   8
LEVEL006
 370
20
 100
AcDbCircle
   6
CONTINUOUS
  62
1
  10
 593.73131002149
  20
 839.71537478664
  30
0.0
  40
 0.10000000000000
   0
ARC
   5
32F
 100
AcDbEntity
   8
LEVEL007
 370
20
   6
HIDDEN
  62
1
 100
AcDbCircle
  10
 593.73131002149
  20
 849.71537478664
  30
0.0
  40
 8.0000000000000
 100
AcDbArc
  50
 292.79903127190
  51
 352.50528254608
   0
LINE
   5
330
 100
AcDbEntity
   8
LEVEL004
 370
20
 100
AcDbLine
   6
CONTINUOUS
  62
1
  10
 581.23131002149
  20
 849.71537478664
  30
0.0
  11
 606.23131002149
  21
 849.71537478664
  31
0.0
   0
LINE
   5
331
 100
AcDbEntity
   8
LEVEL007
 370
20
 100
AcDbLine
   6
HIDDEN
  62
1
  10
 596.23131002149
  20
 851.41537478664
  30
0.0
  11
 596.23131002149
  21
 851.71537478664
  31
0.0
   0
LINE
   5
332
 100
AcDbEntity
   8
LEVEL007
 370
20
 100
AcDbLine
   6
HIDDEN
  62
1
  10
 591.23131002149
  20
 851.41537478664
  30
0.0
  11
 591.23131002149
  21
 851.71537478664
  31
0.0
   0
LINE
   5
333
 100
AcDbEntity
   8
LEVEL007
 370
20
 100
AcDbLine
   6
HIDDEN
  62
1
  10
 591.23131002149
  20
 851.41537478664
  30
0.0
  11
 596.23131002149
  21
 851.41537478664
  31
0.0
   0
LINE
   5
334
 100
AcDbEntity
   8
LEVEL007
 370
20
 100
AcDbLine
   6
HIDDEN
  62
1
  10
 598.03131002149
  20
 849.71537478664
  30
0.0
  11
 596.23131002149
  21
 851.41537478664
  31
0.0
   0
LINE
   5
335
 100
AcDbEntity
   8
LEVEL007
 370
20
 100
AcDbLine
   6
HIDDEN
  62
1
  10
 591.23131002149
  20
 851.41537478664
  30
0.0
  11
 589.43131002149
  21
 849.71537478664
  31
0.0
   0
LINE
   5
336
 100
AcDbEntity
   8
LEVEL004
 370
20
 100
AcDbLine
   6
CONTINUOUS
  62
1
  10
 582.32955577050
  20
 851.71537478664
  30
0.0
  11
 606.23131002149
  21
 851.71537478664
  31
0.0
   0
ARC
   5
337
 100
AcDbEntity
   8
LEVEL007
 370
20
   6
HIDDEN
  62
1
 100
AcDbCircle
  10
 582.32955577050
  20
 848.21537478664
  30
0.0
  40
 3.5000000000000
 100
AcDbArc
  50
 7.4947174539276
  51
 90.000000000015
   0
ARC
   5
338
 100
AcDbEntity
   8
LEVEL007
 370
20
   6
HIDDEN
  62
1
 100
AcDbCircle
  10
 605.13306427248
  20
 848.21537478664
  30
0.0
  40
 3.5000000000000
 100
AcDbArc
  50
 89.999999999985
  51
 172.50528254607
   0
ARC
   5
339
 100
AcDbEntity
   8
LEVEL004
 370
20
   6
CONTINUOUS
  62
1
 100
AcDbCircle
  10
 593.73131002149
  20
 849.71537478664
  30
0.0
  40
 10.000000000000
 100
AcDbArc
  50
 187.49471745393
  51
 236.09873800313
   0
LINE
   5
33A
 100
AcDbEntity
   8
LEVEL004
 370
20
 100
AcDbLine
   6
CONTINUOUS
  62
1
  10
 590.63131002149
  20
 841.41537478664
  30
0.0
  11
 590.63131002149
  21
 844.38537478664
  31
0.0
   0
ARC
   5
33B
 100
AcDbEntity
   8
LEVEL004
 370
20
   6
CONTINUOUS
  62
1
 100
AcDbCircle
  10
 593.73131002149
  20
 849.71537478664
  30
0.0
  40
 10.000000000000
 100
AcDbArc
  50
 303.90126199687
  51
 352.50528254608
   0
LINE
   5
33C
 100
AcDbEntity
   8
LEVEL004
 370
20
 100
AcDbLine
   6
CONTINUOUS
  62
1
  10
 596.83131002149
  20
 841.41537478664
  30
0.0
  11
 596.83131002149
  21
 844.38537478664
  31
0.0
   0
ARC
   5
33D
 100
AcDbEntity
   8
LEVEL005
 370
20
   6
HIDDEN
  62
1
 100
AcDbCircle
  10
 593.73131002149
  20
 849.71537478664
  30
0.0
  40
 10.000000000000
 100
AcDbArc
  50
 251.94076950921
  51
 288.05923049079
   0
ELLIPSE
   5
33E
 100
AcDbEntity
   8
LEVEL004
 370
20
   6
HIDDEN
  62
1
 100
AcDbEllipse
  10
 593.73131002149
  20
 840.20800922094
  30
0.0
  11
 3.1000000000000
  21
0.0
  31
0.0
  40
 0.71708622744303E-1
  41
-3.1415926535898
  42
 0.15853204166083E-14
   0
ARC
   5
33F
 100
AcDbEntity
   8
LEVEL004
 370
20
   6
HIDDEN
  62
1
 100
AcDbCircle
  10
 593.73131002149
  20
 849.71537478664
  30
0.0
  40
 10.000000000000
 100
AcDbArc
  50
 236.09873800314
  51
 251.94076950922
   0
LINE
   5
340
 100
AcDbEntity
   8
LEVEL004
 370
20
 100
AcDbLine
   6
HIDDEN
  62
1
  10
 590.63131002149
  20
 840.20800922094
  30
0.0
  11
 590.63131002149
  21
 841.41537478664
  31
0.0
   0
ARC
   5
341
 100
AcDbEntity
   8
LEVEL004
 370
20
   6
HIDDEN
  62
1
 100
AcDbCircle
  10
 593.73131002149
  20
 849.71537478664
  30
0.0
  40
 10.000000000000
 100
AcDbArc
  50
 288.05923049078
  51
 303.90126199686
   0
LINE
   5
342
 100
AcDbEntity
   8
LEVEL004
 370
20
 100
AcDbLine
   6
HIDDEN
  62
1
  10
 596.83131002149
  20
 840.20800922094
  30
0.0
  11
 596.83131002149
  21
 841.41537478664
  31
0.0
   0
DIMENSION
   5
343
 100
AcDbEntity
   8
0
 370
15
   6
CONTINUOUS
  62
8
 100
AcDbDimension
   2
*D16
  10
 606.23131002149
  20
 866.71537478664
  30
0.0
  11
 593.73131002149
  21
 866.71537478664
  31
0.0
  70
0
   3
GMM001
 100
AcDbAlignedDimension
  13
 581.23131002149
  23
 851.71537478664
  33
0.0
  14
 606.23131002149
  24
 851.71537478664
  34
0.0
 100
AcDbRotatedDimension
   0
LINE
   5
344
 100
AcDbEntity
   8
LEVEL001
 370
15
 100
AcDbLine
   6
DASHDOT
  62
8
  10
 593.73131002149
  20
 861.41205280274
  30
0.0
  11
 593.73131002149
  21
 812.41537478664
  31
0.0
   0
LINE
   5
345
 100
AcDbEntity
   8
LEVEL001
 370
15
 100
AcDbLine
   6
DASHDOT
  62
8
  10
 597.39959089104
  20
 302.53485981591
  30
0.0
  11
 597.39959089104
  21
 262.94688840738
  31
0.0
   0
LINE
   5
346
 100
AcDbEntity
   8
LEVEL004
 370
20
 100
AcDbLine
   6
CONTINUOUS
  62
1
  10
 736.85019573839
  20
 293.74688840738
  30
0.0
  11
 736.85019573839
  21
 291.74688840738
  31
0.0
   0
LINE
   5
347
 100
AcDbEntity
   8
LEVEL004
 370
20
 100
AcDbLine
   6
CONTINUOUS
  62
1
  10
 656.85019573839
  20
 293.74688840738
  30
0.0
  11
 656.85019573839
  21
 291.74688840738
  31
0.0
   0
LINE
   5
348
 100
AcDbEntity
   8
LEVEL004
 370
20
 100
AcDbLine
   6
CONTINUOUS
  62
1
  10
 656.85019573839
  20
 291.74688840738
  30
0.0
  11
 685.44844148740
  21
 291.74688840738
  31
0.0
   0
LINE
   5
349
 100
AcDbEntity
   8
LEVEL004
 370
20
 100
AcDbLine
   6
CONTINUOUS
  62
1
  10
 708.25194998938
  20
 291.74688840738
  30
0.0
  11
 736.85019573839
  21
 291.74688840738
  31
0.0
   0
LINE
   5
34A
 100
AcDbEntity
   8
LEVEL004
 370
20
 100
AcDbLine
   6
CONTINUOUS
  62
1
  10
 656.85019573839
  20
 293.74688840738
  30
0.0
  11
 685.44844148740
  21
 293.74688840738
  31
0.0
   0
LINE
   5
34B
 100
AcDbEntity
   8
LEVEL004
 370
20
 100
AcDbLine
   6
CONTINUOUS
  62
1
  10
 707.80464688849
  20
 293.74688840738
  30
0.0
  11
 736.85019573839
  21
 293.74688840738
  31
0.0
   0
LINE
   5
34C
 100
AcDbEntity
   8
LEVEL004
 370
20
 100
AcDbLine
   6
CONTINUOUS
  62
1
  10
 707.80464688849
  20
 293.74688840738
  30
0.0
  11
 708.25194998938
  21
 293.74688840738
  31
0.0
   0
ARC
   5
34D
 100
AcDbEntity
   8
LEVEL004
 370
20
   6
CONTINUOUS
  62
1
 100
AcDbCircle
  10
 708.25194998938
  20
 290.24688840738
  30
0.0
  40
 1.5000000000000
 100
AcDbArc
  50
 89.999999999996
  51
 172.50528254607
   0
ARC
   5
34E
 100
AcDbEntity
   8
LEVEL004
 370
20
   6
CONTINUOUS
  62
1
 100
AcDbCircle
  10
 685.44844148740
  20
 290.24688840738
  30
0.0
  40
 1.5000000000000
 100
AcDbArc
  50
 7.4947174539250
  51
 90.000000000004
   0
LINE
   5
34F
 100
AcDbEntity
   8
LEVEL004
 370
20
 100
AcDbLine
   6
CONTINUOUS
  62
1
  10
 708.25194998938
  20
 293.74688840738
  30
0.0
  11
 685.89574458828
  21
 293.74688840738
  31
0.0
   0
ARC
   5
350
 100
AcDbEntity
   8
LEVEL004
 370
20
   6
HIDDEN
  62
1
 100
AcDbCircle
  10
 696.85019573839
  20
 291.74688840738
  30
0.0
  40
 8.0000000000000
 100
AcDbArc
  50
 187.49471745390
  51
 352.50528254610
   0
ARC
   5
351
 100
AcDbEntity
   8
LEVEL004
 370
20
   6
HIDDEN
  62
1
 100
AcDbCircle
  10
 708.25194998938
  20
 290.24688840738
  30
0.0
  40
 3.5000000000000
 100
AcDbArc
  50
 90.000000000015
  51
 172.50528254607
   0
LINE
   5
352
 100
AcDbEntity
   8
LEVEL004
 370
20
 100
AcDbLine
   6
HIDDEN
  62
1
  10
 701.07410344322
  20
 284.95287606555
  30
0.0
  11
 699.95019573839
  21
 282.23952284168
  31
0.0
   0
LINE
   5
353
 100
AcDbEntity
   8
LEVEL004
 370
20
 100
AcDbLine
   6
HIDDEN
  62
1
  10
 689.05934975881
  20
 289.92954999020
  30
0.0
  11
 687.93544205398
  21
 287.21619676633
  31
0.0
   0
ARC
   5
354
 100
AcDbEntity
   8
LEVEL004
 370
20
   6
HIDDEN
  62
1
 100
AcDbCircle
  10
 685.44844148739
  20
 290.24688840738
  30
0.0
  40
 3.5000000000000
 100
AcDbArc
  50
 7.4947174539276
  51
 89.999999999985
   0
LINE
   5
355
 100
AcDbEntity
   8
LEVEL004
 370
20
 100
AcDbLine
   6
HIDDEN
  62
1
  10
 724.25019573839
  20
 293.44688840738
  30
0.0
  11
 729.45019573839
  21
 293.44688840738
  31
0.0
   0
LINE
   5
356
 100
AcDbEntity
   8
LEVEL004
 370
20
 100
AcDbLine
   6
HIDDEN
  62
1
  10
 724.25019573839
  20
 293.44688840738
  30
0.0
  11
 722.55019573839
  21
 291.74688840738
  31
0.0
   0
LINE
   5
357
 100
AcDbEntity
   8
LEVEL004
 370
20
 100
AcDbLine
   6
HIDDEN
  62
1
  10
 724.25019573839
  20
 293.44688840738
  30
0.0
  11
 724.25019573839
  21
 293.74688840738
  31
0.0
   0
LINE
   5
358
 100
AcDbEntity
   8
LEVEL004
 370
20
 100
AcDbLine
   6
HIDDEN
  62
1
  10
 729.45019573839
  20
 293.44688840738
  30
0.0
  11
 731.15019573839
  21
 291.74688840738
  31
0.0
   0
LINE
   5
359
 100
AcDbEntity
   8
LEVEL004
 370
20
 100
AcDbLine
   6
HIDDEN
  62
1
  10
 729.45019573839
  20
 293.44688840738
  30
0.0
  11
 729.45019573839
  21
 293.74688840738
  31
0.0
   0
LINE
   5
35A
 100
AcDbEntity
   8
LEVEL004
 370
20
 100
AcDbLine
   6
HIDDEN
  62
1
  10
 669.45019573839
  20
 293.44688840738
  30
0.0
  11
 671.15019573839
  21
 291.74688840738
  31
0.0
   0
LINE
   5
35B
 100
AcDbEntity
   8
LEVEL004
 370
20
 100
AcDbLine
   6
HIDDEN
  62
1
  10
 669.45019573839
  20
 293.44688840738
  30
0.0
  11
 669.45019573839
  21
 293.74688840738
  31
0.0
   0
LINE
   5
35C
 100
AcDbEntity
   8
LEVEL004
 370
20
 100
AcDbLine
   6
HIDDEN
  62
1
  10
 669.45019573839
  20
 293.44688840738
  30
0.0
  11
 664.25019573838
  21
 293.44688840738
  31
0.0
   0
LINE
   5
35D
 100
AcDbEntity
   8
LEVEL004
 370
20
 100
AcDbLine
   6
HIDDEN
  62
1
  10
 664.25019573838
  20
 293.44688840738
  30
0.0
  11
 662.55019573839
  21
 291.74688840738
  31
0.0
   0
LINE
   5
35E
 100
AcDbEntity
   8
LEVEL004
 370
20
 100
AcDbLine
   6
HIDDEN
  62
1
  10
 664.25019573838
  20
 293.44688840738
  30
0.0
  11
 664.25019573838
  21
 293.74688840738
  31
0.0
   0
ARC
   5
35F
 100
AcDbEntity
   8
LEVEL004
 370
20
   6
CONTINUOUS
  62
1
 100
AcDbCircle
  10
 696.85019573839
  20
 291.74688840738
  30
0.0
  40
 10.000000000000
 100
AcDbArc
  50
 303.90126199687
  51
 352.50528254608
   0
ARC
   5
360
 100
AcDbEntity
   8
LEVEL004
 370
20
   6
CONTINUOUS
  62
1
 100
AcDbCircle
  10
 696.85019573839
  20
 291.74688840738
  30
0.0
  40
 10.000000000000
 100
AcDbArc
  50
 187.49471745393
  51
 236.09873800315
   0
ARC
   5
361
 100
AcDbEntity
   8
LEVEL004
 370
20
   6
HIDDEN
  62
1
 100
AcDbCircle
  10
 696.85019573839
  20
 291.74688840738
  30
0.0
  40
 10.000000000000
 100
AcDbArc
  50
 236.09873800314
  51
 303.90126199686
   0
LINE
   5
362
 100
AcDbEntity
   8
LEVEL006
 370
15
 100
AcDbLine
   6
DASHDOT
  62
8
  10
 694.32550232855
  20
 285.65173933651
  30
0.0
  11
 692.13981720698
  21
 280.37502867295
  31
0.0
   0
LINE
   5
363
 100
AcDbEntity
   8
LEVEL005
 370
15
 100
AcDbLine
   6
DASHDOT
  62
8
  10
 666.85019573839
  20
 295.17446386850
  30
0.0
  11
 666.85019573839
  21
 290.08367824613
  31
0.0
   0
LINE
   5
364
 100
AcDbEntity
   8
LEVEL005
 370
15
 100
AcDbLine
   6
DASHDOT
  62
8
  10
 726.85019573839
  20
 295.17446386850
  30
0.0
  11
 726.85019573839
  21
 290.08367824613
  31
0.0
   0
DIMENSION
   5
365
 100
AcDbEntity
   8
0
 370
15
   6
CONTINUOUS
  62
8
 100
AcDbDimension
   2
*D17
  10
 758.72751148332
  20
 293.74688840738
  30
0.0
  11
 758.72751148332
  21
 301.27361204216
  31
0.0
  70
128
   3
GMM008
 100
AcDbAlignedDimension
  13
 736.85019573839
  23
 291.74688840738
  33
0.0
  14
 736.85019573839
  24
 293.74688840738
  34
0.0
  50
 90.000000000000
 100
AcDbRotatedDimension
   0
DIMENSION
   5
366
 100
AcDbEntity
   8
0
 370
15
   6
CONTINUOUS
  62
8
 100
AcDbDimension
   2
*D18
  10
 736.85019573839
  20
 308.74688840738
  30
0.0
  11
 696.85019573839
  21
 308.74688840738
  31
0.0
  70
0
   3
GMM001
 100
AcDbAlignedDimension
  13
 656.85019573839
  23
 293.74688840738
  33
0.0
  14
 736.85019573839
  24
 293.74688840738
  34
0.0
 100
AcDbRotatedDimension
   0
LINE
   5
367
 100
AcDbEntity
   8
LEVEL004
 370
20
 100
AcDbLine
   6
CONTINUOUS
  62
1
  10
 733.18191486883
  20
 851.71537478664
  30
0.0
  11
 733.18191486883
  21
 849.71537478664
  31
0.0
   0
LINE
   5
368
 100
AcDbEntity
   8
LEVEL004
 370
20
 100
AcDbLine
   6
CONTINUOUS
  62
1
  10
 653.18191486883
  20
 851.71537478664
  30
0.0
  11
 653.18191486883
  21
 849.71537478664
  31
0.0
   0
LINE
   5
369
 100
AcDbEntity
   8
LEVEL004
 370
20
 100
AcDbLine
   6
CONTINUOUS
  62
1
  10
 653.18191486883
  20
 849.71537478664
  30
0.0
  11
 681.78016061784
  21
 849.71537478664
  31
0.0
   0
LINE
   5
36A
 100
AcDbEntity
   8
LEVEL004
 370
20
 100
AcDbLine
   6
CONTINUOUS
  62
1
  10
 704.58366911982
  20
 849.71537478664
  30
0.0
  11
 733.18191486883
  21
 849.71537478664
  31
0.0
   0
LINE
   5
36B
 100
AcDbEntity
   8
LEVEL004
 370
20
 100
AcDbLine
   6
CONTINUOUS
  62
1
  10
 653.18191486883
  20
 851.71537478664
  30
0.0
  11
 681.78016061784
  21
 851.71537478664
  31
0.0
   0
LINE
   5
36C
 100
AcDbEntity
   8
LEVEL004
 370
20
 100
AcDbLine
   6
CONTINUOUS
  62
1
  10
 704.13636601893
  20
 851.71537478664
  30
0.0
  11
 733.18191486883
  21
 851.71537478664
  31
0.0
   0
LINE
   5
36D
 100
AcDbEntity
   8
LEVEL004
 370
20
 100
AcDbLine
   6
CONTINUOUS
  62
1
  10
 704.13636601893
  20
 851.71537478664
  30
0.0
  11
 704.58366911982
  21
 851.71537478664
  31
0.0
   0
ARC
   5
36E
 100
AcDbEntity
   8
LEVEL004
 370
20
   6
CONTINUOUS
  62
1
 100
AcDbCircle
  10
 704.58366911982
  20
 848.21537478664
  30
0.0
  40
 1.5000000000000
 100
AcDbArc
  50
 89.999999999996
  51
 172.50528254607
   0
ARC
   5
36F
 100
AcDbEntity
   8
LEVEL004
 370
20
   6
CONTINUOUS
  62
1
 100
AcDbCircle
  10
 681.78016061784
  20
 848.21537478664
  30
0.0
  40
 1.5000000000000
 100
AcDbArc
  50
 7.4947174539250
  51
 90.000000000004
   0
LINE
   5
370
 100
AcDbEntity
   8
LEVEL004
 370
20
 100
AcDbLine
   6
CONTINUOUS
  62
1
  10
 704.58366911982
  20
 851.71537478664
  30
0.0
  11
 682.22746371873
  21
 851.71537478664
  31
0.0
   0
ARC
   5
371
 100
AcDbEntity
   8
LEVEL004
 370
20
   6
HIDDEN
  62
1
 100
AcDbCircle
  10
 693.18191486883
  20
 849.71537478664
  30
0.0
  40
 8.0000000000000
 100
AcDbArc
  50
 187.49471745390
  51
 352.50528254610
   0
ARC
   5
372
 100
AcDbEntity
   8
LEVEL004
 370
20
   6
HIDDEN
  62
1
 100
AcDbCircle
  10
 704.58366911982
  20
 848.21537478664
  30
0.0
  40
 3.5000000000000
 100
AcDbArc
  50
 90.000000000015
  51
 172.50528254607
   0
LINE
   5
373
 100
AcDbEntity
   8
LEVEL004
 370
20
 100
AcDbLine
   6
HIDDEN
  62
1
  10
 697.40582257367
  20
 842.92136244481
  30
0.0
  11
 696.28191486883
  21
 840.20800922094
  31
0.0
   0
LINE
   5
374
 100
AcDbEntity
   8
LEVEL004
 370
20
 100
AcDbLine
   6
HIDDEN
  62
1
  10
 685.39106888926
  20
 847.89803636946
  30
0.0
  11
 684.26716118442
  21
 845.18468314559
  31
0.0
   0
ARC
   5
375
 100
AcDbEntity
   8
LEVEL004
 370
20
   6
HIDDEN
  62
1
 100
AcDbCircle
  10
 681.78016061784
  20
 848.21537478664
  30
0.0
  40
 3.5000000000000
 100
AcDbArc
  50
 7.4947174539276
  51
 89.999999999985
   0
LINE
   5
376
 100
AcDbEntity
   8
LEVEL004
 370
20
 100
AcDbLine
   6
HIDDEN
  62
1
  10
 720.58191486883
  20
 851.41537478664
  30
0.0
  11
 725.78191486883
  21
 851.41537478664
  31
0.0
   0
LINE
   5
377
 100
AcDbEntity
   8
LEVEL004
 370
20
 100
AcDbLine
   6
HIDDEN
  62
1
  10
 720.58191486883
  20
 851.41537478664
  30
0.0
  11
 718.88191486883
  21
 849.71537478664
  31
0.0
   0
LINE
   5
378
 100
AcDbEntity
   8
LEVEL004
 370
20
 100
AcDbLine
   6
HIDDEN
  62
1
  10
 720.58191486883
  20
 851.41537478664
  30
0.0
  11
 720.58191486883
  21
 851.71537478664
  31
0.0
   0
LINE
   5
379
 100
AcDbEntity
   8
LEVEL004
 370
20
 100
AcDbLine
   6
HIDDEN
  62
1
  10
 725.78191486883
  20
 851.41537478664
  30
0.0
  11
 727.48191486883
  21
 849.71537478664
  31
0.0
   0
LINE
   5
37A
 100
AcDbEntity
   8
LEVEL004
 370
20
 100
AcDbLine
   6
HIDDEN
  62
1
  10
 725.78191486883
  20
 851.41537478664
  30
0.0
  11
 725.78191486883
  21
 851.71537478664
  31
0.0
   0
LINE
   5
37B
 100
AcDbEntity
   8
LEVEL004
 370
20
 100
AcDbLine
   6
HIDDEN
  62
1
  10
 665.78191486883
  20
 851.41537478664
  30
0.0
  11
 667.48191486883
  21
 849.71537478664
  31
0.0
   0
LINE
   5
37C
 100
AcDbEntity
   8
LEVEL004
 370
20
 100
AcDbLine
   6
HIDDEN
  62
1
  10
 665.78191486883
  20
 851.41537478664
  30
0.0
  11
 665.78191486883
  21
 851.71537478664
  31
0.0
   0
LINE
   5
37D
 100
AcDbEntity
   8
LEVEL004
 370
20
 100
AcDbLine
   6
HIDDEN
  62
1
  10
 665.78191486883
  20
 851.41537478664
  30
0.0
  11
 660.58191486883
  21
 851.41537478664
  31
0.0
   0
LINE
   5
37E
 100
AcDbEntity
   8
LEVEL004
 370
20
 100
AcDbLine
   6
HIDDEN
  62
1
  10
 660.58191486883
  20
 851.41537478664
  30
0.0
  11
 658.88191486883
  21
 849.71537478664
  31
0.0
   0
LINE
   5
37F
 100
AcDbEntity
   8
LEVEL004
 370
20
 100
AcDbLine
   6
HIDDEN
  62
1
  10
 660.58191486883
  20
 851.41537478664
  30
0.0
  11
 660.58191486883
  21
 851.71537478664
  31
0.0
   0
ARC
   5
380
 100
AcDbEntity
   8
LEVEL004
 370
20
   6
CONTINUOUS
  62
1
 100
AcDbCircle
  10
 693.18191486883
  20
 849.71537478664
  30
0.0
  40
 10.000000000000
 100
AcDbArc
  50
 303.90126199687
  51
 352.50528254608
   0
ARC
   5
381
 100
AcDbEntity
   8
LEVEL004
 370
20
   6
CONTINUOUS
  62
1
 100
AcDbCircle
  10
 693.18191486883
  20
 849.71537478664
  30
0.0
  40
 10.000000000000
 100
AcDbArc
  50
 187.49471745393
  51
 236.09873800315
   0
ARC
   5
382
 100
AcDbEntity
   8
LEVEL004
 370
20
   6
HIDDEN
  62
1
 100
AcDbCircle
  10
 693.18191486883
  20
 849.71537478664
  30
0.0
  40
 10.000000000000
 100
AcDbArc
  50
 236.09873800314
  51
 303.90126199686
   0
LINE
   5
383
 100
AcDbEntity
   8
LEVEL006
 370
15
 100
AcDbLine
   6
DASHDOT
  62
8
  10
 690.65722145899
  20
 843.62022571577
  30
0.0
  11
 688.47153633743
  21
 838.34351505221
  31
0.0
   0
LINE
   5
384
 100
AcDbEntity
   8
LEVEL005
 370
15
 100
AcDbLine
   6
DASHDOT
  62
8
  10
 663.18191486883
  20
 853.14295024776
  30
0.0
  11
 663.18191486883
  21
 848.05216462539
  31
0.0
   0
LINE
   5
385
 100
AcDbEntity
   8
LEVEL005
 370
15
 100
AcDbLine
   6
DASHDOT
  62
8
  10
 723.18191486883
  20
 853.14295024776
  30
0.0
  11
 723.18191486883
  21
 848.05216462539
  31
0.0
   0
DIMENSION
   5
386
 100
AcDbEntity
   8
0
 370
15
   6
CONTINUOUS
  62
8
 100
AcDbDimension
   2
*D19
  10
 755.05923061376
  20
 851.71537478664
  30
0.0
  11
 755.05923061376
  21
 859.24209842142
  31
0.0
  70
128
   3
GMM008
 100
AcDbAlignedDimension
  13
 733.18191486883
  23
 849.71537478664
  33
0.0
  14
 733.18191486883
  24
 851.71537478664
  34
0.0
  50
 90.000000000000
 100
AcDbRotatedDimension
   0
DIMENSION
   5
387
 100
AcDbEntity
   8
0
 370
15
   6
CONTINUOUS
  62
8
 100
AcDbDimension
   2
*D20
  10
 733.18191486883
  20
 866.71537478664
  30
0.0
  11
 693.18191486883
  21
 866.71537478664
  31
0.0
  70
0
   3
GMM001
 100
AcDbAlignedDimension
  13
 653.18191486883
  23
 851.71537478664
  33
0.0
  14
 733.18191486883
  24
 851.71537478664
  34
0.0
 100
AcDbRotatedDimension
   0
LINE
   5
388
 100
AcDbEntity
   8
LEVEL004
 370
20
 100
AcDbLine
   6
CONTINUOUS
  62
1
  10
 656.85019573839
  20
 415.39615486021
  30
0.0
  11
 656.85019573839
  21
 394.39615486021
  31
0.0
   0
LINE
   5
389
 100
AcDbEntity
   8
LEVEL004
 370
20
 100
AcDbLine
   6
CONTINUOUS
  62
1
  10
 736.85019573839
  20
 415.39615486021
  30
0.0
  11
 736.85019573839
  21
 394.39615486021
  31
0.0
   0
CIRCLE
   5
38A
 100
AcDbEntity
   8
LEVEL004
 370
20
 100
AcDbCircle
   6
CONTINUOUS
  62
1
  10
 696.85019573839
  20
 404.89615486021
  30
0.0
  40
 10.000000000000
   0
ARC
   5
38B
 100
AcDbEntity
   8
LEVEL004
 370
20
   6
CONTINUOUS
  62
1
 100
AcDbCircle
  10
 696.85019573839
  20
 404.89615486021
  30
0.0
  40
 3.1000000000000
 100
AcDbArc
  50
 270.00000000000
  51
 90.000000000000
   0
ELLIPSE
   5
38C
 100
AcDbEntity
   8
LEVEL004
 370
20
   6
CONTINUOUS
  62
1
 100
AcDbEllipse
  10
 688.88894676785
  20
 404.89615486021
  30
0.0
  11
0.0
  21
-3.1000000000000
  31
0.0
  40
 0.30758216576479
  41
 3.1415926535898
  42
-0.14455775985966E-13
   0
ELLIPSE
   5
38D
 100
AcDbEntity
   8
LEVEL004
 370
20
   6
CONTINUOUS
  62
1
 100
AcDbEllipse
  10
 690.00370045226
  20
 404.89615486021
  30
0.0
  11
0.0
  21
-3.1000000000000
  31
0.0
  40
 0.30758216576479
  41
 3.1415926535898
  42
-0.14455775985966E-13
   0
CIRCLE
   5
38E
 100
AcDbEntity
   8
LEVEL004
 370
20
 100
AcDbCircle
   6
CONTINUOUS
  62
1
  10
 726.85019573839
  20
 404.89615486021
  30
0.0
  40
 2.5000000000000
   0
LINE
   5
38F
 100
AcDbEntity
   8
LEVEL004
 370
20
 100
AcDbLine
   6
CONTINUOUS
  62
1
  10
 658.85019573839
  20
 417.39615486021
  30
0.0
  11
 734.85019573839
  21
 417.39615486021
  31
0.0
   0
LINE
   5
390
 100
AcDbEntity
   8
LEVEL004
 370
20
 100
AcDbLine
   6
CONTINUOUS
  62
1
  10
 734.85019573839
  20
 392.39615486021
  30
0.0
  11
 658.85019573839
  21
 392.39615486021
  31
0.0
   0
ARC
   5
391
 100
AcDbEntity
   8
LEVEL004
 370
20
   6
CONTINUOUS
  62
1
 100
AcDbCircle
  10
 734.85019573839
  20
 415.39615486021
  30
0.0
  40
 2.0000000000000
 100
AcDbArc
  50
0.0
  51
 90.000000000000
   0
ARC
   5
392
 100
AcDbEntity
   8
LEVEL004
 370
20
   6
CONTINUOUS
  62
1
 100
AcDbCircle
  10
 658.85019573839
  20
 415.39615486021
  30
0.0
  40
 2.0000000000000
 100
AcDbArc
  50
 90.000000000000
  51
 180.00000000000
   0
ARC
   5
393
 100
AcDbEntity
   8
LEVEL004
 370
20
   6
CONTINUOUS
  62
1
 100
AcDbCircle
  10
 734.85019573839
  20
 394.39615486021
  30
0.0
  40
 2.0000000000000
 100
AcDbArc
  50
 270.00000000000
  51
0.0
   0
CIRCLE
   5
394
 100
AcDbEntity
   8
LEVEL004
 370
20
 100
AcDbCircle
   6
CONTINUOUS
  62
1
  10
 666.85019573839
  20
 404.89615486021
  30
0.0
  40
 2.5000000000000
   0
ARC
   5
395
 100
AcDbEntity
   8
LEVEL004
 370
20
   6
CONTINUOUS
  62
1
 100
AcDbCircle
  10
 658.85019573839
  20
 394.39615486021
  30
0.0
  40
 2.0000000000000
 100
AcDbArc
  50
 180.00000000000
  51
 270.00000000000
   0
CIRCLE
   5
396
 100
AcDbEntity
   8
LEVEL004
 370
20
 100
AcDbCircle
   6
HIDDEN
  62
1
  10
 726.85019573839
  20
 404.89615486021
  30
0.0
  40
 4.3000000000000
   0
CIRCLE
   5
397
 100
AcDbEntity
   8
LEVEL004
 370
20
 100
AcDbCircle
   6
HIDDEN
  62
1
  10
 666.85019573839
  20
 404.89615486021
  30
0.0
  40
 4.3000000000000
   0
LINE
   5
398
 100
AcDbEntity
   8
LEVEL004
 370
20
 100
AcDbLine
   6
CONTINUOUS
  62
1
  10
 696.85019573839
  20
 401.79615486021
  30
0.0
  11
 692.00741761008
  21
 401.79615486021
  31
0.0
   0
LINE
   5
399
 100
AcDbEntity
   8
LEVEL004
 370
20
 100
AcDbLine
   6
CONTINUOUS
  62
1
  10
 692.00741761008
  20
 401.79615486021
  30
0.0
  11
 688.88894676785
  21
 401.79615486021
  31
0.0
   0
LINE
   5
39A
 100
AcDbEntity
   8
LEVEL004
 370
20
 100
AcDbLine
   6
CONTINUOUS
  62
1
  10
 696.85019573839
  20
 407.99615486021
  30
0.0
  11
 692.00741761008
  21
 407.99615486021
  31
0.0
   0
LINE
   5
39B
 100
AcDbEntity
   8
LEVEL004
 370
20
 100
AcDbLine
   6
CONTINUOUS
  62
1
  10
 692.00741761008
  20
 407.99615486021
  30
0.0
  11
 688.88894676785
  21
 407.99615486021
  31
0.0
   0
LINE
   5
39C
 100
AcDbEntity
   8
0
 370
15
 100
AcDbLine
   6
DASHDOT
  62
8
  10
 726.85019573839
  20
 398.13572580073
  30
0.0
  11
 726.85019573839
  21
 411.65658391969
  31
0.0
   0
LINE
   5
39D
 100
AcDbEntity
   8
0
 370
15
 100
AcDbLine
   6
DASHDOT
  62
8
  10
 732.49188168317
  20
 404.89615486021
  30
0.0
  11
 721.20850979361
  21
 404.89615486021
  31
0.0
   0
DIMENSION
   5
39E
 100
AcDbEntity
   8
0
 370
15
   6
CONTINUOUS
  62
8
 100
AcDbDimension
   2
*D21
  10
 726.85019573839
  20
 372.39615486021
  30
0.0
  11
 696.85019573839
  21
 372.39615486021
  31
0.0
  70
0
   3
GMM001
 100
AcDbAlignedDimension
  13
 666.85019573839
  23
 398.13572580073
  33
0.0
  14
 726.85019573839
  24
 398.13572580073
  34
0.0
 100
AcDbRotatedDimension
   0
LINE
   5
39F
 100
AcDbEntity
   8
0
 370
15
 100
AcDbLine
   6
DASHDOT
  62
8
  10
 666.85019573839
  20
 398.13572580073
  30
0.0
  11
 666.85019573839
  21
 411.65658391969
  31
0.0
   0
LINE
   5
3A0
 100
AcDbEntity
   8
0
 370
15
 100
AcDbLine
   6
DASHDOT
  62
8
  10
 672.49188168317
  20
 404.89615486021
  30
0.0
  11
 661.20850979361
  21
 404.89615486021
  31
0.0
   0
DIMENSION
   5
3A1
 100
AcDbEntity
   8
0
 370
15
   6
CONTINUOUS
  62
8
 100
AcDbDimension
   2
*D22
  10
 736.85019573839
  20
 352.39615486021
  30
0.0
  11
 696.85019573839
  21
 352.39615486021
  31
0.0
  70
0
   3
GMM001
 100
AcDbAlignedDimension
  13
 656.85019573839
  23
 394.39615486021
  33
0.0
  14
 736.85019573839
  24
 394.39615486021
  34
0.0
 100
AcDbRotatedDimension
   0
ARC
   5
3A2
 100
AcDbEntity
   8
LEVEL002
 370
15
   6
CONTINUOUS
  62
5
 100
AcDbCircle
  10
 696.85019573839
  20
 404.89615486021
  30
0.0
  40
 3.1500000000000
 100
AcDbArc
  50
 352.40872336399
  51
 7.5912766360084
   0
ARC
   5
3A3
 100
AcDbEntity
   8
LEVEL002
 370
15
   6
CONTINUOUS
  62
5
 100
AcDbCircle
  10
 699.87346451659
  20
 404.49323316221
  30
0.0
  40
 0.10000000000000
 100
AcDbArc
  50
 272.64135881594
  51
 352.40872337667
   0
ARC
   5
3A4
 100
AcDbEntity
   8
LEVEL002
 370
15
   6
CONTINUOUS
  62
5
 100
AcDbCircle
  10
 700.00019573839
  20
 401.74615486021
  30
0.0
  40
 2.6500000000000
 100
AcDbArc
  50
 92.641358814901
  51
 177.35864118510
   0
CIRCLE
   5
3A5
 100
AcDbEntity
   8
LEVEL002
 370
15
 100
AcDbCircle
   6
CONTINUOUS
  62
5
  10
 696.85019573839
  20
 404.89615486021
  30
0.0
  40
 5.7500000000000
   0
ARC
   5
3A6
 100
AcDbEntity
   8
LEVEL002
 370
15
   6
CONTINUOUS
  62
5
 100
AcDbCircle
  10
 699.87346451660
  20
 405.29907655819
  30
0.0
  40
 0.10000000000000
 100
AcDbArc
  50
 7.5912766367316
  51
 87.358641189998
   0
ARC
   5
3A7
 100
AcDbEntity
   8
LEVEL002
 370
15
   6
CONTINUOUS
  62
5
 100
AcDbCircle
  10
 700.00019573839
  20
 408.04615486021
  30
0.0
  40
 2.6500000000000
 100
AcDbArc
  50
 182.64135881488
  51
 267.35864118510
   0
ARC
   5
3A8
 100
AcDbEntity
   8
LEVEL002
 370
15
   6
CONTINUOUS
  62
5
 100
AcDbCircle
  10
 696.85019573839
  20
 404.89615486021
  30
0.0
  40
 3.1500000000000
 100
AcDbArc
  50
 82.408723364038
  51
 97.591276636088
   0
ARC
   5
3A9
 100
AcDbEntity
   8
LEVEL002
 370
15
   6
CONTINUOUS
  62
5
 100
AcDbCircle
  10
 697.25311743632
  20
 407.91942363843
  30
0.0
  40
 0.10000000000000
 100
AcDbArc
  50
 2.6413588101660
  51
 82.408723337014
   0
ARC
   5
3AA
 100
AcDbEntity
   8
LEVEL002
 370
15
   6
CONTINUOUS
  62
5
 100
AcDbCircle
  10
 696.44727404041
  20
 407.91942363844
  30
0.0
  40
 0.10000000000000
 100
AcDbArc
  50
 97.591276639265
  51
 177.35864119975
   0
ARC
   5
3AB
 100
AcDbEntity
   8
LEVEL002
 370
15
   6
CONTINUOUS
  62
5
 100
AcDbCircle
  10
 693.70019573839
  20
 408.04615486021
  30
0.0
  40
 2.6500000000000
 100
AcDbArc
  50
 272.64135881490
  51
 357.35864118512
   0
ARC
   5
3AC
 100
AcDbEntity
   8
LEVEL002
 370
15
   6
CONTINUOUS
  62
5
 100
AcDbCircle
  10
 696.85019573839
  20
 404.89615486021
  30
0.0
  40
 3.1500000000000
 100
AcDbArc
  50
 172.40872336399
  51
 187.59127663601
   0
ARC
   5
3AD
 100
AcDbEntity
   8
LEVEL002
 370
15
   6
CONTINUOUS
  62
5
 100
AcDbCircle
  10
 693.82692696018
  20
 405.29907655819
  30
0.0
  40
 0.10000000000000
 100
AcDbArc
  50
 92.641358813913
  51
 172.40872336133
   0
ARC
   5
3AE
 100
AcDbEntity
   8
LEVEL002
 370
15
   6
CONTINUOUS
  62
5
 100
AcDbCircle
  10
 693.70019573839
  20
 401.74615486021
  30
0.0
  40
 2.6500000000000
 100
AcDbArc
  50
 2.6413588149008
  51
 87.358641185099
   0
ARC
   5
3AF
 100
AcDbEntity
   8
LEVEL002
 370
15
   6
CONTINUOUS
  62
5
 100
AcDbCircle
  10
 693.82692696020
  20
 404.49323316223
  30
0.0
  40
 0.10000000000000
 100
AcDbArc
  50
 187.59127663322
  51
 267.35864117076
   0
ARC
   5
3B0
 100
AcDbEntity
   8
LEVEL002
 370
15
   6
CONTINUOUS
  62
5
 100
AcDbCircle
  10
 696.85019573839
  20
 404.89615486021
  30
0.0
  40
 3.1500000000000
 100
AcDbArc
  50
 262.40872336397
  51
 277.59127663603
   0
ARC
   5
3B1
 100
AcDbEntity
   8
LEVEL002
 370
15
   6
CONTINUOUS
  62
5
 100
AcDbCircle
  10
 697.25311743637
  20
 401.87288608197
  30
0.0
  40
 0.10000000000000
 100
AcDbArc
  50
 277.59127663953
  51
 357.35864120500
   0
ARC
   5
3B2
 100
AcDbEntity
   8
LEVEL002
 370
15
   6
CONTINUOUS
  62
5
 100
AcDbCircle
  10
 696.85019573839
  20
 404.89615486021
  30
0.0
  40
 5.2500000000000
 100
AcDbArc
  50
 202.71545977072
  51
 157.28454022928
   0
ARC
   5
3B3
 100
AcDbEntity
   8
LEVEL002
 370
15
   6
CONTINUOUS
  62
5
 100
AcDbCircle
  10
 696.85019573839
  20
 404.89615486021
  30
0.0
  40
 5.2500000000000
 100
AcDbArc
  50
 157.28454022928
  51
 202.71545977072
   0
LINE
   5
3B4
 100
AcDbEntity
   8
LEVEL004
 370
20
 100
AcDbLine
   6
CONTINUOUS
  62
1
  10
 653.18191486883
  20
 973.36464123947
  30
0.0
  11
 653.18191486883
  21
 952.36464123947
  31
0.0
   0
LINE
   5
3B5
 100
AcDbEntity
   8
LEVEL004
 370
20
 100
AcDbLine
   6
CONTINUOUS
  62
1
  10
 733.18191486883
  20
 973.36464123947
  30
0.0
  11
 733.18191486883
  21
 952.36464123947
  31
0.0
   0
CIRCLE
   5
3B6
 100
AcDbEntity
   8
LEVEL004
 370
20
 100
AcDbCircle
   6
CONTINUOUS
  62
1
  10
 693.18191486883
  20
 962.86464123947
  30
0.0
  40
 10.000000000000
   0
ARC
   5
3B7
 100
AcDbEntity
   8
LEVEL004
 370
20
   6
CONTINUOUS
  62
1
 100
AcDbCircle
  10
 693.18191486883
  20
 962.86464123947
  30
0.0
  40
 3.1000000000000
 100
AcDbArc
  50
 270.00000000000
  51
 90.000000000000
   0
ELLIPSE
   5
3B8
 100
AcDbEntity
   8
LEVEL004
 370
20
   6
CONTINUOUS
  62
1
 100
AcDbEllipse
  10
 685.22066589829
  20
 962.86464123947
  30
0.0
  11
0.0
  21
-3.1000000000000
  31
0.0
  40
 0.30758216576479
  41
 3.1415926535898
  42
-0.14455775985966E-13
   0
ELLIPSE
   5
3B9
 100
AcDbEntity
   8
LEVEL004
 370
20
   6
CONTINUOUS
  62
1
 100
AcDbEllipse
  10
 686.33541958270
  20
 962.86464123947
  30
0.0
  11
0.0
  21
-3.1000000000000
  31
0.0
  40
 0.30758216576479
  41
 3.1415926535898
  42
-0.14455775985966E-13
   0
CIRCLE
   5
3BA
 100
AcDbEntity
   8
LEVEL004
 370
20
 100
AcDbCircle
   6
CONTINUOUS
  62
1
  10
 723.18191486883
  20
 962.86464123947
  30
0.0
  40
 2.5000000000000
   0
LINE
   5
3BB
 100
AcDbEntity
   8
LEVEL004
 370
20
 100
AcDbLine
   6
CONTINUOUS
  62
1
  10
 655.18191486883
  20
 975.36464123947
  30
0.0
  11
 731.18191486883
  21
 975.36464123947
  31
0.0
   0
LINE
   5
3BC
 100
AcDbEntity
   8
LEVEL004
 370
20
 100
AcDbLine
   6
CONTINUOUS
  62
1
  10
 731.18191486883
  20
 950.36464123947
  30
0.0
  11
 655.18191486883
  21
 950.36464123947
  31
0.0
   0
ARC
   5
3BD
 100
AcDbEntity
   8
LEVEL004
 370
20
   6
CONTINUOUS
  62
1
 100
AcDbCircle
  10
 731.18191486883
  20
 973.36464123947
  30
0.0
  40
 2.0000000000000
 100
AcDbArc
  50
0.0
  51
 90.000000000000
   0
ARC
   5
3BE
 100
AcDbEntity
   8
LEVEL004
 370
20
   6
CONTINUOUS
  62
1
 100
AcDbCircle
  10
 655.18191486883
  20
 973.36464123947
  30
0.0
  40
 2.0000000000000
 100
AcDbArc
  50
 90.000000000000
  51
 180.00000000000
   0
ARC
   5
3BF
 100
AcDbEntity
   8
LEVEL004
 370
20
   6
CONTINUOUS
  62
1
 100
AcDbCircle
  10
 731.18191486883
  20
 952.36464123947
  30
0.0
  40
 2.0000000000000
 100
AcDbArc
  50
 270.00000000000
  51
0.0
   0
CIRCLE
   5
3C0
 100
AcDbEntity
   8
LEVEL004
 370
20
 100
AcDbCircle
   6
CONTINUOUS
  62
1
  10
 663.18191486883
  20
 962.86464123947
  30
0.0
  40
 2.5000000000000
   0
ARC
   5
3C1
 100
AcDbEntity
   8
LEVEL004
 370
20
   6
CONTINUOUS
  62
1
 100
AcDbCircle
  10
 655.18191486883
  20
 952.36464123947
  30
0.0
  40
 2.0000000000000
 100
AcDbArc
  50
 180.00000000000
  51
 270.00000000000
   0
CIRCLE
   5
3C2
 100
AcDbEntity
   8
LEVEL004
 370
20
 100
AcDbCircle
   6
HIDDEN
  62
1
  10
 723.18191486883
  20
 962.86464123947
  30
0.0
  40
 4.3000000000000
   0
CIRCLE
   5
3C3
 100
AcDbEntity
   8
LEVEL004
 370
20
 100
AcDbCircle
   6
HIDDEN
  62
1
  10
 663.18191486883
  20
 962.86464123947
  30
0.0
  40
 4.3000000000000
   0
LINE
   5
3C4
 100
AcDbEntity
   8
LEVEL004
 370
20
 100
AcDbLine
   6
CONTINUOUS
  62
1
  10
 693.18191486883
  20
 959.76464123947
  30
0.0
  11
 688.33913674053
  21
 959.76464123947
  31
0.0
   0
LINE
   5
3C5
 100
AcDbEntity
   8
LEVEL004
 370
20
 100
AcDbLine
   6
CONTINUOUS
  62
1
  10
 688.33913674053
  20
 959.76464123947
  30
0.0
  11
 685.22066589829
  21
 959.76464123947
  31
0.0
   0
LINE
   5
3C6
 100
AcDbEntity
   8
LEVEL004
 370
20
 100
AcDbLine
   6
CONTINUOUS
  62
1
  10
 693.18191486883
  20
 965.96464123947
  30
0.0
  11
 688.33913674053
  21
 965.96464123947
  31
0.0
   0
LINE
   5
3C7
 100
AcDbEntity
   8
LEVEL004
 370
20
 100
AcDbLine
   6
CONTINUOUS
  62
1
  10
 688.33913674053
  20
 965.96464123947
  30
0.0
  11
 685.22066589829
  21
 965.96464123947
  31
0.0
   0
LINE
   5
3C8
 100
AcDbEntity
   8
0
 370
15
 100
AcDbLine
   6
DASHDOT
  62
8
  10
 723.18191486883
  20
 956.10421217999
  30
0.0
  11
 723.18191486883
  21
 969.62507029895
  31
0.0
   0
LINE
   5
3C9
 100
AcDbEntity
   8
0
 370
15
 100
AcDbLine
   6
DASHDOT
  62
8
  10
 728.82360081361
  20
 962.86464123947
  30
0.0
  11
 717.54022892405
  21
 962.86464123947
  31
0.0
   0
DIMENSION
   5
3CA
 100
AcDbEntity
   8
0
 370
15
   6
CONTINUOUS
  62
8
 100
AcDbDimension
   2
*D23
  10
 723.18191486883
  20
 930.36464123947
  30
0.0
  11
 693.18191486883
  21
 930.36464123947
  31
0.0
  70
0
   3
GMM001
 100
AcDbAlignedDimension
  13
 663.18191486883
  23
 956.10421217999
  33
0.0
  14
 723.18191486883
  24
 956.10421217999
  34
0.0
 100
AcDbRotatedDimension
   0
LINE
   5
3CB
 100
AcDbEntity
   8
0
 370
15
 100
AcDbLine
   6
DASHDOT
  62
8
  10
 663.18191486883
  20
 956.10421217999
  30
0.0
  11
 663.18191486883
  21
 969.62507029895
  31
0.0
   0
LINE
   5
3CC
 100
AcDbEntity
   8
0
 370
15
 100
AcDbLine
   6
DASHDOT
  62
8
  10
 668.82360081361
  20
 962.86464123947
  30
0.0
  11
 657.54022892405
  21
 962.86464123947
  31
0.0
   0
DIMENSION
   5
3CD
 100
AcDbEntity
   8
0
 370
15
   6
CONTINUOUS
  62
8
 100
AcDbDimension
   2
*D24
  10
 733.18191486883
  20
 910.36464123947
  30
0.0
  11
 693.18191486883
  21
 910.36464123947
  31
0.0
  70
0
   3
GMM001
 100
AcDbAlignedDimension
  13
 653.18191486883
  23
 952.36464123947
  33
0.0
  14
 733.18191486883
  24
 952.36464123947
  34
0.0
 100
AcDbRotatedDimension
   0
ARC
   5
3CE
 100
AcDbEntity
   8
LEVEL002
 370
15
   6
CONTINUOUS
  62
5
 100
AcDbCircle
  10
 693.18191486883
  20
 962.86464123947
  30
0.0
  40
 3.1500000000000
 100
AcDbArc
  50
 352.40872336399
  51
 7.5912766360084
   0
ARC
   5
3CF
 100
AcDbEntity
   8
LEVEL002
 370
15
   6
CONTINUOUS
  62
5
 100
AcDbCircle
  10
 696.20518364703
  20
 962.46171954147
  30
0.0
  40
 0.10000000000000
 100
AcDbArc
  50
 272.64135881594
  51
 352.40872337670
   0
ARC
   5
3D0
 100
AcDbEntity
   8
LEVEL002
 370
15
   6
CONTINUOUS
  62
5
 100
AcDbCircle
  10
 696.33191486883
  20
 959.71464123947
  30
0.0
  40
 2.6500000000000
 100
AcDbArc
  50
 92.641358814901
  51
 177.35864118510
   0
CIRCLE
   5
3D1
 100
AcDbEntity
   8
LEVEL002
 370
15
 100
AcDbCircle
   6
CONTINUOUS
  62
5
  10
 693.18191486883
  20
 962.86464123947
  30
0.0
  40
 5.7500000000000
   0
ARC
   5
3D2
 100
AcDbEntity
   8
LEVEL002
 370
15
   6
CONTINUOUS
  62
5
 100
AcDbCircle
  10
 696.20518364704
  20
 963.26756293745
  30
0.0
  40
 0.10000000000000
 100
AcDbArc
  50
 7.5912766367639
  51
 87.358641190000
   0
ARC
   5
3D3
 100
AcDbEntity
   8
LEVEL002
 370
15
   6
CONTINUOUS
  62
5
 100
AcDbCircle
  10
 696.33191486883
  20
 966.01464123947
  30
0.0
  40
 2.6500000000000
 100
AcDbArc
  50
 182.64135881488
  51
 267.35864118510
   0
ARC
   5
3D4
 100
AcDbEntity
   8
LEVEL002
 370
15
   6
CONTINUOUS
  62
5
 100
AcDbCircle
  10
 693.18191486884
  20
 962.86464123947
  30
0.0
  40
 3.1500000000000
 100
AcDbArc
  50
 82.408723364038
  51
 97.591276636088
   0
ARC
   5
3D5
 100
AcDbEntity
   8
LEVEL002
 370
15
   6
CONTINUOUS
  62
5
 100
AcDbCircle
  10
 693.58483656676
  20
 965.88791001769
  30
0.0
  40
 0.10000000000000
 100
AcDbArc
  50
 2.6413588101986
  51
 82.408723337018
   0
ARC
   5
3D6
 100
AcDbEntity
   8
LEVEL002
 370
15
   6
CONTINUOUS
  62
5
 100
AcDbCircle
  10
 692.77899317085
  20
 965.88791001770
  30
0.0
  40
 0.10000000000000
 100
AcDbArc
  50
 97.591276639260
  51
 177.35864119971
   0
ARC
   5
3D7
 100
AcDbEntity
   8
LEVEL002
 370
15
   6
CONTINUOUS
  62
5
 100
AcDbCircle
  10
 690.03191486883
  20
 966.01464123947
  30
0.0
  40
 2.6500000000000
 100
AcDbArc
  50
 272.64135881490
  51
 357.35864118512
   0
ARC
   5
3D8
 100
AcDbEntity
   8
LEVEL002
 370
15
   6
CONTINUOUS
  62
5
 100
AcDbCircle
  10
 693.18191486883
  20
 962.86464123947
  30
0.0
  40
 3.1500000000000
 100
AcDbArc
  50
 172.40872336399
  51
 187.59127663601
   0
ARC
   5
3D9
 100
AcDbEntity
   8
LEVEL002
 370
15
   6
CONTINUOUS
  62
5
 100
AcDbCircle
  10
 690.15864609062
  20
 963.26756293745
  30
0.0
  40
 0.10000000000000
 100
AcDbArc
  50
 92.641358813913
  51
 172.40872336133
   0
ARC
   5
3DA
 100
AcDbEntity
   8
LEVEL002
 370
15
   6
CONTINUOUS
  62
5
 100
AcDbCircle
  10
 690.03191486883
  20
 959.71464123947
  30
0.0
  40
 2.6500000000000
 100
AcDbArc
  50
 2.6413588149008
  51
 87.358641185099
   0
ARC
   5
3DB
 100
AcDbEntity
   8
LEVEL002
 370
15
   6
CONTINUOUS
  62
5
 100
AcDbCircle
  10
 690.15864609064
  20
 962.46171954149
  30
0.0
  40
 0.10000000000000
 100
AcDbArc
  50
 187.59127663322
  51
 267.35864117076
   0
ARC
   5
3DC
 100
AcDbEntity
   8
LEVEL002
 370
15
   6
CONTINUOUS
  62
5
 100
AcDbCircle
  10
 693.18191486883
  20
 962.86464123947
  30
0.0
  40
 3.1500000000000
 100
AcDbArc
  50
 262.40872336397
  51
 277.59127663603
   0
ARC
   5
3DD
 100
AcDbEntity
   8
LEVEL002
 370
15
   6
CONTINUOUS
  62
5
 100
AcDbCircle
  10
 693.58483656681
  20
 959.84137246123
  30
0.0
  40
 0.10000000000000
 100
AcDbArc
  50
 277.59127663953
  51
 357.35864120500
   0
ARC
   5
3DE
 100
AcDbEntity
   8
LEVEL002
 370
15
   6
CONTINUOUS
  62
5
 100
AcDbCircle
  10
 693.18191486883
  20
 962.86464123947
  30
0.0
  40
 5.2500000000000
 100
AcDbArc
  50
 202.71545977072
  51
 157.28454022928
   0
ARC
   5
3DF
 100
AcDbEntity
   8
LEVEL002
 370
15
   6
CONTINUOUS
  62
5
 100
AcDbCircle
  10
 693.18191486883
  20
 962.86464123947
  30
0.0
  40
 5.2500000000000
 100
AcDbArc
  50
 157.28454022928
  51
 202.71545977072
   0
LINE
   5
3E0
 100
AcDbEntity
   8
LEVEL001
 370
15
 100
AcDbLine
   6
HIDDEN
  62
2
  10
 685.18191486883
  20
 962.86464123947
  30
0.0
  11
 685.18191486883
  21
 975.36464123947
  31
0.0
   0
LINE
   5
3E1
 100
AcDbEntity
   8
LEVEL001
 370
20
 100
AcDbLine
   6
CONTINUOUS
  62
7
  10
 685.18191486883
  20
 975.36464123947
  30
0.0
  11
 685.18191486883
  21
 1020.8646412395
  31
0.0
   0
LINE
   5
3E2
 100
AcDbEntity
   8
LEVEL001
 370
15
 100
AcDbLine
   6
HIDDEN
  62
2
  10
 701.18191486883
  20
 975.36464123947
  30
0.0
  11
 701.18191486883
  21
 962.86464123947
  31
0.0
   0
LINE
   5
3E3
 100
AcDbEntity
   8
LEVEL001
 370
20
 100
AcDbLine
   6
CONTINUOUS
  62
7
  10
 701.18191486883
  20
 1020.8646412395
  30
0.0
  11
 701.18191486883
  21
 975.36464123947
  31
0.0
   0
LINE
   5
3E4
 100
AcDbEntity
   8
LEVEL001
 370
15
 100
AcDbLine
   6
HIDDEN
  62
2
  10
 690.35019573840
  20
 404.89615486021
  30
0.0
  11
 690.35019573840
  21
 417.39615486021
  31
0.0
   0
LINE
   5
3E5
 100
AcDbEntity
   8
LEVEL001
 370
20
 100
AcDbLine
   6
CONTINUOUS
  62
7
  10
 690.35019573840
  20
 417.39615486021
  30
0.0
  11
 690.35019573840
  21
 459.89615486021
  31
0.0
   0
LINE
   5
3E6
 100
AcDbEntity
   8
LEVEL001
 370
15
 100
AcDbLine
   6
HIDDEN
  62
2
  10
 703.35019573840
  20
 417.39615486021
  30
0.0
  11
 703.35019573840
  21
 404.89615486021
  31
0.0
   0
LINE
   5
3E7
 100
AcDbEntity
   8
LEVEL001
 370
20
 100
AcDbLine
   6
CONTINUOUS
  62
7
  10
 703.35019573840
  20
 459.89615486021
  30
0.0
  11
 703.35019573840
  21
 417.39615486021
  31
0.0
   0
MTEXT
   5
3E9
 100
AcDbEntity
   8
LEVEL001
 370
15
  62
8
 100
AcDbMText
  10
 1287.2799276686
  20
 636.92436335994
  30
0.0
  40
 12.000000000000
  41
0.0
  71
1
  72
1
   1
{\T1.000000;※出寸法Ｌは軸の中心までの寸法です。}\P{\T1.000000;※傾斜角度は片方向に０～４５%%dの範囲です。}\P{\T1.000000;※ネジ切りはＭ１０です。}
   7
GMM001
  44
 0.79999984000003
   0
LEADER
   5
3EA
 100
AcDbEntity
   8
0
 370
15
   6
CONTINUOUS
  62
8
 100
AcDbLeader
   3
GMM005
  73
0
  74
0
  75
0
  40
 10.000000000000
  41
 62.000000000000
  76
2
  10
 729.88340027434
  20
 407.65471793619
  30
0.0
  10
 745.33890451505
  20
 423.15672333350
  30
0.0
  77
8
 340
3EB
 213
0.0
 223
-4.0000000000000
 233
0.0
   0
MTEXT
   5
3EB
 102
{ACAD_REACTORS
 330
3EA
 102
}
 100
AcDbEntity
   8
0
 370
15
  62
8
 100
AcDbMText
  10
 745.33890451505
  20
 427.15672333350
  30
0.0
  40
 10.000000000000
  41
0.0
  71
7
  72
1
   1
\A1;下穴%%c５/皿%%c８
   7
GMM001
   0
LEADER
   5
3EC
 100
AcDbEntity
   8
0
 370
15
   6
CONTINUOUS
  62
8
 100
AcDbLeader
   3
GMM005
  73
0
  74
0
  75
0
  40
 10.000000000000
  41
 62.000000000000
  76
2
  10
 726.21511940479
  20
 965.62320431545
  30
0.0
  10
 741.67062364550
  20
 981.12520971276
  30
0.0
  77
8
 340
3ED
 213
0.0
 223
-4.0000000000000
 233
0.0
   0
MTEXT
   5
3ED
 102
{ACAD_REACTORS
 330
3EC
 102
}
 100
AcDbEntity
   8
0
 370
15
  62
8
 100
AcDbMText
  10
 741.67062364550
  20
 985.12520971276
  30
0.0
  40
 10.000000000000
  41
0.0
  71
7
  72
1
   1
\A1;下穴%%c５/皿%%c８
   7
GMM001
   0
MTEXT
   5
3EF
 100
AcDbEntity
   8
LEVEL001
 370
15
  62
8
 100
AcDbMText
  10
 1573.2000000001
  20
 194.66666666668
  30
0.0
  40
 8.0000000000000
  41
0.0
  71
5
  72
1
   1
\T1.000000;平成３１年　２月　１日
   7
GMM001
  44
 0.79999984000003
   0
MTEXT
   5
3F1
 100
AcDbEntity
   8
LEVEL001
 370
15
  62
8
 100
AcDbMText
  10
 63.200000000103
  20
 576.25076754632
  30
0.0
  40
 12.000000000000
  41
0.0
  71
4
  72
1
   1
\T1.000000;　ＰＩＫＫ２５（１３軸）
   7
GMM001
  44
 0.79999984000003
   0
ENDSEC
  0
SECTION
  2
OBJECTS
  0
DICTIONARY
  5
C
100
AcDbDictionary
  3
ACAD_GROUP
350
D
  3
ACAD_MLINESTYLE
350
1B
  3
DWGPROPS
350
1C
  0
DICTIONARY
  5
D
102
{ACAD_REACTORS
330
C
102
}
100
AcDbDictionary
  0
DICTIONARY
  5
1B
102
{ACAD_REACTORS
330
C
102
}
100
AcDbDictionary
  3
STANDARD
350
1D
  0
MLINESTYLE
  5
1D
102
{ACAD_REACTORS
330
1B
102
}
100
AcDbMlineStyle
  2
STANDARD
 70
     0
  3

 62
   256
 51
90.0
 52
90.0
 71
     2
 49
0.5
 62
   256
  6
BYLAYER
 49
-0.5
 62
   256
  6
BYLAYER
   0
XRECORD
   5
1C
 102
{ACAD_REACTORS
 330
C
 102
}
 330
C
 100
AcDbXrecord
 280
1
   1
DWGPROPS COOKIE
   2
 
   3
 
   4
haruna
   6
 
   7
PIKK(16軸・13軸)
   8
haruna
   9

 300
 = 
 301
 = 
 302
 = 
 303
 = 
 304
 = 
 305
 = 
 306
 = 
 307
 = 
 308
 = 
 309
 = 
  40
0.0
  41
 2458515.5000000
  42
 2458519.5000000
   1

  90
10
   0
ENDSEC
   0
EOF
