   0
SECTION
   2
HEADER
   9
$ACADVER
   1
AC1015
   9
$DWGCODEPAGE
   3
ANSI_932
   9
$LIMMIN
  10
0.0
  20
0.0
   9
$LIMMAX
  10
 1680.0000000000
  20
 1188.0000000000
   9
$EXTMIN
  10
0.0
  20
0.0
  30
0.0
   9
$EXTMAX
  10
 1680.0000000000
  20
 1188.0000000000
  30
0.0
   9
$LTSCALE
  40
 33.600000000000
   9
$HANDSEED
   5
422
   0
ENDSEC
   0
SECTION
   2
TABLES
  0
TABLE
  2
VPORT
  5
8
100
AcDbSymbolTable
 70
     1
  0
VPORT
  5
421
100
AcDbSymbolTableRecord
100
AcDbViewportTableRecord
  2
*ACTIVE
 70
     0
 10
0.0
 20
0.0
 11
1.0
 21
1.0
  12
 840.00000000000
  22
 594.00000000000
 13
0.0
 23
0.0
 14
1.0
 24
1.0
 15
0.0
 25
0.0
 16
0.0
 26
0.0
 36
1.0
 17
0.0
 27
0.0
 37
0.0
  40
 1680.0000000000
  41
 1.4787878787879
 42
50.0
 43
0.0
 44
0.0
 50
0.0
 51
0.0
 71
     0
 72
   100
 73
     1
 74
     1
 75
     0
 76
     0
 77
     0
 78
     0
  0
ENDTAB
  0
TABLE
  2
LTYPE
  5
5
100
AcDbSymbolTable
 70
    25
  0
LTYPE
  5
12
100
AcDbSymbolTableRecord
100
AcDbLinetypeTableRecord
  2
BYBLOCK
 70
     0
  3

 72
    65
 73
     0
 40
0.0
  0
LTYPE
  5
13
100
AcDbSymbolTableRecord
100
AcDbLinetypeTableRecord
  2
BYLAYER
 70
     0
  3

 72
    65
 73
     0
 40
0.0
  0
LTYPE
  5
14
100
AcDbSymbolTableRecord
100
AcDbLinetypeTableRecord
  2
CONTINUOUS
 70
     0
  3
Solid line
 72
    65
 73
     0
 40
0.0
  0
LTYPE
  5
20
100
AcDbSymbolTableRecord
100
AcDbLinetypeTableRecord
  2
BORDER
 70
     0
  3
__ __ . __ __ . __ __ . __ __ . __ __ . __ __ .
 72
    65
 73
     6
 40
1.75
 49
0.5
 74
     0
 49
-0.25
 74
     0
 49
0.5
 74
     0
 49
-0.25
 74
     0
 49
0.0
 74
     0
 49
-0.25
 74
     0
  0
LTYPE
  5
21
100
AcDbSymbolTableRecord
100
AcDbLinetypeTableRecord
  2
BORDER2
 70
     0
  3
__.__.__.__.__.__.__.__.__.__.__.__.__.__.__.__
 72
    65
 73
     6
 40
0.875
 49
0.25
 74
     0
 49
-0.125
 74
     0
 49
0.25
 74
     0
 49
-0.125
 74
     0
 49
0.0
 74
     0
 49
-0.125
 74
     0
  0
LTYPE
  5
22
100
AcDbSymbolTableRecord
100
AcDbLinetypeTableRecord
  2
BORDERX2
 70
     0
  3
____  ____  .  ____  ____  .  ____  ____  .  __
 72
    65
 73
     6
 40
3.5
 49
1.0
 74
     0
 49
-0.5
 74
     0
 49
1.0
 74
     0
 49
-0.5
 74
     0
 49
0.0
 74
     0
 49
-0.5
 74
     0
  0
LTYPE
  5
23
100
AcDbSymbolTableRecord
100
AcDbLinetypeTableRecord
  2
CENTER
 70
     0
  3
____ _ ____ _ ____ _ ____ _ ____ _ ____ _ ____ 
 72
    65
 73
     4
 40
2.0
 49
1.25
 74
     0
 49
-0.25
 74
     0
 49
0.25
 74
     0
 49
-0.25
 74
     0
  0
LTYPE
  5
24
100
AcDbSymbolTableRecord
100
AcDbLinetypeTableRecord
  2
CENTER2
 70
     0
  3
___ _ ___ _ ___ _ ___ _ ___ _ ___ _ ___ _ ___ _
 72
    65
 73
     4
 40
1.125
 49
0.75
 74
     0
 49
-0.125
 74
     0
 49
0.125
 74
     0
 49
-0.125
 74
     0
  0
LTYPE
  5
25
100
AcDbSymbolTableRecord
100
AcDbLinetypeTableRecord
  2
CENTERX2
 70
     0
  3
________  __  ________  __  ________  __  _____
 72
    65
 73
     4
 40
4.0
 49
2.5
 74
     0
 49
-0.5
 74
     0
 49
0.5
 74
     0
 49
-0.5
 74
     0
  0
LTYPE
  5
26
100
AcDbSymbolTableRecord
100
AcDbLinetypeTableRecord
  2
DASHDOT
 70
     0
  3
__ . __ . __ . __ . __ . __ . __ . __ . __ . __
 72
    65
 73
     4
 40
1.0
 49
0.5
 74
     0
 49
-0.25
 74
     0
 49
0.0
 74
     0
 49
-0.25
 74
     0
  0
LTYPE
  5
27
100
AcDbSymbolTableRecord
100
AcDbLinetypeTableRecord
  2
DASHDOT2
 70
     0
  3
_._._._._._._._._._._._._._._._._._._._._._._._
 72
    65
 73
     4
 40
0.5
 49
0.25
 74
     0
 49
-0.125
 74
     0
 49
0.0
 74
     0
 49
-0.125
 74
     0
  0
LTYPE
  5
28
100
AcDbSymbolTableRecord
100
AcDbLinetypeTableRecord
  2
DASHDOTX2
 70
     0
  3
____  .  ____  .  ____  .  ____  .  ____  .  __
 72
    65
 73
     4
 40
2.0
 49
1.0
 74
     0
 49
-0.5
 74
     0
 49
0.0
 74
     0
 49
-0.5
 74
     0
  0
LTYPE
  5
29
100
AcDbSymbolTableRecord
100
AcDbLinetypeTableRecord
  2
DASHED
 70
     0
  3
__ __ __ __ __ __ __ __ __ __ __ __ __ __ __ __
 72
    65
 73
     2
 40
0.75
 49
0.5
 74
     0
 49
-0.25
 74
     0
  0
LTYPE
  5
2A
100
AcDbSymbolTableRecord
100
AcDbLinetypeTableRecord
  2
DASHED2
 70
     0
  3
_ _ _ _ _ _ _ _ _ _ _ _ _ _ _ _ _ _ _ _ _ _ _ _
 72
    65
 73
     2
 40
0.375
 49
0.25
 74
     0
 49
-0.125
 74
     0
  0
LTYPE
  5
2B
100
AcDbSymbolTableRecord
100
AcDbLinetypeTableRecord
  2
DASHEDX2
 70
     0
  3
____  ____  ____  ____  ____  ____  ____  ____ 
 72
    65
 73
     2
 40
1.5
 49
1.0
 74
     0
 49
-0.5
 74
     0
  0
LTYPE
  5
2C
100
AcDbSymbolTableRecord
100
AcDbLinetypeTableRecord
  2
DIVIDE
 70
     0
  3
____ . . ____ . . ____ . . ____ . . ____ . . __
 72
    65
 73
     6
 40
1.25
 49
0.5
 74
     0
 49
-0.25
 74
     0
 49
0.0
 74
     0
 49
-0.25
 74
     0
 49
0.0
 74
     0
 49
-0.25
 74
     0
  0
LTYPE
  5
2D
100
AcDbSymbolTableRecord
100
AcDbLinetypeTableRecord
  2
DIVIDE2
 70
     0
  3
__..__..__..__..__..__..__..__..__..__..__..__.
 72
    65
 73
     6
 40
0.625
 49
0.25
 74
     0
 49
-0.125
 74
     0
 49
0.0
 74
     0
 49
-0.125
 74
     0
 49
0.0
 74
     0
 49
-0.125
 74
     0
  0
LTYPE
  5
2E
100
AcDbSymbolTableRecord
100
AcDbLinetypeTableRecord
  2
DIVIDEX2
 70
     0
  3
________  .  .  ________  .  .  ________  .  . 
 72
    65
 73
     6
 40
2.5
 49
1.0
 74
     0
 49
-0.5
 74
     0
 49
0.0
 74
     0
 49
-0.5
 74
     0
 49
0.0
 74
     0
 49
-0.5
 74
     0
  0
LTYPE
  5
2F
100
AcDbSymbolTableRecord
100
AcDbLinetypeTableRecord
  2
DOT
 70
     0
  3
. . . . . . . . . . . . . . . . . . . . . . . .
 72
    65
 73
     2
 40
0.25
 49
0.0
 74
     0
 49
-0.25
 74
     0
  0
LTYPE
  5
30
100
AcDbSymbolTableRecord
100
AcDbLinetypeTableRecord
  2
DOT2
 70
     0
  3
...............................................
 72
    65
 73
     2
 40
0.125
 49
0.0
 74
     0
 49
-0.125
 74
     0
  0
LTYPE
  5
31
100
AcDbSymbolTableRecord
100
AcDbLinetypeTableRecord
  2
DOTX2
 70
     0
  3
.  .  .  .  .  .  .  .  .  .  .  .  .  .  .  . 
 72
    65
 73
     2
 40
0.5
 49
0.0
 74
     0
 49
-0.5
 74
     0
  0
LTYPE
  5
32
100
AcDbSymbolTableRecord
100
AcDbLinetypeTableRecord
  2
HIDDEN
 70
     0
  3
__ __ __ __ __ __ __ __ __ __ __ __ __ __ __ __
 72
    65
 73
     2
 40
0.375
 49
0.25
 74
     0
 49
-0.125
 74
     0
  0
LTYPE
  5
33
100
AcDbSymbolTableRecord
100
AcDbLinetypeTableRecord
  2
HIDDEN2
 70
     0
  3
_ _ _ _ _ _ _ _ _ _ _ _ _ _ _ _ _ _ _ _ _ _ _ _
 72
    65
 73
     2
 40
0.1875
 49
0.125
 74
     0
 49
-0.0625
 74
     0
  0
LTYPE
  5
34
100
AcDbSymbolTableRecord
100
AcDbLinetypeTableRecord
  2
HIDDENX2
 70
     0
  3
____ ____ ____ ____ ____ ____ ____ ____ ____ __
 72
    65
 73
     2
 40
0.75
 49
0.5
 74
     0
 49
-0.25
 74
     0
  0
LTYPE
  5
35
100
AcDbSymbolTableRecord
100
AcDbLinetypeTableRecord
  2
PHANTOM
 70
     0
  3
______  __  __  ______  __  __  ______  __  __ 
 72
    65
 73
     6
 40
2.5
 49
1.25
 74
     0
 49
-0.25
 74
     0
 49
0.25
 74
     0
 49
-0.25
 74
     0
 49
0.25
 74
     0
 49
-0.25
 74
     0
  0
LTYPE
  5
36
100
AcDbSymbolTableRecord
100
AcDbLinetypeTableRecord
  2
PHANTOM2
 70
     0
  3
___ _ _ ___ _ _ ___ _ _ ___ _ _ ___ _ _ ___ _ _
 72
    65
 73
     6
 40
1.25
 49
0.625
 74
     0
 49
-0.125
 74
     0
 49
0.125
 74
     0
 49
-0.125
 74
     0
 49
0.125
 74
     0
 49
-0.125
 74
     0
  0
LTYPE
  5
37
100
AcDbSymbolTableRecord
100
AcDbLinetypeTableRecord
  2
PHANTOMX2
 70
     0
  3
____________    ____    ____    ____________   
 72
    65
 73
     6
 40
5.0
 49
2.5
 74
     0
 49
-0.5
 74
     0
 49
0.5
 74
     0
 49
-0.5
 74
     0
 49
0.5
 74
     0
 49
-0.5
 74
     0
  0
ENDTAB
   0
TABLE
   2
LAYER
   5
2
 100
AcDbSymbolTable
  70
7
   0
LAYER
   5
E
 100
AcDbSymbolTableRecord
 100
AcDbLayerTableRecord
   2
0
  70
0
  62
7
   6
CONTINUOUS
 390
30
   0
LAYER
   5
39
 100
AcDbSymbolTableRecord
 100
AcDbLayerTableRecord
   2
LEVEL001
  70
0
  62
7
   6
CONTINUOUS
 390
30
   0
LAYER
   5
3A
 100
AcDbSymbolTableRecord
 100
AcDbLayerTableRecord
   2
LEVEL002
  70
0
  62
7
   6
CONTINUOUS
 390
30
   0
LAYER
   5
3B
 100
AcDbSymbolTableRecord
 100
AcDbLayerTableRecord
   2
LEVEL004
  70
0
  62
7
   6
CONTINUOUS
 390
30
   0
LAYER
   5
3C
 100
AcDbSymbolTableRecord
 100
AcDbLayerTableRecord
   2
LEVEL005
  70
0
  62
7
   6
CONTINUOUS
 390
30
   0
LAYER
   5
3D
 100
AcDbSymbolTableRecord
 100
AcDbLayerTableRecord
   2
LEVEL006
  70
0
  62
7
   6
CONTINUOUS
 390
30
   0
LAYER
   5
3E
 100
AcDbSymbolTableRecord
 100
AcDbLayerTableRecord
   2
LEVEL007
  70
0
  62
7
   6
CONTINUOUS
 390
30
   0
ENDTAB
  0
TABLE
  2
STYLE
  5
3
100
AcDbSymbolTable
  70
4
  0
STYLE
  5
F
100
AcDbSymbolTableRecord
100
AcDbTextStyleTableRecord
  2
STANDARD
 70
     0
 40
0.0
 41
1.0
 50
0.0
 71
     0
 42
0.2
  3
TXT
  4
BIGFONT
  0
STYLE
  5
38
100
AcDbSymbolTableRecord
100
AcDbTextStyleTableRecord
  2
STANDARD1
 70
     4
 40
0.0
 41
1.0
 50
0.0
 71
     0
 42
0.2
  3
TXT
  4
BIGFONT
   0
STYLE
   5
3F
 100
AcDbSymbolTableRecord
 100
AcDbTextStyleTableRecord
   2
GMM001
  70
0
  40
0.0
  41
 1.0000000000000
  50
0.0
  71
     0
  42
1.0
   3
txt.shx
   4
bigfont.shx
   0
STYLE
   5
40
 100
AcDbSymbolTableRecord
 100
AcDbTextStyleTableRecord
   2
GMM002
  70
0
  40
0.0
  41
 0.80000000000000
  50
0.0
  71
     0
  42
1.0
   3
txt.shx
   4
bigfont.shx
   0
ENDTAB
  0
TABLE
  2
VIEW
  5
6
100
AcDbSymbolTable
 70
     0
  0
ENDTAB
  0
TABLE
  2
UCS
  5
7
100
AcDbSymbolTable
 70
     0
  0
ENDTAB
  0
TABLE
  2
APPID
  5
9
100
AcDbSymbolTable
 70
     1
  0
APPID
  5
10
100
AcDbSymbolTableRecord
100
AcDbRegAppTableRecord
  2
ACAD
 70
     0
  0
ENDTAB
   0
TABLE
   2
DIMSTYLE
   5
A
 100
AcDbSymbolTable
  70
10
 100
AcDbDimStyleTable
  0
DIMSTYLE
105
1D
100
AcDbSymbolTableRecord
100
AcDbDimStyleTableRecord
  2
STANDARD
 70
     0
  3

  4

  5

  6

  7

 40
1.0
 41
0.18
 42
0.0625
 43
0.38
 44
0.18
 45
0.0
 46
0.0
 47
0.0
 48
0.0
140
0.18
141
0.09
142
0.0
143
25.4
144
1.0
145
0.0
146
1.0
147
0.09
 71
     0
 72
     0
 73
     1
 74
     1
 75
     0
 76
     0
 77
     0
 78
     0
170
     0
171
     2
172
     0
173
     0
174
     0
175
     0
176
     0
177
     0
178
     0
270
     2
271
     4
272
     4
273
     2
274
     2
340
F
275
     0
280
     0
281
     0
282
     0
283
     1
284
     0
285
     0
286
     0
287
     3
288
     0
   0
DIMSTYLE
 105
41
 100
AcDbSymbolTableRecord
 100
AcDbDimStyleTableRecord
   2
GMM001
  70
0
   3

   4

   5

   6

   7

  40
 1.0000000000000
  41
 8.0000000000000
  42
 4.0000000000000
  43
 32.000000000000
  44
 4.0000000000000
  45
0.0
  46
0.0
  47
0.0
  48
0.0
 140
 10.000000000000
 141
 4.0000000000000
 142
0.0
 143
 0.39400000000000E-1
 144
 1.0000000000000
 145
0.0
 146
 1.0000000000000
 147
 4.0000000000000
  71
0
  72
0
  73
0
  74
0
  75
0
  76
0
  77
3
  78
8
 170
0
 171
2
 172
1
 173
1
 174
0
 175
0
 176
8
 177
8
 178
8
 270
2
 271
6
 272
0
 273
2
 274
2
 340
3F
 275
1
 280
0
 281
0
 282
0
 283
1
 284
0
 285
0
 286
0
 287
3
 288
0
   0
DIMSTYLE
 105
42
 100
AcDbSymbolTableRecord
 100
AcDbDimStyleTableRecord
   2
GMM002
  70
0
   3

   4

   5

   6

   7

  40
 1.0000000000000
  41
 8.0000000000000
  42
 4.0000000000000
  43
 32.000000000000
  44
 4.0000000000000
  45
0.0
  46
0.0
  47
0.0
  48
0.0
 140
 10.000000000000
 141
 4.0000000000000
 142
0.0
 143
 0.39400000000000E-1
 144
 1.0000000000000
 145
0.0
 146
 1.0000000000000
 147
 2.5485937064894
  71
0
  72
0
  73
0
  74
0
  75
0
  76
0
  77
3
  78
8
 170
0
 171
2
 172
1
 173
1
 174
0
 175
0
 176
8
 177
8
 178
8
 270
2
 271
6
 272
0
 273
2
 274
2
 340
3F
 275
1
 280
0
 281
0
 282
0
 283
1
 284
0
 285
0
 286
0
 287
3
 288
1
   0
DIMSTYLE
 105
43
 100
AcDbSymbolTableRecord
 100
AcDbDimStyleTableRecord
   2
GMM003
  70
0
   3

   4

   5

   6

   7
_NONE
  40
 1.0000000000000
  41
 8.0000000000000
  42
 4.0000000000000
  43
 32.000000000000
  44
 4.0000000000000
  45
0.0
  46
0.0
  47
0.0
  48
0.0
 140
 10.000000000000
 141
 4.0000000000000
 142
0.0
 143
 0.39400000000000E-1
 144
 1.0000000000000
 145
0.0
 146
 1.0000000000000
 147
 3.2674278288326
  71
0
  72
0
  73
0
  74
0
  75
0
  76
0
  77
3
  78
8
 170
0
 171
2
 172
1
 173
1
 174
0
 175
0
 176
8
 177
8
 178
8
 270
2
 271
6
 272
0
 273
2
 274
2
 340
3F
 275
1
 280
0
 281
0
 282
0
 283
1
 284
0
 285
0
 286
0
 287
3
 288
1
   0
DIMSTYLE
 105
44
 100
AcDbSymbolTableRecord
 100
AcDbDimStyleTableRecord
   2
GMM004
  70
0
   3

   4

   5

   6

   7

  40
 1.0000000000000
  41
 8.0000000000000
  42
 4.0000000000000
  43
 32.000000000000
  44
 4.0000000000000
  45
0.0
  46
0.0
  47
0.0
  48
0.0
 140
 10.000000000000
 141
 4.0000000000000
 142
0.0
 143
 0.39400000000000E-1
 144
 1.0000000000000
 145
0.0
 146
 1.0000000000000
 147
 4.0000000000000
  71
0
  72
0
  73
0
  74
0
  75
0
  76
0
  77
3
  78
8
 170
0
 171
2
 172
1
 173
1
 174
0
 175
0
 176
8
 177
8
 178
8
 270
2
 271
6
 272
0
 273
2
 274
2
 340
3F
 275
1
 280
0
 281
0
 282
0
 283
1
 284
0
 285
0
 286
0
 287
3
 288
0
   0
DIMSTYLE
 105
45
 100
AcDbSymbolTableRecord
 100
AcDbDimStyleTableRecord
   2
GMM005
  70
0
   3

   4

   5

   6

   7
_NONE
  40
 1.0000000000000
  41
 8.0000000000000
  42
 4.0000000000000
  43
 32.000000000000
  44
 4.0000000000000
  45
0.0
  46
0.0
  47
0.0
  48
0.0
 140
 10.000000000000
 141
 4.0000000000000
 142
0.0
 143
 0.39400000000000E-1
 144
 1.0000000000000
 145
0.0
 146
 1.0000000000000
 147
 4.0000000000000
  71
0
  72
0
  73
0
  74
0
  75
0
  76
0
  77
3
  78
8
 170
0
 171
2
 172
1
 173
1
 174
0
 175
0
 176
8
 177
8
 178
8
 270
2
 271
6
 272
0
 273
2
 274
2
 340
3F
 275
1
 280
0
 281
0
 282
0
 283
1
 284
0
 285
0
 286
0
 287
3
 288
1
   0
DIMSTYLE
 105
46
 100
AcDbSymbolTableRecord
 100
AcDbDimStyleTableRecord
   2
GMM006
  70
0
   3

   4

   5

   6

   7

  40
 1.0000000000000
  41
 8.0000000000000
  42
 4.0000000000000
  43
 32.000000000000
  44
 4.0000000000000
  45
0.0
  46
0.0
  47
0.0
  48
0.0
 140
 10.000000000000
 141
 4.0000000000000
 142
0.0
 143
 0.39400000000000E-1
 144
 1.0000000000000
 145
0.0
 146
 1.0000000000000
 147
 3.3266499582188
  71
0
  72
0
  73
0
  74
0
  75
0
  76
0
  77
3
  78
8
 170
0
 171
2
 172
1
 173
1
 174
0
 175
0
 176
8
 177
8
 178
8
 270
2
 271
6
 272
0
 273
2
 274
2
 340
3F
 275
1
 280
0
 281
0
 282
0
 283
1
 284
0
 285
0
 286
0
 287
3
 288
1
   0
DIMSTYLE
 105
47
 100
AcDbSymbolTableRecord
 100
AcDbDimStyleTableRecord
   2
GMM007
  70
0
   3

   4

   5

   6

   7

  40
 1.0000000000000
  41
 8.0000000000000
  42
 4.0000000000000
  43
 32.000000000000
  44
 4.0000000000000
  45
0.0
  46
0.0
  47
0.0
  48
0.0
 140
 10.000000000000
 141
 4.0000000000000
 142
0.0
 143
 0.39400000000000E-1
 144
 1.0000000000000
 145
0.0
 146
 1.0000000000000
 147
 4.5090504038217
  71
0
  72
0
  73
0
  74
0
  75
0
  76
0
  77
3
  78
8
 170
0
 171
2
 172
1
 173
1
 174
0
 175
0
 176
8
 177
8
 178
8
 270
2
 271
6
 272
0
 273
2
 274
2
 340
3F
 275
1
 280
0
 281
0
 282
0
 283
1
 284
0
 285
0
 286
0
 287
3
 288
1
   0
DIMSTYLE
 105
48
 100
AcDbSymbolTableRecord
 100
AcDbDimStyleTableRecord
   2
GMM008
  70
0
   3

   4

   5

   6

   7

  40
 1.0000000000000
  41
 8.0000000000000
  42
 4.0000000000000
  43
 32.000000000000
  44
 4.0000000000000
  45
0.0
  46
0.0
  47
0.0
  48
0.0
 140
 10.000000000000
 141
 4.0000000000000
 142
0.0
 143
 0.39400000000000E-1
 144
 1.0000000000000
 145
0.0
 146
 1.0000000000000
 147
0.0
  71
0
  72
0
  73
0
  74
0
  75
0
  76
0
  77
1
  78
8
 170
0
 171
2
 172
1
 173
1
 174
0
 175
0
 176
8
 177
8
 178
8
 270
2
 271
6
 272
0
 273
2
 274
2
 340
3F
 275
1
 280
0
 281
0
 282
0
 283
1
 284
0
 285
0
 286
0
 287
3
 288
0
   0
ENDTAB
  0
TABLE
  2
BLOCK_RECORD
  5
1
100
AcDbSymbolTable
 70
     0
  0
BLOCK_RECORD
  5
18
100
AcDbSymbolTableRecord
100
AcDbBlockTableRecord
  2
*MODEL_SPACE
  0
BLOCK_RECORD
  5
15
100
AcDbSymbolTableRecord
100
AcDbBlockTableRecord
  2
*PAPER_SPACE
   0
BLOCK_RECORD
   5
49
 100
AcDbSymbolTableRecord
 100
AcDbBlockTableRecord
   2
*D1
   0
BLOCK_RECORD
   5
4A
 100
AcDbSymbolTableRecord
 100
AcDbBlockTableRecord
   2
*D2
   0
BLOCK_RECORD
   5
4B
 100
AcDbSymbolTableRecord
 100
AcDbBlockTableRecord
   2
*D3
   0
BLOCK_RECORD
   5
4C
 100
AcDbSymbolTableRecord
 100
AcDbBlockTableRecord
   2
*D4
   0
BLOCK_RECORD
   5
4D
 100
AcDbSymbolTableRecord
 100
AcDbBlockTableRecord
   2
*D5
   0
BLOCK_RECORD
   5
4E
 100
AcDbSymbolTableRecord
 100
AcDbBlockTableRecord
   2
*D6
   0
BLOCK_RECORD
   5
4F
 100
AcDbSymbolTableRecord
 100
AcDbBlockTableRecord
   2
*D7
   0
BLOCK_RECORD
   5
50
 100
AcDbSymbolTableRecord
 100
AcDbBlockTableRecord
   2
*D8
   0
BLOCK_RECORD
   5
51
 100
AcDbSymbolTableRecord
 100
AcDbBlockTableRecord
   2
*D9
   0
BLOCK_RECORD
   5
52
 100
AcDbSymbolTableRecord
 100
AcDbBlockTableRecord
   2
*D10
   0
BLOCK_RECORD
   5
53
 100
AcDbSymbolTableRecord
 100
AcDbBlockTableRecord
   2
*D11
   0
BLOCK_RECORD
   5
54
 100
AcDbSymbolTableRecord
 100
AcDbBlockTableRecord
   2
*D12
   0
BLOCK_RECORD
   5
55
 100
AcDbSymbolTableRecord
 100
AcDbBlockTableRecord
   2
*D13
   0
BLOCK_RECORD
   5
56
 100
AcDbSymbolTableRecord
 100
AcDbBlockTableRecord
   2
*D14
   0
BLOCK_RECORD
   5
57
 100
AcDbSymbolTableRecord
 100
AcDbBlockTableRecord
   2
*D15
   0
BLOCK_RECORD
   5
58
 100
AcDbSymbolTableRecord
 100
AcDbBlockTableRecord
   2
*D16
   0
BLOCK_RECORD
   5
59
 100
AcDbSymbolTableRecord
 100
AcDbBlockTableRecord
   2
*D17
   0
BLOCK_RECORD
   5
5A
 100
AcDbSymbolTableRecord
 100
AcDbBlockTableRecord
   2
*D18
   0
BLOCK_RECORD
   5
5B
 100
AcDbSymbolTableRecord
 100
AcDbBlockTableRecord
   2
*D19
   0
BLOCK_RECORD
   5
5C
 100
AcDbSymbolTableRecord
 100
AcDbBlockTableRecord
   2
*D20
   0
BLOCK_RECORD
   5
5D
 100
AcDbSymbolTableRecord
 100
AcDbBlockTableRecord
   2
*D21
   0
BLOCK_RECORD
   5
5E
 100
AcDbSymbolTableRecord
 100
AcDbBlockTableRecord
   2
*D22
   0
BLOCK_RECORD
   5
5F
 100
AcDbSymbolTableRecord
 100
AcDbBlockTableRecord
   2
_ARCHTICK
   0
BLOCK_RECORD
   5
60
 100
AcDbSymbolTableRecord
 100
AcDbBlockTableRecord
   2
_BOXBLANK
   0
BLOCK_RECORD
   5
61
 100
AcDbSymbolTableRecord
 100
AcDbBlockTableRecord
   2
_BOXFILLED
   0
BLOCK_RECORD
   5
62
 100
AcDbSymbolTableRecord
 100
AcDbBlockTableRecord
   2
_CLOSED
   0
BLOCK_RECORD
   5
63
 100
AcDbSymbolTableRecord
 100
AcDbBlockTableRecord
   2
_CLOSEDBLANK
   0
BLOCK_RECORD
   5
64
 100
AcDbSymbolTableRecord
 100
AcDbBlockTableRecord
   2
_DATUMBLANK
   0
BLOCK_RECORD
   5
65
 100
AcDbSymbolTableRecord
 100
AcDbBlockTableRecord
   2
_DATUMFILLED
   0
BLOCK_RECORD
   5
66
 100
AcDbSymbolTableRecord
 100
AcDbBlockTableRecord
   2
_DOT
   0
BLOCK_RECORD
   5
67
 100
AcDbSymbolTableRecord
 100
AcDbBlockTableRecord
   2
_DOTBLANK
   0
BLOCK_RECORD
   5
68
 100
AcDbSymbolTableRecord
 100
AcDbBlockTableRecord
   2
_DOTSMALL
   0
BLOCK_RECORD
   5
69
 100
AcDbSymbolTableRecord
 100
AcDbBlockTableRecord
   2
_INTEGRAL
   0
BLOCK_RECORD
   5
6A
 100
AcDbSymbolTableRecord
 100
AcDbBlockTableRecord
   2
_NONE
   0
BLOCK_RECORD
   5
6B
 100
AcDbSymbolTableRecord
 100
AcDbBlockTableRecord
   2
_OBLIQUE
   0
BLOCK_RECORD
   5
6C
 100
AcDbSymbolTableRecord
 100
AcDbBlockTableRecord
   2
_OPEN
   0
BLOCK_RECORD
   5
6D
 100
AcDbSymbolTableRecord
 100
AcDbBlockTableRecord
   2
_OPEN30
   0
BLOCK_RECORD
   5
6E
 100
AcDbSymbolTableRecord
 100
AcDbBlockTableRecord
   2
_OPEN90
   0
BLOCK_RECORD
   5
6F
 100
AcDbSymbolTableRecord
 100
AcDbBlockTableRecord
   2
_ORIGIN
   0
ENDTAB
   0
ENDSEC
  0
SECTION
  2
BLOCKS
  0
BLOCK
  5
19
100
AcDbEntity
  8
0
100
AcDbBlockBegin
  2
*MODEL_SPACE
 70
     0
 10
0.0
 20
0.0
 30
0.0
  3
*MODEL_SPACE
  1

  0
ENDBLK
  5
1A
100
AcDbEntity
  8
0
100
AcDbBlockEnd
  0
BLOCK
  5
16
100
AcDbEntity
 67
     1
  8
0
100
AcDbBlockBegin
  2
*PAPER_SPACE
 70
     0
 10
0.0
 20
0.0
 30
0.0
  3
*PAPER_SPACE
  1

  0
ENDBLK
  5
17
100
AcDbEntity
 67
     1
  8
0
100
AcDbBlockEnd
   0
BLOCK
   5
70
 100
AcDbEntity
   8
0
 100
AcDbBlockBegin
   2
_ARCHTICK
  70
0
  10
0.0
  20
0.0
  30
0.0
   3
_ARCHTICK
   0
POLYLINE
   5
71
 100
AcDbEntity
   8
0
 370
-2
   6
BYBLOCK
  62
0
 100
AcDb2dPolyline
  66
1
  10
0.0
  20
0.0
  30
0.0
  70
1
  40
 0.15000000000000
  41
 0.15000000000000
   0
VERTEX
   5
72
 100
AcDbEntity
   8
0
   6
BYBLOCK
  62
0
 100
AcDbVertex
 100
AcDb2dVertex
  10
-0.50000000000000
  20
-0.50000000000000
  30
0.0
  40
 0.15000000000000
  41
 0.15000000000000
   0
VERTEX
   5
73
 100
AcDbEntity
   8
0
   6
BYBLOCK
  62
0
 100
AcDbVertex
 100
AcDb2dVertex
  10
 0.50000000000000
  20
 0.50000000000000
  30
0.0
  40
 0.15000000000000
  41
 0.15000000000000
   0
SEQEND
   5
74
 100
AcDbEntity
   8
0
   6
BYBLOCK
  62
0
   0
ENDBLK
   5
75
 100
AcDbEntity
   8
0
 100
AcDbBlockEnd
   0
BLOCK
   5
76
 100
AcDbEntity
   8
0
 100
AcDbBlockBegin
   2
_OBLIQUE
  70
0
  10
0.0
  20
0.0
  30
0.0
   3
_OBLIQUE
   0
LINE
   5
77
 100
AcDbEntity
   8
0
 370
-2
 100
AcDbLine
   6
BYBLOCK
  62
0
  10
-0.50000000000000
  20
-0.50000000000000
  30
0.0
  11
 0.50000000000000
  21
 0.50000000000000
  31
0.0
   0
ENDBLK
   5
78
 100
AcDbEntity
   8
0
 100
AcDbBlockEnd
   0
BLOCK
   5
79
 100
AcDbEntity
   8
0
 100
AcDbBlockBegin
   2
_BOXBLANK
  70
0
  10
0.0
  20
0.0
  30
0.0
   3
_BOXBLANK
   0
LINE
   5
7A
 100
AcDbEntity
   8
0
 370
-2
 100
AcDbLine
   6
BYBLOCK
  62
0
  10
-0.50000000000000
  20
-0.50000000000000
  30
0.0
  11
 0.50000000000000
  21
-0.50000000000000
  31
0.0
   0
LINE
   5
7B
 100
AcDbEntity
   8
0
 370
-2
 100
AcDbLine
   6
BYBLOCK
  62
0
  10
 0.50000000000000
  20
-0.50000000000000
  30
0.0
  11
 0.50000000000000
  21
 0.50000000000000
  31
0.0
   0
LINE
   5
7C
 100
AcDbEntity
   8
0
 370
-2
 100
AcDbLine
   6
BYBLOCK
  62
0
  10
 0.50000000000000
  20
 0.50000000000000
  30
0.0
  11
-0.50000000000000
  21
 0.50000000000000
  31
0.0
   0
LINE
   5
7D
 100
AcDbEntity
   8
0
 370
-2
 100
AcDbLine
   6
BYBLOCK
  62
0
  10
-0.50000000000000
  20
 0.50000000000000
  30
0.0
  11
-0.50000000000000
  21
-0.50000000000000
  31
0.0
   0
LINE
   5
7E
 100
AcDbEntity
   8
0
 370
-2
 100
AcDbLine
   6
BYBLOCK
  62
0
  10
-0.50000000000000
  20
0.0
  30
0.0
  11
-1.0000000000000
  21
0.0
  31
0.0
   0
ENDBLK
   5
7F
 100
AcDbEntity
   8
0
 100
AcDbBlockEnd
   0
BLOCK
   5
80
 100
AcDbEntity
   8
0
 100
AcDbBlockBegin
   2
_BOXFILLED
  70
0
  10
0.0
  20
0.0
  30
0.0
   3
_BOXFILLED
   0
SOLID
   5
81
 100
AcDbEntity
   8
0
 100
AcDbTrace
   6
BYBLOCK
  62
0
  10
-0.50000000000000
  20
 0.50000000000000
  30
0.0
  11
 0.50000000000000
  21
 0.50000000000000
  31
0.0
  12
-0.50000000000000
  22
-0.50000000000000
  32
0.0
  13
 0.50000000000000
  23
-0.50000000000000
  33
0.0
   0
LINE
   5
82
 100
AcDbEntity
   8
0
 370
-2
 100
AcDbLine
   6
BYBLOCK
  62
0
  10
-0.50000000000000
  20
0.0
  30
0.0
  11
-1.0000000000000
  21
0.0
  31
0.0
   0
ENDBLK
   5
83
 100
AcDbEntity
   8
0
 100
AcDbBlockEnd
   0
BLOCK
   5
84
 100
AcDbEntity
   8
0
 100
AcDbBlockBegin
   2
_CLOSED
  70
0
  10
0.0
  20
0.0
  30
0.0
   3
_CLOSED
   0
LINE
   5
85
 100
AcDbEntity
   8
0
 370
-2
 100
AcDbLine
   6
BYBLOCK
  62
0
  10
-1.0000000000000
  20
 0.16666666666667
  30
0.0
  11
0.0
  21
0.0
  31
0.0
   0
LINE
   5
86
 100
AcDbEntity
   8
0
 370
-2
 100
AcDbLine
   6
BYBLOCK
  62
0
  10
0.0
  20
0.0
  30
0.0
  11
-1.0000000000000
  21
-0.16666666666667
  31
0.0
   0
LINE
   5
87
 100
AcDbEntity
   8
0
 370
-2
 100
AcDbLine
   6
BYBLOCK
  62
0
  10
-1.0000000000000
  20
 0.16666666666667
  30
0.0
  11
-1.0000000000000
  21
-0.16666666666667
  31
0.0
   0
LINE
   5
88
 100
AcDbEntity
   8
0
 370
-2
 100
AcDbLine
   6
BYBLOCK
  62
0
  10
0.0
  20
0.0
  30
0.0
  11
-1.0000000000000
  21
0.0
  31
0.0
   0
ENDBLK
   5
89
 100
AcDbEntity
   8
0
 100
AcDbBlockEnd
   0
BLOCK
   5
8A
 100
AcDbEntity
   8
0
 100
AcDbBlockBegin
   2
_OPEN
  70
0
  10
0.0
  20
0.0
  30
0.0
   3
_OPEN
   0
LINE
   5
8B
 100
AcDbEntity
   8
0
 370
-2
 100
AcDbLine
   6
BYBLOCK
  62
0
  10
-1.0000000000000
  20
 0.16666666666667
  30
0.0
  11
0.0
  21
0.0
  31
0.0
   0
LINE
   5
8C
 100
AcDbEntity
   8
0
 370
-2
 100
AcDbLine
   6
BYBLOCK
  62
0
  10
0.0
  20
0.0
  30
0.0
  11
-1.0000000000000
  21
-0.16666666666667
  31
0.0
   0
LINE
   5
8D
 100
AcDbEntity
   8
0
 370
-2
 100
AcDbLine
   6
BYBLOCK
  62
0
  10
0.0
  20
0.0
  30
0.0
  11
-1.0000000000000
  21
0.0
  31
0.0
   0
ENDBLK
   5
8E
 100
AcDbEntity
   8
0
 100
AcDbBlockEnd
   0
BLOCK
   5
8F
 100
AcDbEntity
   8
0
 100
AcDbBlockBegin
   2
_OPEN30
  70
0
  10
0.0
  20
0.0
  30
0.0
   3
_OPEN30
   0
LINE
   5
90
 100
AcDbEntity
   8
0
 370
-2
 100
AcDbLine
   6
BYBLOCK
  62
0
  10
-1.0000000000000
  20
 0.26794919243110
  30
0.0
  11
0.0
  21
0.0
  31
0.0
   0
LINE
   5
91
 100
AcDbEntity
   8
0
 370
-2
 100
AcDbLine
   6
BYBLOCK
  62
0
  10
0.0
  20
0.0
  30
0.0
  11
-1.0000000000000
  21
-0.26794919243110
  31
0.0
   0
LINE
   5
92
 100
AcDbEntity
   8
0
 370
-2
 100
AcDbLine
   6
BYBLOCK
  62
0
  10
0.0
  20
0.0
  30
0.0
  11
-1.0000000000000
  21
0.0
  31
0.0
   0
ENDBLK
   5
93
 100
AcDbEntity
   8
0
 100
AcDbBlockEnd
   0
BLOCK
   5
94
 100
AcDbEntity
   8
0
 100
AcDbBlockBegin
   2
_OPEN90
  70
0
  10
0.0
  20
0.0
  30
0.0
   3
_OPEN90
   0
LINE
   5
95
 100
AcDbEntity
   8
0
 370
-2
 100
AcDbLine
   6
BYBLOCK
  62
0
  10
-0.50000000000000
  20
 0.50000000000000
  30
0.0
  11
0.0
  21
0.0
  31
0.0
   0
LINE
   5
96
 100
AcDbEntity
   8
0
 370
-2
 100
AcDbLine
   6
BYBLOCK
  62
0
  10
0.0
  20
0.0
  30
0.0
  11
-0.50000000000000
  21
-0.50000000000000
  31
0.0
   0
LINE
   5
97
 100
AcDbEntity
   8
0
 370
-2
 100
AcDbLine
   6
BYBLOCK
  62
0
  10
0.0
  20
0.0
  30
0.0
  11
-1.0000000000000
  21
0.0
  31
0.0
   0
ENDBLK
   5
98
 100
AcDbEntity
   8
0
 100
AcDbBlockEnd
   0
BLOCK
   5
99
 100
AcDbEntity
   8
0
 100
AcDbBlockBegin
   2
_CLOSEDBLANK
  70
0
  10
0.0
  20
0.0
  30
0.0
   3
_CLOSEDBLANK
   0
LINE
   5
9A
 100
AcDbEntity
   8
0
 370
-2
 100
AcDbLine
   6
BYBLOCK
  62
0
  10
-1.0000000000000
  20
 0.16666666666667
  30
0.0
  11
0.0
  21
0.0
  31
0.0
   0
LINE
   5
9B
 100
AcDbEntity
   8
0
 370
-2
 100
AcDbLine
   6
BYBLOCK
  62
0
  10
0.0
  20
0.0
  30
0.0
  11
-1.0000000000000
  21
-0.16666666666667
  31
0.0
   0
LINE
   5
9C
 100
AcDbEntity
   8
0
 370
-2
 100
AcDbLine
   6
BYBLOCK
  62
0
  10
-1.0000000000000
  20
 0.16666666666667
  30
0.0
  11
-1.0000000000000
  21
-0.16666666666667
  31
0.0
   0
ENDBLK
   5
9D
 100
AcDbEntity
   8
0
 100
AcDbBlockEnd
   0
BLOCK
   5
9E
 100
AcDbEntity
   8
0
 100
AcDbBlockBegin
   2
_DOT
  70
0
  10
0.0
  20
0.0
  30
0.0
   3
_DOT
   0
POLYLINE
   5
9F
 100
AcDbEntity
   8
0
 370
-2
   6
BYBLOCK
  62
0
 100
AcDb2dPolyline
  66
1
  10
0.0
  20
0.0
  30
0.0
  70
1
  40
 0.50000000000000
  41
 0.50000000000000
   0
VERTEX
   5
A0
 100
AcDbEntity
   8
0
   6
BYBLOCK
  62
0
 100
AcDbVertex
 100
AcDb2dVertex
  10
-0.25000000000000
  20
0.0
  30
0.0
  42
 1.0000000000000
  40
 0.50000000000000
  41
 0.50000000000000
   0
VERTEX
   5
A1
 100
AcDbEntity
   8
0
   6
BYBLOCK
  62
0
 100
AcDbVertex
 100
AcDb2dVertex
  10
 0.25000000000000
  20
0.0
  30
0.0
  42
 1.0000000000000
  40
 0.50000000000000
  41
 0.50000000000000
   0
SEQEND
   5
A2
 100
AcDbEntity
   8
0
   6
BYBLOCK
  62
0
   0
LINE
   5
A3
 100
AcDbEntity
   8
0
 370
-2
 100
AcDbLine
   6
BYBLOCK
  62
0
  10
-0.50000000000000
  20
0.0
  30
0.0
  11
-1.0000000000000
  21
0.0
  31
0.0
   0
ENDBLK
   5
A4
 100
AcDbEntity
   8
0
 100
AcDbBlockEnd
   0
BLOCK
   5
A5
 100
AcDbEntity
   8
0
 100
AcDbBlockBegin
   2
_DOTSMALL
  70
0
  10
0.0
  20
0.0
  30
0.0
   3
_DOTSMALL
   0
POLYLINE
   5
A6
 100
AcDbEntity
   8
0
 370
-2
   6
BYBLOCK
  62
0
 100
AcDb2dPolyline
  66
1
  10
0.0
  20
0.0
  30
0.0
  70
1
  40
 0.50000000000000
  41
 0.50000000000000
   0
VERTEX
   5
A7
 100
AcDbEntity
   8
0
   6
BYBLOCK
  62
0
 100
AcDbVertex
 100
AcDb2dVertex
  10
-0.62500000000000E-1
  20
0.0
  30
0.0
  42
 1.0000000000000
  40
 0.50000000000000
  41
 0.50000000000000
   0
VERTEX
   5
A8
 100
AcDbEntity
   8
0
   6
BYBLOCK
  62
0
 100
AcDbVertex
 100
AcDb2dVertex
  10
 0.62500000000000E-1
  20
0.0
  30
0.0
  42
 1.0000000000000
  40
 0.50000000000000
  41
 0.50000000000000
   0
SEQEND
   5
A9
 100
AcDbEntity
   8
0
   6
BYBLOCK
  62
0
   0
ENDBLK
   5
AA
 100
AcDbEntity
   8
0
 100
AcDbBlockEnd
   0
BLOCK
   5
AB
 100
AcDbEntity
   8
0
 100
AcDbBlockBegin
   2
_DATUMBLANK
  70
0
  10
0.0
  20
0.0
  30
0.0
   3
_DATUMBLANK
   0
LINE
   5
AC
 100
AcDbEntity
   8
0
 370
-2
 100
AcDbLine
   6
BYBLOCK
  62
0
  10
0.0
  20
 0.57735027000000
  30
0.0
  11
-1.0000000000000
  21
0.0
  31
0.0
   0
LINE
   5
AD
 100
AcDbEntity
   8
0
 370
-2
 100
AcDbLine
   6
BYBLOCK
  62
0
  10
-1.0000000000000
  20
0.0
  30
0.0
  11
0.0
  21
-0.57735027000000
  31
0.0
   0
LINE
   5
AE
 100
AcDbEntity
   8
0
 370
-2
 100
AcDbLine
   6
BYBLOCK
  62
0
  10
0.0
  20
-0.57735027000000
  30
0.0
  11
0.0
  21
 0.57735027000000
  31
0.0
   0
ENDBLK
   5
AF
 100
AcDbEntity
   8
0
 100
AcDbBlockEnd
   0
BLOCK
   5
B0
 100
AcDbEntity
   8
0
 100
AcDbBlockBegin
   2
_DATUMFILLED
  70
0
  10
0.0
  20
0.0
  30
0.0
   3
_DATUMFILLED
   0
SOLID
   5
B1
 100
AcDbEntity
   8
0
 100
AcDbTrace
   6
BYBLOCK
  62
0
  10
0.0
  20
 0.57735027000000
  30
0.0
  11
-1.0000000000000
  21
0.0
  31
0.0
  12
0.0
  22
-0.57735027000000
  32
0.0
  13
0.0
  23
-0.57735027000000
  33
0.0
   0
ENDBLK
   5
B2
 100
AcDbEntity
   8
0
 100
AcDbBlockEnd
   0
BLOCK
   5
B3
 100
AcDbEntity
   8
0
 100
AcDbBlockBegin
   2
_ORIGIN
  70
0
  10
0.0
  20
0.0
  30
0.0
   3
_ORIGIN
   0
CIRCLE
   5
B4
 100
AcDbEntity
   8
0
 370
-2
 100
AcDbCircle
   6
BYBLOCK
  62
0
  10
0.0
  20
0.0
  30
0.0
  40
 0.50000000000000
   0
LINE
   5
B5
 100
AcDbEntity
   8
0
 370
-2
 100
AcDbLine
   6
BYBLOCK
  62
0
  10
0.0
  20
0.0
  30
0.0
  11
-1.0000000000000
  21
0.0
  31
0.0
   0
ENDBLK
   5
B6
 100
AcDbEntity
   8
0
 100
AcDbBlockEnd
   0
BLOCK
   5
B7
 100
AcDbEntity
   8
0
 100
AcDbBlockBegin
   2
_NONE
  70
0
  10
0.0
  20
0.0
  30
0.0
   3
_NONE
   0
CIRCLE
   5
B8
 100
AcDbEntity
   8
0
 370
-2
 100
AcDbCircle
   6
BYBLOCK
  62
0
  10
0.0
  20
0.0
  30
0.0
  40
 0.25000000000000
   0
ENDBLK
   5
B9
 100
AcDbEntity
   8
0
 100
AcDbBlockEnd
   0
BLOCK
   5
BA
 100
AcDbEntity
   8
0
 100
AcDbBlockBegin
   2
_DOTBLANK
  70
0
  10
0.0
  20
0.0
  30
0.0
   3
_DOTBLANK
   0
CIRCLE
   5
BB
 100
AcDbEntity
   8
0
 370
-2
 100
AcDbCircle
   6
BYBLOCK
  62
0
  10
0.0
  20
0.0
  30
0.0
  40
 0.50000000000000
   0
LINE
   5
BC
 100
AcDbEntity
   8
0
 370
-2
 100
AcDbLine
   6
BYBLOCK
  62
0
  10
-0.50000000000000
  20
0.0
  30
0.0
  11
-1.0000000000000
  21
0.0
  31
0.0
   0
ENDBLK
   5
BD
 100
AcDbEntity
   8
0
 100
AcDbBlockEnd
   0
BLOCK
   5
BE
 100
AcDbEntity
   8
0
 100
AcDbBlockBegin
   2
_INTEGRAL
  70
0
  10
0.0
  20
0.0
  30
0.0
   3
_INTEGRAL
   0
ARC
   5
BF
 100
AcDbEntity
   8
0
 370
-2
   6
BYBLOCK
  62
0
 100
AcDbCircle
  10
 0.44488800000000
  20
-0.91335000000000E-1
  30
0.0
  40
 0.45416700000000
 100
AcDbArc
  50
 102.00000000000
  51
 168.00000000000
   0
ARC
   5
C0
 100
AcDbEntity
   8
0
 370
-2
   6
BYBLOCK
  62
0
 100
AcDbCircle
  10
-0.44488800000000
  20
 0.91335000000000E-1
  30
0.0
  40
 0.45416700000000
 100
AcDbArc
  50
 282.00000000000
  51
 348.00000000000
   0
ENDBLK
   5
C1
 100
AcDbEntity
   8
0
 100
AcDbBlockEnd
   0
BLOCK
   5
C2
 100
AcDbEntity
   8
0
 100
AcDbBlockBegin
   2
*D1
  70
65
  10
0.0
  20
0.0
  30
0.0
   3
*D1
   0
LINE
   5
C3
 100
AcDbEntity
   8
0
 370
15
 100
AcDbLine
   6
CONTINUOUS
  62
8
  10
 672.82174729604
  20
 240.78446174601
  30
0.0
  11
 672.82174729604
  21
 169.48148035566
  31
0.0
   0
LINE
   5
C4
 100
AcDbEntity
   8
0
 370
15
 100
AcDbLine
   6
CONTINUOUS
  62
8
  10
 717.82174729604
  20
 240.78446174601
  30
0.0
  11
 717.82174729604
  21
 169.48148035566
  31
0.0
   0
LINE
   5
C5
 100
AcDbEntity
   8
0
 370
15
 100
AcDbLine
   6
CONTINUOUS
  62
8
  10
 672.82174729604
  20
 173.48148035566
  30
0.0
  11
 695.32174729604
  21
 173.48148035566
  31
0.0
   0
LINE
   5
C6
 100
AcDbEntity
   8
0
 370
15
 100
AcDbLine
   6
CONTINUOUS
  62
8
  10
 717.82174729604
  20
 173.48148035566
  30
0.0
  11
 695.32174729604
  21
 173.48148035566
  31
0.0
   0
SOLID
   5
C7
 100
AcDbEntity
   8
0
 100
AcDbTrace
   6
CONTINUOUS
  62
8
  10
 672.82174729604
  20
 173.48148035566
  30
0.0
  11
 680.82174729604
  21
 172.07086450999
  31
0.0
  12
 680.82174729604
  22
 174.89209620133
  32
0.0
  13
 680.82174729604
  23
 174.89209620133
  33
0.0
   0
SOLID
   5
C8
 100
AcDbEntity
   8
0
 100
AcDbTrace
   6
CONTINUOUS
  62
8
  10
 717.82174729604
  20
 173.48148035566
  30
0.0
  11
 709.82174729604
  21
 174.89209620133
  31
0.0
  12
 709.82174729604
  22
 172.07086450999
  32
0.0
  13
 709.82174729604
  23
 172.07086450999
  33
0.0
   0
MTEXT
   5
C9
 100
AcDbEntity
   8
0
 370
15
  62
8
 100
AcDbMText
  10
 695.32174729604
  20
 177.48148035566
  30
0.0
  40
 10.000000000000
  41
0.0
  71
8
  72
1
   1
\A1;45
   7
GMM001
   0
ENDBLK
   5
CA
 100
AcDbEntity
   8
0
 100
AcDbBlockEnd
   0
BLOCK
   5
CB
 100
AcDbEntity
   8
0
 100
AcDbBlockBegin
   2
*D2
  70
65
  10
0.0
  20
0.0
  30
0.0
   3
*D2
   0
LINE
   5
CC
 100
AcDbEntity
   8
0
 370
15
 100
AcDbLine
   6
CONTINUOUS
  62
8
  10
 688.82174729604
  20
 240.78446174601
  30
0.0
  11
 688.82174729604
  21
 194.08521190677
  31
0.0
   0
LINE
   5
CD
 100
AcDbEntity
   8
0
 370
15
 100
AcDbLine
   6
CONTINUOUS
  62
8
  10
 701.82174729604
  20
 240.78446174601
  30
0.0
  11
 701.82174729604
  21
 194.08521190677
  31
0.0
   0
LINE
   5
CE
 100
AcDbEntity
   8
0
 370
15
 100
AcDbLine
   6
CONTINUOUS
  62
8
  10
 678.82174729604
  20
 198.08521190677
  30
0.0
  11
 695.32174729604
  21
 198.08521190677
  31
0.0
   0
LINE
   5
CF
 100
AcDbEntity
   8
0
 370
15
 100
AcDbLine
   6
CONTINUOUS
  62
8
  10
 736.32888880504
  20
 198.08521190677
  30
0.0
  11
 695.32174729604
  21
 198.08521190677
  31
0.0
   0
SOLID
   5
D0
 100
AcDbEntity
   8
0
 100
AcDbTrace
   6
CONTINUOUS
  62
8
  10
 688.82174729604
  20
 198.08521190677
  30
0.0
  11
 680.82174729604
  21
 199.49582775244
  31
0.0
  12
 680.82174729604
  22
 196.67459606110
  32
0.0
  13
 680.82174729604
  23
 196.67459606110
  33
0.0
   0
SOLID
   5
D1
 100
AcDbEntity
   8
0
 100
AcDbTrace
   6
CONTINUOUS
  62
8
  10
 701.82174729604
  20
 198.08521190677
  30
0.0
  11
 709.82174729604
  21
 196.67459606110
  31
0.0
  12
 709.82174729604
  22
 199.49582775244
  32
0.0
  13
 709.82174729604
  23
 199.49582775244
  33
0.0
   0
MTEXT
   5
D2
 100
AcDbEntity
   8
0
 370
15
  62
8
 100
AcDbMText
  10
 718.32888880504
  20
 200.63380561326
  30
0.0
  40
 10.000000000000
  41
0.0
  71
7
  72
1
   1
\A1;13
   7
GMM001
   0
ENDBLK
   5
D3
 100
AcDbEntity
   8
0
 100
AcDbBlockEnd
   0
BLOCK
   5
D4
 100
AcDbEntity
   8
0
 100
AcDbBlockBegin
   2
*D3
  70
65
  10
0.0
  20
0.0
  30
0.0
   3
*D3
   0
LINE
   5
D5
 100
AcDbEntity
   8
0
 370
15
 100
AcDbLine
   6
CONTINUOUS
  62
8
  10
 583.87114244868
  20
 244.78446174601
  30
0.0
  11
 636.51518227225
  21
 244.78446174601
  31
0.0
   0
LINE
   5
D6
 100
AcDbEntity
   8
0
 370
15
 100
AcDbLine
   6
CONTINUOUS
  62
8
  10
 607.87114244869
  20
 279.78446174601
  30
0.0
  11
 636.51518227225
  21
 279.78446174601
  31
0.0
   0
LINE
   5
D7
 100
AcDbEntity
   8
0
 370
15
 100
AcDbLine
   6
CONTINUOUS
  62
8
  10
 632.51518227225
  20
 244.78446174601
  30
0.0
  11
 632.51518227225
  21
 262.28446174601
  31
0.0
   0
LINE
   5
D8
 100
AcDbEntity
   8
0
 370
15
 100
AcDbLine
   6
CONTINUOUS
  62
8
  10
 632.51518227225
  20
 279.78446174601
  30
0.0
  11
 632.51518227225
  21
 262.28446174601
  31
0.0
   0
SOLID
   5
D9
 100
AcDbEntity
   8
0
 100
AcDbTrace
   6
CONTINUOUS
  62
8
  10
 632.51518227225
  20
 244.78446174601
  30
0.0
  11
 633.92579811791
  21
 252.78446174601
  31
0.0
  12
 631.10456642658
  22
 252.78446174601
  32
0.0
  13
 631.10456642658
  23
 252.78446174601
  33
0.0
   0
SOLID
   5
DA
 100
AcDbEntity
   8
0
 100
AcDbTrace
   6
CONTINUOUS
  62
8
  10
 632.51518227225
  20
 279.78446174601
  30
0.0
  11
 631.10456642658
  21
 271.78446174601
  31
0.0
  12
 633.92579811791
  22
 271.78446174601
  32
0.0
  13
 633.92579811791
  23
 271.78446174601
  33
0.0
   0
MTEXT
   5
DB
 100
AcDbEntity
   8
0
 370
15
  62
8
 100
AcDbMText
  10
 628.51518227225
  20
 262.28446174601
  30
0.0
  40
 10.000000000000
  41
0.0
  71
8
  72
1
   1
\A1;35
   7
GMM001
  11
0.0
  21
 1.0000000000000
  31
0.0
   0
ENDBLK
   5
DC
 100
AcDbEntity
   8
0
 100
AcDbBlockEnd
   0
BLOCK
   5
DD
 100
AcDbEntity
   8
0
 100
AcDbBlockBegin
   2
*D4
  70
65
  10
0.0
  20
0.0
  30
0.0
   3
*D4
   0
LINE
   5
DE
 100
AcDbEntity
   8
0
 370
15
 100
AcDbLine
   6
CONTINUOUS
  62
8
  10
 536.87114244869
  20
 218.28446174601
  30
0.0
  11
 536.87114244869
  21
 194.08521190677
  31
0.0
   0
LINE
   5
DF
 100
AcDbEntity
   8
0
 370
15
 100
AcDbLine
   6
CONTINUOUS
  62
8
  10
 509.88945689185
  20
 198.08521190677
  30
0.0
  11
 538.87114244869
  21
 198.08521190677
  31
0.0
   0
LINE
   5
E0
 100
AcDbEntity
   8
0
 370
15
 100
AcDbLine
   6
CONTINUOUS
  62
8
  10
 540.87114244869
  20
 198.08521190677
  30
0.0
  11
 538.87114244869
  21
 198.08521190677
  31
0.0
   0
SOLID
   5
E1
 100
AcDbEntity
   8
0
 100
AcDbTrace
   6
CONTINUOUS
  62
8
  10
 536.87114244869
  20
 198.08521190677
  30
0.0
  11
 528.87114244869
  21
 199.49582775244
  31
0.0
  12
 528.87114244869
  22
 196.67459606110
  32
0.0
  13
 528.87114244869
  23
 196.67459606110
  33
0.0
   0
MTEXT
   5
E2
 100
AcDbEntity
   8
0
 370
15
  62
8
 100
AcDbMText
  10
 531.88945689185
  20
 201.35263973560
  30
0.0
  40
 10.000000000000
  41
0.0
  71
9
  72
1
   1
\A1;3.5
   7
GMM001
   0
ENDBLK
   5
E3
 100
AcDbEntity
   8
0
 100
AcDbBlockEnd
   0
BLOCK
   5
E4
 100
AcDbEntity
   8
0
 100
AcDbBlockBegin
   2
*D5
  70
65
  10
0.0
  20
0.0
  30
0.0
   3
*D5
   0
LINE
   5
E5
 100
AcDbEntity
   8
0
 370
15
 100
AcDbLine
   6
CONTINUOUS
  62
8
  10
 540.87114244869
  20
 219.78446174601
  30
0.0
  11
 540.87114244869
  21
 194.08521190677
  31
0.0
   0
LINE
   5
E6
 100
AcDbEntity
   8
0
 370
15
 100
AcDbLine
   6
CONTINUOUS
  62
8
  10
 595.87114244869
  20
 255.28446174601
  30
0.0
  11
 595.87114244869
  21
 194.08521190677
  31
0.0
   0
LINE
   5
E7
 100
AcDbEntity
   8
0
 370
15
 100
AcDbLine
   6
CONTINUOUS
  62
8
  10
 540.87114244869
  20
 198.08521190677
  30
0.0
  11
 568.37114244869
  21
 198.08521190677
  31
0.0
   0
LINE
   5
E8
 100
AcDbEntity
   8
0
 370
15
 100
AcDbLine
   6
CONTINUOUS
  62
8
  10
 595.87114244869
  20
 198.08521190677
  30
0.0
  11
 568.37114244869
  21
 198.08521190677
  31
0.0
   0
SOLID
   5
E9
 100
AcDbEntity
   8
0
 100
AcDbTrace
   6
CONTINUOUS
  62
8
  10
 540.87114244869
  20
 198.08521190677
  30
0.0
  11
 548.87114244869
  21
 196.67459606110
  31
0.0
  12
 548.87114244869
  22
 199.49582775244
  32
0.0
  13
 548.87114244869
  23
 199.49582775244
  33
0.0
   0
SOLID
   5
EA
 100
AcDbEntity
   8
0
 100
AcDbTrace
   6
CONTINUOUS
  62
8
  10
 595.87114244869
  20
 198.08521190677
  30
0.0
  11
 587.87114244869
  21
 199.49582775244
  31
0.0
  12
 587.87114244869
  22
 196.67459606110
  32
0.0
  13
 587.87114244869
  23
 196.67459606110
  33
0.0
   0
MTEXT
   5
EB
 100
AcDbEntity
   8
0
 370
15
  62
8
 100
AcDbMText
  10
 568.37114244869
  20
 202.08521190677
  30
0.0
  40
 10.000000000000
  41
0.0
  71
8
  72
1
   1
\A1;L
   7
GMM001
   0
ENDBLK
   5
EC
 100
AcDbEntity
   8
0
 100
AcDbBlockEnd
   0
BLOCK
   5
ED
 100
AcDbEntity
   8
0
 100
AcDbBlockBegin
   2
*D6
  70
65
  10
0.0
  20
0.0
  30
0.0
   3
*D6
   0
LINE
   5
EE
 100
AcDbEntity
   8
0
 370
15
 100
AcDbLine
   6
CONTINUOUS
  62
8
  10
 532.87114244869
  20
 222.28446174601
  30
0.0
  11
 514.36230568048
  21
 222.28446174601
  31
0.0
   0
LINE
   5
EF
 100
AcDbEntity
   8
0
 370
15
 100
AcDbLine
   6
CONTINUOUS
  62
8
  10
 532.87114244869
  20
 267.28446174601
  30
0.0
  11
 514.36230568048
  21
 267.28446174601
  31
0.0
   0
LINE
   5
F0
 100
AcDbEntity
   8
0
 370
15
 100
AcDbLine
   6
CONTINUOUS
  62
8
  10
 518.36230568048
  20
 222.28446174601
  30
0.0
  11
 518.36230568048
  21
 244.78446174601
  31
0.0
   0
LINE
   5
F1
 100
AcDbEntity
   8
0
 370
15
 100
AcDbLine
   6
CONTINUOUS
  62
8
  10
 518.36230568048
  20
 267.28446174601
  30
0.0
  11
 518.36230568048
  21
 244.78446174601
  31
0.0
   0
SOLID
   5
F2
 100
AcDbEntity
   8
0
 100
AcDbTrace
   6
CONTINUOUS
  62
8
  10
 518.36230568048
  20
 222.28446174601
  30
0.0
  11
 519.77292152615
  21
 230.28446174601
  31
0.0
  12
 516.95168983481
  22
 230.28446174601
  32
0.0
  13
 516.95168983481
  23
 230.28446174601
  33
0.0
   0
SOLID
   5
F3
 100
AcDbEntity
   8
0
 100
AcDbTrace
   6
CONTINUOUS
  62
8
  10
 518.36230568048
  20
 267.28446174601
  30
0.0
  11
 516.95168983481
  21
 259.28446174601
  31
0.0
  12
 519.77292152615
  22
 259.28446174601
  32
0.0
  13
 519.77292152615
  23
 259.28446174601
  33
0.0
   0
MTEXT
   5
F4
 100
AcDbEntity
   8
0
 370
15
  62
8
 100
AcDbMText
  10
 514.36230568048
  20
 244.78446174601
  30
0.0
  40
 10.000000000000
  41
0.0
  71
8
  72
1
   1
\A1;45
   7
GMM001
  11
0.0
  21
 1.0000000000000
  31
0.0
   0
ENDBLK
   5
F5
 100
AcDbEntity
   8
0
 100
AcDbBlockEnd
   0
BLOCK
   5
F6
 100
AcDbEntity
   8
0
 100
AcDbBlockBegin
   2
*D7
  70
65
  10
0.0
  20
0.0
  30
0.0
   3
*D7
   0
LINE
   5
F7
 100
AcDbEntity
   8
0
 370
15
 100
AcDbLine
   6
CONTINUOUS
  62
8
  10
 585.41747092923
  20
 790.65120790638
  30
0.0
  11
 638.06151075280
  21
 790.65120790638
  31
0.0
   0
LINE
   5
F8
 100
AcDbEntity
   8
0
 370
15
 100
AcDbLine
   6
CONTINUOUS
  62
8
  10
 609.41747092924
  20
 835.65120790638
  30
0.0
  11
 638.06151075280
  21
 835.65120790638
  31
0.0
   0
LINE
   5
F9
 100
AcDbEntity
   8
0
 370
15
 100
AcDbLine
   6
CONTINUOUS
  62
8
  10
 634.06151075280
  20
 790.65120790638
  30
0.0
  11
 634.06151075280
  21
 813.15120790638
  31
0.0
   0
LINE
   5
FA
 100
AcDbEntity
   8
0
 370
15
 100
AcDbLine
   6
CONTINUOUS
  62
8
  10
 634.06151075280
  20
 835.65120790638
  30
0.0
  11
 634.06151075280
  21
 813.15120790638
  31
0.0
   0
SOLID
   5
FB
 100
AcDbEntity
   8
0
 100
AcDbTrace
   6
CONTINUOUS
  62
8
  10
 634.06151075280
  20
 790.65120790638
  30
0.0
  11
 635.47212659846
  21
 798.65120790638
  31
0.0
  12
 632.65089490713
  22
 798.65120790638
  32
0.0
  13
 632.65089490713
  23
 798.65120790638
  33
0.0
   0
SOLID
   5
FC
 100
AcDbEntity
   8
0
 100
AcDbTrace
   6
CONTINUOUS
  62
8
  10
 634.06151075280
  20
 835.65120790638
  30
0.0
  11
 632.65089490713
  21
 827.65120790638
  31
0.0
  12
 635.47212659846
  22
 827.65120790638
  32
0.0
  13
 635.47212659846
  23
 827.65120790638
  33
0.0
   0
MTEXT
   5
FD
 100
AcDbEntity
   8
0
 370
15
  62
8
 100
AcDbMText
  10
 630.06151075280
  20
 813.15120790638
  30
0.0
  40
 10.000000000000
  41
0.0
  71
8
  72
1
   1
\A1;45
   7
GMM001
  11
0.0
  21
 1.0000000000000
  31
0.0
   0
ENDBLK
   5
FE
 100
AcDbEntity
   8
0
 100
AcDbBlockEnd
   0
BLOCK
   5
FF
 100
AcDbEntity
   8
0
 100
AcDbBlockBegin
   2
*D8
  70
65
  10
0.0
  20
0.0
  30
0.0
   3
*D8
   0
LINE
   5
100
 100
AcDbEntity
   8
0
 370
15
 100
AcDbLine
   6
CONTINUOUS
  62
8
  10
 523.91747092924
  20
 759.15120790638
  30
0.0
  11
 523.91747092924
  21
 729.15120790638
  31
0.0
   0
LINE
   5
101
 100
AcDbEntity
   8
0
 370
15
 100
AcDbLine
   6
CONTINUOUS
  62
8
  10
 490.51847932393
  20
 733.15120790638
  30
0.0
  11
 525.66747092924
  21
 733.15120790638
  31
0.0
   0
LINE
   5
102
 100
AcDbEntity
   8
0
 370
15
 100
AcDbLine
   6
CONTINUOUS
  62
8
  10
 527.41747092924
  20
 733.15120790638
  30
0.0
  11
 525.66747092924
  21
 733.15120790638
  31
0.0
   0
SOLID
   5
103
 100
AcDbEntity
   8
0
 100
AcDbTrace
   6
CONTINUOUS
  62
8
  10
 523.91747092924
  20
 733.15120790638
  30
0.0
  11
 515.91747092924
  21
 734.56182375205
  31
0.0
  12
 515.91747092924
  22
 731.74059206071
  32
0.0
  13
 515.91747092924
  23
 731.74059206071
  33
0.0
   0
MTEXT
   5
104
 100
AcDbEntity
   8
0
 370
15
  62
8
 100
AcDbMText
  10
 501.51847932393
  20
 737.15120790638
  30
0.0
  40
 10.000000000000
  41
0.0
  71
8
  72
1
   1
\A1;3.5
   7
GMM001
   0
ENDBLK
   5
105
 100
AcDbEntity
   8
0
 100
AcDbBlockEnd
   0
BLOCK
   5
106
 100
AcDbEntity
   8
0
 100
AcDbBlockBegin
   2
*D9
  70
65
  10
0.0
  20
0.0
  30
0.0
   3
*D9
   0
LINE
   5
107
 100
AcDbEntity
   8
0
 370
15
 100
AcDbLine
   6
CONTINUOUS
  62
8
  10
 527.41747092924
  20
 760.65120790638
  30
0.0
  11
 527.41747092924
  21
 729.15120790638
  31
0.0
   0
LINE
   5
108
 100
AcDbEntity
   8
0
 370
15
 100
AcDbLine
   6
CONTINUOUS
  62
8
  10
 597.41747092923
  20
 802.65120790638
  30
0.0
  11
 597.41747092923
  21
 729.15120790638
  31
0.0
   0
LINE
   5
109
 100
AcDbEntity
   8
0
 370
15
 100
AcDbLine
   6
CONTINUOUS
  62
8
  10
 527.41747092924
  20
 733.15120790638
  30
0.0
  11
 562.41747092924
  21
 733.15120790638
  31
0.0
   0
LINE
   5
10A
 100
AcDbEntity
   8
0
 370
15
 100
AcDbLine
   6
CONTINUOUS
  62
8
  10
 597.41747092923
  20
 733.15120790638
  30
0.0
  11
 562.41747092924
  21
 733.15120790638
  31
0.0
   0
SOLID
   5
10B
 100
AcDbEntity
   8
0
 100
AcDbTrace
   6
CONTINUOUS
  62
8
  10
 527.41747092924
  20
 733.15120790638
  30
0.0
  11
 535.41747092924
  21
 731.74059206071
  31
0.0
  12
 535.41747092924
  22
 734.56182375205
  32
0.0
  13
 535.41747092924
  23
 734.56182375205
  33
0.0
   0
SOLID
   5
10C
 100
AcDbEntity
   8
0
 100
AcDbTrace
   6
CONTINUOUS
  62
8
  10
 597.41747092923
  20
 733.15120790638
  30
0.0
  11
 589.41747092923
  21
 734.56182375205
  31
0.0
  12
 589.41747092923
  22
 731.74059206071
  32
0.0
  13
 589.41747092923
  23
 731.74059206071
  33
0.0
   0
MTEXT
   5
10D
 100
AcDbEntity
   8
0
 370
15
  62
8
 100
AcDbMText
  10
 562.41747092924
  20
 737.15120790638
  30
0.0
  40
 10.000000000000
  41
0.0
  71
8
  72
1
   1
\A1;L
   7
GMM001
   0
ENDBLK
   5
10E
 100
AcDbEntity
   8
0
 100
AcDbBlockEnd
   0
BLOCK
   5
10F
 100
AcDbEntity
   8
0
 100
AcDbBlockBegin
   2
*D10
  70
65
  10
0.0
  20
0.0
  30
0.0
   3
*D10
   0
LINE
   5
110
 100
AcDbEntity
   8
0
 370
15
 100
AcDbLine
   6
CONTINUOUS
  62
8
  10
 688.86807577659
  20
 786.65120790638
  30
0.0
  11
 688.86807577659
  21
 729.15120790638
  31
0.0
   0
LINE
   5
111
 100
AcDbEntity
   8
0
 370
15
 100
AcDbLine
   6
CONTINUOUS
  62
8
  10
 704.86807577659
  20
 786.65120790638
  30
0.0
  11
 704.86807577659
  21
 729.15120790638
  31
0.0
   0
LINE
   5
112
 100
AcDbEntity
   8
0
 370
15
 100
AcDbLine
   6
CONTINUOUS
  62
8
  10
 678.86807577659
  20
 733.15120790638
  30
0.0
  11
 696.86807577659
  21
 733.15120790638
  31
0.0
   0
LINE
   5
113
 100
AcDbEntity
   8
0
 370
15
 100
AcDbLine
   6
CONTINUOUS
  62
8
  10
 758.11619607724
  20
 733.15120790638
  30
0.0
  11
 696.86807577659
  21
 733.15120790638
  31
0.0
   0
SOLID
   5
114
 100
AcDbEntity
   8
0
 100
AcDbTrace
   6
CONTINUOUS
  62
8
  10
 688.86807577659
  20
 733.15120790638
  30
0.0
  11
 680.86807577659
  21
 734.56182375205
  31
0.0
  12
 680.86807577659
  22
 731.74059206071
  32
0.0
  13
 680.86807577659
  23
 731.74059206071
  33
0.0
   0
SOLID
   5
115
 100
AcDbEntity
   8
0
 100
AcDbTrace
   6
CONTINUOUS
  62
8
  10
 704.86807577659
  20
 733.15120790638
  30
0.0
  11
 712.86807577659
  21
 731.74059206071
  31
0.0
  12
 712.86807577659
  22
 734.56182375205
  32
0.0
  13
 712.86807577659
  23
 734.56182375205
  33
0.0
   0
MTEXT
   5
116
 100
AcDbEntity
   8
0
 370
15
  62
8
 100
AcDbMText
  10
 749.11619607724
  20
 736.47785786460
  30
0.0
  40
 10.000000000000
  41
0.0
  71
8
  72
1
   1
\A1;16
   7
GMM001
   0
ENDBLK
   5
117
 100
AcDbEntity
   8
0
 100
AcDbBlockEnd
   0
BLOCK
   5
118
 100
AcDbEntity
   8
0
 100
AcDbBlockBegin
   2
*D11
  70
65
  10
0.0
  20
0.0
  30
0.0
   3
*D11
   0
LINE
   5
119
 100
AcDbEntity
   8
0
 370
15
 100
AcDbLine
   6
CONTINUOUS
  62
8
  10
 669.36807577659
  20
 786.65120790638
  30
0.0
  11
 669.36807577659
  21
 699.15120790638
  31
0.0
   0
LINE
   5
11A
 100
AcDbEntity
   8
0
 370
15
 100
AcDbLine
   6
CONTINUOUS
  62
8
  10
 724.36807577659
  20
 786.65120790638
  30
0.0
  11
 724.36807577659
  21
 699.15120790638
  31
0.0
   0
LINE
   5
11B
 100
AcDbEntity
   8
0
 370
15
 100
AcDbLine
   6
CONTINUOUS
  62
8
  10
 669.36807577659
  20
 703.15120790638
  30
0.0
  11
 696.86807577659
  21
 703.15120790638
  31
0.0
   0
LINE
   5
11C
 100
AcDbEntity
   8
0
 370
15
 100
AcDbLine
   6
CONTINUOUS
  62
8
  10
 724.36807577659
  20
 703.15120790638
  30
0.0
  11
 696.86807577659
  21
 703.15120790638
  31
0.0
   0
SOLID
   5
11D
 100
AcDbEntity
   8
0
 100
AcDbTrace
   6
CONTINUOUS
  62
8
  10
 669.36807577659
  20
 703.15120790638
  30
0.0
  11
 677.36807577659
  21
 701.74059206071
  31
0.0
  12
 677.36807577659
  22
 704.56182375205
  32
0.0
  13
 677.36807577659
  23
 704.56182375205
  33
0.0
   0
SOLID
   5
11E
 100
AcDbEntity
   8
0
 100
AcDbTrace
   6
CONTINUOUS
  62
8
  10
 724.36807577659
  20
 703.15120790638
  30
0.0
  11
 716.36807577659
  21
 704.56182375205
  31
0.0
  12
 716.36807577659
  22
 701.74059206071
  32
0.0
  13
 716.36807577659
  23
 701.74059206071
  33
0.0
   0
MTEXT
   5
11F
 100
AcDbEntity
   8
0
 370
15
  62
8
 100
AcDbMText
  10
 696.86807577659
  20
 707.15120790638
  30
0.0
  40
 10.000000000000
  41
0.0
  71
8
  72
1
   1
\A1;55
   7
GMM001
   0
ENDBLK
   5
120
 100
AcDbEntity
   8
0
 100
AcDbBlockEnd
   0
BLOCK
   5
121
 100
AcDbEntity
   8
0
 100
AcDbBlockBegin
   2
*D12
  70
65
  10
0.0
  20
0.0
  30
0.0
   3
*D12
   0
LINE
   5
122
 100
AcDbEntity
   8
0
 370
15
 100
AcDbLine
   6
CONTINUOUS
  62
8
  10
 519.91747092924
  20
 818.15120790638
  30
0.0
  11
 505.75363742484
  21
 818.15120790638
  31
0.0
   0
LINE
   5
123
 100
AcDbEntity
   8
0
 370
15
 100
AcDbLine
   6
CONTINUOUS
  62
8
  10
 519.91747092924
  20
 763.15120790638
  30
0.0
  11
 505.75363742484
  21
 763.15120790638
  31
0.0
   0
LINE
   5
124
 100
AcDbEntity
   8
0
 370
15
 100
AcDbLine
   6
CONTINUOUS
  62
8
  10
 509.75363742484
  20
 818.15120790638
  30
0.0
  11
 509.75363742484
  21
 790.65120790638
  31
0.0
   0
LINE
   5
125
 100
AcDbEntity
   8
0
 370
15
 100
AcDbLine
   6
CONTINUOUS
  62
8
  10
 509.75363742484
  20
 763.15120790638
  30
0.0
  11
 509.75363742484
  21
 790.65120790638
  31
0.0
   0
SOLID
   5
126
 100
AcDbEntity
   8
0
 100
AcDbTrace
   6
CONTINUOUS
  62
8
  10
 509.75363742484
  20
 818.15120790638
  30
0.0
  11
 508.34302157917
  21
 810.15120790638
  31
0.0
  12
 511.16425327050
  22
 810.15120790638
  32
0.0
  13
 511.16425327050
  23
 810.15120790638
  33
0.0
   0
SOLID
   5
127
 100
AcDbEntity
   8
0
 100
AcDbTrace
   6
CONTINUOUS
  62
8
  10
 509.75363742484
  20
 763.15120790638
  30
0.0
  11
 511.16425327050
  21
 771.15120790638
  31
0.0
  12
 508.34302157917
  22
 771.15120790638
  32
0.0
  13
 508.34302157917
  23
 771.15120790638
  33
0.0
   0
MTEXT
   5
128
 100
AcDbEntity
   8
0
 370
15
  62
8
 100
AcDbMText
  10
 505.75363742484
  20
 790.65120790638
  30
0.0
  40
 10.000000000000
  41
0.0
  71
8
  72
1
   1
\A1;55
   7
GMM001
  11
0.0
  21
 1.0000000000000
  31
0.0
   0
ENDBLK
   5
129
 100
AcDbEntity
   8
0
 100
AcDbBlockEnd
   0
BLOCK
   5
12A
 100
AcDbEntity
   8
0
 100
AcDbBlockBegin
   2
*D13
  70
65
  10
0.0
  20
0.0
  30
0.0
   3
*D13
   0
LINE
   5
12B
 100
AcDbEntity
   8
0
 370
15
 100
AcDbLine
   6
CONTINUOUS
  62
8
  10
 666.86807577659
  20
 946.34004529973
  30
0.0
  11
 666.86807577659
  21
 920.60047435921
  31
0.0
   0
LINE
   5
12C
 100
AcDbEntity
   8
0
 370
15
 100
AcDbLine
   6
CONTINUOUS
  62
8
  10
 726.86807577659
  20
 946.34004529973
  30
0.0
  11
 726.86807577659
  21
 920.60047435921
  31
0.0
   0
LINE
   5
12D
 100
AcDbEntity
   8
0
 370
15
 100
AcDbLine
   6
CONTINUOUS
  62
8
  10
 666.86807577659
  20
 924.60047435921
  30
0.0
  11
 696.86807577659
  21
 924.60047435921
  31
0.0
   0
LINE
   5
12E
 100
AcDbEntity
   8
0
 370
15
 100
AcDbLine
   6
CONTINUOUS
  62
8
  10
 726.86807577659
  20
 924.60047435921
  30
0.0
  11
 696.86807577659
  21
 924.60047435921
  31
0.0
   0
SOLID
   5
12F
 100
AcDbEntity
   8
0
 100
AcDbTrace
   6
CONTINUOUS
  62
8
  10
 666.86807577659
  20
 924.60047435921
  30
0.0
  11
 674.86807577659
  21
 923.18985851354
  31
0.0
  12
 674.86807577659
  22
 926.01109020488
  32
0.0
  13
 674.86807577659
  23
 926.01109020488
  33
0.0
   0
SOLID
   5
130
 100
AcDbEntity
   8
0
 100
AcDbTrace
   6
CONTINUOUS
  62
8
  10
 726.86807577659
  20
 924.60047435921
  30
0.0
  11
 718.86807577659
  21
 926.01109020488
  31
0.0
  12
 718.86807577659
  22
 923.18985851354
  32
0.0
  13
 718.86807577659
  23
 923.18985851354
  33
0.0
   0
MTEXT
   5
131
 100
AcDbEntity
   8
0
 370
15
  62
8
 100
AcDbMText
  10
 696.86807577659
  20
 928.60047435921
  30
0.0
  40
 10.000000000000
  41
0.0
  71
8
  72
1
   1
\A1;60
   7
GMM001
   0
ENDBLK
   5
132
 100
AcDbEntity
   8
0
 100
AcDbBlockEnd
   0
BLOCK
   5
133
 100
AcDbEntity
   8
0
 100
AcDbBlockBegin
   2
*D14
  70
65
  10
0.0
  20
0.0
  30
0.0
   3
*D14
   0
LINE
   5
134
 100
AcDbEntity
   8
0
 370
15
 100
AcDbLine
   6
CONTINUOUS
  62
8
  10
 656.86807577659
  20
 942.60047435921
  30
0.0
  11
 656.86807577659
  21
 900.60047435921
  31
0.0
   0
LINE
   5
135
 100
AcDbEntity
   8
0
 370
15
 100
AcDbLine
   6
CONTINUOUS
  62
8
  10
 736.86807577659
  20
 942.60047435921
  30
0.0
  11
 736.86807577659
  21
 900.60047435921
  31
0.0
   0
LINE
   5
136
 100
AcDbEntity
   8
0
 370
15
 100
AcDbLine
   6
CONTINUOUS
  62
8
  10
 656.86807577659
  20
 904.60047435921
  30
0.0
  11
 696.86807577659
  21
 904.60047435921
  31
0.0
   0
LINE
   5
137
 100
AcDbEntity
   8
0
 370
15
 100
AcDbLine
   6
CONTINUOUS
  62
8
  10
 736.86807577659
  20
 904.60047435921
  30
0.0
  11
 696.86807577659
  21
 904.60047435921
  31
0.0
   0
SOLID
   5
138
 100
AcDbEntity
   8
0
 100
AcDbTrace
   6
CONTINUOUS
  62
8
  10
 656.86807577659
  20
 904.60047435921
  30
0.0
  11
 664.86807577659
  21
 903.18985851354
  31
0.0
  12
 664.86807577659
  22
 906.01109020488
  32
0.0
  13
 664.86807577659
  23
 906.01109020488
  33
0.0
   0
SOLID
   5
139
 100
AcDbEntity
   8
0
 100
AcDbTrace
   6
CONTINUOUS
  62
8
  10
 736.86807577659
  20
 904.60047435921
  30
0.0
  11
 728.86807577659
  21
 906.01109020488
  31
0.0
  12
 728.86807577659
  22
 903.18985851354
  32
0.0
  13
 728.86807577659
  23
 903.18985851354
  33
0.0
   0
MTEXT
   5
13A
 100
AcDbEntity
   8
0
 370
15
  62
8
 100
AcDbMText
  10
 696.86807577659
  20
 908.60047435921
  30
0.0
  40
 10.000000000000
  41
0.0
  71
8
  72
1
   1
\A1;80
   7
GMM001
   0
ENDBLK
   5
13B
 100
AcDbEntity
   8
0
 100
AcDbBlockEnd
   0
BLOCK
   5
13C
 100
AcDbEntity
   8
0
 100
AcDbBlockBegin
   2
*D15
  70
65
  10
0.0
  20
0.0
  30
0.0
   3
*D15
   0
LINE
   5
13D
 100
AcDbEntity
   8
0
 370
15
 100
AcDbLine
   6
CONTINUOUS
  62
8
  10
 584.91747092924
  20
 849.95120790638
  30
0.0
  11
 584.91747092924
  21
 864.95120790638
  31
0.0
   0
LINE
   5
13E
 100
AcDbEntity
   8
0
 370
15
 100
AcDbLine
   6
CONTINUOUS
  62
8
  10
 609.91747092924
  20
 849.95120790638
  30
0.0
  11
 609.91747092924
  21
 864.95120790638
  31
0.0
   0
LINE
   5
13F
 100
AcDbEntity
   8
0
 370
15
 100
AcDbLine
   6
CONTINUOUS
  62
8
  10
 584.91747092924
  20
 860.95120790638
  30
0.0
  11
 597.41747092924
  21
 860.95120790638
  31
0.0
   0
LINE
   5
140
 100
AcDbEntity
   8
0
 370
15
 100
AcDbLine
   6
CONTINUOUS
  62
8
  10
 609.91747092924
  20
 860.95120790638
  30
0.0
  11
 597.41747092924
  21
 860.95120790638
  31
0.0
   0
SOLID
   5
141
 100
AcDbEntity
   8
0
 100
AcDbTrace
   6
CONTINUOUS
  62
8
  10
 584.91747092924
  20
 860.95120790638
  30
0.0
  11
 592.91747092924
  21
 859.54059206071
  31
0.0
  12
 592.91747092924
  22
 862.36182375205
  32
0.0
  13
 592.91747092924
  23
 862.36182375205
  33
0.0
   0
SOLID
   5
142
 100
AcDbEntity
   8
0
 100
AcDbTrace
   6
CONTINUOUS
  62
8
  10
 609.91747092924
  20
 860.95120790638
  30
0.0
  11
 601.91747092924
  21
 862.36182375205
  31
0.0
  12
 601.91747092924
  22
 859.54059206071
  32
0.0
  13
 601.91747092924
  23
 859.54059206071
  33
0.0
   0
MTEXT
   5
143
 100
AcDbEntity
   8
0
 370
15
  62
8
 100
AcDbMText
  10
 597.41747092924
  20
 864.95120790638
  30
0.0
  40
 10.000000000000
  41
0.0
  71
8
  72
1
   1
\A1;25
   7
GMM001
   0
ENDBLK
   5
144
 100
AcDbEntity
   8
0
 100
AcDbBlockEnd
   0
BLOCK
   5
145
 100
AcDbEntity
   8
0
 100
AcDbBlockBegin
   2
*D16
  70
65
  10
0.0
  20
0.0
  30
0.0
   3
*D16
   0
LINE
   5
146
 100
AcDbEntity
   8
0
 370
15
 100
AcDbLine
   6
CONTINUOUS
  62
8
  10
 656.86807577659
  20
 849.95120790638
  30
0.0
  11
 656.86807577659
  21
 864.95120790638
  31
0.0
   0
LINE
   5
147
 100
AcDbEntity
   8
0
 370
15
 100
AcDbLine
   6
CONTINUOUS
  62
8
  10
 736.86807577659
  20
 849.95120790638
  30
0.0
  11
 736.86807577659
  21
 864.95120790638
  31
0.0
   0
LINE
   5
148
 100
AcDbEntity
   8
0
 370
15
 100
AcDbLine
   6
CONTINUOUS
  62
8
  10
 656.86807577659
  20
 860.95120790638
  30
0.0
  11
 696.86807577659
  21
 860.95120790638
  31
0.0
   0
LINE
   5
149
 100
AcDbEntity
   8
0
 370
15
 100
AcDbLine
   6
CONTINUOUS
  62
8
  10
 736.86807577659
  20
 860.95120790638
  30
0.0
  11
 696.86807577659
  21
 860.95120790638
  31
0.0
   0
SOLID
   5
14A
 100
AcDbEntity
   8
0
 100
AcDbTrace
   6
CONTINUOUS
  62
8
  10
 656.86807577659
  20
 860.95120790638
  30
0.0
  11
 664.86807577659
  21
 859.54059206071
  31
0.0
  12
 664.86807577659
  22
 862.36182375205
  32
0.0
  13
 664.86807577659
  23
 862.36182375205
  33
0.0
   0
SOLID
   5
14B
 100
AcDbEntity
   8
0
 100
AcDbTrace
   6
CONTINUOUS
  62
8
  10
 736.86807577659
  20
 860.95120790638
  30
0.0
  11
 728.86807577659
  21
 862.36182375205
  31
0.0
  12
 728.86807577659
  22
 859.54059206071
  32
0.0
  13
 728.86807577659
  23
 859.54059206071
  33
0.0
   0
MTEXT
   5
14C
 100
AcDbEntity
   8
0
 370
15
  62
8
 100
AcDbMText
  10
 696.86807577659
  20
 864.95120790638
  30
0.0
  40
 10.000000000000
  41
0.0
  71
8
  72
1
   1
\A1;80
   7
GMM001
   0
ENDBLK
   5
14D
 100
AcDbEntity
   8
0
 100
AcDbBlockEnd
   0
BLOCK
   5
14E
 100
AcDbEntity
   8
0
 100
AcDbBlockBegin
   2
*D17
  70
65
  10
0.0
  20
0.0
  30
0.0
   3
*D17
   0
LINE
   5
14F
 100
AcDbEntity
   8
0
 370
15
 100
AcDbLine
   6
CONTINUOUS
  62
8
  10
 740.86807577659
  20
 843.95120790638
  30
0.0
  11
 762.74539152152
  21
 843.95120790638
  31
0.0
   0
LINE
   5
150
 100
AcDbEntity
   8
0
 370
15
 100
AcDbLine
   6
CONTINUOUS
  62
8
  10
 740.86807577659
  20
 845.95120790638
  30
0.0
  11
 762.74539152152
  21
 845.95120790638
  31
0.0
   0
LINE
   5
151
 100
AcDbEntity
   8
0
 370
15
 100
AcDbLine
   6
CONTINUOUS
  62
8
  10
 758.74539152152
  20
 833.95120790638
  30
0.0
  11
 758.74539152152
  21
 844.95120790638
  31
0.0
   0
LINE
   5
152
 100
AcDbEntity
   8
0
 370
15
 100
AcDbLine
   6
CONTINUOUS
  62
8
  10
 758.74539152152
  20
 863.47793154115
  30
0.0
  11
 758.74539152152
  21
 844.95120790638
  31
0.0
   0
SOLID
   5
153
 100
AcDbEntity
   8
0
 100
AcDbTrace
   6
CONTINUOUS
  62
8
  10
 758.74539152152
  20
 843.95120790638
  30
0.0
  11
 757.33477567585
  21
 835.95120790638
  31
0.0
  12
 760.15600736719
  22
 835.95120790638
  32
0.0
  13
 760.15600736719
  23
 835.95120790638
  33
0.0
   0
SOLID
   5
154
 100
AcDbEntity
   8
0
 100
AcDbTrace
   6
CONTINUOUS
  62
8
  10
 758.74539152152
  20
 845.95120790638
  30
0.0
  11
 760.15600736719
  21
 853.95120790638
  31
0.0
  12
 757.33477567585
  22
 853.95120790638
  32
0.0
  13
 757.33477567585
  23
 853.95120790638
  33
0.0
   0
MTEXT
   5
155
 100
AcDbEntity
   8
0
 370
15
  62
8
 100
AcDbMText
  10
 754.23634111770
  20
 853.47793154115
  30
0.0
  40
 10.000000000000
  41
0.0
  71
7
  72
1
   1
\A1;2
   7
GMM001
  11
0.0
  21
 1.0000000000000
  31
0.0
   0
ENDBLK
   5
156
 100
AcDbEntity
   8
0
 100
AcDbBlockEnd
   0
BLOCK
   5
157
 100
AcDbEntity
   8
0
 100
AcDbBlockBegin
   2
*D18
  70
65
  10
0.0
  20
0.0
  30
0.0
   3
*D18
   0
LINE
   5
158
 100
AcDbEntity
   8
0
 370
15
 100
AcDbLine
   6
CONTINUOUS
  62
8
  10
 583.37114244869
  20
 294.08446174601
  30
0.0
  11
 583.37114244869
  21
 309.08446174601
  31
0.0
   0
LINE
   5
159
 100
AcDbEntity
   8
0
 370
15
 100
AcDbLine
   6
CONTINUOUS
  62
8
  10
 608.37114244869
  20
 294.08446174601
  30
0.0
  11
 608.37114244869
  21
 309.08446174601
  31
0.0
   0
LINE
   5
15A
 100
AcDbEntity
   8
0
 370
15
 100
AcDbLine
   6
CONTINUOUS
  62
8
  10
 583.37114244869
  20
 305.08446174601
  30
0.0
  11
 595.87114244869
  21
 305.08446174601
  31
0.0
   0
LINE
   5
15B
 100
AcDbEntity
   8
0
 370
15
 100
AcDbLine
   6
CONTINUOUS
  62
8
  10
 608.37114244869
  20
 305.08446174601
  30
0.0
  11
 595.87114244869
  21
 305.08446174601
  31
0.0
   0
SOLID
   5
15C
 100
AcDbEntity
   8
0
 100
AcDbTrace
   6
CONTINUOUS
  62
8
  10
 583.37114244869
  20
 305.08446174601
  30
0.0
  11
 591.37114244869
  21
 303.67384590034
  31
0.0
  12
 591.37114244869
  22
 306.49507759168
  32
0.0
  13
 591.37114244869
  23
 306.49507759168
  33
0.0
   0
SOLID
   5
15D
 100
AcDbEntity
   8
0
 100
AcDbTrace
   6
CONTINUOUS
  62
8
  10
 608.37114244869
  20
 305.08446174601
  30
0.0
  11
 600.37114244869
  21
 306.49507759168
  31
0.0
  12
 600.37114244869
  22
 303.67384590034
  32
0.0
  13
 600.37114244869
  23
 303.67384590034
  33
0.0
   0
MTEXT
   5
15E
 100
AcDbEntity
   8
0
 370
15
  62
8
 100
AcDbMText
  10
 595.87114244869
  20
 309.08446174601
  30
0.0
  40
 10.000000000000
  41
0.0
  71
8
  72
1
   1
\A1;25
   7
GMM001
   0
ENDBLK
   5
15F
 100
AcDbEntity
   8
0
 100
AcDbBlockEnd
   0
BLOCK
   5
160
 100
AcDbEntity
   8
0
 100
AcDbBlockBegin
   2
*D19
  70
65
  10
0.0
  20
0.0
  30
0.0
   3
*D19
   0
LINE
   5
161
 100
AcDbEntity
   8
0
 370
15
 100
AcDbLine
   6
CONTINUOUS
  62
8
  10
 739.32174729604
  20
 288.08446174601
  30
0.0
  11
 761.19906304097
  21
 288.08446174601
  31
0.0
   0
LINE
   5
162
 100
AcDbEntity
   8
0
 370
15
 100
AcDbLine
   6
CONTINUOUS
  62
8
  10
 739.32174729604
  20
 290.08446174601
  30
0.0
  11
 761.19906304097
  21
 290.08446174601
  31
0.0
   0
LINE
   5
163
 100
AcDbEntity
   8
0
 370
15
 100
AcDbLine
   6
CONTINUOUS
  62
8
  10
 757.19906304097
  20
 278.08446174601
  30
0.0
  11
 757.19906304097
  21
 289.08446174601
  31
0.0
   0
LINE
   5
164
 100
AcDbEntity
   8
0
 370
15
 100
AcDbLine
   6
CONTINUOUS
  62
8
  10
 757.19906304097
  20
 307.61118538078
  30
0.0
  11
 757.19906304097
  21
 289.08446174601
  31
0.0
   0
SOLID
   5
165
 100
AcDbEntity
   8
0
 100
AcDbTrace
   6
CONTINUOUS
  62
8
  10
 757.19906304097
  20
 288.08446174601
  30
0.0
  11
 755.78844719530
  21
 280.08446174601
  31
0.0
  12
 758.60967888664
  22
 280.08446174601
  32
0.0
  13
 758.60967888664
  23
 280.08446174601
  33
0.0
   0
SOLID
   5
166
 100
AcDbEntity
   8
0
 100
AcDbTrace
   6
CONTINUOUS
  62
8
  10
 757.19906304097
  20
 290.08446174601
  30
0.0
  11
 758.60967888664
  21
 298.08446174601
  31
0.0
  12
 755.78844719530
  22
 298.08446174601
  32
0.0
  13
 755.78844719530
  23
 298.08446174601
  33
0.0
   0
MTEXT
   5
167
 100
AcDbEntity
   8
0
 370
15
  62
8
 100
AcDbMText
  10
 752.69001263715
  20
 297.61118538078
  30
0.0
  40
 10.000000000000
  41
0.0
  71
7
  72
1
   1
\A1;2
   7
GMM001
  11
0.0
  21
 1.0000000000000
  31
0.0
   0
ENDBLK
   5
168
 100
AcDbEntity
   8
0
 100
AcDbBlockEnd
   0
BLOCK
   5
169
 100
AcDbEntity
   8
0
 100
AcDbBlockBegin
   2
*D20
  70
65
  10
0.0
  20
0.0
  30
0.0
   3
*D20
   0
LINE
   5
16A
 100
AcDbEntity
   8
0
 370
15
 100
AcDbLine
   6
CONTINUOUS
  62
8
  10
 655.32174729604
  20
 294.08446174601
  30
0.0
  11
 655.32174729604
  21
 309.08446174601
  31
0.0
   0
LINE
   5
16B
 100
AcDbEntity
   8
0
 370
15
 100
AcDbLine
   6
CONTINUOUS
  62
8
  10
 735.32174729604
  20
 294.08446174601
  30
0.0
  11
 735.32174729604
  21
 309.08446174601
  31
0.0
   0
LINE
   5
16C
 100
AcDbEntity
   8
0
 370
15
 100
AcDbLine
   6
CONTINUOUS
  62
8
  10
 655.32174729604
  20
 305.08446174601
  30
0.0
  11
 695.32174729604
  21
 305.08446174601
  31
0.0
   0
LINE
   5
16D
 100
AcDbEntity
   8
0
 370
15
 100
AcDbLine
   6
CONTINUOUS
  62
8
  10
 735.32174729604
  20
 305.08446174601
  30
0.0
  11
 695.32174729604
  21
 305.08446174601
  31
0.0
   0
SOLID
   5
16E
 100
AcDbEntity
   8
0
 100
AcDbTrace
   6
CONTINUOUS
  62
8
  10
 655.32174729604
  20
 305.08446174601
  30
0.0
  11
 663.32174729604
  21
 303.67384590034
  31
0.0
  12
 663.32174729604
  22
 306.49507759168
  32
0.0
  13
 663.32174729604
  23
 306.49507759168
  33
0.0
   0
SOLID
   5
16F
 100
AcDbEntity
   8
0
 100
AcDbTrace
   6
CONTINUOUS
  62
8
  10
 735.32174729604
  20
 305.08446174601
  30
0.0
  11
 727.32174729604
  21
 306.49507759168
  31
0.0
  12
 727.32174729604
  22
 303.67384590034
  32
0.0
  13
 727.32174729604
  23
 303.67384590034
  33
0.0
   0
MTEXT
   5
170
 100
AcDbEntity
   8
0
 370
15
  62
8
 100
AcDbMText
  10
 695.32174729604
  20
 309.08446174601
  30
0.0
  40
 10.000000000000
  41
0.0
  71
8
  72
1
   1
\A1;80
   7
GMM001
   0
ENDBLK
   5
171
 100
AcDbEntity
   8
0
 100
AcDbBlockEnd
   0
BLOCK
   5
172
 100
AcDbEntity
   8
0
 100
AcDbBlockBegin
   2
*D21
  70
65
  10
0.0
  20
0.0
  30
0.0
   3
*D21
   0
LINE
   5
173
 100
AcDbEntity
   8
0
 370
15
 100
AcDbLine
   6
CONTINUOUS
  62
8
  10
 665.32174729604
  20
 390.47329913936
  30
0.0
  11
 665.32174729604
  21
 364.73372819884
  31
0.0
   0
LINE
   5
174
 100
AcDbEntity
   8
0
 370
15
 100
AcDbLine
   6
CONTINUOUS
  62
8
  10
 725.32174729604
  20
 390.47329913936
  30
0.0
  11
 725.32174729604
  21
 364.73372819884
  31
0.0
   0
LINE
   5
175
 100
AcDbEntity
   8
0
 370
15
 100
AcDbLine
   6
CONTINUOUS
  62
8
  10
 665.32174729604
  20
 368.73372819884
  30
0.0
  11
 695.32174729604
  21
 368.73372819884
  31
0.0
   0
LINE
   5
176
 100
AcDbEntity
   8
0
 370
15
 100
AcDbLine
   6
CONTINUOUS
  62
8
  10
 725.32174729604
  20
 368.73372819884
  30
0.0
  11
 695.32174729604
  21
 368.73372819884
  31
0.0
   0
SOLID
   5
177
 100
AcDbEntity
   8
0
 100
AcDbTrace
   6
CONTINUOUS
  62
8
  10
 665.32174729604
  20
 368.73372819884
  30
0.0
  11
 673.32174729604
  21
 367.32311235317
  31
0.0
  12
 673.32174729604
  22
 370.14434404450
  32
0.0
  13
 673.32174729604
  23
 370.14434404450
  33
0.0
   0
SOLID
   5
178
 100
AcDbEntity
   8
0
 100
AcDbTrace
   6
CONTINUOUS
  62
8
  10
 725.32174729604
  20
 368.73372819884
  30
0.0
  11
 717.32174729604
  21
 370.14434404450
  31
0.0
  12
 717.32174729604
  22
 367.32311235317
  32
0.0
  13
 717.32174729604
  23
 367.32311235317
  33
0.0
   0
MTEXT
   5
179
 100
AcDbEntity
   8
0
 370
15
  62
8
 100
AcDbMText
  10
 695.32174729604
  20
 372.73372819884
  30
0.0
  40
 10.000000000000
  41
0.0
  71
8
  72
1
   1
\A1;60
   7
GMM001
   0
ENDBLK
   5
17A
 100
AcDbEntity
   8
0
 100
AcDbBlockEnd
   0
BLOCK
   5
17B
 100
AcDbEntity
   8
0
 100
AcDbBlockBegin
   2
*D22
  70
65
  10
0.0
  20
0.0
  30
0.0
   3
*D22
   0
LINE
   5
17C
 100
AcDbEntity
   8
0
 370
15
 100
AcDbLine
   6
CONTINUOUS
  62
8
  10
 655.32174729604
  20
 386.73372819884
  30
0.0
  11
 655.32174729604
  21
 344.73372819884
  31
0.0
   0
LINE
   5
17D
 100
AcDbEntity
   8
0
 370
15
 100
AcDbLine
   6
CONTINUOUS
  62
8
  10
 735.32174729604
  20
 386.73372819884
  30
0.0
  11
 735.32174729604
  21
 344.73372819884
  31
0.0
   0
LINE
   5
17E
 100
AcDbEntity
   8
0
 370
15
 100
AcDbLine
   6
CONTINUOUS
  62
8
  10
 655.32174729604
  20
 348.73372819884
  30
0.0
  11
 695.32174729604
  21
 348.73372819884
  31
0.0
   0
LINE
   5
17F
 100
AcDbEntity
   8
0
 370
15
 100
AcDbLine
   6
CONTINUOUS
  62
8
  10
 735.32174729604
  20
 348.73372819884
  30
0.0
  11
 695.32174729604
  21
 348.73372819884
  31
0.0
   0
SOLID
   5
180
 100
AcDbEntity
   8
0
 100
AcDbTrace
   6
CONTINUOUS
  62
8
  10
 655.32174729604
  20
 348.73372819884
  30
0.0
  11
 663.32174729604
  21
 347.32311235317
  31
0.0
  12
 663.32174729604
  22
 350.14434404450
  32
0.0
  13
 663.32174729604
  23
 350.14434404450
  33
0.0
   0
SOLID
   5
181
 100
AcDbEntity
   8
0
 100
AcDbTrace
   6
CONTINUOUS
  62
8
  10
 735.32174729604
  20
 348.73372819884
  30
0.0
  11
 727.32174729604
  21
 350.14434404450
  31
0.0
  12
 727.32174729604
  22
 347.32311235317
  32
0.0
  13
 727.32174729604
  23
 347.32311235317
  33
0.0
   0
MTEXT
   5
182
 100
AcDbEntity
   8
0
 370
15
  62
8
 100
AcDbMText
  10
 695.32174729604
  20
 352.73372819884
  30
0.0
  40
 10.000000000000
  41
0.0
  71
8
  72
1
   1
\A1;80
   7
GMM001
   0
ENDBLK
   5
183
 100
AcDbEntity
   8
0
 100
AcDbBlockEnd
   0
ENDSEC
   0
SECTION
   2
ENTITIES
   0
LINE
   5
184
 100
AcDbEntity
   8
LEVEL001
 370
40
 100
AcDbLine
   6
CONTINUOUS
  62
3
  10
 1268.0000000001
  20
 1027.0000000000
  30
0.0
  11
 1618.0000000001
  21
 1027.0000000000
  31
0.0
   0
LINE
   5
185
 100
AcDbEntity
   8
LEVEL001
 370
40
 100
AcDbLine
   6
CONTINUOUS
  62
3
  10
 1268.0000000001
  20
 947.00000000001
  30
0.0
  11
 1618.0000000001
  21
 947.00000000001
  31
0.0
   0
LINE
   5
186
 100
AcDbEntity
   8
LEVEL001
 370
40
 100
AcDbLine
   6
CONTINUOUS
  62
3
  10
 1268.0000000001
  20
 867.00000000001
  30
0.0
  11
 1618.0000000001
  21
 867.00000000001
  31
0.0
   0
LINE
   5
187
 100
AcDbEntity
   8
LEVEL001
 370
40
 100
AcDbLine
   6
CONTINUOUS
  62
3
  10
 1468.0000000001
  20
 208.00000000001
  30
0.0
  11
 1468.0000000001
  21
 48.000000000009
  31
0.0
   0
LINE
   5
188
 100
AcDbEntity
   8
LEVEL001
 370
40
 100
AcDbLine
   6
CONTINUOUS
  62
3
  10
 1268.0000000001
  20
 288.00000000001
  30
0.0
  11
 1618.0000000001
  21
 288.00000000001
  31
0.0
   0
LINE
   5
189
 100
AcDbEntity
   8
LEVEL001
 370
40
 100
AcDbLine
   6
CONTINUOUS
  62
3
  10
 1268.0000000001
  20
 208.00000000001
  30
0.0
  11
 1618.0000000001
  21
 208.00000000001
  31
0.0
   0
LINE
   5
18A
 100
AcDbEntity
   8
LEVEL001
 370
40
 100
AcDbLine
   6
CONTINUOUS
  62
3
  10
 1268.0000000001
  20
 128.00000000001
  30
0.0
  11
 1618.0000000001
  21
 128.00000000001
  31
0.0
   0
LINE
   5
18B
 100
AcDbEntity
   8
LEVEL001
 370
40
 100
AcDbLine
   6
CONTINUOUS
  62
3
  10
 1468.0000000001
  20
 181.33333333334
  30
0.0
  11
 1618.0000000001
  21
 181.33333333334
  31
0.0
   0
LINE
   5
18C
 100
AcDbEntity
   8
LEVEL001
 370
40
 100
AcDbLine
   6
CONTINUOUS
  62
3
  10
 1468.0000000001
  20
 154.66666666668
  30
0.0
  11
 1618.0000000001
  21
 154.66666666668
  31
0.0
   0
LINE
   5
18D
 100
AcDbEntity
   8
LEVEL001
 370
40
 100
AcDbLine
   6
CONTINUOUS
  62
3
  10
 1409.8800000003
  20
 1087.3400000000
  30
0.0
  11
 1386.8400000003
  21
 1087.3400000000
  31
0.0
   0
LINE
   5
18E
 100
AcDbEntity
   8
LEVEL001
 370
40
 100
AcDbLine
   6
CONTINUOUS
  62
3
  10
 1386.8400000003
  20
 1087.3400000000
  30
0.0
  11
 1386.8400000003
  21
 1052.7800000000
  31
0.0
   0
LINE
   5
18F
 100
AcDbEntity
   8
LEVEL001
 370
40
 100
AcDbLine
   6
CONTINUOUS
  62
3
  10
 1386.8400000003
  20
 1052.7800000000
  30
0.0
  11
 1398.3600000003
  21
 1052.7800000000
  31
0.0
   0
LINE
   5
190
 100
AcDbEntity
   8
LEVEL001
 370
40
 100
AcDbLine
   6
CONTINUOUS
  62
3
  10
 1398.3600000003
  20
 1052.7800000000
  30
0.0
  11
 1398.3600000003
  21
 1058.5400000000
  31
0.0
   0
LINE
   5
191
 100
AcDbEntity
   8
LEVEL001
 370
40
 100
AcDbLine
   6
CONTINUOUS
  62
3
  10
 1398.3600000003
  20
 1058.5400000000
  30
0.0
  11
 1409.8800000003
  21
 1058.5400000000
  31
0.0
   0
ARC
   5
192
 100
AcDbEntity
   8
LEVEL001
 370
40
   6
CONTINUOUS
  62
3
 100
AcDbCircle
  10
 1409.8800000003
  20
 1072.9400000000
  30
0.0
  40
 14.400000000000
 100
AcDbArc
  50
 270.00000000000
  51
 90.000000000000
   0
LINE
   5
193
 100
AcDbEntity
   8
LEVEL001
 370
40
 100
AcDbLine
   6
CONTINUOUS
  62
3
  10
 1398.3600000003
  20
 1070.0600000000
  30
0.0
  11
 1409.8800000003
  21
 1070.0600000000
  31
0.0
   0
ARC
   5
194
 100
AcDbEntity
   8
LEVEL001
 370
40
   6
CONTINUOUS
  62
3
 100
AcDbCircle
  10
 1409.8800000003
  20
 1072.9400000000
  30
0.0
  40
 2.8800000000000
 100
AcDbArc
  50
 270.00000000000
  51
 90.000000000000
   0
LINE
   5
195
 100
AcDbEntity
   8
LEVEL001
 370
40
 100
AcDbLine
   6
CONTINUOUS
  62
3
  10
 1409.8800000003
  20
 1075.8200000000
  30
0.0
  11
 1398.3600000003
  21
 1075.8200000000
  31
0.0
   0
LINE
   5
196
 100
AcDbEntity
   8
LEVEL001
 370
40
 100
AcDbLine
   6
CONTINUOUS
  62
3
  10
 1398.3600000003
  20
 1075.8200000000
  30
0.0
  11
 1398.3600000003
  21
 1070.0600000000
  31
0.0
   0
LINE
   5
197
 100
AcDbEntity
   8
LEVEL001
 370
40
 100
AcDbLine
   6
CONTINUOUS
  62
3
  10
 1415.6400000003
  20
 1052.7800000000
  30
0.0
  11
 1438.6800000003
  21
 1087.3400000000
  31
0.0
   0
LINE
   5
198
 100
AcDbEntity
   8
LEVEL001
 370
40
 100
AcDbLine
   6
CONTINUOUS
  62
3
  10
 1438.6800000003
  20
 1087.3400000000
  30
0.0
  11
 1467.4800000003
  21
 1087.3400000000
  31
0.0
   0
LINE
   5
199
 100
AcDbEntity
   8
LEVEL001
 370
40
 100
AcDbLine
   6
CONTINUOUS
  62
3
  10
 1467.4800000003
  20
 1087.3400000000
  30
0.0
  11
 1467.4800000003
  21
 1064.3000000000
  31
0.0
   0
LINE
   5
19A
 100
AcDbEntity
   8
LEVEL001
 370
40
 100
AcDbLine
   6
CONTINUOUS
  62
3
  10
 1467.4800000003
  20
 1064.3000000000
  30
0.0
  11
 1484.7600000003
  21
 1064.3000000000
  31
0.0
   0
LINE
   5
19B
 100
AcDbEntity
   8
LEVEL001
 370
40
 100
AcDbLine
   6
CONTINUOUS
  62
3
  10
 1484.7600000003
  20
 1064.3000000000
  30
0.0
  11
 1484.7600000003
  21
 1075.8200000000
  31
0.0
   0
LINE
   5
19C
 100
AcDbEntity
   8
LEVEL001
 370
40
 100
AcDbLine
   6
CONTINUOUS
  62
3
  10
 1484.7600000003
  20
 1075.8200000000
  30
0.0
  11
 1473.2400000003
  21
 1075.8200000000
  31
0.0
   0
LINE
   5
19D
 100
AcDbEntity
   8
LEVEL001
 370
40
 100
AcDbLine
   6
CONTINUOUS
  62
3
  10
 1473.2400000003
  20
 1075.8200000000
  30
0.0
  11
 1473.2400000003
  21
 1087.3400000000
  31
0.0
   0
LINE
   5
19E
 100
AcDbEntity
   8
LEVEL001
 370
40
 100
AcDbLine
   6
CONTINUOUS
  62
3
  10
 1473.2400000003
  20
 1087.3400000000
  30
0.0
  11
 1542.3600000003
  21
 1087.3400000000
  31
0.0
   0
LINE
   5
19F
 100
AcDbEntity
   8
LEVEL001
 370
40
 100
AcDbLine
   6
CONTINUOUS
  62
3
  10
 1542.3600000003
  20
 1087.3400000000
  30
0.0
  11
 1542.3600000003
  21
 1075.8200000000
  31
0.0
   0
LINE
   5
1A0
 100
AcDbEntity
   8
LEVEL001
 370
40
 100
AcDbLine
   6
CONTINUOUS
  62
3
  10
 1542.3600000003
  20
 1075.8200000000
  30
0.0
  11
 1519.3200000003
  21
 1075.8200000000
  31
0.0
   0
LINE
   5
1A1
 100
AcDbEntity
   8
LEVEL001
 370
40
 100
AcDbLine
   6
CONTINUOUS
  62
3
  10
 1519.3200000003
  20
 1075.8200000000
  30
0.0
  11
 1519.3200000003
  21
 1072.9400000000
  31
0.0
   0
LINE
   5
1A2
 100
AcDbEntity
   8
LEVEL001
 370
40
 100
AcDbLine
   6
CONTINUOUS
  62
3
  10
 1519.3200000003
  20
 1072.9400000000
  30
0.0
  11
 1539.4800000003
  21
 1072.9400000000
  31
0.0
   0
LINE
   5
1A3
 100
AcDbEntity
   8
LEVEL001
 370
40
 100
AcDbLine
   6
CONTINUOUS
  62
3
  10
 1539.4800000003
  20
 1072.9400000000
  30
0.0
  11
 1539.4800000003
  21
 1067.1800000000
  31
0.0
   0
LINE
   5
1A4
 100
AcDbEntity
   8
LEVEL001
 370
40
 100
AcDbLine
   6
CONTINUOUS
  62
3
  10
 1539.4800000003
  20
 1067.1800000000
  30
0.0
  11
 1519.3200000003
  21
 1067.1800000000
  31
0.0
   0
LINE
   5
1A5
 100
AcDbEntity
   8
LEVEL001
 370
40
 100
AcDbLine
   6
CONTINUOUS
  62
3
  10
 1519.3200000003
  20
 1067.1800000000
  30
0.0
  11
 1519.3200000003
  21
 1064.3000000000
  31
0.0
   0
LINE
   5
1A6
 100
AcDbEntity
   8
LEVEL001
 370
40
 100
AcDbLine
   6
CONTINUOUS
  62
3
  10
 1519.3200000003
  20
 1064.3000000000
  30
0.0
  11
 1542.3600000003
  21
 1064.3000000000
  31
0.0
   0
LINE
   5
1A7
 100
AcDbEntity
   8
LEVEL001
 370
40
 100
AcDbLine
   6
CONTINUOUS
  62
3
  10
 1542.3600000003
  20
 1064.3000000000
  30
0.0
  11
 1542.3600000003
  21
 1052.7800000000
  31
0.0
   0
LINE
   5
1A8
 100
AcDbEntity
   8
LEVEL001
 370
40
 100
AcDbLine
   6
CONTINUOUS
  62
3
  10
 1542.3600000003
  20
 1052.7800000000
  30
0.0
  11
 1507.8000000003
  21
 1052.7800000000
  31
0.0
   0
LINE
   5
1A9
 100
AcDbEntity
   8
LEVEL001
 370
40
 100
AcDbLine
   6
CONTINUOUS
  62
3
  10
 1507.8000000003
  20
 1052.7800000000
  30
0.0
  11
 1507.8000000003
  21
 1075.8200000000
  31
0.0
   0
LINE
   5
1AA
 100
AcDbEntity
   8
LEVEL001
 370
40
 100
AcDbLine
   6
CONTINUOUS
  62
3
  10
 1507.8000000003
  20
 1075.8200000000
  30
0.0
  11
 1496.2800000003
  21
 1075.8200000000
  31
0.0
   0
LINE
   5
1AB
 100
AcDbEntity
   8
LEVEL001
 370
40
 100
AcDbLine
   6
CONTINUOUS
  62
3
  10
 1496.2800000003
  20
 1075.8200000000
  30
0.0
  11
 1496.2800000003
  21
 1052.7800000000
  31
0.0
   0
LINE
   5
1AC
 100
AcDbEntity
   8
LEVEL001
 370
40
 100
AcDbLine
   6
CONTINUOUS
  62
3
  10
 1496.2800000003
  20
 1052.7800000000
  30
0.0
  11
 1455.9600000003
  21
 1052.7800000000
  31
0.0
   0
LINE
   5
1AD
 100
AcDbEntity
   8
LEVEL001
 370
40
 100
AcDbLine
   6
CONTINUOUS
  62
3
  10
 1455.9600000003
  20
 1052.7800000000
  30
0.0
  11
 1455.9600000003
  21
 1087.3400000000
  31
0.0
   0
LINE
   5
1AE
 100
AcDbEntity
   8
LEVEL001
 370
40
 100
AcDbLine
   6
CONTINUOUS
  62
3
  10
 1455.9600000003
  20
 1087.3400000000
  30
0.0
  11
 1432.9200000003
  21
 1052.7800000000
  31
0.0
   0
LINE
   5
1AF
 100
AcDbEntity
   8
LEVEL001
 370
40
 100
AcDbLine
   6
CONTINUOUS
  62
3
  10
 1432.9200000003
  20
 1052.7800000000
  30
0.0
  11
 1415.6400000003
  21
 1052.7800000000
  31
0.0
   0
LINE
   5
1B0
 100
AcDbEntity
   8
LEVEL001
 370
40
 100
AcDbLine
   6
CONTINUOUS
  62
3
  10
 1452.1200000003
  20
 1074.6573415511
  30
0.0
  11
 1437.5351056329
  21
 1052.7800000000
  31
0.0
   0
LINE
   5
1B1
 100
AcDbEntity
   8
LEVEL001
 370
40
 100
AcDbLine
   6
CONTINUOUS
  62
3
  10
 1437.5351056329
  20
 1052.7800000000
  30
0.0
  11
 1452.1200000003
  21
 1052.7800000000
  31
0.0
   0
LINE
   5
1B2
 100
AcDbEntity
   8
LEVEL001
 370
40
 100
AcDbLine
   6
CONTINUOUS
  62
3
  10
 1452.1200000003
  20
 1052.7800000000
  30
0.0
  11
 1452.1200000003
  21
 1074.6573415511
  31
0.0
   0
ARC
   5
1B3
 100
AcDbEntity
   8
LEVEL001
 370
40
   6
CONTINUOUS
  62
3
 100
AcDbCircle
  10
 1559.6400000003
  20
 1070.0600000000
  30
0.0
  40
 17.280000000000
 100
AcDbArc
  50
 90.000000000000
  51
 270.00000000000
   0
ARC
   5
1B4
 100
AcDbEntity
   8
LEVEL001
 370
40
   6
CONTINUOUS
  62
3
 100
AcDbCircle
  10
 1559.6400000003
  20
 1070.0600000000
  30
0.0
  40
 5.7600000000000
 100
AcDbArc
  50
 90.000000000000
  51
 270.00000000000
   0
LINE
   5
1B5
 100
AcDbEntity
   8
LEVEL001
 370
40
 100
AcDbLine
   6
CONTINUOUS
  62
3
  10
 1559.6400000003
  20
 1087.3400000000
  30
0.0
  11
 1576.9200000003
  21
 1087.3400000000
  31
0.0
   0
LINE
   5
1B6
 100
AcDbEntity
   8
LEVEL001
 370
40
 100
AcDbLine
   6
CONTINUOUS
  62
3
  10
 1576.9200000003
  20
 1087.3400000000
  30
0.0
  11
 1576.9200000003
  21
 1075.8200000000
  31
0.0
   0
LINE
   5
1B7
 100
AcDbEntity
   8
LEVEL001
 370
40
 100
AcDbLine
   6
CONTINUOUS
  62
3
  10
 1576.9200000003
  20
 1075.8200000000
  30
0.0
  11
 1559.6400000003
  21
 1075.8200000000
  31
0.0
   0
LINE
   5
1B8
 100
AcDbEntity
   8
LEVEL001
 370
40
 100
AcDbLine
   6
CONTINUOUS
  62
3
  10
 1386.8400000003
  20
 1087.3400000000
  30
0.0
  11
 1386.8400000003
  21
 1052.7800000000
  31
0.0
   0
LINE
   5
1B9
 100
AcDbEntity
   8
LEVEL001
 370
40
 100
AcDbLine
   6
CONTINUOUS
  62
3
  10
 1386.8400000003
  20
 1052.7800000000
  30
0.0
  11
 1398.3600000003
  21
 1052.7800000000
  31
0.0
   0
LINE
   5
1BA
 100
AcDbEntity
   8
LEVEL001
 370
40
 100
AcDbLine
   6
CONTINUOUS
  62
3
  10
 1398.3600000003
  20
 1052.7800000000
  30
0.0
  11
 1398.3600000003
  21
 1058.5400000000
  31
0.0
   0
LINE
   5
1BB
 100
AcDbEntity
   8
LEVEL001
 370
40
 100
AcDbLine
   6
CONTINUOUS
  62
3
  10
 1398.3600000003
  20
 1058.5400000000
  30
0.0
  11
 1409.8800000003
  21
 1058.5400000000
  31
0.0
   0
ARC
   5
1BC
 100
AcDbEntity
   8
LEVEL001
 370
40
   6
CONTINUOUS
  62
3
 100
AcDbCircle
  10
 1409.8800000003
  20
 1072.9400000000
  30
0.0
  40
 14.400000000000
 100
AcDbArc
  50
 270.00000000000
  51
 90.000000000000
   0
LINE
   5
1BD
 100
AcDbEntity
   8
LEVEL001
 370
40
 100
AcDbLine
   6
CONTINUOUS
  62
3
  10
 1409.8800000003
  20
 1087.3400000000
  30
0.0
  11
 1386.8400000003
  21
 1087.3400000000
  31
0.0
   0
LINE
   5
1BE
 100
AcDbEntity
   8
LEVEL001
 370
40
 100
AcDbLine
   6
CONTINUOUS
  62
3
  10
 1398.3600000003
  20
 1075.8200000000
  30
0.0
  11
 1398.3600000003
  21
 1070.0600000000
  31
0.0
   0
LINE
   5
1BF
 100
AcDbEntity
   8
LEVEL001
 370
40
 100
AcDbLine
   6
CONTINUOUS
  62
3
  10
 1398.3600000003
  20
 1070.0600000000
  30
0.0
  11
 1409.8800000003
  21
 1070.0600000000
  31
0.0
   0
ARC
   5
1C0
 100
AcDbEntity
   8
LEVEL001
 370
40
   6
CONTINUOUS
  62
3
 100
AcDbCircle
  10
 1409.8800000003
  20
 1072.9400000000
  30
0.0
  40
 2.8800000000000
 100
AcDbArc
  50
 270.00000000000
  51
 90.000000000000
   0
LINE
   5
1C1
 100
AcDbEntity
   8
LEVEL001
 370
40
 100
AcDbLine
   6
CONTINUOUS
  62
3
  10
 1409.8800000003
  20
 1075.8200000000
  30
0.0
  11
 1398.3600000003
  21
 1075.8200000000
  31
0.0
   0
LINE
   5
1C2
 100
AcDbEntity
   8
LEVEL001
 370
40
 100
AcDbLine
   6
CONTINUOUS
  62
3
  10
 1438.6800000003
  20
 1087.3400000000
  30
0.0
  11
 1415.6400000003
  21
 1052.7800000000
  31
0.0
   0
LINE
   5
1C3
 100
AcDbEntity
   8
LEVEL001
 370
40
 100
AcDbLine
   6
CONTINUOUS
  62
3
  10
 1415.6400000003
  20
 1052.7800000000
  30
0.0
  11
 1432.9200000003
  21
 1052.7800000000
  31
0.0
   0
LINE
   5
1C4
 100
AcDbEntity
   8
LEVEL001
 370
40
 100
AcDbLine
   6
CONTINUOUS
  62
3
  10
 1432.9200000003
  20
 1052.7800000000
  30
0.0
  11
 1455.9600000003
  21
 1087.3400000000
  31
0.0
   0
LINE
   5
1C5
 100
AcDbEntity
   8
LEVEL001
 370
40
 100
AcDbLine
   6
CONTINUOUS
  62
3
  10
 1455.9600000003
  20
 1087.3400000000
  30
0.0
  11
 1438.6800000003
  21
 1087.3400000000
  31
0.0
   0
LINE
   5
1C6
 100
AcDbEntity
   8
LEVEL001
 370
40
 100
AcDbLine
   6
CONTINUOUS
  62
3
  10
 1452.1200000003
  20
 1052.7800000000
  30
0.0
  11
 1452.1200000003
  21
 1074.6573415511
  31
0.0
   0
LINE
   5
1C7
 100
AcDbEntity
   8
LEVEL001
 370
40
 100
AcDbLine
   6
CONTINUOUS
  62
3
  10
 1452.1200000003
  20
 1074.6573415511
  30
0.0
  11
 1437.5351056329
  21
 1052.7800000000
  31
0.0
   0
LINE
   5
1C8
 100
AcDbEntity
   8
LEVEL001
 370
40
 100
AcDbLine
   6
CONTINUOUS
  62
3
  10
 1437.5351056329
  20
 1052.7800000000
  30
0.0
  11
 1452.1200000003
  21
 1052.7800000000
  31
0.0
   0
LINE
   5
1C9
 100
AcDbEntity
   8
LEVEL001
 370
40
 100
AcDbLine
   6
CONTINUOUS
  62
3
  10
 1455.9600000003
  20
 1052.7800000000
  30
0.0
  11
 1496.2800000003
  21
 1052.7800000000
  31
0.0
   0
LINE
   5
1CA
 100
AcDbEntity
   8
LEVEL001
 370
40
 100
AcDbLine
   6
CONTINUOUS
  62
3
  10
 1496.2800000003
  20
 1052.7800000000
  30
0.0
  11
 1496.2800000003
  21
 1075.8200000000
  31
0.0
   0
LINE
   5
1CB
 100
AcDbEntity
   8
LEVEL001
 370
40
 100
AcDbLine
   6
CONTINUOUS
  62
3
  10
 1496.2800000003
  20
 1075.8200000000
  30
0.0
  11
 1507.8000000003
  21
 1075.8200000000
  31
0.0
   0
LINE
   5
1CC
 100
AcDbEntity
   8
LEVEL001
 370
40
 100
AcDbLine
   6
CONTINUOUS
  62
3
  10
 1507.8000000003
  20
 1075.8200000000
  30
0.0
  11
 1507.8000000003
  21
 1052.7800000000
  31
0.0
   0
LINE
   5
1CD
 100
AcDbEntity
   8
LEVEL001
 370
40
 100
AcDbLine
   6
CONTINUOUS
  62
3
  10
 1507.8000000003
  20
 1052.7800000000
  30
0.0
  11
 1542.3600000003
  21
 1052.7800000000
  31
0.0
   0
LINE
   5
1CE
 100
AcDbEntity
   8
LEVEL001
 370
40
 100
AcDbLine
   6
CONTINUOUS
  62
3
  10
 1542.3600000003
  20
 1052.7800000000
  30
0.0
  11
 1542.3600000003
  21
 1064.3000000000
  31
0.0
   0
LINE
   5
1CF
 100
AcDbEntity
   8
LEVEL001
 370
40
 100
AcDbLine
   6
CONTINUOUS
  62
3
  10
 1542.3600000003
  20
 1064.3000000000
  30
0.0
  11
 1519.3200000003
  21
 1064.3000000000
  31
0.0
   0
LINE
   5
1D0
 100
AcDbEntity
   8
LEVEL001
 370
40
 100
AcDbLine
   6
CONTINUOUS
  62
3
  10
 1519.3200000003
  20
 1064.3000000000
  30
0.0
  11
 1519.3200000003
  21
 1067.1800000000
  31
0.0
   0
LINE
   5
1D1
 100
AcDbEntity
   8
LEVEL001
 370
40
 100
AcDbLine
   6
CONTINUOUS
  62
3
  10
 1519.3200000003
  20
 1067.1800000000
  30
0.0
  11
 1539.4800000003
  21
 1067.1800000000
  31
0.0
   0
LINE
   5
1D2
 100
AcDbEntity
   8
LEVEL001
 370
40
 100
AcDbLine
   6
CONTINUOUS
  62
3
  10
 1539.4800000003
  20
 1067.1800000000
  30
0.0
  11
 1539.4800000003
  21
 1072.9400000000
  31
0.0
   0
LINE
   5
1D3
 100
AcDbEntity
   8
LEVEL001
 370
40
 100
AcDbLine
   6
CONTINUOUS
  62
3
  10
 1539.4800000003
  20
 1072.9400000000
  30
0.0
  11
 1519.3200000003
  21
 1072.9400000000
  31
0.0
   0
LINE
   5
1D4
 100
AcDbEntity
   8
LEVEL001
 370
40
 100
AcDbLine
   6
CONTINUOUS
  62
3
  10
 1519.3200000003
  20
 1072.9400000000
  30
0.0
  11
 1519.3200000003
  21
 1075.8200000000
  31
0.0
   0
LINE
   5
1D5
 100
AcDbEntity
   8
LEVEL001
 370
40
 100
AcDbLine
   6
CONTINUOUS
  62
3
  10
 1519.3200000003
  20
 1075.8200000000
  30
0.0
  11
 1542.3600000003
  21
 1075.8200000000
  31
0.0
   0
LINE
   5
1D6
 100
AcDbEntity
   8
LEVEL001
 370
40
 100
AcDbLine
   6
CONTINUOUS
  62
3
  10
 1542.3600000003
  20
 1075.8200000000
  30
0.0
  11
 1542.3600000003
  21
 1087.3400000000
  31
0.0
   0
LINE
   5
1D7
 100
AcDbEntity
   8
LEVEL001
 370
40
 100
AcDbLine
   6
CONTINUOUS
  62
3
  10
 1542.3600000003
  20
 1087.3400000000
  30
0.0
  11
 1473.2400000003
  21
 1087.3400000000
  31
0.0
   0
LINE
   5
1D8
 100
AcDbEntity
   8
LEVEL001
 370
40
 100
AcDbLine
   6
CONTINUOUS
  62
3
  10
 1473.2400000003
  20
 1087.3400000000
  30
0.0
  11
 1473.2400000003
  21
 1075.8200000000
  31
0.0
   0
LINE
   5
1D9
 100
AcDbEntity
   8
LEVEL001
 370
40
 100
AcDbLine
   6
CONTINUOUS
  62
3
  10
 1473.2400000003
  20
 1075.8200000000
  30
0.0
  11
 1484.7600000003
  21
 1075.8200000000
  31
0.0
   0
LINE
   5
1DA
 100
AcDbEntity
   8
LEVEL001
 370
40
 100
AcDbLine
   6
CONTINUOUS
  62
3
  10
 1484.7600000003
  20
 1075.8200000000
  30
0.0
  11
 1484.7600000003
  21
 1064.3000000000
  31
0.0
   0
LINE
   5
1DB
 100
AcDbEntity
   8
LEVEL001
 370
40
 100
AcDbLine
   6
CONTINUOUS
  62
3
  10
 1484.7600000003
  20
 1064.3000000000
  30
0.0
  11
 1467.4800000003
  21
 1064.3000000000
  31
0.0
   0
LINE
   5
1DC
 100
AcDbEntity
   8
LEVEL001
 370
40
 100
AcDbLine
   6
CONTINUOUS
  62
3
  10
 1467.4800000003
  20
 1064.3000000000
  30
0.0
  11
 1467.4800000003
  21
 1087.3400000000
  31
0.0
   0
LINE
   5
1DD
 100
AcDbEntity
   8
LEVEL001
 370
40
 100
AcDbLine
   6
CONTINUOUS
  62
3
  10
 1467.4800000003
  20
 1087.3400000000
  30
0.0
  11
 1455.9600000003
  21
 1087.3400000000
  31
0.0
   0
LINE
   5
1DE
 100
AcDbEntity
   8
LEVEL001
 370
40
 100
AcDbLine
   6
CONTINUOUS
  62
3
  10
 1455.9600000003
  20
 1087.3400000000
  30
0.0
  11
 1455.9600000003
  21
 1052.7800000000
  31
0.0
   0
LINE
   5
1DF
 100
AcDbEntity
   8
LEVEL001
 370
40
 100
AcDbLine
   6
CONTINUOUS
  62
3
  10
 1559.6400000003
  20
 1052.7800000000
  30
0.0
  11
 1576.9200000003
  21
 1052.7800000000
  31
0.0
   0
LINE
   5
1E0
 100
AcDbEntity
   8
LEVEL001
 370
40
 100
AcDbLine
   6
CONTINUOUS
  62
3
  10
 1576.9200000003
  20
 1052.7800000000
  30
0.0
  11
 1576.9200000003
  21
 1064.3000000000
  31
0.0
   0
LINE
   5
1E1
 100
AcDbEntity
   8
LEVEL001
 370
40
 100
AcDbLine
   6
CONTINUOUS
  62
3
  10
 1576.9200000003
  20
 1064.3000000000
  30
0.0
  11
 1559.6400000003
  21
 1064.3000000000
  31
0.0
   0
ARC
   5
1E2
 100
AcDbEntity
   8
LEVEL001
 370
40
   6
CONTINUOUS
  62
3
 100
AcDbCircle
  10
 1559.6400000003
  20
 1070.0600000000
  30
0.0
  40
 5.7600000000000
 100
AcDbArc
  50
 90.000000000000
  51
 270.00000000000
   0
LINE
   5
1E3
 100
AcDbEntity
   8
LEVEL001
 370
40
 100
AcDbLine
   6
CONTINUOUS
  62
3
  10
 1559.6400000003
  20
 1075.8200000000
  30
0.0
  11
 1576.9200000003
  21
 1075.8200000000
  31
0.0
   0
LINE
   5
1E4
 100
AcDbEntity
   8
LEVEL001
 370
40
 100
AcDbLine
   6
CONTINUOUS
  62
3
  10
 1576.9200000003
  20
 1075.8200000000
  30
0.0
  11
 1576.9200000003
  21
 1087.3400000000
  31
0.0
   0
LINE
   5
1E5
 100
AcDbEntity
   8
LEVEL001
 370
40
 100
AcDbLine
   6
CONTINUOUS
  62
3
  10
 1576.9200000003
  20
 1087.3400000000
  30
0.0
  11
 1559.6400000003
  21
 1087.3400000000
  31
0.0
   0
ARC
   5
1E6
 100
AcDbEntity
   8
LEVEL001
 370
40
   6
CONTINUOUS
  62
3
 100
AcDbCircle
  10
 1559.6400000003
  20
 1070.0600000000
  30
0.0
  40
 17.280000000000
 100
AcDbArc
  50
 90.000000000000
  51
 270.00000000000
   0
LINE
   5
1E7
 100
AcDbEntity
   8
LEVEL001
 370
40
 100
AcDbLine
   6
CONTINUOUS
  62
3
  10
 1375.3200000003
  20
 1060.4600000000
  30
0.0
  11
 1360.9200000003
  21
 1083.5000000000
  31
0.0
   0
LINE
   5
1E8
 100
AcDbEntity
   8
LEVEL001
 370
40
 100
AcDbLine
   6
CONTINUOUS
  62
3
  10
 1360.9200000003
  20
 1083.5000000000
  30
0.0
  11
 1375.3200000003
  21
 1083.5000000000
  31
0.0
   0
LINE
   5
1E9
 100
AcDbEntity
   8
LEVEL001
 370
40
 100
AcDbLine
   6
CONTINUOUS
  62
3
  10
 1375.3200000003
  20
 1083.5000000000
  30
0.0
  11
 1375.3200000003
  21
 1060.4600000000
  31
0.0
   0
LINE
   5
1EA
 100
AcDbEntity
   8
LEVEL001
 370
40
 100
AcDbLine
   6
CONTINUOUS
  62
3
  10
 1360.9200000003
  20
 1083.5000000000
  30
0.0
  11
 1375.3200000003
  21
 1060.4600000000
  31
0.0
   0
LINE
   5
1EB
 100
AcDbEntity
   8
LEVEL001
 370
40
 100
AcDbLine
   6
CONTINUOUS
  62
3
  10
 1375.3200000003
  20
 1060.4600000000
  30
0.0
  11
 1375.3200000003
  21
 1083.5000000000
  31
0.0
   0
LINE
   5
1EC
 100
AcDbEntity
   8
LEVEL001
 370
40
 100
AcDbLine
   6
CONTINUOUS
  62
3
  10
 1375.3200000003
  20
 1083.5000000000
  30
0.0
  11
 1360.9200000003
  21
 1083.5000000000
  31
0.0
   0
LINE
   5
1ED
 100
AcDbEntity
   8
LEVEL001
 370
40
 100
AcDbLine
   6
CONTINUOUS
  62
3
  10
 1329.5600000003
  20
 1114.2200000000
  30
0.0
  11
 1309.0800000003
  21
 1083.5000000000
  31
0.0
   0
LINE
   5
1EE
 100
AcDbEntity
   8
LEVEL001
 370
40
 100
AcDbLine
   6
CONTINUOUS
  62
3
  10
 1309.0800000003
  20
 1083.5000000000
  30
0.0
  11
 1329.5600000003
  21
 1052.7800000000
  31
0.0
   0
LINE
   5
1EF
 100
AcDbEntity
   8
LEVEL001
 370
40
 100
AcDbLine
   6
CONTINUOUS
  62
3
  10
 1346.8400000003
  20
 1052.7800000000
  30
0.0
  11
 1326.3600000003
  21
 1083.5000000000
  31
0.0
   0
LINE
   5
1F0
 100
AcDbEntity
   8
LEVEL001
 370
40
 100
AcDbLine
   6
CONTINUOUS
  62
3
  10
 1326.3600000003
  20
 1083.5000000000
  30
0.0
  11
 1346.8400000003
  21
 1114.2200000000
  31
0.0
   0
LINE
   5
1F1
 100
AcDbEntity
   8
LEVEL001
 370
40
 100
AcDbLine
   6
CONTINUOUS
  62
3
  10
 1355.4800000003
  20
 1114.2200000000
  30
0.0
  11
 1335.0000000003
  21
 1083.5000000000
  31
0.0
   0
LINE
   5
1F2
 100
AcDbEntity
   8
LEVEL001
 370
40
 100
AcDbLine
   6
CONTINUOUS
  62
3
  10
 1335.0000000003
  20
 1083.5000000000
  30
0.0
  11
 1355.4800000003
  21
 1052.7800000000
  31
0.0
   0
LINE
   5
1F3
 100
AcDbEntity
   8
LEVEL001
 370
40
 100
AcDbLine
   6
CONTINUOUS
  62
3
  10
 1372.7600000003
  20
 1052.7800000000
  30
0.0
  11
 1352.2800000003
  21
 1083.5000000000
  31
0.0
   0
LINE
   5
1F4
 100
AcDbEntity
   8
LEVEL001
 370
40
 100
AcDbLine
   6
CONTINUOUS
  62
3
  10
 1352.2800000003
  20
 1083.5000000000
  30
0.0
  11
 1372.7600000003
  21
 1114.2200000000
  31
0.0
   0
LINE
   5
1F5
 100
AcDbEntity
   8
LEVEL001
 370
40
 100
AcDbLine
   6
CONTINUOUS
  62
3
  10
 1329.5600000003
  20
 1052.7800000000
  30
0.0
  11
 1309.0800000003
  21
 1083.5000000000
  31
0.0
   0
LINE
   5
1F6
 100
AcDbEntity
   8
LEVEL001
 370
40
 100
AcDbLine
   6
CONTINUOUS
  62
3
  10
 1309.0800000003
  20
 1083.5000000000
  30
0.0
  11
 1329.5600000003
  21
 1114.2200000000
  31
0.0
   0
LINE
   5
1F7
 100
AcDbEntity
   8
LEVEL001
 370
40
 100
AcDbLine
   6
CONTINUOUS
  62
3
  10
 1329.5600000003
  20
 1114.2200000000
  30
0.0
  11
 1346.8400000003
  21
 1114.2200000000
  31
0.0
   0
LINE
   5
1F8
 100
AcDbEntity
   8
LEVEL001
 370
40
 100
AcDbLine
   6
CONTINUOUS
  62
3
  10
 1346.8400000003
  20
 1114.2200000000
  30
0.0
  11
 1326.3600000003
  21
 1083.5000000000
  31
0.0
   0
LINE
   5
1F9
 100
AcDbEntity
   8
LEVEL001
 370
40
 100
AcDbLine
   6
CONTINUOUS
  62
3
  10
 1326.3600000003
  20
 1083.5000000000
  30
0.0
  11
 1346.8400000003
  21
 1052.7800000000
  31
0.0
   0
LINE
   5
1FA
 100
AcDbEntity
   8
LEVEL001
 370
40
 100
AcDbLine
   6
CONTINUOUS
  62
3
  10
 1346.8400000003
  20
 1052.7800000000
  30
0.0
  11
 1329.5600000003
  21
 1052.7800000000
  31
0.0
   0
LINE
   5
1FB
 100
AcDbEntity
   8
LEVEL001
 370
40
 100
AcDbLine
   6
CONTINUOUS
  62
3
  10
 1355.4800000003
  20
 1052.7800000000
  30
0.0
  11
 1335.0000000003
  21
 1083.5000000000
  31
0.0
   0
LINE
   5
1FC
 100
AcDbEntity
   8
LEVEL001
 370
40
 100
AcDbLine
   6
CONTINUOUS
  62
3
  10
 1335.0000000003
  20
 1083.5000000000
  30
0.0
  11
 1355.4800000003
  21
 1114.2200000000
  31
0.0
   0
LINE
   5
1FD
 100
AcDbEntity
   8
LEVEL001
 370
40
 100
AcDbLine
   6
CONTINUOUS
  62
3
  10
 1355.4800000003
  20
 1114.2200000000
  30
0.0
  11
 1372.7600000003
  21
 1114.2200000000
  31
0.0
   0
LINE
   5
1FE
 100
AcDbEntity
   8
LEVEL001
 370
40
 100
AcDbLine
   6
CONTINUOUS
  62
3
  10
 1372.7600000003
  20
 1114.2200000000
  30
0.0
  11
 1352.2800000003
  21
 1083.5000000000
  31
0.0
   0
LINE
   5
1FF
 100
AcDbEntity
   8
LEVEL001
 370
40
 100
AcDbLine
   6
CONTINUOUS
  62
3
  10
 1352.2800000003
  20
 1083.5000000000
  30
0.0
  11
 1372.7600000003
  21
 1052.7800000000
  31
0.0
   0
LINE
   5
200
 100
AcDbEntity
   8
LEVEL001
 370
40
 100
AcDbLine
   6
CONTINUOUS
  62
3
  10
 1372.7600000003
  20
 1052.7800000000
  30
0.0
  11
 1355.4800000003
  21
 1052.7800000000
  31
0.0
   0
LINE
   5
201
 100
AcDbEntity
   8
LEVEL001
 370
40
 100
AcDbLine
   6
CONTINUOUS
  62
3
  10
 1268.0000000001
  20
 333.38360969059
  30
0.0
  11
 1618.0000000001
  21
 333.38360969059
  31
0.0
   0
HATCH
   5
202
 100
AcDbEntity
   8
0
  62
1
 100
AcDbHatch
  10
0.0
  20
0.0
  30
0.0
 210
0.0
 220
0.0
 230
 1.0000000000000
   2
SOLID
  70
1
  71
1
  91
1
  92
1
  93
6
  72
1
  10
 1326.3600000003
  20
 1083.5000000000
  11
 1346.8400000003
  21
 1052.7800000000
  72
1
  10
 1346.8400000003
  20
 1052.7800000000
  11
 1329.5600000003
  21
 1052.7800000000
  72
1
  10
 1329.5600000003
  20
 1052.7800000000
  11
 1309.0800000003
  21
 1083.5000000000
  72
1
  10
 1309.0800000003
  20
 1083.5000000000
  11
 1329.5600000003
  21
 1114.2200000000
  72
1
  10
 1329.5600000003
  20
 1114.2200000000
  11
 1346.8400000003
  21
 1114.2200000000
  72
1
  10
 1346.8400000003
  20
 1114.2200000000
  11
 1326.3600000003
  21
 1083.5000000000
  97
1
 330

  75
0
  76
1
  98
1
  10
0.0
  20
0.0
   0
HATCH
   5
203
 100
AcDbEntity
   8
0
  62
1
 100
AcDbHatch
  10
0.0
  20
0.0
  30
0.0
 210
0.0
 220
0.0
 230
 1.0000000000000
   2
SOLID
  70
1
  71
1
  91
1
  92
1
  93
6
  72
1
  10
 1355.4800000003
  20
 1114.2200000000
  11
 1372.7600000003
  21
 1114.2200000000
  72
1
  10
 1372.7600000003
  20
 1114.2200000000
  11
 1352.2800000003
  21
 1083.5000000000
  72
1
  10
 1352.2800000003
  20
 1083.5000000000
  11
 1372.7600000003
  21
 1052.7800000000
  72
1
  10
 1372.7600000003
  20
 1052.7800000000
  11
 1355.4800000003
  21
 1052.7800000000
  72
1
  10
 1355.4800000003
  20
 1052.7800000000
  11
 1335.0000000003
  21
 1083.5000000000
  72
1
  10
 1335.0000000003
  20
 1083.5000000000
  11
 1355.4800000003
  21
 1114.2200000000
  97
1
 330

  75
0
  76
1
  98
1
  10
0.0
  20
0.0
   0
HATCH
   5
204
 100
AcDbEntity
   8
0
  62
1
 100
AcDbHatch
  10
0.0
  20
0.0
  30
0.0
 210
0.0
 220
0.0
 230
 1.0000000000000
   2
SOLID
  70
1
  71
1
  91
1
  92
1
  93
3
  72
1
  10
 1360.9200000003
  20
 1083.5000000000
  11
 1375.3200000003
  21
 1083.5000000000
  72
1
  10
 1375.3200000003
  20
 1083.5000000000
  11
 1375.3200000003
  21
 1060.4600000000
  72
1
  10
 1375.3200000003
  20
 1060.4600000000
  11
 1360.9200000003
  21
 1083.5000000000
  97
1
 330

  75
0
  76
1
  98
1
  10
0.0
  20
0.0
   0
HATCH
   5
205
 100
AcDbEntity
   8
0
  62
1
 100
AcDbHatch
  10
0.0
  20
0.0
  30
0.0
 210
0.0
 220
0.0
 230
 1.0000000000000
   2
SOLID
  70
1
  71
1
  91
2
  92
1
  93
6
  72
2
  10
 1409.8800000003
  20
 1072.9400000000
  40
 14.400000000000
  50
 270.00000000000
  51
 90.000000000000
  73
0
  72
1
  10
 1409.8800000003
  20
 1058.5400000000
  11
 1398.3600000003
  21
 1058.5400000000
  72
1
  10
 1398.3600000003
  20
 1058.5400000000
  11
 1398.3600000003
  21
 1052.7800000000
  72
1
  10
 1398.3600000003
  20
 1052.7800000000
  11
 1386.8400000003
  21
 1052.7800000000
  72
1
  10
 1386.8400000003
  20
 1052.7800000000
  11
 1386.8400000003
  21
 1087.3400000000
  72
1
  10
 1386.8400000003
  20
 1087.3400000000
  11
 1409.8800000003
  21
 1087.3400000000
  97
1
 330

  92
16
  93
4
  72
2
  10
 1409.8800000003
  20
 1072.9400000000
  40
 2.8800000000000
  50
 270.00000000000
  51
 90.000000000000
  73
1
  72
1
  10
 1409.8800000003
  20
 1075.8200000000
  11
 1398.3600000003
  21
 1075.8200000000
  72
1
  10
 1398.3600000003
  20
 1075.8200000000
  11
 1398.3600000003
  21
 1070.0600000000
  72
1
  10
 1398.3600000003
  20
 1070.0600000000
  11
 1409.8800000003
  21
 1070.0600000000
  97
1
 330

  75
0
  76
1
  98
1
  10
0.0
  20
0.0
   0
HATCH
   5
206
 100
AcDbEntity
   8
0
  62
1
 100
AcDbHatch
  10
0.0
  20
0.0
  30
0.0
 210
0.0
 220
0.0
 230
 1.0000000000000
   2
SOLID
  70
1
  71
1
  91
1
  92
1
  93
4
  72
1
  10
 1438.6800000003
  20
 1087.3400000000
  11
 1455.9600000003
  21
 1087.3400000000
  72
1
  10
 1455.9600000003
  20
 1087.3400000000
  11
 1432.9200000003
  21
 1052.7800000000
  72
1
  10
 1432.9200000003
  20
 1052.7800000000
  11
 1415.6400000003
  21
 1052.7800000000
  72
1
  10
 1415.6400000003
  20
 1052.7800000000
  11
 1438.6800000003
  21
 1087.3400000000
  97
1
 330

  75
0
  76
1
  98
1
  10
0.0
  20
0.0
   0
HATCH
   5
207
 100
AcDbEntity
   8
0
  62
1
 100
AcDbHatch
  10
0.0
  20
0.0
  30
0.0
 210
0.0
 220
0.0
 230
 1.0000000000000
   2
SOLID
  70
1
  71
1
  91
1
  92
1
  93
3
  72
1
  10
 1437.5351056329
  20
 1052.7800000000
  11
 1452.1200000003
  21
 1074.6573415511
  72
1
  10
 1452.1200000003
  20
 1074.6573415511
  11
 1452.1200000003
  21
 1052.7800000000
  72
1
  10
 1452.1200000003
  20
 1052.7800000000
  11
 1437.5351056329
  21
 1052.7800000000
  97
1
 330

  75
0
  76
1
  98
1
  10
0.0
  20
0.0
   0
HATCH
   5
208
 100
AcDbEntity
   8
0
  62
1
 100
AcDbHatch
  10
0.0
  20
0.0
  30
0.0
 210
0.0
 220
0.0
 230
 1.0000000000000
   2
SOLID
  70
1
  71
1
  91
1
  92
1
  93
22
  72
1
  10
 1519.3200000003
  20
 1064.3000000000
  11
 1542.3600000003
  21
 1064.3000000000
  72
1
  10
 1542.3600000003
  20
 1064.3000000000
  11
 1542.3600000003
  21
 1052.7800000000
  72
1
  10
 1542.3600000003
  20
 1052.7800000000
  11
 1507.8000000003
  21
 1052.7800000000
  72
1
  10
 1507.8000000003
  20
 1052.7800000000
  11
 1507.8000000003
  21
 1075.8200000000
  72
1
  10
 1507.8000000003
  20
 1075.8200000000
  11
 1496.2800000003
  21
 1075.8200000000
  72
1
  10
 1496.2800000003
  20
 1075.8200000000
  11
 1496.2800000003
  21
 1052.7800000000
  72
1
  10
 1496.2800000003
  20
 1052.7800000000
  11
 1455.9600000003
  21
 1052.7800000000
  72
1
  10
 1455.9600000003
  20
 1052.7800000000
  11
 1455.9600000003
  21
 1087.3400000000
  72
1
  10
 1455.9600000003
  20
 1087.3400000000
  11
 1467.4800000003
  21
 1087.3400000000
  72
1
  10
 1467.4800000003
  20
 1087.3400000000
  11
 1467.4800000003
  21
 1064.3000000000
  72
1
  10
 1467.4800000003
  20
 1064.3000000000
  11
 1484.7600000003
  21
 1064.3000000000
  72
1
  10
 1484.7600000003
  20
 1064.3000000000
  11
 1484.7600000003
  21
 1075.8200000000
  72
1
  10
 1484.7600000003
  20
 1075.8200000000
  11
 1473.2400000003
  21
 1075.8200000000
  72
1
  10
 1473.2400000003
  20
 1075.8200000000
  11
 1473.2400000003
  21
 1087.3400000000
  72
1
  10
 1473.2400000003
  20
 1087.3400000000
  11
 1542.3600000003
  21
 1087.3400000000
  72
1
  10
 1542.3600000003
  20
 1087.3400000000
  11
 1542.3600000003
  21
 1075.8200000000
  72
1
  10
 1542.3600000003
  20
 1075.8200000000
  11
 1519.3200000003
  21
 1075.8200000000
  72
1
  10
 1519.3200000003
  20
 1075.8200000000
  11
 1519.3200000003
  21
 1072.9400000000
  72
1
  10
 1519.3200000003
  20
 1072.9400000000
  11
 1539.4800000003
  21
 1072.9400000000
  72
1
  10
 1539.4800000003
  20
 1072.9400000000
  11
 1539.4800000003
  21
 1067.1800000000
  72
1
  10
 1539.4800000003
  20
 1067.1800000000
  11
 1519.3200000003
  21
 1067.1800000000
  72
1
  10
 1519.3200000003
  20
 1067.1800000000
  11
 1519.3200000003
  21
 1064.3000000000
  97
1
 330

  75
0
  76
1
  98
1
  10
0.0
  20
0.0
   0
HATCH
   5
209
 100
AcDbEntity
   8
0
  62
1
 100
AcDbHatch
  10
0.0
  20
0.0
  30
0.0
 210
0.0
 220
0.0
 230
 1.0000000000000
   2
SOLID
  70
1
  71
1
  91
1
  92
1
  93
8
  72
1
  10
 1559.6400000003
  20
 1087.3400000000
  11
 1576.9200000003
  21
 1087.3400000000
  72
1
  10
 1576.9200000003
  20
 1087.3400000000
  11
 1576.9200000003
  21
 1075.8200000000
  72
1
  10
 1576.9200000003
  20
 1075.8200000000
  11
 1559.6400000003
  21
 1075.8200000000
  72
2
  10
 1559.6400000003
  20
 1070.0600000000
  40
 5.7600000000000
  50
 90.000000000000
  51
 270.00000000000
  73
1
  72
1
  10
 1559.6400000003
  20
 1064.3000000000
  11
 1576.9200000003
  21
 1064.3000000000
  72
1
  10
 1576.9200000003
  20
 1064.3000000000
  11
 1576.9200000003
  21
 1052.7800000000
  72
1
  10
 1576.9200000003
  20
 1052.7800000000
  11
 1559.6400000003
  21
 1052.7800000000
  72
2
  10
 1559.6400000003
  20
 1070.0600000000
  40
 17.280000000000
  50
 90.000000000000
  51
 270.00000000000
  73
0
  97
1
 330

  75
0
  76
1
  98
1
  10
0.0
  20
0.0
   0
LINE
   5
20A
 100
AcDbEntity
   8
LEVEL001
 370
50
 100
AcDbLine
   6
CONTINUOUS
  62
4
  10
 1268.0000000001
  20
 1140.0000000000
  30
0.0
  11
 1268.0000000001
  21
 48.000000000020
  31
0.0
   0
LINE
   5
20B
 100
AcDbEntity
   8
LEVEL001
 370
50
 100
AcDbLine
   6
CONTINUOUS
  62
4
  10
 1268.0000000001
  20
 1140.0000000000
  30
0.0
  11
 1268.0000000001
  21
 48.000000000009
  31
0.0
   0
LINE
   5
20C
 100
AcDbEntity
   8
LEVEL001
 370
50
 100
AcDbLine
   6
CONTINUOUS
  62
4
  10
 1618.0000000001
  20
 48.000000000009
  30
0.0
  11
 1618.0000000001
  21
 1140.0000000000
  31
0.0
   0
LINE
   5
20D
 100
AcDbEntity
   8
LEVEL001
 370
50
 100
AcDbLine
   6
CONTINUOUS
  62
4
  10
 1618.0000000001
  20
 1140.0000000000
  30
0.0
  11
 62.000000000102
  21
 1140.0000000000
  31
0.0
   0
LINE
   5
20E
 100
AcDbEntity
   8
LEVEL001
 370
50
 100
AcDbLine
   6
CONTINUOUS
  62
4
  10
 62.000000000102
  20
 1140.0000000000
  30
0.0
  11
 62.000000000102
  21
 48.000000000020
  31
0.0
   0
LINE
   5
20F
 100
AcDbEntity
   8
LEVEL001
 370
50
 100
AcDbLine
   6
CONTINUOUS
  62
4
  10
 62.000000000102
  20
 48.000000000020
  30
0.0
  11
 1618.0000000001
  21
 48.000000000020
  31
0.0
   0
MTEXT
   5
211
 100
AcDbEntity
   8
LEVEL001
 370
20
  62
7
 100
AcDbMText
  10
 1386.8400000003
  20
 1093.1000000000
  30
0.0
  40
 12.000000000000
  41
0.0
  71
7
  72
1
   1
\T1.000000;ケージーパルテック株式会社
   7
GMM001
  44
 0.79999984000003
   0
MTEXT
   5
213
 100
AcDbEntity
   8
LEVEL001
 370
15
  62
8
 100
AcDbMText
  10
 1499.2000000001
  20
 194.66666666668
  30
0.0
  40
 11.200000000000
  41
0.0
  71
5
  72
1
   1
\T1.000000;作成日付：
   7
GMM002
  44
 0.79999984000003
   0
MTEXT
   5
215
 100
AcDbEntity
   8
LEVEL001
 370
15
  62
8
 100
AcDbMText
  10
 1499.2000000001
  20
 168.00000000001
  30
0.0
  40
 11.200000000000
  41
0.0
  71
5
  72
1
   1
\T1.000000;変更日付：
   7
GMM002
  44
 0.79999984000003
   0
MTEXT
   5
217
 100
AcDbEntity
   8
LEVEL001
 370
15
  62
8
 100
AcDbMText
  10
 1443.0000000001
  20
 248.00000000001
  30
0.0
  40
 15.000000000000
  41
0.0
  71
5
  72
1
   1
\T1.000000;三面図
   7
GMM002
  44
 0.79999984000003
   0
MTEXT
   5
219
 100
AcDbEntity
   8
LEVEL001
 370
15
  62
8
 100
AcDbMText
  10
 1276.7858875373
  20
 312.89545107619
  30
0.0
  40
 12.000000000000
  41
0.0
  71
7
  72
1
   1
\T1.000000;※本製品は予告無しに変更する事があります。
   7
GMM002
  44
 0.79999984000003
   0
LINE
   5
21A
 100
AcDbEntity
   8
0
 370
15
 100
AcDbLine
   6
DOT
  62
2
  10
 1680.0000000000
  20
 1188.0000000000
  30
0.0
  11
0.0
  21
 1188.0000000000
  31
0.0
   0
LINE
   5
21B
 100
AcDbEntity
   8
0
 370
15
 100
AcDbLine
   6
DOT
  62
2
  10
0.0
  20
0.0
  30
0.0
  11
 1680.0000000000
  21
0.0
  31
0.0
   0
LINE
   5
21C
 100
AcDbEntity
   8
0
 370
15
 100
AcDbLine
   6
DOT
  62
2
  10
0.0
  20
 1188.0000000000
  30
0.0
  11
0.0
  21
0.0
  31
0.0
   0
MTEXT
   5
21E
 100
AcDbEntity
   8
LEVEL001
 370
15
  62
8
 100
AcDbMText
  10
 1293.2000000001
  20
 1012.0000000000
  30
0.0
  40
 12.000000000000
  41
0.0
  71
5
  72
1
   1
\T1.000000;商品名：
   7
GMM001
  44
 0.79999984000003
   0
MTEXT
   5
220
 100
AcDbEntity
   8
LEVEL001
 370
15
  62
8
 100
AcDbMText
  10
 1287.2000000001
  20
 932.00000000001
  30
0.0
  40
 12.000000000000
  41
0.0
  71
5
  72
1
   1
\T1.000000;形式：
   7
GMM001
  44
 0.79999984000003
   0
MTEXT
   5
222
 100
AcDbEntity
   8
LEVEL001
 370
15
  62
8
 100
AcDbMText
  10
 1287.2000000001
  20
 852.00000000001
  30
0.0
  40
 12.000000000000
  41
0.0
  71
5
  72
1
   1
\T1.000000;仕様：
   7
GMM001
  44
 0.79999984000003
   0
MTEXT
   5
224
 100
AcDbEntity
   8
LEVEL001
 370
15
  62
8
 100
AcDbMText
  10
 1299.2000000001
  20
 273.00000000001
  30
0.0
  40
 12.000000000000
  41
0.0
  71
5
  72
1
   1
\T1.000000;図面名称：
   7
GMM001
  44
 0.79999984000003
   0
MTEXT
   5
226
 100
AcDbEntity
   8
LEVEL001
 370
15
  62
8
 100
AcDbMText
  10
 1287.2000000001
  20
 193.00000000001
  30
0.0
  40
 12.000000000000
  41
0.0
  71
5
  72
1
   1
\T1.000000;縮尺：
   7
GMM001
  44
 0.79999984000003
   0
MTEXT
   5
228
 100
AcDbEntity
   8
LEVEL001
 370
15
  62
8
 100
AcDbMText
  10
 1305.2000000001
  20
 114.88614091451
  30
0.0
  40
 12.000000000000
  41
0.0
  71
5
  72
1
   1
\T1.000000;用紙サイズ：
   7
GMM001
  44
 0.79999984000003
   0
MTEXT
   5
22A
 100
AcDbEntity
   8
LEVEL001
 370
15
  62
8
 100
AcDbMText
  10
 1505.2000000001
  20
 113.00000000001
  30
0.0
  40
 12.000000000000
  41
0.0
  71
5
  72
1
   1
\T1.000000;ファイル名：
   7
GMM001
  44
 0.79999984000003
   0
MTEXT
   5
22C
 100
AcDbEntity
   8
LEVEL001
 370
15
  62
8
 100
AcDbMText
  10
 1335.0000000001
  20
 978.00000000001
  30
0.0
  40
 18.000000000000
  41
0.0
  71
7
  72
1
   1
\T1.000000;手摺金具　Ｌ型　Ｐタイプ
   7
GMM001
  44
 0.79999984000003
   0
MTEXT
   5
22E
 100
AcDbEntity
   8
LEVEL001
 370
15
  62
8
 100
AcDbMText
  10
 1368.0000000001
  20
 168.00000000001
  30
0.0
  40
 15.000000000000
  41
0.0
  71
5
  72
1
   1
\T1.000000;Ｓ＝１：４
   7
GMM001
  44
 0.79999984000003
   0
MTEXT
   5
230
 100
AcDbEntity
   8
LEVEL001
 370
15
  62
8
 100
AcDbMText
  10
 1368.0000000001
  20
 88.000000000009
  30
0.0
  40
 15.000000000000
  41
0.0
  71
5
  72
1
   1
\T1.000000;Ａ３
   7
GMM001
  44
 0.79999984000003
   0
MTEXT
   5
232
 100
AcDbEntity
   8
LEVEL001
 370
15
  62
8
 100
AcDbMText
  10
 1573.2000000001
  20
 141.33333333334
  30
0.0
  40
 8.0000000000000
  41
0.0
  71
5
  72
1
   1
\T1.000000;平成　　年　　月　　日
   7
GMM001
  44
 0.79999984000003
   0
MTEXT
   5
234
 100
AcDbEntity
   8
LEVEL001
 370
15
  62
8
 100
AcDbMText
  10
 1573.2000000001
  20
 168.00000000001
  30
0.0
  40
 8.0000000000000
  41
0.0
  71
5
  72
1
   1
\T1.000000;平成　　年　　月　　日
   7
GMM001
  44
 0.79999984000003
   0
LINE
   5
235
 100
AcDbEntity
   8
0
 370
15
 100
AcDbLine
   6
DOT
  62
2
  10
 1680.0000000000
  20
 1188.0000000000
  30
0.0
  11
 1680.0000000000
  21
0.0
  31
0.0
   0
LINE
   5
236
 100
AcDbEntity
   8
0
 370
40
 100
AcDbLine
   6
CONTINUOUS
  62
3
  10
 62.000000000102
  20
 594.00000000001
  30
0.0
  11
 1268.0000000001
  21
 594.00000000001
  31
0.0
   0
LINE
   5
237
 100
AcDbEntity
   8
LEVEL001
 370
20
 100
AcDbLine
   6
CONTINUOUS
  62
7
  10
 1434.2611135294
  20
 755.00000000001
  30
0.0
  11
 1584.2611135294
  21
 755.00000000001
  31
0.0
   0
LINE
   5
238
 100
AcDbEntity
   8
LEVEL001
 370
20
 100
AcDbLine
   6
CONTINUOUS
  62
7
  10
 1434.2611135294
  20
 776.00000000001
  30
0.0
  11
 1434.2611135294
  21
 644.00000000001
  31
0.0
   0
LINE
   5
239
 100
AcDbEntity
   8
LEVEL001
 370
20
 100
AcDbLine
   6
CONTINUOUS
  62
7
  10
 1509.2611135294
  20
 755.00000000001
  30
0.0
  11
 1509.2611135294
  21
 644.00000000001
  31
0.0
   0
LINE
   5
23A
 100
AcDbEntity
   8
LEVEL001
 370
20
 100
AcDbLine
   6
CONTINUOUS
  62
7
  10
 1584.2611135294
  20
 776.00000000001
  30
0.0
  11
 1584.2611135294
  21
 644.00000000001
  31
0.0
   0
MTEXT
   5
23C
 100
AcDbEntity
   8
LEVEL001
 370
15
  62
8
 100
AcDbMText
  10
 1471.7611135294
  20
 744.50000000001
  30
0.0
  40
 12.000000000000
  41
0.0
  71
5
  72
1
   1
\T1.000000;１６軸
   7
GMM001
  44
 0.79999984000003
   0
MTEXT
   5
23E
 100
AcDbEntity
   8
LEVEL001
 370
15
  62
8
 100
AcDbMText
  10
 1546.7611135294
  20
 744.50000000001
  30
0.0
  40
 12.000000000000
  41
0.0
  71
5
  72
1
   1
\T1.000000;１３軸
   7
GMM001
  44
 0.79999984000003
   0
MTEXT
   5
240
 100
AcDbEntity
   8
LEVEL001
 370
15
  62
8
 100
AcDbMText
  10
 1471.7611135294
  20
 725.00000000001
  30
0.0
  40
 12.000000000000
  41
0.0
  71
5
  72
1
   1
\T1.000000;５８
   7
GMM001
  44
 0.79999984000003
   0
MTEXT
   5
242
 100
AcDbEntity
   8
LEVEL001
 370
15
  62
8
 100
AcDbMText
  10
 1471.7611135294
  20
 713.00000000001
  30
0.0
  40
 12.000000000000
  41
0.0
  71
5
  72
1
   1
\T1.000000;７０
   7
GMM001
  44
 0.79999984000003
   0
MTEXT
   5
244
 100
AcDbEntity
   8
LEVEL001
 370
15
  62
8
 100
AcDbMText
  10
 1471.7611135294
  20
 701.00000000001
  30
0.0
  40
 12.000000000000
  41
0.0
  71
5
  72
1
   1
\T1.000000;８０
   7
GMM001
  44
 0.79999984000003
   0
MTEXT
   5
246
 100
AcDbEntity
   8
LEVEL001
 370
15
  62
8
 100
AcDbMText
  10
 1471.7611135294
  20
 689.00000000001
  30
0.0
  40
 12.000000000000
  41
0.0
  71
5
  72
1
   1
\T1.000000;１００
   7
GMM001
  44
 0.79999984000003
   0
MTEXT
   5
248
 100
AcDbEntity
   8
LEVEL001
 370
15
  62
8
 100
AcDbMText
  10
 1471.7611135294
  20
 665.00000000001
  30
0.0
  40
 12.000000000000
  41
0.0
  71
5
  72
1
   1
\T1.000000;１５０
   7
GMM001
  44
 0.79999984000003
   0
MTEXT
   5
24A
 100
AcDbEntity
   8
LEVEL001
 370
15
  62
8
 100
AcDbMText
  10
 1471.7611135294
  20
 653.00000000001
  30
0.0
  40
 12.000000000000
  41
0.0
  71
5
  72
1
   1
\T1.000000;２００
   7
GMM001
  44
 0.79999984000003
   0
MTEXT
   5
24C
 100
AcDbEntity
   8
LEVEL001
 370
15
  62
8
 100
AcDbMText
  10
 1471.7611135294
  20
 677.00000000001
  30
0.0
  40
 12.000000000000
  41
0.0
  71
5
  72
1
   1
\T1.000000;１２０
   7
GMM001
  44
 0.79999984000003
   0
MTEXT
   5
24E
 100
AcDbEntity
   8
LEVEL001
 370
15
  62
8
 100
AcDbMText
  10
 1546.7611135294
  20
 713.00000000001
  30
0.0
  40
 12.000000000000
  41
0.0
  71
5
  72
1
   1
\T1.000000;７０
   7
GMM001
  44
 0.79999984000003
   0
MTEXT
   5
250
 100
AcDbEntity
   8
LEVEL001
 370
15
  62
8
 100
AcDbMText
  10
 1546.7611135294
  20
 725.00000000001
  30
0.0
  40
 12.000000000000
  41
0.0
  71
5
  72
1
   1
\T1.000000;５５
   7
GMM001
  44
 0.79999984000003
   0
LINE
   5
251
 100
AcDbEntity
   8
LEVEL001
 370
20
 100
AcDbLine
   6
CONTINUOUS
  62
7
  10
 1284.2611135294
  20
 776.00000000001
  30
0.0
  11
 1284.2611135294
  21
 644.00000000001
  31
0.0
   0
LINE
   5
252
 100
AcDbEntity
   8
LEVEL001
 370
20
 100
AcDbLine
   6
CONTINUOUS
  62
7
  10
 1284.2611135294
  20
 734.00000000001
  30
0.0
  11
 1584.2611135294
  21
 734.00000000001
  31
0.0
   0
LINE
   5
253
 100
AcDbEntity
   8
LEVEL001
 370
20
 100
AcDbLine
   6
CONTINUOUS
  62
7
  10
 1284.2611135294
  20
 644.00000000001
  30
0.0
  11
 1584.2611135294
  21
 644.00000000001
  31
0.0
   0
MTEXT
   5
255
 100
AcDbEntity
   8
LEVEL001
 370
15
  62
8
 100
AcDbMText
  10
 1359.2611135294
  20
 755.00000000001
  30
0.0
  40
 12.000000000000
  41
0.0
  71
5
  72
1
   1
\T1.000000;品番
   7
GMM001
  44
 0.79999984000003
   0
MTEXT
   5
257
 100
AcDbEntity
   8
LEVEL001
 370
15
  62
8
 100
AcDbMText
  10
 1509.2611135294
  20
 765.50000000001
  30
0.0
  40
 12.000000000000
  41
0.0
  71
5
  72
1
   1
\W1.000000;\T1.000000;出寸法Ｌ\W0.500000;\T1.000000;(m/m\W1.000000;\T1.000000;）
   7
GMM001
  44
 0.79999984000003
   0
LINE
   5
258
 100
AcDbEntity
   8
LEVEL001
 370
20
 100
AcDbLine
   6
CONTINUOUS
  62
7
  10
 1284.2611135294
  20
 776.00000000001
  30
0.0
  11
 1584.2611135294
  21
 776.00000000001
  31
0.0
   0
MTEXT
   5
25A
 100
AcDbEntity
   8
LEVEL001
 370
15
  62
8
 100
AcDbMText
  10
 1305.5062713797
  20
 838.26225769669
  30
0.0
  40
 12.000000000000
  41
0.0
  71
1
  72
1
   1
{\T1.000000;材　質／ＳＵＳ３０４}\P{\T1.000000;仕上げ／ＨＬ}\P{\T1.000000;軸　径／%%c１６・１３軸}
   7
GMM001
  44
 0.79999984000003
   0
MTEXT
   5
25C
 100
AcDbEntity
   8
0
 370
15
  62
8
 100
AcDbMText
  10
-418.75647742605
  20
 1132.5945415873
  30
0.0
  40
 100.00000000000
  41
0.0
  71
4
  72
1
   1
\T1.000000;ＰＩＫＭ
   7
GMM001
  44
 0.79999984000003
   0
MTEXT
   5
25E
 100
AcDbEntity
   8
LEVEL001
 370
15
  62
8
 100
AcDbMText
  10
 1359.2611135294
  20
 689.00000000001
  30
0.0
  40
 12.000000000000
  41
0.0
  71
5
  72
1
   1
\T1.000000;ＰＩＫＭ２５
   7
GMM001
  44
 0.79999984000003
   0
MTEXT
   5
260
 100
AcDbEntity
   8
LEVEL001
 370
15
  62
8
 100
AcDbMText
  10
 1543.0000000001
  20
 88.000000000010
  30
0.0
  40
 10.000000000000
  41
0.0
  71
2
  72
1
   1
{\W1.000000;\T1.000000;手摺金具－ＰＩＫＭ}\P{\W1.000000;\T1.000000;　　　　　\W0.500000;\T1.000000;(\W1.000000;\T1.000000;１６軸\W0.500000;\T1.000000;)(\W1.000000;\T1.000000;１３軸\W0.500000;\T1.000000;)}
   7
GMM001
  44
 0.79999984000003
   0
MTEXT
   5
262
 100
AcDbEntity
   8
LEVEL001
 370
15
  62
8
 100
AcDbMText
  10
 1303.0000000001
  20
 900.00000000001
  30
0.0
  40
 14.000000000000
  41
0.0
  71
7
  72
1
   1
\W1.000000;\T1.000000;傾斜平受木ネジ座\W0.500000;\T1.000000; \W1.000000;\T1.000000;ＰＩＫＭ\W0.500000;\T1.000000;(\W1.000000;\T1.000000;１６軸\W0.500000;\T1.000000;)/(\W1.000000;\T1.000000;１３軸\W0.500000;\T1.000000;)
   7
GMM001
  44
 0.79999984000003
   0
MTEXT
   5
264
 100
AcDbEntity
   8
LEVEL001
 370
15
  62
8
 100
AcDbMText
  10
 63.200000000103
  20
 1120.0000000000
  30
0.0
  40
 12.000000000000
  41
0.0
  71
4
  72
1
   1
\T1.000000;　ＰＩＫＭ２５（１６軸）
   7
GMM001
  44
 0.79999984000003
   0
MTEXT
   5
266
 100
AcDbEntity
   8
LEVEL001
 370
15
  62
8
 100
AcDbMText
  10
 63.200000000103
  20
 574.00000000001
  30
0.0
  40
 12.000000000000
  41
0.0
  71
4
  72
1
   1
\T1.000000;　ＰＩＫＭ２５（１３軸）
   7
GMM001
  44
 0.79999984000003
   0
LINE
   5
267
 100
AcDbEntity
   8
LEVEL001
 370
15
 100
AcDbLine
   6
DASHDOT
  62
8
  10
 683.27735484266
  20
 401.23372819884
  30
0.0
  11
 707.36613974942
  21
 401.23372819884
  31
0.0
   0
LINE
   5
268
 100
AcDbEntity
   8
LEVEL001
 370
15
 100
AcDbLine
   6
DASHDOT
  62
8
  10
 695.32174729604
  20
 383.97410008353
  30
0.0
  11
 695.32174729604
  21
 469.70447971926
  31
0.0
   0
LINE
   5
269
 100
AcDbEntity
   8
LEVEL001
 370
15
 100
AcDbLine
   6
DASHDOT
  62
8
  10
 701.91205066445
  20
 252.28446174601
  30
0.0
  11
 714.71220604115
  21
 252.28446174601
  31
0.0
   0
LINE
   5
26A
 100
AcDbEntity
   8
LEVEL001
 370
15
 100
AcDbLine
   6
DASHDOT
  62
8
  10
 708.31212835280
  20
 258.78636232290
  30
0.0
  11
 708.31212835280
  21
 245.78256116911
  31
0.0
   0
LINE
   5
26B
 100
AcDbEntity
   8
LEVEL001
 370
15
 100
AcDbLine
   6
DASHDOT
  62
8
  10
 675.93128855092
  20
 252.28446174601
  30
0.0
  11
 688.73144392762
  21
 252.28446174601
  31
0.0
   0
LINE
   5
26C
 100
AcDbEntity
   8
LEVEL001
 370
15
 100
AcDbLine
   6
DASHDOT
  62
8
  10
 682.33136623927
  20
 258.78636232290
  30
0.0
  11
 682.33136623927
  21
 245.78256116911
  31
0.0
   0
LINE
   5
26D
 100
AcDbEntity
   8
LEVEL001
 370
15
 100
AcDbLine
   6
DASHDOT
  62
8
  10
 688.92166960769
  20
 229.78446174601
  30
0.0
  11
 701.72182498439
  21
 229.78446174601
  31
0.0
   0
LINE
   5
26E
 100
AcDbEntity
   8
LEVEL001
 370
15
 100
AcDbLine
   6
DASHDOT
  62
8
  10
 695.32174729604
  20
 215.92536785220
  30
0.0
  11
 695.32174729604
  21
 300.54905530847
  31
0.0
   0
LINE
   5
26F
 100
AcDbEntity
   8
0
 370
15
 100
AcDbLine
   6
DASHDOT
  62
8
  10
 664.07324970727
  20
 244.78446174601
  30
0.0
  11
 726.57024488481
  21
 244.78446174601
  31
0.0
   0
DIMENSION
   5
270
 100
AcDbEntity
   8
0
 370
15
   6
CONTINUOUS
  62
8
 100
AcDbDimension
   2
*D1
  10
 717.82174729604
  20
 173.48148035566
  30
0.0
  11
 695.32174729604
  21
 173.48148035566
  31
0.0
  70
0
   3
GMM001
 100
AcDbAlignedDimension
  13
 672.82174729604
  23
 244.78446174601
  33
0.0
  14
 717.82174729604
  24
 244.78446174601
  34
0.0
 100
AcDbRotatedDimension
   0
DIMENSION
   5
271
 100
AcDbEntity
   8
0
 370
15
   6
CONTINUOUS
  62
8
 100
AcDbDimension
   2
*D2
  10
 701.82174729604
  20
 198.08521190677
  30
0.0
  11
 718.32888880504
  21
 198.08521190677
  31
0.0
  70
128
   3
GMM002
 100
AcDbAlignedDimension
  13
 688.82174729604
  23
 244.78446174601
  33
0.0
  14
 701.82174729604
  24
 244.78446174601
  34
0.0
 100
AcDbRotatedDimension
   0
CIRCLE
   5
272
 100
AcDbEntity
   8
LEVEL001
 370
15
 100
AcDbCircle
   6
HIDDEN
  62
2
  10
 695.32174729604
  20
 401.23372819884
  30
0.0
  40
 6.5000000000000
   0
LINE
   5
273
 100
AcDbEntity
   8
LEVEL001
 370
15
 100
AcDbLine
   6
HIDDEN
  62
2
  10
 678.23136623927
  20
 456.53372819884
  30
0.0
  11
 679.93136623927
  21
 458.23372819884
  31
0.0
   0
LINE
   5
274
 100
AcDbEntity
   8
LEVEL001
 370
15
 100
AcDbLine
   6
HIDDEN
  62
2
  10
 679.93136623927
  20
 458.23372819884
  30
0.0
  11
 684.73136623927
  21
 458.23372819884
  31
0.0
   0
LINE
   5
275
 100
AcDbEntity
   8
LEVEL001
 370
15
 100
AcDbLine
   6
HIDDEN
  62
2
  10
 684.73136623927
  20
 458.23372819884
  30
0.0
  11
 686.43136623927
  21
 456.53372819884
  31
0.0
   0
LINE
   5
276
 100
AcDbEntity
   8
LEVEL001
 370
15
 100
AcDbLine
   6
HIDDEN
  62
2
  10
 678.23136623927
  20
 456.23372819884
  30
0.0
  11
 678.23136623927
  21
 456.53372819884
  31
0.0
   0
LINE
   5
277
 100
AcDbEntity
   8
LEVEL001
 370
15
 100
AcDbLine
   6
HIDDEN
  62
2
  10
 678.23136623927
  20
 456.53372819884
  30
0.0
  11
 686.43136623927
  21
 456.53372819884
  31
0.0
   0
LINE
   5
278
 100
AcDbEntity
   8
LEVEL001
 370
15
 100
AcDbLine
   6
HIDDEN
  62
2
  10
 686.43136623927
  20
 456.53372819884
  30
0.0
  11
 686.43136623927
  21
 456.23372819884
  31
0.0
   0
LINE
   5
279
 100
AcDbEntity
   8
LEVEL001
 370
15
 100
AcDbLine
   6
HIDDEN
  62
2
  10
 679.93136623927
  20
 458.23372819884
  30
0.0
  11
 679.93136623927
  21
 460.23372819884
  31
0.0
   0
LINE
   5
27A
 100
AcDbEntity
   8
LEVEL001
 370
15
 100
AcDbLine
   6
HIDDEN
  62
2
  10
 684.73136623927
  20
 458.23372819884
  30
0.0
  11
 684.73136623927
  21
 460.23372819884
  31
0.0
   0
LINE
   5
27B
 100
AcDbEntity
   8
LEVEL001
 370
15
 100
AcDbLine
   6
DASHDOT
  62
8
  10
 682.33136623927
  20
 462.53002787939
  30
0.0
  11
 682.33136623927
  21
 453.93742851829
  31
0.0
   0
LINE
   5
27C
 100
AcDbEntity
   8
LEVEL001
 370
15
 100
AcDbLine
   6
HIDDEN
  62
2
  10
 704.21212835280
  20
 456.53372819884
  30
0.0
  11
 705.91212835280
  21
 458.23372819884
  31
0.0
   0
LINE
   5
27D
 100
AcDbEntity
   8
LEVEL001
 370
15
 100
AcDbLine
   6
HIDDEN
  62
2
  10
 705.91212835280
  20
 458.23372819884
  30
0.0
  11
 710.71212835280
  21
 458.23372819884
  31
0.0
   0
LINE
   5
27E
 100
AcDbEntity
   8
LEVEL001
 370
15
 100
AcDbLine
   6
HIDDEN
  62
2
  10
 710.71212835280
  20
 458.23372819884
  30
0.0
  11
 712.41212835280
  21
 456.53372819884
  31
0.0
   0
LINE
   5
27F
 100
AcDbEntity
   8
LEVEL001
 370
15
 100
AcDbLine
   6
HIDDEN
  62
2
  10
 704.21212835280
  20
 456.23372819884
  30
0.0
  11
 704.21212835280
  21
 456.53372819884
  31
0.0
   0
LINE
   5
280
 100
AcDbEntity
   8
LEVEL001
 370
15
 100
AcDbLine
   6
HIDDEN
  62
2
  10
 704.21212835280
  20
 456.53372819884
  30
0.0
  11
 712.41212835280
  21
 456.53372819884
  31
0.0
   0
LINE
   5
281
 100
AcDbEntity
   8
LEVEL001
 370
15
 100
AcDbLine
   6
HIDDEN
  62
2
  10
 712.41212835280
  20
 456.53372819884
  30
0.0
  11
 712.41212835280
  21
 456.23372819884
  31
0.0
   0
LINE
   5
282
 100
AcDbEntity
   8
LEVEL001
 370
15
 100
AcDbLine
   6
HIDDEN
  62
2
  10
 705.91212835280
  20
 458.23372819884
  30
0.0
  11
 705.91212835280
  21
 460.23372819884
  31
0.0
   0
LINE
   5
283
 100
AcDbEntity
   8
LEVEL001
 370
15
 100
AcDbLine
   6
HIDDEN
  62
2
  10
 710.71212835280
  20
 458.23372819884
  30
0.0
  11
 710.71212835280
  21
 460.23372819884
  31
0.0
   0
LINE
   5
284
 100
AcDbEntity
   8
LEVEL001
 370
15
 100
AcDbLine
   6
DASHDOT
  62
8
  10
 708.31212835280
  20
 462.53002787939
  30
0.0
  11
 708.31212835280
  21
 453.93742851829
  31
0.0
   0
LINE
   5
285
 100
AcDbEntity
   8
LEVEL001
 370
15
 100
AcDbLine
   6
HIDDEN
  62
2
  10
 691.22174729604
  20
 456.53372819884
  30
0.0
  11
 692.92174729604
  21
 458.23372819884
  31
0.0
   0
LINE
   5
286
 100
AcDbEntity
   8
LEVEL001
 370
15
 100
AcDbLine
   6
HIDDEN
  62
2
  10
 692.92174729604
  20
 458.23372819884
  30
0.0
  11
 697.72174729604
  21
 458.23372819884
  31
0.0
   0
LINE
   5
287
 100
AcDbEntity
   8
LEVEL001
 370
15
 100
AcDbLine
   6
HIDDEN
  62
2
  10
 697.72174729604
  20
 458.23372819884
  30
0.0
  11
 699.42174729604
  21
 456.53372819884
  31
0.0
   0
LINE
   5
288
 100
AcDbEntity
   8
LEVEL001
 370
15
 100
AcDbLine
   6
HIDDEN
  62
2
  10
 691.22174729604
  20
 456.23372819884
  30
0.0
  11
 691.22174729604
  21
 456.53372819884
  31
0.0
   0
LINE
   5
289
 100
AcDbEntity
   8
LEVEL001
 370
15
 100
AcDbLine
   6
HIDDEN
  62
2
  10
 691.22174729604
  20
 456.53372819884
  30
0.0
  11
 699.42174729604
  21
 456.53372819884
  31
0.0
   0
LINE
   5
28A
 100
AcDbEntity
   8
LEVEL001
 370
15
 100
AcDbLine
   6
HIDDEN
  62
2
  10
 699.42174729604
  20
 456.53372819884
  30
0.0
  11
 699.42174729604
  21
 456.23372819884
  31
0.0
   0
LINE
   5
28B
 100
AcDbEntity
   8
LEVEL001
 370
15
 100
AcDbLine
   6
HIDDEN
  62
2
  10
 692.92174729604
  20
 458.23372819884
  30
0.0
  11
 692.92174729604
  21
 460.23372819884
  31
0.0
   0
LINE
   5
28C
 100
AcDbEntity
   8
LEVEL001
 370
15
 100
AcDbLine
   6
HIDDEN
  62
2
  10
 697.72174729604
  20
 458.23372819884
  30
0.0
  11
 697.72174729604
  21
 460.23372819884
  31
0.0
   0
LINE
   5
28D
 100
AcDbEntity
   8
LEVEL001
 370
20
 100
AcDbLine
   6
CONTINUOUS
  62
7
  10
 701.82174729604
  20
 244.78446174601
  30
0.0
  11
 701.82174729604
  21
 279.78446174601
  31
0.0
   0
ARC
   5
28E
 100
AcDbEntity
   8
LEVEL001
 370
20
   6
CONTINUOUS
  62
7
 100
AcDbCircle
  10
 695.32174729604
  20
 244.78446174601
  30
0.0
  40
 6.5000000000000
 100
AcDbArc
  50
 180.00000000000
  51
0.0
   0
LINE
   5
28F
 100
AcDbEntity
   8
LEVEL001
 370
20
 100
AcDbLine
   6
CONTINUOUS
  62
7
  10
 688.82174729604
  20
 279.78446174601
  30
0.0
  11
 688.82174729604
  21
 244.78446174601
  31
0.0
   0
ARC
   5
290
 100
AcDbEntity
   8
LEVEL001
 370
20
   6
CONTINUOUS
  62
7
 100
AcDbCircle
  10
 695.32174729604
  20
 244.78446174601
  30
0.0
  40
 22.500000000000
 100
AcDbArc
  50
 106.79144711459
  51
 73.208552885411
   0
CIRCLE
   5
291
 100
AcDbEntity
   8
LEVEL001
 370
20
 100
AcDbCircle
   6
CONTINUOUS
  62
7
  10
 708.31212835280
  20
 252.28446174601
  30
0.0
  40
 2.0000000000000
   0
CIRCLE
   5
292
 100
AcDbEntity
   8
LEVEL001
 370
20
 100
AcDbCircle
   6
CONTINUOUS
  62
7
  10
 708.31212835280
  20
 252.28446174601
  30
0.0
  40
 4.0000000000000
   0
ARC
   5
293
 100
AcDbEntity
   8
LEVEL001
 370
20
   6
CONTINUOUS
  62
7
 100
AcDbCircle
  10
 695.32174729604
  20
 244.78446174601
  30
0.0
  40
 21.000000000000
 100
AcDbArc
  50
 108.03053539334
  51
 71.969464606662
   0
CIRCLE
   5
294
 100
AcDbEntity
   8
LEVEL001
 370
20
 100
AcDbCircle
   6
CONTINUOUS
  62
7
  10
 695.32174729604
  20
 229.78446174601
  30
0.0
  40
 2.0000000000000
   0
CIRCLE
   5
295
 100
AcDbEntity
   8
LEVEL001
 370
20
 100
AcDbCircle
   6
CONTINUOUS
  62
7
  10
 695.32174729604
  20
 229.78446174601
  30
0.0
  40
 4.0000000000000
   0
CIRCLE
   5
296
 100
AcDbEntity
   8
LEVEL001
 370
20
 100
AcDbCircle
   6
CONTINUOUS
  62
7
  10
 682.33136623927
  20
 252.28446174601
  30
0.0
  40
 2.0000000000000
   0
CIRCLE
   5
297
 100
AcDbEntity
   8
LEVEL001
 370
20
 100
AcDbCircle
   6
CONTINUOUS
  62
7
  10
 682.33136623927
  20
 252.28446174601
  30
0.0
  40
 4.0000000000000
   0
LINE
   5
298
 100
AcDbEntity
   8
LEVEL001
 370
20
 100
AcDbLine
   6
CONTINUOUS
  62
7
  10
 701.82174729604
  20
 456.23372819884
  30
0.0
  11
 716.32174729604
  21
 456.23372819884
  31
0.0
   0
LINE
   5
299
 100
AcDbEntity
   8
LEVEL001
 370
20
 100
AcDbLine
   6
CONTINUOUS
  62
7
  10
 717.82174729604
  20
 457.73372819884
  30
0.0
  11
 672.82174729604
  21
 457.73372819884
  31
0.0
   0
LINE
   5
29A
 100
AcDbEntity
   8
LEVEL001
 370
20
 100
AcDbLine
   6
CONTINUOUS
  62
7
  10
 717.82174729604
  20
 460.23372819884
  30
0.0
  11
 672.82174729604
  21
 460.23372819884
  31
0.0
   0
LINE
   5
29B
 100
AcDbEntity
   8
LEVEL001
 370
20
 100
AcDbLine
   6
CONTINUOUS
  62
7
  10
 717.82174729604
  20
 460.23372819884
  30
0.0
  11
 717.82174729604
  21
 457.73372819884
  31
0.0
   0
LINE
   5
29C
 100
AcDbEntity
   8
LEVEL001
 370
20
 100
AcDbLine
   6
CONTINUOUS
  62
7
  10
 717.82174729604
  20
 457.73372819884
  30
0.0
  11
 716.32174729604
  21
 456.23372819884
  31
0.0
   0
LINE
   5
29D
 100
AcDbEntity
   8
LEVEL001
 370
20
 100
AcDbLine
   6
CONTINUOUS
  62
7
  10
 674.32174729604
  20
 456.23372819884
  30
0.0
  11
 688.82174729604
  21
 456.23372819884
  31
0.0
   0
LINE
   5
29E
 100
AcDbEntity
   8
LEVEL001
 370
20
 100
AcDbLine
   6
CONTINUOUS
  62
7
  10
 672.82174729604
  20
 460.23372819884
  30
0.0
  11
 672.82174729604
  21
 457.73372819884
  31
0.0
   0
LINE
   5
29F
 100
AcDbEntity
   8
LEVEL001
 370
20
 100
AcDbLine
   6
CONTINUOUS
  62
7
  10
 672.82174729604
  20
 457.73372819884
  30
0.0
  11
 674.32174729604
  21
 456.23372819884
  31
0.0
   0
LINE
   5
2A0
 100
AcDbEntity
   8
LEVEL001
 370
20
 100
AcDbLine
   6
CONTINUOUS
  62
7
  10
 701.82174729604
  20
 456.23372819884
  30
0.0
  11
 688.82174729604
  21
 456.23372819884
  31
0.0
   0
LINE
   5
2A1
 100
AcDbEntity
   8
0
 370
20
 100
AcDbLine
   6
CONTINUOUS
  62
7
  10
 688.82174729604
  20
 279.78446174601
  30
0.0
  11
 701.82174729604
  21
 279.78446174601
  31
0.0
   0
LINE
   5
2A2
 100
AcDbEntity
   8
LEVEL001
 370
15
 100
AcDbLine
   6
DASHDOT
  62
8
  10
 581.37114244869
  20
 244.78446174601
  30
0.0
  11
 529.02693814606
  21
 244.78446174601
  31
0.0
   0
LINE
   5
2A3
 100
AcDbEntity
   8
LEVEL001
 370
15
 100
AcDbLine
   6
CONTINUOUS
  62
2
  10
 540.87114244869
  20
 236.78446174601
  30
0.0
  11
 540.87114244869
  21
 252.78446174601
  31
0.0
   0
LINE
   5
2A4
 100
AcDbEntity
   8
LEVEL001
 370
15
 100
AcDbLine
   6
HIDDEN
  62
2
  10
 540.57114244869
  20
 248.18446174601
  30
0.0
  11
 538.87114244869
  21
 249.88446174601
  31
0.0
   0
LINE
   5
2A5
 100
AcDbEntity
   8
LEVEL001
 370
15
 100
AcDbLine
   6
HIDDEN
  62
2
  10
 538.87114244869
  20
 249.88446174601
  30
0.0
  11
 538.87114244869
  21
 254.68446174601
  31
0.0
   0
LINE
   5
2A6
 100
AcDbEntity
   8
LEVEL001
 370
15
 100
AcDbLine
   6
HIDDEN
  62
2
  10
 538.87114244869
  20
 254.68446174601
  30
0.0
  11
 540.57114244869
  21
 256.38446174601
  31
0.0
   0
LINE
   5
2A7
 100
AcDbEntity
   8
LEVEL001
 370
15
 100
AcDbLine
   6
HIDDEN
  62
2
  10
 540.87114244869
  20
 248.18446174601
  30
0.0
  11
 540.57114244869
  21
 248.18446174601
  31
0.0
   0
LINE
   5
2A8
 100
AcDbEntity
   8
LEVEL001
 370
15
 100
AcDbLine
   6
HIDDEN
  62
2
  10
 540.57114244869
  20
 248.18446174601
  30
0.0
  11
 540.57114244869
  21
 256.38446174601
  31
0.0
   0
LINE
   5
2A9
 100
AcDbEntity
   8
LEVEL001
 370
15
 100
AcDbLine
   6
HIDDEN
  62
2
  10
 540.57114244869
  20
 256.38446174601
  30
0.0
  11
 540.87114244869
  21
 256.38446174601
  31
0.0
   0
LINE
   5
2AA
 100
AcDbEntity
   8
LEVEL001
 370
15
 100
AcDbLine
   6
HIDDEN
  62
2
  10
 538.87114244869
  20
 249.88446174601
  30
0.0
  11
 536.87114244869
  21
 249.88446174601
  31
0.0
   0
LINE
   5
2AB
 100
AcDbEntity
   8
LEVEL001
 370
15
 100
AcDbLine
   6
HIDDEN
  62
2
  10
 538.87114244869
  20
 254.68446174601
  30
0.0
  11
 536.87114244869
  21
 254.68446174601
  31
0.0
   0
LINE
   5
2AC
 100
AcDbEntity
   8
LEVEL001
 370
15
 100
AcDbLine
   6
HIDDEN
  62
2
  10
 540.57114244869
  20
 225.68446174601
  30
0.0
  11
 538.87114244869
  21
 227.38446174601
  31
0.0
   0
LINE
   5
2AD
 100
AcDbEntity
   8
LEVEL001
 370
15
 100
AcDbLine
   6
HIDDEN
  62
2
  10
 538.87114244869
  20
 227.38446174601
  30
0.0
  11
 538.87114244869
  21
 232.18446174601
  31
0.0
   0
LINE
   5
2AE
 100
AcDbEntity
   8
LEVEL001
 370
15
 100
AcDbLine
   6
HIDDEN
  62
2
  10
 538.87114244869
  20
 232.18446174601
  30
0.0
  11
 540.57114244869
  21
 233.88446174601
  31
0.0
   0
LINE
   5
2AF
 100
AcDbEntity
   8
LEVEL001
 370
15
 100
AcDbLine
   6
HIDDEN
  62
2
  10
 540.87114244869
  20
 225.68446174601
  30
0.0
  11
 540.57114244869
  21
 225.68446174601
  31
0.0
   0
LINE
   5
2B0
 100
AcDbEntity
   8
LEVEL001
 370
15
 100
AcDbLine
   6
HIDDEN
  62
2
  10
 540.57114244869
  20
 225.68446174601
  30
0.0
  11
 540.57114244869
  21
 233.88446174601
  31
0.0
   0
LINE
   5
2B1
 100
AcDbEntity
   8
LEVEL001
 370
15
 100
AcDbLine
   6
HIDDEN
  62
2
  10
 540.57114244869
  20
 233.88446174601
  30
0.0
  11
 540.87114244869
  21
 233.88446174601
  31
0.0
   0
LINE
   5
2B2
 100
AcDbEntity
   8
LEVEL001
 370
15
 100
AcDbLine
   6
HIDDEN
  62
2
  10
 538.87114244869
  20
 227.38446174601
  30
0.0
  11
 536.87114244869
  21
 227.38446174601
  31
0.0
   0
LINE
   5
2B3
 100
AcDbEntity
   8
LEVEL001
 370
15
 100
AcDbLine
   6
HIDDEN
  62
2
  10
 538.87114244869
  20
 232.18446174601
  30
0.0
  11
 536.87114244869
  21
 232.18446174601
  31
0.0
   0
LINE
   5
2B4
 100
AcDbEntity
   8
LEVEL001
 370
15
 100
AcDbLine
   6
DASHDOT
  62
8
  10
 534.57484276814
  20
 252.28446174601
  30
0.0
  11
 543.16744212924
  21
 252.28446174601
  31
0.0
   0
LINE
   5
2B5
 100
AcDbEntity
   8
LEVEL001
 370
15
 100
AcDbLine
   6
DASHDOT
  62
8
  10
 534.57484276814
  20
 229.78446174601
  30
0.0
  11
 543.16744212924
  21
 229.78446174601
  31
0.0
   0
ARC
   5
2B6
 100
AcDbEntity
   8
LEVEL001
 370
15
   6
DASHDOT
  62
8
 100
AcDbCircle
  10
 581.37114244869
  20
 259.28446174601
  30
0.0
  40
 14.500000000000
 100
AcDbArc
  50
 270.00000000000
  51
0.0
   0
DIMENSION
   5
2B7
 100
AcDbEntity
   8
0
 370
15
   6
CONTINUOUS
  62
8
 100
AcDbDimension
   2
*D3
  10
 632.51518227225
  20
 279.78446174601
  30
0.0
  11
 632.51518227225
  21
 262.28446174601
  31
0.0
  70
0
   3
GMM001
 100
AcDbAlignedDimension
  13
 579.87114244868
  23
 244.78446174601
  33
0.0
  14
 603.87114244869
  24
 279.78446174601
  34
0.0
  50
 90.000000000000
 100
AcDbRotatedDimension
   0
DIMENSION
   5
2B8
 100
AcDbEntity
   8
0
 370
15
   6
CONTINUOUS
  62
8
 100
AcDbDimension
   2
*D4
  10
 540.87114244869
  20
 198.08521190677
  30
0.0
  11
 531.88945689185
  21
 198.08521190677
  31
0.0
  70
128
   1
\A1;3.5
   3
GMM003
 100
AcDbAlignedDimension
  13
 536.87114244869
  23
 222.28446174601
  33
0.0
  14
 540.87114244869
  24
 223.78446174601
  34
0.0
 100
AcDbRotatedDimension
   0
DIMENSION
   5
2B9
 100
AcDbEntity
   8
0
 370
15
   6
CONTINUOUS
  62
8
 100
AcDbDimension
   2
*D5
  10
 595.87114244869
  20
 198.08521190677
  30
0.0
  11
 568.37114244869
  21
 198.08521190677
  31
0.0
  70
0
   1
\A1;L
   3
GMM004
 100
AcDbAlignedDimension
  13
 540.87114244869
  23
 223.78446174601
  33
0.0
  14
 595.87114244869
  24
 259.28446174601
  34
0.0
 100
AcDbRotatedDimension
   0
DIMENSION
   5
2BA
 100
AcDbEntity
   8
0
 370
15
   6
CONTINUOUS
  62
8
 100
AcDbDimension
   2
*D6
  10
 518.36230568048
  20
 267.28446174601
  30
0.0
  11
 518.36230568048
  21
 244.78446174601
  31
0.0
  70
0
   3
GMM001
 100
AcDbAlignedDimension
  13
 536.87114244869
  23
 222.28446174601
  33
0.0
  14
 536.87114244869
  24
 267.28446174601
  34
0.0
  50
 90.000000000000
 100
AcDbRotatedDimension
   0
ARC
   5
2BB
 100
AcDbEntity
   8
LEVEL001
 370
20
   6
CONTINUOUS
  62
7
 100
AcDbCircle
  10
 581.37114244869
  20
 259.28446174601
  30
0.0
  40
 21.000000000000
 100
AcDbArc
  50
 270.00000000000
  51
0.0
   0
ARC
   5
2BC
 100
AcDbEntity
   8
LEVEL001
 370
20
   6
CONTINUOUS
  62
7
 100
AcDbCircle
  10
 581.37114244869
  20
 259.28446174601
  30
0.0
  40
 8.0000000000000
 100
AcDbArc
  50
 270.00000000000
  51
0.0
   0
LINE
   5
2BD
 100
AcDbEntity
   8
LEVEL001
 370
20
 100
AcDbLine
   6
CONTINUOUS
  62
7
  10
 581.37114244869
  20
 251.28446174601
  30
0.0
  11
 540.87114244869
  21
 251.28446174601
  31
0.0
   0
LINE
   5
2BE
 100
AcDbEntity
   8
LEVEL001
 370
20
 100
AcDbLine
   6
CONTINUOUS
  62
7
  10
 540.87114244869
  20
 238.28446174601
  30
0.0
  11
 581.37114244869
  21
 238.28446174601
  31
0.0
   0
LINE
   5
2BF
 100
AcDbEntity
   8
LEVEL001
 370
20
 100
AcDbLine
   6
CONTINUOUS
  62
7
  10
 540.87114244869
  20
 251.28446174601
  30
0.0
  11
 540.87114244869
  21
 265.78446174601
  31
0.0
   0
LINE
   5
2C0
 100
AcDbEntity
   8
LEVEL001
 370
20
 100
AcDbLine
   6
CONTINUOUS
  62
7
  10
 536.87114244869
  20
 267.28446174601
  30
0.0
  11
 539.37114244869
  21
 267.28446174601
  31
0.0
   0
LINE
   5
2C1
 100
AcDbEntity
   8
LEVEL001
 370
20
 100
AcDbLine
   6
CONTINUOUS
  62
7
  10
 539.37114244869
  20
 267.28446174601
  30
0.0
  11
 540.87114244869
  21
 265.78446174601
  31
0.0
   0
LINE
   5
2C2
 100
AcDbEntity
   8
LEVEL001
 370
20
 100
AcDbLine
   6
CONTINUOUS
  62
7
  10
 539.37114244869
  20
 267.28446174601
  30
0.0
  11
 539.37114244869
  21
 222.28446174601
  31
0.0
   0
LINE
   5
2C3
 100
AcDbEntity
   8
LEVEL001
 370
20
 100
AcDbLine
   6
CONTINUOUS
  62
7
  10
 540.87114244869
  20
 223.78446174601
  30
0.0
  11
 540.87114244869
  21
 238.28446174601
  31
0.0
   0
LINE
   5
2C4
 100
AcDbEntity
   8
LEVEL001
 370
20
 100
AcDbLine
   6
CONTINUOUS
  62
7
  10
 536.87114244869
  20
 222.28446174601
  30
0.0
  11
 539.37114244869
  21
 222.28446174601
  31
0.0
   0
LINE
   5
2C5
 100
AcDbEntity
   8
LEVEL001
 370
20
 100
AcDbLine
   6
CONTINUOUS
  62
7
  10
 539.37114244869
  20
 222.28446174601
  30
0.0
  11
 540.87114244869
  21
 223.78446174601
  31
0.0
   0
LINE
   5
2C6
 100
AcDbEntity
   8
LEVEL001
 370
20
 100
AcDbLine
   6
CONTINUOUS
  62
7
  10
 536.87114244869
  20
 267.28446174601
  30
0.0
  11
 536.87114244869
  21
 222.28446174601
  31
0.0
   0
LINE
   5
2C7
 100
AcDbEntity
   8
LEVEL001
 370
20
 100
AcDbLine
   6
CONTINUOUS
  62
7
  10
 540.87114244869
  20
 251.28446174601
  30
0.0
  11
 540.87114244869
  21
 238.28446174601
  31
0.0
   0
LINE
   5
2C8
 100
AcDbEntity
   8
LEVEL001
 370
20
 100
AcDbLine
   6
CONTINUOUS
  62
7
  10
 602.37114244869
  20
 259.28446174601
  30
0.0
  11
 602.37114244869
  21
 279.78446174601
  31
0.0
   0
LINE
   5
2C9
 100
AcDbEntity
   8
LEVEL001
 370
20
 100
AcDbLine
   6
CONTINUOUS
  62
7
  10
 589.37114244869
  20
 279.78446174601
  30
0.0
  11
 589.37114244869
  21
 259.28446174601
  31
0.0
   0
LINE
   5
2CA
 100
AcDbEntity
   8
0
 370
20
 100
AcDbLine
   6
CONTINUOUS
  62
7
  10
 589.37114244869
  20
 279.78446174601
  30
0.0
  11
 602.37114244869
  21
 279.78446174601
  31
0.0
   0
CIRCLE
   5
2CB
 100
AcDbEntity
   8
LEVEL001
 370
15
 100
AcDbCircle
   6
HIDDEN
  62
2
  10
 696.86807577659
  20
 957.10047435921
  30
0.0
  40
 8.0000000000000
   0
LINE
   5
2CC
 100
AcDbEntity
   8
LEVEL001
 370
15
 100
AcDbLine
   6
DASHDOT
  62
8
  10
 696.86807577659
  20
 939.84084624390
  30
0.0
  11
 696.86807577659
  21
 1025.5712258796
  31
0.0
   0
LINE
   5
2CD
 100
AcDbEntity
   8
LEVEL001
 370
20
 100
AcDbLine
   6
CONTINUOUS
  62
7
  10
 724.36807577659
  20
 1016.6004743592
  30
0.0
  11
 669.36807577659
  21
 1016.6004743592
  31
0.0
   0
LINE
   5
2CE
 100
AcDbEntity
   8
LEVEL001
 370
20
 100
AcDbLine
   6
CONTINUOUS
  62
7
  10
 670.86807577659
  20
 1015.1004743592
  30
0.0
  11
 722.86807577659
  21
 1015.1004743592
  31
0.0
   0
LINE
   5
2CF
 100
AcDbEntity
   8
LEVEL001
 370
20
 100
AcDbLine
   6
CONTINUOUS
  62
7
  10
 722.86807577659
  20
 1015.1004743592
  30
0.0
  11
 724.36807577659
  21
 1016.6004743592
  31
0.0
   0
LINE
   5
2D0
 100
AcDbEntity
   8
LEVEL001
 370
20
 100
AcDbLine
   6
CONTINUOUS
  62
7
  10
 724.36807577659
  20
 1018.6004743592
  30
0.0
  11
 669.36807577659
  21
 1018.6004743592
  31
0.0
   0
LINE
   5
2D1
 100
AcDbEntity
   8
LEVEL001
 370
20
 100
AcDbLine
   6
CONTINUOUS
  62
7
  10
 724.36807577659
  20
 1016.6004743592
  30
0.0
  11
 724.36807577659
  21
 1018.6004743592
  31
0.0
   0
LINE
   5
2D2
 100
AcDbEntity
   8
LEVEL001
 370
20
 100
AcDbLine
   6
CONTINUOUS
  62
7
  10
 669.36807577659
  20
 1016.6004743592
  30
0.0
  11
 670.86807577659
  21
 1015.1004743592
  31
0.0
   0
LINE
   5
2D3
 100
AcDbEntity
   8
LEVEL001
 370
20
 100
AcDbLine
   6
CONTINUOUS
  62
7
  10
 669.36807577659
  20
 1018.6004743592
  30
0.0
  11
 669.36807577659
  21
 1016.6004743592
  31
0.0
   0
LINE
   5
2D4
 100
AcDbEntity
   8
LEVEL001
 370
15
 100
AcDbLine
   6
HIDDEN
  62
2
  10
 676.74660580649
  20
 1015.4004743592
  30
0.0
  11
 678.44660580649
  21
 1017.1004743592
  31
0.0
   0
LINE
   5
2D5
 100
AcDbEntity
   8
LEVEL001
 370
15
 100
AcDbLine
   6
HIDDEN
  62
2
  10
 678.44660580649
  20
 1017.1004743592
  30
0.0
  11
 683.24660580649
  21
 1017.1004743592
  31
0.0
   0
LINE
   5
2D6
 100
AcDbEntity
   8
LEVEL001
 370
15
 100
AcDbLine
   6
HIDDEN
  62
2
  10
 683.24660580649
  20
 1017.1004743592
  30
0.0
  11
 684.94660580649
  21
 1015.4004743592
  31
0.0
   0
LINE
   5
2D7
 100
AcDbEntity
   8
LEVEL001
 370
15
 100
AcDbLine
   6
HIDDEN
  62
2
  10
 676.74660580649
  20
 1015.1004743592
  30
0.0
  11
 676.74660580649
  21
 1015.4004743592
  31
0.0
   0
LINE
   5
2D8
 100
AcDbEntity
   8
LEVEL001
 370
15
 100
AcDbLine
   6
HIDDEN
  62
2
  10
 676.74660580649
  20
 1015.4004743592
  30
0.0
  11
 684.94660580649
  21
 1015.4004743592
  31
0.0
   0
LINE
   5
2D9
 100
AcDbEntity
   8
LEVEL001
 370
15
 100
AcDbLine
   6
HIDDEN
  62
2
  10
 684.94660580649
  20
 1015.4004743592
  30
0.0
  11
 684.94660580649
  21
 1015.1004743592
  31
0.0
   0
LINE
   5
2DA
 100
AcDbEntity
   8
LEVEL001
 370
15
 100
AcDbLine
   6
HIDDEN
  62
2
  10
 678.44660580649
  20
 1017.1004743592
  30
0.0
  11
 678.44660580649
  21
 1018.6004743592
  31
0.0
   0
LINE
   5
2DB
 100
AcDbEntity
   8
LEVEL001
 370
15
 100
AcDbLine
   6
HIDDEN
  62
2
  10
 683.24660580649
  20
 1017.1004743592
  30
0.0
  11
 683.24660580649
  21
 1018.6004743592
  31
0.0
   0
LINE
   5
2DC
 100
AcDbEntity
   8
LEVEL001
 370
15
 100
AcDbLine
   6
DASHDOT
  62
8
  10
 680.84660580649
  20
 1020.8967740398
  30
0.0
  11
 680.84660580649
  21
 1012.8041746787
  31
0.0
   0
LINE
   5
2DD
 100
AcDbEntity
   8
LEVEL001
 370
15
 100
AcDbLine
   6
HIDDEN
  62
2
  10
 708.78954574651
  20
 1015.4004743592
  30
0.0
  11
 710.48954574651
  21
 1017.1004743592
  31
0.0
   0
LINE
   5
2DE
 100
AcDbEntity
   8
LEVEL001
 370
15
 100
AcDbLine
   6
HIDDEN
  62
2
  10
 710.48954574651
  20
 1017.1004743592
  30
0.0
  11
 715.28954574651
  21
 1017.1004743592
  31
0.0
   0
LINE
   5
2DF
 100
AcDbEntity
   8
LEVEL001
 370
15
 100
AcDbLine
   6
HIDDEN
  62
2
  10
 715.28954574651
  20
 1017.1004743592
  30
0.0
  11
 716.98954574651
  21
 1015.4004743592
  31
0.0
   0
LINE
   5
2E0
 100
AcDbEntity
   8
LEVEL001
 370
15
 100
AcDbLine
   6
HIDDEN
  62
2
  10
 708.78954574651
  20
 1015.1004743592
  30
0.0
  11
 708.78954574651
  21
 1015.4004743592
  31
0.0
   0
LINE
   5
2E1
 100
AcDbEntity
   8
LEVEL001
 370
15
 100
AcDbLine
   6
HIDDEN
  62
2
  10
 708.78954574651
  20
 1015.4004743592
  30
0.0
  11
 716.98954574651
  21
 1015.4004743592
  31
0.0
   0
LINE
   5
2E2
 100
AcDbEntity
   8
LEVEL001
 370
15
 100
AcDbLine
   6
HIDDEN
  62
2
  10
 716.98954574651
  20
 1015.4004743592
  30
0.0
  11
 716.98954574651
  21
 1015.1004743592
  31
0.0
   0
LINE
   5
2E3
 100
AcDbEntity
   8
LEVEL001
 370
15
 100
AcDbLine
   6
HIDDEN
  62
2
  10
 710.48954574651
  20
 1017.1004743592
  30
0.0
  11
 710.48954574651
  21
 1018.6004743592
  31
0.0
   0
LINE
   5
2E4
 100
AcDbEntity
   8
LEVEL001
 370
15
 100
AcDbLine
   6
HIDDEN
  62
2
  10
 715.28954574651
  20
 1017.1004743592
  30
0.0
  11
 715.28954574651
  21
 1018.6004743592
  31
0.0
   0
LINE
   5
2E5
 100
AcDbEntity
   8
LEVEL001
 370
15
 100
AcDbLine
   6
DASHDOT
  62
8
  10
 712.88954574651
  20
 1020.8967740398
  30
0.0
  11
 712.88954574651
  21
 1012.8041746787
  31
0.0
   0
LINE
   5
2E6
 100
AcDbEntity
   8
LEVEL001
 370
15
 100
AcDbLine
   6
HIDDEN
  62
2
  10
 692.76807577659
  20
 1015.4004743592
  30
0.0
  11
 694.46807577659
  21
 1017.1004743592
  31
0.0
   0
LINE
   5
2E7
 100
AcDbEntity
   8
LEVEL001
 370
15
 100
AcDbLine
   6
HIDDEN
  62
2
  10
 694.46807577659
  20
 1017.1004743592
  30
0.0
  11
 699.26807577659
  21
 1017.1004743592
  31
0.0
   0
LINE
   5
2E8
 100
AcDbEntity
   8
LEVEL001
 370
15
 100
AcDbLine
   6
HIDDEN
  62
2
  10
 699.26807577659
  20
 1017.1004743592
  30
0.0
  11
 700.96807577659
  21
 1015.4004743592
  31
0.0
   0
LINE
   5
2E9
 100
AcDbEntity
   8
LEVEL001
 370
15
 100
AcDbLine
   6
HIDDEN
  62
2
  10
 692.76807577659
  20
 1015.1004743592
  30
0.0
  11
 692.76807577659
  21
 1015.4004743592
  31
0.0
   0
LINE
   5
2EA
 100
AcDbEntity
   8
LEVEL001
 370
15
 100
AcDbLine
   6
HIDDEN
  62
2
  10
 692.76807577659
  20
 1015.4004743592
  30
0.0
  11
 700.96807577659
  21
 1015.4004743592
  31
0.0
   0
LINE
   5
2EB
 100
AcDbEntity
   8
LEVEL001
 370
15
 100
AcDbLine
   6
HIDDEN
  62
2
  10
 700.96807577659
  20
 1015.4004743592
  30
0.0
  11
 700.96807577659
  21
 1015.1004743592
  31
0.0
   0
LINE
   5
2EC
 100
AcDbEntity
   8
LEVEL001
 370
15
 100
AcDbLine
   6
HIDDEN
  62
2
  10
 694.46807577659
  20
 1017.1004743592
  30
0.0
  11
 694.46807577659
  21
 1018.6004743592
  31
0.0
   0
LINE
   5
2ED
 100
AcDbEntity
   8
LEVEL001
 370
15
 100
AcDbLine
   6
HIDDEN
  62
2
  10
 699.26807577659
  20
 1017.1004743592
  30
0.0
  11
 699.26807577659
  21
 1018.6004743592
  31
0.0
   0
ARC
   5
2EE
 100
AcDbEntity
   8
LEVEL001
 370
20
   6
CONTINUOUS
  62
7
 100
AcDbCircle
  10
 581.41747092924
  20
 806.65120790638
  30
0.0
  40
 8.0000000000000
 100
AcDbArc
  50
 270.00000000000
  51
0.0
   0
ARC
   5
2EF
 100
AcDbEntity
   8
LEVEL001
 370
20
   6
CONTINUOUS
  62
7
 100
AcDbCircle
  10
 581.41747092924
  20
 806.65120790638
  30
0.0
  40
 24.000000000000
 100
AcDbArc
  50
 270.00000000000
  51
0.0
   0
LINE
   5
2F0
 100
AcDbEntity
   8
LEVEL001
 370
20
 100
AcDbLine
   6
CONTINUOUS
  62
7
  10
 589.41747092924
  20
 806.65120790638
  30
0.0
  11
 589.41747092924
  21
 835.65120790638
  31
0.0
   0
LINE
   5
2F1
 100
AcDbEntity
   8
LEVEL001
 370
20
 100
AcDbLine
   6
CONTINUOUS
  62
7
  10
 589.41747092924
  20
 835.65120790638
  30
0.0
  11
 605.41747092924
  21
 835.65120790638
  31
0.0
   0
LINE
   5
2F2
 100
AcDbEntity
   8
LEVEL001
 370
20
 100
AcDbLine
   6
CONTINUOUS
  62
7
  10
 605.41747092924
  20
 835.65120790638
  30
0.0
  11
 605.41747092924
  21
 806.65120790638
  31
0.0
   0
LINE
   5
2F3
 100
AcDbEntity
   8
LEVEL001
 370
20
 100
AcDbLine
   6
CONTINUOUS
  62
7
  10
 590.91747092924
  20
 835.65120790638
  30
0.0
  11
 603.91747092924
  21
 835.65120790638
  31
0.0
   0
LINE
   5
2F4
 100
AcDbEntity
   8
LEVEL001
 370
20
 100
AcDbLine
   6
CONTINUOUS
  62
7
  10
 525.91747092924
  20
 818.15120790638
  30
0.0
  11
 525.91747092924
  21
 763.15120790638
  31
0.0
   0
LINE
   5
2F5
 100
AcDbEntity
   8
LEVEL001
 370
20
 100
AcDbLine
   6
CONTINUOUS
  62
7
  10
 525.91747092924
  20
 763.15120790638
  30
0.0
  11
 527.41747092924
  21
 764.65120790638
  31
0.0
   0
LINE
   5
2F6
 100
AcDbEntity
   8
LEVEL001
 370
20
 100
AcDbLine
   6
CONTINUOUS
  62
7
  10
 527.41747092924
  20
 764.65120790638
  30
0.0
  11
 527.41747092924
  21
 816.65120790638
  31
0.0
   0
LINE
   5
2F7
 100
AcDbEntity
   8
LEVEL001
 370
20
 100
AcDbLine
   6
CONTINUOUS
  62
7
  10
 527.41747092924
  20
 816.65120790638
  30
0.0
  11
 525.91747092924
  21
 818.15120790638
  31
0.0
   0
LINE
   5
2F8
 100
AcDbEntity
   8
LEVEL001
 370
20
 100
AcDbLine
   6
CONTINUOUS
  62
7
  10
 527.41747092924
  20
 798.65120790638
  30
0.0
  11
 581.41747092924
  21
 798.65120790638
  31
0.0
   0
LINE
   5
2F9
 100
AcDbEntity
   8
LEVEL001
 370
20
 100
AcDbLine
   6
CONTINUOUS
  62
7
  10
 581.41747092924
  20
 782.65120790638
  30
0.0
  11
 527.41747092924
  21
 782.65120790638
  31
0.0
   0
LINE
   5
2FA
 100
AcDbEntity
   8
LEVEL001
 370
20
 100
AcDbLine
   6
CONTINUOUS
  62
7
  10
 523.91747092924
  20
 818.15120790638
  30
0.0
  11
 523.91747092924
  21
 763.15120790638
  31
0.0
   0
LINE
   5
2FB
 100
AcDbEntity
   8
LEVEL001
 370
20
 100
AcDbLine
   6
CONTINUOUS
  62
7
  10
 523.91747092924
  20
 763.15120790638
  30
0.0
  11
 525.91747092924
  21
 763.15120790638
  31
0.0
   0
LINE
   5
2FC
 100
AcDbEntity
   8
LEVEL001
 370
20
 100
AcDbLine
   6
CONTINUOUS
  62
7
  10
 525.91747092924
  20
 818.15120790638
  30
0.0
  11
 523.91747092924
  21
 818.15120790638
  31
0.0
   0
LINE
   5
2FD
 100
AcDbEntity
   8
LEVEL001
 370
15
 100
AcDbLine
   6
HIDDEN
  62
2
  10
 527.11747092924
  20
 795.80120790637
  30
0.0
  11
 525.41747092924
  21
 797.50120790637
  31
0.0
   0
LINE
   5
2FE
 100
AcDbEntity
   8
LEVEL001
 370
15
 100
AcDbLine
   6
HIDDEN
  62
2
  10
 525.41747092924
  20
 797.50120790637
  30
0.0
  11
 525.41747092924
  21
 802.30120790637
  31
0.0
   0
LINE
   5
2FF
 100
AcDbEntity
   8
LEVEL001
 370
15
 100
AcDbLine
   6
HIDDEN
  62
2
  10
 525.41747092924
  20
 802.30120790637
  30
0.0
  11
 527.11747092924
  21
 804.00120790637
  31
0.0
   0
LINE
   5
300
 100
AcDbEntity
   8
LEVEL001
 370
15
 100
AcDbLine
   6
HIDDEN
  62
2
  10
 527.41747092924
  20
 795.80120790637
  30
0.0
  11
 527.11747092924
  21
 795.80120790637
  31
0.0
   0
LINE
   5
301
 100
AcDbEntity
   8
LEVEL001
 370
15
 100
AcDbLine
   6
HIDDEN
  62
2
  10
 527.11747092924
  20
 795.80120790637
  30
0.0
  11
 527.11747092924
  21
 804.00120790637
  31
0.0
   0
LINE
   5
302
 100
AcDbEntity
   8
LEVEL001
 370
15
 100
AcDbLine
   6
HIDDEN
  62
2
  10
 527.11747092924
  20
 804.00120790637
  30
0.0
  11
 527.41747092924
  21
 804.00120790637
  31
0.0
   0
LINE
   5
303
 100
AcDbEntity
   8
LEVEL001
 370
15
 100
AcDbLine
   6
HIDDEN
  62
2
  10
 527.11747092924
  20
 768.05120790637
  30
0.0
  11
 525.41747092924
  21
 769.75120790637
  31
0.0
   0
LINE
   5
304
 100
AcDbEntity
   8
LEVEL001
 370
15
 100
AcDbLine
   6
HIDDEN
  62
2
  10
 525.41747092924
  20
 769.75120790637
  30
0.0
  11
 525.41747092924
  21
 774.55120790637
  31
0.0
   0
LINE
   5
305
 100
AcDbEntity
   8
LEVEL001
 370
15
 100
AcDbLine
   6
HIDDEN
  62
2
  10
 525.41747092924
  20
 774.55120790637
  30
0.0
  11
 527.11747092924
  21
 776.25120790637
  31
0.0
   0
LINE
   5
306
 100
AcDbEntity
   8
LEVEL001
 370
15
 100
AcDbLine
   6
HIDDEN
  62
2
  10
 527.41747092924
  20
 768.05120790637
  30
0.0
  11
 527.11747092924
  21
 768.05120790637
  31
0.0
   0
LINE
   5
307
 100
AcDbEntity
   8
LEVEL001
 370
15
 100
AcDbLine
   6
HIDDEN
  62
2
  10
 527.11747092924
  20
 768.05120790637
  30
0.0
  11
 527.11747092924
  21
 776.25120790637
  31
0.0
   0
LINE
   5
308
 100
AcDbEntity
   8
LEVEL001
 370
15
 100
AcDbLine
   6
HIDDEN
  62
2
  10
 527.11747092924
  20
 776.25120790637
  30
0.0
  11
 527.41747092924
  21
 776.25120790637
  31
0.0
   0
LINE
   5
309
 100
AcDbEntity
   8
LEVEL001
 370
15
 100
AcDbLine
   6
HIDDEN
  62
2
  10
 525.41747092924
  20
 802.30120790637
  30
0.0
  11
 523.91747092924
  21
 802.30120790637
  31
0.0
   0
LINE
   5
30A
 100
AcDbEntity
   8
LEVEL001
 370
15
 100
AcDbLine
   6
HIDDEN
  62
2
  10
 525.41747092924
  20
 797.50120790637
  30
0.0
  11
 523.91747092924
  21
 797.50120790637
  31
0.0
   0
LINE
   5
30B
 100
AcDbEntity
   8
LEVEL001
 370
15
 100
AcDbLine
   6
HIDDEN
  62
2
  10
 525.41747092924
  20
 769.75120790637
  30
0.0
  11
 523.91747092924
  21
 769.75120790637
  31
0.0
   0
LINE
   5
30C
 100
AcDbEntity
   8
LEVEL001
 370
15
 100
AcDbLine
   6
HIDDEN
  62
2
  10
 525.41747092924
  20
 774.55120790637
  30
0.0
  11
 523.91747092924
  21
 774.55120790637
  31
0.0
   0
ARC
   5
30D
 100
AcDbEntity
   8
LEVEL001
 370
15
   6
DASHDOT
  62
8
 100
AcDbCircle
  10
 581.41747092923
  20
 806.65120790638
  30
0.0
  40
 16.000000000000
 100
AcDbArc
  50
 270.00000000000
  51
0.0
   0
LINE
   5
30E
 100
AcDbEntity
   8
LEVEL001
 370
15
 100
AcDbLine
   6
DASHDOT
  62
8
  10
 521.62117124869
  20
 772.15120790637
  30
0.0
  11
 529.71377060978
  21
 772.15120790637
  31
0.0
   0
LINE
   5
30F
 100
AcDbEntity
   8
LEVEL001
 370
15
 100
AcDbLine
   6
DASHDOT
  62
8
  10
 581.41747092924
  20
 790.65120790638
  30
0.0
  11
 517.18435647854
  21
 790.65120790638
  31
0.0
   0
LINE
   5
310
 100
AcDbEntity
   8
LEVEL001
 370
15
 100
AcDbLine
   6
DASHDOT
  62
8
  10
 521.62117124869
  20
 799.90120790637
  30
0.0
  11
 529.71377060978
  21
 799.90120790637
  31
0.0
   0
DIMENSION
   5
311
 100
AcDbEntity
   8
0
 370
15
   6
CONTINUOUS
  62
8
 100
AcDbDimension
   2
*D7
  10
 634.06151075280
  20
 835.65120790638
  30
0.0
  11
 634.06151075280
  21
 813.15120790638
  31
0.0
  70
0
   3
GMM001
 100
AcDbAlignedDimension
  13
 581.41747092923
  23
 790.65120790638
  33
0.0
  14
 605.41747092924
  24
 835.65120790638
  34
0.0
  50
 90.000000000000
 100
AcDbRotatedDimension
   0
DIMENSION
   5
312
 100
AcDbEntity
   8
0
 370
15
   6
CONTINUOUS
  62
8
 100
AcDbDimension
   2
*D8
  10
 527.41747092924
  20
 733.15120790638
  30
0.0
  11
 501.51847932393
  21
 733.15120790638
  31
0.0
  70
128
   3
GMM005
 100
AcDbAlignedDimension
  13
 523.91747092924
  23
 763.15120790638
  33
0.0
  14
 527.41747092924
  24
 764.65120790638
  34
0.0
 100
AcDbRotatedDimension
   0
DIMENSION
   5
313
 100
AcDbEntity
   8
0
 370
15
   6
CONTINUOUS
  62
8
 100
AcDbDimension
   2
*D9
  10
 597.41747092923
  20
 733.15120790638
  30
0.0
  11
 562.41747092924
  21
 733.15120790638
  31
0.0
  70
0
   1
\A1;L
   3
GMM004
 100
AcDbAlignedDimension
  13
 527.41747092924
  23
 764.65120790638
  33
0.0
  14
 597.41747092923
  24
 806.65120790638
  34
0.0
 100
AcDbRotatedDimension
   0
LINE
   5
314
 100
AcDbEntity
   8
LEVEL004
 370
20
 100
AcDbLine
   6
CONTINUOUS
  62
7
  10
 589.97531230905
  20
 835.65120790638
  30
0.0
  11
 604.85962954944
  21
 835.65120790638
  31
0.0
   0
LINE
   5
315
 100
AcDbEntity
   8
LEVEL001
 370
20
 100
AcDbLine
   6
CONTINUOUS
  62
7
  10
 688.86807577659
  20
 790.65120790638
  30
0.0
  11
 688.86807577659
  21
 835.65120790638
  31
0.0
   0
LINE
   5
316
 100
AcDbEntity
   8
LEVEL001
 370
20
 100
AcDbLine
   6
CONTINUOUS
  62
7
  10
 688.86807577659
  20
 835.65120790638
  30
0.0
  11
 704.86807577659
  21
 835.65120790638
  31
0.0
   0
LINE
   5
317
 100
AcDbEntity
   8
LEVEL001
 370
20
 100
AcDbLine
   6
CONTINUOUS
  62
7
  10
 704.86807577659
  20
 835.65120790638
  30
0.0
  11
 704.86807577659
  21
 790.65120790638
  31
0.0
   0
ARC
   5
318
 100
AcDbEntity
   8
LEVEL001
 370
20
   6
CONTINUOUS
  62
7
 100
AcDbCircle
  10
 696.86807577659
  20
 790.65120790638
  30
0.0
  40
 8.0000000000000
 100
AcDbArc
  50
 180.00000000000
  51
0.0
   0
ARC
   5
319
 100
AcDbEntity
   8
LEVEL001
 370
20
   6
CONTINUOUS
  62
7
 100
AcDbCircle
  10
 696.86807577659
  20
 790.65120790638
  30
0.0
  40
 27.500000000000
 100
AcDbArc
  50
 106.91238980342
  51
 73.087610196568
   0
ARC
   5
31A
 100
AcDbEntity
   8
LEVEL001
 370
20
   6
CONTINUOUS
  62
7
 100
AcDbCircle
  10
 696.86807577659
  20
 790.65120790638
  30
0.0
  40
 26.000000000000
 100
AcDbArc
  50
 107.92021313939
  51
 72.079786860595
   0
CIRCLE
   5
31B
 100
AcDbEntity
   8
LEVEL001
 370
20
 100
AcDbCircle
   6
CONTINUOUS
  62
7
  10
 712.88954574651
  20
 799.90120790639
  30
0.0
  40
 4.1000000000000
   0
CIRCLE
   5
31C
 100
AcDbEntity
   8
LEVEL001
 370
20
 100
AcDbCircle
   6
CONTINUOUS
  62
7
  10
 712.88954574651
  20
 799.90120790639
  30
0.0
  40
 2.4000000000000
   0
CIRCLE
   5
31D
 100
AcDbEntity
   8
LEVEL001
 370
20
 100
AcDbCircle
   6
CONTINUOUS
  62
7
  10
 696.86807577650
  20
 772.15120790639
  30
0.0
  40
 4.1000000000000
   0
CIRCLE
   5
31E
 100
AcDbEntity
   8
LEVEL001
 370
20
 100
AcDbCircle
   6
CONTINUOUS
  62
7
  10
 696.86807577650
  20
 772.15120790639
  30
0.0
  40
 2.4000000000000
   0
CIRCLE
   5
31F
 100
AcDbEntity
   8
LEVEL001
 370
20
 100
AcDbCircle
   6
CONTINUOUS
  62
7
  10
 680.84660580649
  20
 799.90120790639
  30
0.0
  40
 4.1000000000000
   0
CIRCLE
   5
320
 100
AcDbEntity
   8
LEVEL001
 370
20
 100
AcDbCircle
   6
CONTINUOUS
  62
7
  10
 680.84660580649
  20
 799.90120790639
  30
0.0
  40
 2.4000000000000
   0
LINE
   5
321
 100
AcDbEntity
   8
LEVEL001
 370
15
 100
AcDbLine
   6
DASHDOT
  62
8
  10
 674.44652811814
  20
 799.90120790639
  30
0.0
  11
 687.24668349484
  21
 799.90120790639
  31
0.0
   0
LINE
   5
322
 100
AcDbEntity
   8
LEVEL001
 370
15
 100
AcDbLine
   6
DASHDOT
  62
8
  10
 680.84660580649
  20
 806.40310848328
  30
0.0
  11
 680.84660580649
  21
 793.39930732949
  31
0.0
   0
LINE
   5
323
 100
AcDbEntity
   8
LEVEL001
 370
15
 100
AcDbLine
   6
DASHDOT
  62
8
  10
 729.23463300194
  20
 790.65120790638
  30
0.0
  11
 664.50151855124
  21
 790.65120790638
  31
0.0
   0
LINE
   5
324
 100
AcDbEntity
   8
LEVEL001
 370
15
 100
AcDbLine
   6
DASHDOT
  62
8
  10
 706.48946805816
  20
 799.90120790639
  30
0.0
  11
 719.28962343486
  21
 799.90120790639
  31
0.0
   0
LINE
   5
325
 100
AcDbEntity
   8
LEVEL001
 370
15
 100
AcDbLine
   6
DASHDOT
  62
8
  10
 712.88954574651
  20
 806.40310848328
  30
0.0
  11
 712.88954574651
  21
 793.39930732949
  31
0.0
   0
LINE
   5
326
 100
AcDbEntity
   8
LEVEL001
 370
15
 100
AcDbLine
   6
DASHDOT
  62
8
  10
 690.46799808815
  20
 772.15120790639
  30
0.0
  11
 703.26815346485
  21
 772.15120790639
  31
0.0
   0
LINE
   5
327
 100
AcDbEntity
   8
LEVEL001
 370
15
 100
AcDbLine
   6
DASHDOT
  62
8
  10
 696.86807577659
  20
 755.97173337093
  30
0.0
  11
 696.86807577659
  21
 856.41580146884
  31
0.0
   0
DIMENSION
   5
328
 100
AcDbEntity
   8
0
 370
15
   6
CONTINUOUS
  62
8
 100
AcDbDimension
   2
*D10
  10
 704.86807577659
  20
 733.15120790638
  30
0.0
  11
 749.11619607724
  21
 733.15120790638
  31
0.0
  70
128
  53
0.0
   3
GMM006
 100
AcDbAlignedDimension
  13
 688.86807577659
  23
 790.65120790638
  33
0.0
  14
 704.86807577659
  24
 790.65120790638
  34
0.0
 100
AcDbRotatedDimension
   0
DIMENSION
   5
329
 100
AcDbEntity
   8
0
 370
15
   6
CONTINUOUS
  62
8
 100
AcDbDimension
   2
*D11
  10
 724.36807577659
  20
 703.15120790638
  30
0.0
  11
 696.86807577659
  21
 703.15120790638
  31
0.0
  70
0
   3
GMM001
 100
AcDbAlignedDimension
  13
 669.36807577659
  23
 790.65120790638
  33
0.0
  14
 724.36807577659
  24
 790.65120790638
  34
0.0
 100
AcDbRotatedDimension
   0
LINE
   5
32A
 100
AcDbEntity
   8
LEVEL004
 370
20
 100
AcDbLine
   6
CONTINUOUS
  62
7
  10
 689.57627970909
  20
 835.65120790638
  30
0.0
  11
 704.15987184409
  21
 835.65120790638
  31
0.0
   0
DIMENSION
   5
32B
 100
AcDbEntity
   8
0
 370
15
   6
CONTINUOUS
  62
8
 100
AcDbDimension
   2
*D12
  10
 509.75363742484
  20
 763.15120790638
  30
0.0
  11
 509.75363742484
  21
 790.65120790638
  31
0.0
  70
0
   3
GMM001
 100
AcDbAlignedDimension
  13
 523.91747092924
  23
 818.15120790638
  33
0.0
  14
 523.91747092924
  24
 763.15120790638
  34
0.0
  50
 270.00000000000
 100
AcDbRotatedDimension
   0
ELLIPSE
   5
32C
 100
AcDbEntity
   8
LEVEL004
 370
20
   6
CONTINUOUS
  62
1
 100
AcDbEllipse
  10
 597.41747092924
  20
 838.62120790638
  30
0.0
  11
 3.1000000000000
  21
0.0
  31
0.0
  40
 0.25784140611193
  41
 0.35236570605779E-15
  42
-3.1415926535898
   0
ARC
   5
32D
 100
AcDbEntity
   8
LEVEL004
 370
20
   6
CONTINUOUS
  62
1
 100
AcDbCircle
  10
 597.41747092924
  20
 843.95120790638
  30
0.0
  40
 8.0000000000000
 100
AcDbArc
  50
 247.20096872811
  51
 292.79903127189
   0
LINE
   5
32E
 100
AcDbEntity
   8
LEVEL004
 370
20
 100
AcDbLine
   6
CONTINUOUS
  62
1
  10
 584.91747092924
  20
 843.95120790638
  30
0.0
  11
 586.01571667825
  21
 843.95120790638
  31
0.0
   0
LINE
   5
32F
 100
AcDbEntity
   8
LEVEL004
 370
20
 100
AcDbLine
   6
CONTINUOUS
  62
1
  10
 584.91747092924
  20
 845.95120790638
  30
0.0
  11
 586.01571667825
  21
 845.95120790638
  31
0.0
   0
LINE
   5
330
 100
AcDbEntity
   8
LEVEL004
 370
20
 100
AcDbLine
   6
CONTINUOUS
  62
1
  10
 609.91747092924
  20
 843.95120790638
  30
0.0
  11
 609.91747092924
  21
 845.95120790638
  31
0.0
   0
LINE
   5
331
 100
AcDbEntity
   8
LEVEL004
 370
20
 100
AcDbLine
   6
CONTINUOUS
  62
1
  10
 584.91747092924
  20
 843.95120790638
  30
0.0
  11
 584.91747092924
  21
 845.95120790638
  31
0.0
   0
ARC
   5
332
 100
AcDbEntity
   8
LEVEL007
 370
20
   6
HIDDEN
  62
1
 100
AcDbCircle
  10
 597.41747092924
  20
 843.95120790638
  30
0.0
  40
 8.0000000000000
 100
AcDbArc
  50
 187.49471745392
  51
 247.20096872810
   0
LINE
   5
333
 100
AcDbEntity
   8
LEVEL004
 370
20
 100
AcDbLine
   6
CONTINUOUS
  62
1
  10
 608.81922518024
  20
 843.95120790638
  30
0.0
  11
 609.91747092924
  21
 843.95120790638
  31
0.0
   0
ARC
   5
334
 100
AcDbEntity
   8
LEVEL004
 370
20
   6
CONTINUOUS
  62
1
 100
AcDbCircle
  10
 608.81922518024
  20
 842.45120790638
  30
0.0
  40
 1.5000000000000
 100
AcDbArc
  50
 89.999999999996
  51
 172.50528254607
   0
ARC
   5
335
 100
AcDbEntity
   8
LEVEL004
 370
20
   6
CONTINUOUS
  62
1
 100
AcDbCircle
  10
 586.01571667825
  20
 842.45120790638
  30
0.0
  40
 1.5000000000000
 100
AcDbArc
  50
 7.4947174539293
  51
 90.000000000004
   0
CIRCLE
   5
336
 100
AcDbEntity
   8
LEVEL006
 370
20
 100
AcDbCircle
   6
CONTINUOUS
  62
1
  10
 587.42021749601
  20
 843.95120790638
  30
0.0
  40
 0.10000000000000
   0
CIRCLE
   5
337
 100
AcDbEntity
   8
LEVEL006
 370
20
 100
AcDbCircle
   6
CONTINUOUS
  62
1
  10
 607.41747092924
  20
 843.95120790638
  30
0.0
  40
 0.10000000000000
   0
CIRCLE
   5
338
 100
AcDbEntity
   8
LEVEL006
 370
20
 100
AcDbCircle
   6
CONTINUOUS
  62
1
  10
 597.41747092924
  20
 833.95120790638
  30
0.0
  40
 0.10000000000000
   0
ARC
   5
339
 100
AcDbEntity
   8
LEVEL007
 370
20
   6
HIDDEN
  62
1
 100
AcDbCircle
  10
 597.41747092924
  20
 843.95120790638
  30
0.0
  40
 8.0000000000000
 100
AcDbArc
  50
 292.79903127190
  51
 352.50528254608
   0
LINE
   5
33A
 100
AcDbEntity
   8
LEVEL004
 370
20
 100
AcDbLine
   6
CONTINUOUS
  62
1
  10
 584.91747092924
  20
 843.95120790638
  30
0.0
  11
 609.91747092924
  21
 843.95120790638
  31
0.0
   0
LINE
   5
33B
 100
AcDbEntity
   8
LEVEL007
 370
20
 100
AcDbLine
   6
HIDDEN
  62
1
  10
 599.91747092924
  20
 845.65120790638
  30
0.0
  11
 599.91747092924
  21
 845.95120790638
  31
0.0
   0
LINE
   5
33C
 100
AcDbEntity
   8
LEVEL007
 370
20
 100
AcDbLine
   6
HIDDEN
  62
1
  10
 594.91747092924
  20
 845.65120790638
  30
0.0
  11
 594.91747092924
  21
 845.95120790638
  31
0.0
   0
LINE
   5
33D
 100
AcDbEntity
   8
LEVEL007
 370
20
 100
AcDbLine
   6
HIDDEN
  62
1
  10
 594.91747092924
  20
 845.65120790638
  30
0.0
  11
 599.91747092924
  21
 845.65120790638
  31
0.0
   0
LINE
   5
33E
 100
AcDbEntity
   8
LEVEL007
 370
20
 100
AcDbLine
   6
HIDDEN
  62
1
  10
 601.71747092924
  20
 843.95120790638
  30
0.0
  11
 599.91747092924
  21
 845.65120790638
  31
0.0
   0
LINE
   5
33F
 100
AcDbEntity
   8
LEVEL007
 370
20
 100
AcDbLine
   6
HIDDEN
  62
1
  10
 594.91747092924
  20
 845.65120790638
  30
0.0
  11
 593.11747092924
  21
 843.95120790638
  31
0.0
   0
LINE
   5
340
 100
AcDbEntity
   8
LEVEL004
 370
20
 100
AcDbLine
   6
CONTINUOUS
  62
1
  10
 586.01571667825
  20
 845.95120790638
  30
0.0
  11
 609.91747092924
  21
 845.95120790638
  31
0.0
   0
ARC
   5
341
 100
AcDbEntity
   8
LEVEL007
 370
20
   6
HIDDEN
  62
1
 100
AcDbCircle
  10
 586.01571667825
  20
 842.45120790638
  30
0.0
  40
 3.5000000000000
 100
AcDbArc
  50
 7.4947174539257
  51
 90.000000000015
   0
ARC
   5
342
 100
AcDbEntity
   8
LEVEL007
 370
20
   6
HIDDEN
  62
1
 100
AcDbCircle
  10
 608.81922518023
  20
 842.45120790638
  30
0.0
  40
 3.5000000000000
 100
AcDbArc
  50
 89.999999999985
  51
 172.50528254607
   0
LINE
   5
343
 100
AcDbEntity
   8
LEVEL006
 370
15
 100
AcDbLine
   6
DASHDOT
  62
8
  10
 694.34338236675
  20
 837.85605883551
  30
0.0
  11
 692.15769724518
  21
 832.57934817195
  31
0.0
   0
LINE
   5
344
 100
AcDbEntity
   8
LEVEL005
 370
15
 100
AcDbLine
   6
DASHDOT
  62
8
  10
 726.86807577659
  20
 847.37878336750
  30
0.0
  11
 726.86807577659
  21
 842.28799774513
  31
0.0
   0
LINE
   5
345
 100
AcDbEntity
   8
LEVEL005
 370
15
 100
AcDbLine
   6
DASHDOT
  62
8
  10
 666.86807577659
  20
 847.37878336750
  30
0.0
  11
 666.86807577659
  21
 842.28799774513
  31
0.0
   0
LINE
   5
346
 100
AcDbEntity
   8
LEVEL004
 370
20
 100
AcDbLine
   6
CONTINUOUS
  62
1
  10
 736.86807577659
  20
 845.95120790638
  30
0.0
  11
 736.86807577659
  21
 843.95120790638
  31
0.0
   0
LINE
   5
347
 100
AcDbEntity
   8
LEVEL004
 370
20
 100
AcDbLine
   6
CONTINUOUS
  62
1
  10
 656.86807577659
  20
 845.95120790638
  30
0.0
  11
 656.86807577659
  21
 843.95120790638
  31
0.0
   0
LINE
   5
348
 100
AcDbEntity
   8
LEVEL004
 370
20
 100
AcDbLine
   6
CONTINUOUS
  62
1
  10
 656.86807577659
  20
 843.95120790638
  30
0.0
  11
 685.46632152560
  21
 843.95120790638
  31
0.0
   0
LINE
   5
349
 100
AcDbEntity
   8
LEVEL004
 370
20
 100
AcDbLine
   6
CONTINUOUS
  62
1
  10
 708.26983002758
  20
 843.95120790638
  30
0.0
  11
 736.86807577659
  21
 843.95120790638
  31
0.0
   0
LINE
   5
34A
 100
AcDbEntity
   8
LEVEL004
 370
20
 100
AcDbLine
   6
CONTINUOUS
  62
1
  10
 656.86807577659
  20
 845.95120790638
  30
0.0
  11
 685.46632152560
  21
 845.95120790638
  31
0.0
   0
LINE
   5
34B
 100
AcDbEntity
   8
LEVEL004
 370
20
 100
AcDbLine
   6
CONTINUOUS
  62
1
  10
 707.82252692669
  20
 845.95120790638
  30
0.0
  11
 736.86807577659
  21
 845.95120790638
  31
0.0
   0
LINE
   5
34C
 100
AcDbEntity
   8
LEVEL004
 370
20
 100
AcDbLine
   6
CONTINUOUS
  62
1
  10
 707.82252692669
  20
 845.95120790638
  30
0.0
  11
 708.26983002758
  21
 845.95120790638
  31
0.0
   0
ARC
   5
34D
 100
AcDbEntity
   8
LEVEL004
 370
20
   6
CONTINUOUS
  62
1
 100
AcDbCircle
  10
 708.26983002758
  20
 842.45120790638
  30
0.0
  40
 1.5000000000000
 100
AcDbArc
  50
 89.999999999996
  51
 172.50528254607
   0
ARC
   5
34E
 100
AcDbEntity
   8
LEVEL004
 370
20
   6
CONTINUOUS
  62
1
 100
AcDbCircle
  10
 685.46632152560
  20
 842.45120790638
  30
0.0
  40
 1.5000000000000
 100
AcDbArc
  50
 7.4947174539293
  51
 90.000000000004
   0
LINE
   5
34F
 100
AcDbEntity
   8
LEVEL004
 370
20
 100
AcDbLine
   6
CONTINUOUS
  62
1
  10
 708.26983002758
  20
 845.95120790638
  30
0.0
  11
 685.91362462648
  21
 845.95120790638
  31
0.0
   0
ARC
   5
350
 100
AcDbEntity
   8
LEVEL004
 370
20
   6
HIDDEN
  62
1
 100
AcDbCircle
  10
 696.86807577659
  20
 843.95120790638
  30
0.0
  40
 8.0000000000000
 100
AcDbArc
  50
 187.49471745390
  51
 352.50528254610
   0
ARC
   5
351
 100
AcDbEntity
   8
LEVEL004
 370
20
   6
HIDDEN
  62
1
 100
AcDbCircle
  10
 708.26983002758
  20
 842.45120790638
  30
0.0
  40
 3.5000000000000
 100
AcDbArc
  50
 90.000000000015
  51
 172.50528254607
   0
LINE
   5
352
 100
AcDbEntity
   8
LEVEL004
 370
20
 100
AcDbLine
   6
HIDDEN
  62
1
  10
 701.09198348142
  20
 837.15719556455
  30
0.0
  11
 699.96807577659
  21
 834.44384234068
  31
0.0
   0
LINE
   5
353
 100
AcDbEntity
   8
LEVEL004
 370
20
 100
AcDbLine
   6
HIDDEN
  62
1
  10
 689.07722979701
  20
 842.13386948920
  30
0.0
  11
 687.95332209218
  21
 839.42051626533
  31
0.0
   0
ARC
   5
354
 100
AcDbEntity
   8
LEVEL004
 370
20
   6
HIDDEN
  62
1
 100
AcDbCircle
  10
 685.46632152560
  20
 842.45120790638
  30
0.0
  40
 3.5000000000000
 100
AcDbArc
  50
 7.4947174539257
  51
 89.999999999985
   0
LINE
   5
355
 100
AcDbEntity
   8
LEVEL004
 370
20
 100
AcDbLine
   6
HIDDEN
  62
1
  10
 724.26807577659
  20
 845.65120790638
  30
0.0
  11
 729.46807577659
  21
 845.65120790638
  31
0.0
   0
LINE
   5
356
 100
AcDbEntity
   8
LEVEL004
 370
20
 100
AcDbLine
   6
HIDDEN
  62
1
  10
 724.26807577659
  20
 845.65120790638
  30
0.0
  11
 722.56807577659
  21
 843.95120790638
  31
0.0
   0
LINE
   5
357
 100
AcDbEntity
   8
LEVEL004
 370
20
 100
AcDbLine
   6
HIDDEN
  62
1
  10
 724.26807577659
  20
 845.65120790638
  30
0.0
  11
 724.26807577659
  21
 845.95120790638
  31
0.0
   0
LINE
   5
358
 100
AcDbEntity
   8
LEVEL004
 370
20
 100
AcDbLine
   6
HIDDEN
  62
1
  10
 729.46807577659
  20
 845.65120790638
  30
0.0
  11
 731.16807577659
  21
 843.95120790638
  31
0.0
   0
LINE
   5
359
 100
AcDbEntity
   8
LEVEL004
 370
20
 100
AcDbLine
   6
HIDDEN
  62
1
  10
 729.46807577659
  20
 845.65120790638
  30
0.0
  11
 729.46807577659
  21
 845.95120790638
  31
0.0
   0
LINE
   5
35A
 100
AcDbEntity
   8
LEVEL004
 370
20
 100
AcDbLine
   6
HIDDEN
  62
1
  10
 669.46807577659
  20
 845.65120790638
  30
0.0
  11
 671.16807577659
  21
 843.95120790638
  31
0.0
   0
LINE
   5
35B
 100
AcDbEntity
   8
LEVEL004
 370
20
 100
AcDbLine
   6
HIDDEN
  62
1
  10
 669.46807577659
  20
 845.65120790638
  30
0.0
  11
 669.46807577659
  21
 845.95120790638
  31
0.0
   0
LINE
   5
35C
 100
AcDbEntity
   8
LEVEL004
 370
20
 100
AcDbLine
   6
HIDDEN
  62
1
  10
 669.46807577659
  20
 845.65120790638
  30
0.0
  11
 664.26807577659
  21
 845.65120790638
  31
0.0
   0
LINE
   5
35D
 100
AcDbEntity
   8
LEVEL004
 370
20
 100
AcDbLine
   6
HIDDEN
  62
1
  10
 664.26807577659
  20
 845.65120790638
  30
0.0
  11
 662.56807577659
  21
 843.95120790638
  31
0.0
   0
LINE
   5
35E
 100
AcDbEntity
   8
LEVEL004
 370
20
 100
AcDbLine
   6
HIDDEN
  62
1
  10
 664.26807577659
  20
 845.65120790638
  30
0.0
  11
 664.26807577659
  21
 845.95120790638
  31
0.0
   0
LINE
   5
35F
 100
AcDbEntity
   8
0
 370
15
 100
AcDbLine
   6
DASHDOT
  62
8
  10
 710.10521419733
  20
 957.10047435921
  30
0.0
  11
 683.63093735585
  21
 957.10047435921
  31
0.0
   0
LINE
   5
360
 100
AcDbEntity
   8
0
 370
15
 100
AcDbLine
   6
DASHDOT
  62
8
  10
 726.86807577659
  20
 950.34004529973
  30
0.0
  11
 726.86807577659
  21
 963.86090341869
  31
0.0
   0
LINE
   5
361
 100
AcDbEntity
   8
0
 370
15
 100
AcDbLine
   6
DASHDOT
  62
8
  10
 732.50976172137
  20
 957.10047435921
  30
0.0
  11
 721.22638983181
  21
 957.10047435921
  31
0.0
   0
LINE
   5
362
 100
AcDbEntity
   8
0
 370
15
 100
AcDbLine
   6
DASHDOT
  62
8
  10
 666.86807577659
  20
 950.34004529973
  30
0.0
  11
 666.86807577659
  21
 963.86090341869
  31
0.0
   0
LINE
   5
363
 100
AcDbEntity
   8
0
 370
15
 100
AcDbLine
   6
DASHDOT
  62
8
  10
 672.50976172137
  20
 957.10047435921
  30
0.0
  11
 661.22638983181
  21
 957.10047435921
  31
0.0
   0
LINE
   5
364
 100
AcDbEntity
   8
LEVEL004
 370
20
 100
AcDbLine
   6
CONTINUOUS
  62
1
  10
 656.86807577659
  20
 967.60047435921
  30
0.0
  11
 656.86807577659
  21
 946.60047435921
  31
0.0
   0
LINE
   5
365
 100
AcDbEntity
   8
LEVEL004
 370
20
 100
AcDbLine
   6
CONTINUOUS
  62
1
  10
 736.86807577659
  20
 967.60047435921
  30
0.0
  11
 736.86807577659
  21
 946.60047435921
  31
0.0
   0
CIRCLE
   5
366
 100
AcDbEntity
   8
LEVEL004
 370
20
 100
AcDbCircle
   6
CONTINUOUS
  62
1
  10
 696.86807577659
  20
 957.10047435921
  30
0.0
  40
 10.000000000000
   0
ARC
   5
367
 100
AcDbEntity
   8
LEVEL004
 370
20
   6
CONTINUOUS
  62
1
 100
AcDbCircle
  10
 696.86807577659
  20
 957.10047435921
  30
0.0
  40
 3.1000000000000
 100
AcDbArc
  50
 270.00000000000
  51
 90.000000000000
   0
ELLIPSE
   5
368
 100
AcDbEntity
   8
LEVEL004
 370
20
   6
CONTINUOUS
  62
1
 100
AcDbEllipse
  10
 688.90682680605
  20
 957.10047435921
  30
0.0
  11
0.0
  21
-3.1000000000000
  31
0.0
  40
 0.30758216576479
  41
 3.1415926535898
  42
-0.14455775985966E-13
   0
ELLIPSE
   5
369
 100
AcDbEntity
   8
LEVEL004
 370
20
   6
CONTINUOUS
  62
1
 100
AcDbEllipse
  10
 690.02158049046
  20
 957.10047435921
  30
0.0
  11
0.0
  21
-3.1000000000000
  31
0.0
  40
 0.30758216576479
  41
 3.1415926535898
  42
-0.14455775985966E-13
   0
CIRCLE
   5
36A
 100
AcDbEntity
   8
LEVEL004
 370
20
 100
AcDbCircle
   6
CONTINUOUS
  62
1
  10
 726.86807577659
  20
 957.10047435921
  30
0.0
  40
 2.5000000000000
   0
LINE
   5
36B
 100
AcDbEntity
   8
LEVEL004
 370
20
 100
AcDbLine
   6
CONTINUOUS
  62
1
  10
 658.86807577659
  20
 969.60047435921
  30
0.0
  11
 734.86807577659
  21
 969.60047435921
  31
0.0
   0
LINE
   5
36C
 100
AcDbEntity
   8
LEVEL004
 370
20
 100
AcDbLine
   6
CONTINUOUS
  62
1
  10
 734.86807577659
  20
 944.60047435921
  30
0.0
  11
 658.86807577659
  21
 944.60047435921
  31
0.0
   0
ARC
   5
36D
 100
AcDbEntity
   8
LEVEL004
 370
20
   6
CONTINUOUS
  62
1
 100
AcDbCircle
  10
 734.86807577659
  20
 967.60047435921
  30
0.0
  40
 2.0000000000000
 100
AcDbArc
  50
0.0
  51
 90.000000000000
   0
ARC
   5
36E
 100
AcDbEntity
   8
LEVEL004
 370
20
   6
CONTINUOUS
  62
1
 100
AcDbCircle
  10
 658.86807577659
  20
 967.60047435921
  30
0.0
  40
 2.0000000000000
 100
AcDbArc
  50
 90.000000000000
  51
 180.00000000000
   0
ARC
   5
36F
 100
AcDbEntity
   8
LEVEL004
 370
20
   6
CONTINUOUS
  62
1
 100
AcDbCircle
  10
 734.86807577659
  20
 946.60047435921
  30
0.0
  40
 2.0000000000000
 100
AcDbArc
  50
 270.00000000000
  51
0.0
   0
CIRCLE
   5
370
 100
AcDbEntity
   8
LEVEL004
 370
20
 100
AcDbCircle
   6
CONTINUOUS
  62
1
  10
 666.86807577659
  20
 957.10047435921
  30
0.0
  40
 2.5000000000000
   0
ARC
   5
371
 100
AcDbEntity
   8
LEVEL004
 370
20
   6
CONTINUOUS
  62
1
 100
AcDbCircle
  10
 658.86807577659
  20
 946.60047435921
  30
0.0
  40
 2.0000000000000
 100
AcDbArc
  50
 180.00000000000
  51
 270.00000000000
   0
CIRCLE
   5
372
 100
AcDbEntity
   8
LEVEL004
 370
20
 100
AcDbCircle
   6
HIDDEN
  62
1
  10
 726.86807577659
  20
 957.10047435921
  30
0.0
  40
 4.3000000000000
   0
CIRCLE
   5
373
 100
AcDbEntity
   8
LEVEL004
 370
20
 100
AcDbCircle
   6
HIDDEN
  62
1
  10
 666.86807577659
  20
 957.10047435921
  30
0.0
  40
 4.3000000000000
   0
DIMENSION
   5
374
 100
AcDbEntity
   8
0
 370
15
   6
CONTINUOUS
  62
8
 100
AcDbDimension
   2
*D13
  10
 726.86807577659
  20
 924.60047435921
  30
0.0
  11
 696.86807577659
  21
 924.60047435921
  31
0.0
  70
0
   3
GMM001
 100
AcDbAlignedDimension
  13
 666.86807577659
  23
 950.34004529973
  33
0.0
  14
 726.86807577659
  24
 950.34004529973
  34
0.0
 100
AcDbRotatedDimension
   0
DIMENSION
   5
375
 100
AcDbEntity
   8
0
 370
15
   6
CONTINUOUS
  62
8
 100
AcDbDimension
   2
*D14
  10
 736.86807577659
  20
 904.60047435921
  30
0.0
  11
 696.86807577659
  21
 904.60047435921
  31
0.0
  70
0
   3
GMM001
 100
AcDbAlignedDimension
  13
 656.86807577659
  23
 946.60047435921
  33
0.0
  14
 736.86807577659
  24
 946.60047435921
  34
0.0
 100
AcDbRotatedDimension
   0
LINE
   5
376
 100
AcDbEntity
   8
LEVEL001
 370
15
 100
AcDbLine
   6
DASHDOT
  62
8
  10
 597.41747092924
  20
 853.73932576746
  30
0.0
  11
 597.41747092924
  21
 806.65120790638
  31
0.0
   0
DIMENSION
   5
377
 100
AcDbEntity
   8
0
 370
15
   6
CONTINUOUS
  62
8
 100
AcDbDimension
   2
*D15
  10
 609.91747092924
  20
 860.95120790638
  30
0.0
  11
 597.41747092924
  21
 860.95120790638
  31
0.0
  70
0
   3
GMM001
 100
AcDbAlignedDimension
  13
 584.91747092924
  23
 845.95120790638
  33
0.0
  14
 609.91747092924
  24
 845.95120790638
  34
0.0
 100
AcDbRotatedDimension
   0
DIMENSION
   5
378
 100
AcDbEntity
   8
0
 370
15
   6
CONTINUOUS
  62
8
 100
AcDbDimension
   2
*D16
  10
 736.86807577659
  20
 860.95120790638
  30
0.0
  11
 696.86807577659
  21
 860.95120790638
  31
0.0
  70
0
   3
GMM001
 100
AcDbAlignedDimension
  13
 656.86807577659
  23
 845.95120790638
  33
0.0
  14
 736.86807577659
  24
 845.95120790638
  34
0.0
 100
AcDbRotatedDimension
   0
DIMENSION
   5
379
 100
AcDbEntity
   8
0
 370
15
   6
CONTINUOUS
  62
8
 100
AcDbDimension
   2
*D17
  10
 758.74539152152
  20
 845.95120790638
  30
0.0
  11
 758.74539152152
  21
 853.47793154115
  31
0.0
  70
128
   3
GMM007
 100
AcDbAlignedDimension
  13
 736.86807577659
  23
 843.95120790638
  33
0.0
  14
 736.86807577659
  24
 845.95120790638
  34
0.0
  50
 90.000000000000
 100
AcDbRotatedDimension
   0
ARC
   5
37A
 100
AcDbEntity
   8
LEVEL004
 370
20
   6
CONTINUOUS
  62
1
 100
AcDbCircle
  10
 597.41747092924
  20
 843.95120790638
  30
0.0
  40
 10.000000000000
 100
AcDbArc
  50
 187.49471745393
  51
 236.09873800313
   0
LINE
   5
37B
 100
AcDbEntity
   8
LEVEL004
 370
20
 100
AcDbLine
   6
CONTINUOUS
  62
1
  10
 594.31747092924
  20
 835.65120790638
  30
0.0
  11
 594.31747092924
  21
 838.62120790638
  31
0.0
   0
ARC
   5
37C
 100
AcDbEntity
   8
LEVEL004
 370
20
   6
CONTINUOUS
  62
1
 100
AcDbCircle
  10
 597.41747092924
  20
 843.95120790638
  30
0.0
  40
 10.000000000000
 100
AcDbArc
  50
 303.90126199687
  51
 352.50528254607
   0
LINE
   5
37D
 100
AcDbEntity
   8
LEVEL004
 370
20
 100
AcDbLine
   6
CONTINUOUS
  62
1
  10
 600.51747092924
  20
 835.65120790638
  30
0.0
  11
 600.51747092924
  21
 838.62120790638
  31
0.0
   0
ARC
   5
37E
 100
AcDbEntity
   8
LEVEL004
 370
20
   6
CONTINUOUS
  62
1
 100
AcDbCircle
  10
 696.86807577659
  20
 843.95120790638
  30
0.0
  40
 10.000000000000
 100
AcDbArc
  50
 303.90126199687
  51
 352.50528254607
   0
ARC
   5
37F
 100
AcDbEntity
   8
LEVEL004
 370
20
   6
CONTINUOUS
  62
1
 100
AcDbCircle
  10
 696.86807577659
  20
 843.95120790638
  30
0.0
  40
 10.000000000000
 100
AcDbArc
  50
 187.49471745393
  51
 236.09873800315
   0
ARC
   5
380
 100
AcDbEntity
   8
LEVEL004
 370
20
   6
HIDDEN
  62
1
 100
AcDbCircle
  10
 696.86807577659
  20
 843.95120790638
  30
0.0
  40
 10.000000000000
 100
AcDbArc
  50
 236.09873800314
  51
 303.90126199686
   0
ARC
   5
381
 100
AcDbEntity
   8
LEVEL005
 370
20
   6
HIDDEN
  62
1
 100
AcDbCircle
  10
 597.41747092924
  20
 843.95120790638
  30
0.0
  40
 10.000000000000
 100
AcDbArc
  50
 251.94076950921
  51
 288.05923049079
   0
ELLIPSE
   5
382
 100
AcDbEntity
   8
LEVEL004
 370
20
   6
HIDDEN
  62
1
 100
AcDbEllipse
  10
 597.41747092924
  20
 834.44384234067
  30
0.0
  11
 3.1000000000000
  21
0.0
  31
0.0
  40
 0.71708622744303E-1
  41
-3.1415926535898
  42
 0.15853204166083E-14
   0
ARC
   5
383
 100
AcDbEntity
   8
LEVEL004
 370
20
   6
HIDDEN
  62
1
 100
AcDbCircle
  10
 597.41747092924
  20
 843.95120790638
  30
0.0
  40
 10.000000000000
 100
AcDbArc
  50
 236.09873800313
  51
 251.94076950922
   0
LINE
   5
384
 100
AcDbEntity
   8
LEVEL004
 370
20
 100
AcDbLine
   6
HIDDEN
  62
1
  10
 594.31747092924
  20
 834.44384234067
  30
0.0
  11
 594.31747092924
  21
 835.65120790638
  31
0.0
   0
ARC
   5
385
 100
AcDbEntity
   8
LEVEL004
 370
20
   6
HIDDEN
  62
1
 100
AcDbCircle
  10
 597.41747092924
  20
 843.95120790638
  30
0.0
  40
 10.000000000000
 100
AcDbArc
  50
 288.05923049078
  51
 303.90126199687
   0
LINE
   5
386
 100
AcDbEntity
   8
LEVEL004
 370
20
 100
AcDbLine
   6
HIDDEN
  62
1
  10
 600.51747092924
  20
 834.44384234068
  30
0.0
  11
 600.51747092924
  21
 835.65120790638
  31
0.0
   0
ARC
   5
387
 100
AcDbEntity
   8
LEVEL002
 370
15
   6
CONTINUOUS
  62
5
 100
AcDbCircle
  10
 696.86807577659
  20
 957.10047435921
  30
0.0
  40
 3.1500000000000
 100
AcDbArc
  50
 352.40872336399
  51
 7.5912766360125
   0
ARC
   5
388
 100
AcDbEntity
   8
LEVEL002
 370
15
   6
CONTINUOUS
  62
5
 100
AcDbCircle
  10
 699.89134455479
  20
 956.69755266121
  30
0.0
  40
 0.10000000000000
 100
AcDbArc
  50
 272.64135881594
  51
 352.40872337645
   0
ARC
   5
389
 100
AcDbEntity
   8
LEVEL002
 370
15
   6
CONTINUOUS
  62
5
 100
AcDbCircle
  10
 700.01807577659
  20
 953.95047435921
  30
0.0
  40
 2.6500000000000
 100
AcDbArc
  50
 92.641358814901
  51
 177.35864118511
   0
CIRCLE
   5
38A
 100
AcDbEntity
   8
LEVEL002
 370
15
 100
AcDbCircle
   6
CONTINUOUS
  62
5
  10
 696.86807577659
  20
 957.10047435921
  30
0.0
  40
 5.7500000000000
   0
ARC
   5
38B
 100
AcDbEntity
   8
LEVEL002
 370
15
   6
CONTINUOUS
  62
5
 100
AcDbCircle
  10
 699.89134455480
  20
 957.50339605719
  30
0.0
  40
 0.10000000000000
 100
AcDbArc
  50
 7.5912766370308
  51
 87.358641190065
   0
ARC
   5
38C
 100
AcDbEntity
   8
LEVEL002
 370
15
   6
CONTINUOUS
  62
5
 100
AcDbCircle
  10
 700.01807577659
  20
 960.25047435921
  30
0.0
  40
 2.6500000000000
 100
AcDbArc
  50
 182.64135881489
  51
 267.35864118510
   0
ARC
   5
38D
 100
AcDbEntity
   8
LEVEL002
 370
15
   6
CONTINUOUS
  62
5
 100
AcDbCircle
  10
 696.86807577659
  20
 957.10047435921
  30
0.0
  40
 3.1500000000000
 100
AcDbArc
  50
 82.408723364006
  51
 97.591276636056
   0
ARC
   5
38E
 100
AcDbEntity
   8
LEVEL002
 370
15
   6
CONTINUOUS
  62
5
 100
AcDbCircle
  10
 697.27099747452
  20
 960.12374313743
  30
0.0
  40
 0.10000000000000
 100
AcDbArc
  50
 2.6413588101986
  51
 82.408723337018
   0
ARC
   5
38F
 100
AcDbEntity
   8
LEVEL002
 370
15
   6
CONTINUOUS
  62
5
 100
AcDbCircle
  10
 696.46515407861
  20
 960.12374313744
  30
0.0
  40
 0.10000000000000
 100
AcDbArc
  50
 97.591276639260
  51
 177.35864119971
   0
ARC
   5
390
 100
AcDbEntity
   8
LEVEL002
 370
15
   6
CONTINUOUS
  62
5
 100
AcDbCircle
  10
 693.71807577659
  20
 960.25047435921
  30
0.0
  40
 2.6500000000000
 100
AcDbArc
  50
 272.64135881490
  51
 357.35864118511
   0
ARC
   5
391
 100
AcDbEntity
   8
LEVEL002
 370
15
   6
CONTINUOUS
  62
5
 100
AcDbCircle
  10
 696.86807577659
  20
 957.10047435921
  30
0.0
  40
 3.1500000000000
 100
AcDbArc
  50
 172.40872336399
  51
 187.59127663601
   0
ARC
   5
392
 100
AcDbEntity
   8
LEVEL002
 370
15
   6
CONTINUOUS
  62
5
 100
AcDbCircle
  10
 693.84480699838
  20
 957.50339605719
  30
0.0
  40
 0.10000000000000
 100
AcDbArc
  50
 92.641358813913
  51
 172.40872336133
   0
ARC
   5
393
 100
AcDbEntity
   8
LEVEL002
 370
15
   6
CONTINUOUS
  62
5
 100
AcDbCircle
  10
 693.71807577659
  20
 953.95047435921
  30
0.0
  40
 2.6500000000000
 100
AcDbArc
  50
 2.6413588148909
  51
 87.358641185099
   0
ARC
   5
394
 100
AcDbEntity
   8
LEVEL002
 370
15
   6
CONTINUOUS
  62
5
 100
AcDbCircle
  10
 693.84480699840
  20
 956.69755266123
  30
0.0
  40
 0.10000000000000
 100
AcDbArc
  50
 187.59127663348
  51
 267.35864117083
   0
ARC
   5
395
 100
AcDbEntity
   8
LEVEL002
 370
15
   6
CONTINUOUS
  62
5
 100
AcDbCircle
  10
 696.86807577659
  20
 957.10047435921
  30
0.0
  40
 3.1500000000000
 100
AcDbArc
  50
 262.40872336394
  51
 277.59127663599
   0
ARC
   5
396
 100
AcDbEntity
   8
LEVEL002
 370
15
   6
CONTINUOUS
  62
5
 100
AcDbCircle
  10
 697.27099747457
  20
 954.07720558097
  30
0.0
  40
 0.10000000000000
 100
AcDbArc
  50
 277.59127663953
  51
 357.35864120526
   0
ARC
   5
397
 100
AcDbEntity
   8
LEVEL002
 370
15
   6
CONTINUOUS
  62
5
 100
AcDbCircle
  10
 696.86807577659
  20
 957.10047435921
  30
0.0
  40
 5.2500000000000
 100
AcDbArc
  50
 202.71545977072
  51
 157.28454022928
   0
ARC
   5
398
 100
AcDbEntity
   8
LEVEL002
 370
15
   6
CONTINUOUS
  62
5
 100
AcDbCircle
  10
 696.86807577659
  20
 957.10047435921
  30
0.0
  40
 5.2500000000000
 100
AcDbArc
  50
 157.28454022928
  51
 202.71545977072
   0
LINE
   5
399
 100
AcDbEntity
   8
LEVEL004
 370
20
 100
AcDbLine
   6
CONTINUOUS
  62
1
  10
 696.86807577659
  20
 954.00047435921
  30
0.0
  11
 692.02529764828
  21
 954.00047435921
  31
0.0
   0
LINE
   5
39A
 100
AcDbEntity
   8
LEVEL004
 370
20
 100
AcDbLine
   6
CONTINUOUS
  62
1
  10
 692.02529764828
  20
 954.00047435921
  30
0.0
  11
 688.90682680605
  21
 954.00047435921
  31
0.0
   0
LINE
   5
39B
 100
AcDbEntity
   8
LEVEL004
 370
20
 100
AcDbLine
   6
CONTINUOUS
  62
1
  10
 696.86807577659
  20
 960.20047435921
  30
0.0
  11
 692.02529764828
  21
 960.20047435921
  31
0.0
   0
LINE
   5
39C
 100
AcDbEntity
   8
LEVEL004
 370
20
 100
AcDbLine
   6
CONTINUOUS
  62
1
  10
 692.02529764828
  20
 960.20047435921
  30
0.0
  11
 688.90682680605
  21
 960.20047435921
  31
0.0
   0
ELLIPSE
   5
39D
 100
AcDbEntity
   8
LEVEL004
 370
20
   6
CONTINUOUS
  62
1
 100
AcDbEllipse
  10
 595.87114244869
  20
 282.75446174601
  30
0.0
  11
 3.1000000000000
  21
0.0
  31
0.0
  40
 0.25784140611193
  41
 0.35236570605779E-15
  42
-3.1415926535898
   0
ARC
   5
39E
 100
AcDbEntity
   8
LEVEL004
 370
20
   6
CONTINUOUS
  62
1
 100
AcDbCircle
  10
 595.87114244869
  20
 288.08446174601
  30
0.0
  40
 8.0000000000000
 100
AcDbArc
  50
 247.20096872811
  51
 292.79903127189
   0
LINE
   5
39F
 100
AcDbEntity
   8
LEVEL004
 370
20
 100
AcDbLine
   6
CONTINUOUS
  62
1
  10
 583.37114244869
  20
 288.08446174601
  30
0.0
  11
 584.46938819770
  21
 288.08446174601
  31
0.0
   0
LINE
   5
3A0
 100
AcDbEntity
   8
LEVEL004
 370
20
 100
AcDbLine
   6
CONTINUOUS
  62
1
  10
 583.37114244869
  20
 290.08446174601
  30
0.0
  11
 584.46938819770
  21
 290.08446174601
  31
0.0
   0
LINE
   5
3A1
 100
AcDbEntity
   8
LEVEL004
 370
20
 100
AcDbLine
   6
CONTINUOUS
  62
1
  10
 608.37114244869
  20
 288.08446174601
  30
0.0
  11
 608.37114244869
  21
 290.08446174601
  31
0.0
   0
LINE
   5
3A2
 100
AcDbEntity
   8
LEVEL004
 370
20
 100
AcDbLine
   6
CONTINUOUS
  62
1
  10
 583.37114244869
  20
 288.08446174601
  30
0.0
  11
 583.37114244869
  21
 290.08446174601
  31
0.0
   0
ARC
   5
3A3
 100
AcDbEntity
   8
LEVEL007
 370
20
   6
HIDDEN
  62
1
 100
AcDbCircle
  10
 595.87114244869
  20
 288.08446174601
  30
0.0
  40
 8.0000000000000
 100
AcDbArc
  50
 187.49471745392
  51
 247.20096872810
   0
LINE
   5
3A4
 100
AcDbEntity
   8
LEVEL004
 370
20
 100
AcDbLine
   6
CONTINUOUS
  62
1
  10
 607.27289669969
  20
 288.08446174601
  30
0.0
  11
 608.37114244869
  21
 288.08446174601
  31
0.0
   0
ARC
   5
3A5
 100
AcDbEntity
   8
LEVEL004
 370
20
   6
CONTINUOUS
  62
1
 100
AcDbCircle
  10
 607.27289669969
  20
 286.58446174601
  30
0.0
  40
 1.5000000000000
 100
AcDbArc
  50
 89.999999999996
  51
 172.50528254607
   0
ARC
   5
3A6
 100
AcDbEntity
   8
LEVEL004
 370
20
   6
CONTINUOUS
  62
1
 100
AcDbCircle
  10
 584.46938819770
  20
 286.58446174601
  30
0.0
  40
 1.5000000000000
 100
AcDbArc
  50
 7.4947174539293
  51
 90.000000000004
   0
CIRCLE
   5
3A7
 100
AcDbEntity
   8
LEVEL006
 370
20
 100
AcDbCircle
   6
CONTINUOUS
  62
1
  10
 585.87388901546
  20
 288.08446174601
  30
0.0
  40
 0.10000000000000
   0
CIRCLE
   5
3A8
 100
AcDbEntity
   8
LEVEL006
 370
20
 100
AcDbCircle
   6
CONTINUOUS
  62
1
  10
 605.87114244869
  20
 288.08446174601
  30
0.0
  40
 0.10000000000000
   0
CIRCLE
   5
3A9
 100
AcDbEntity
   8
LEVEL006
 370
20
 100
AcDbCircle
   6
CONTINUOUS
  62
1
  10
 595.87114244869
  20
 278.08446174601
  30
0.0
  40
 0.10000000000000
   0
ARC
   5
3AA
 100
AcDbEntity
   8
LEVEL007
 370
20
   6
HIDDEN
  62
1
 100
AcDbCircle
  10
 595.87114244869
  20
 288.08446174601
  30
0.0
  40
 8.0000000000000
 100
AcDbArc
  50
 292.79903127190
  51
 352.50528254608
   0
LINE
   5
3AB
 100
AcDbEntity
   8
LEVEL004
 370
20
 100
AcDbLine
   6
CONTINUOUS
  62
1
  10
 583.37114244869
  20
 288.08446174601
  30
0.0
  11
 608.37114244869
  21
 288.08446174601
  31
0.0
   0
LINE
   5
3AC
 100
AcDbEntity
   8
LEVEL007
 370
20
 100
AcDbLine
   6
HIDDEN
  62
1
  10
 598.37114244869
  20
 289.78446174601
  30
0.0
  11
 598.37114244869
  21
 290.08446174601
  31
0.0
   0
LINE
   5
3AD
 100
AcDbEntity
   8
LEVEL007
 370
20
 100
AcDbLine
   6
HIDDEN
  62
1
  10
 593.37114244869
  20
 289.78446174601
  30
0.0
  11
 593.37114244869
  21
 290.08446174601
  31
0.0
   0
LINE
   5
3AE
 100
AcDbEntity
   8
LEVEL007
 370
20
 100
AcDbLine
   6
HIDDEN
  62
1
  10
 593.37114244869
  20
 289.78446174601
  30
0.0
  11
 598.37114244869
  21
 289.78446174601
  31
0.0
   0
LINE
   5
3AF
 100
AcDbEntity
   8
LEVEL007
 370
20
 100
AcDbLine
   6
HIDDEN
  62
1
  10
 600.17114244869
  20
 288.08446174601
  30
0.0
  11
 598.37114244869
  21
 289.78446174601
  31
0.0
   0
LINE
   5
3B0
 100
AcDbEntity
   8
LEVEL007
 370
20
 100
AcDbLine
   6
HIDDEN
  62
1
  10
 593.37114244869
  20
 289.78446174601
  30
0.0
  11
 591.57114244869
  21
 288.08446174601
  31
0.0
   0
LINE
   5
3B1
 100
AcDbEntity
   8
LEVEL004
 370
20
 100
AcDbLine
   6
CONTINUOUS
  62
1
  10
 584.46938819770
  20
 290.08446174601
  30
0.0
  11
 608.37114244869
  21
 290.08446174601
  31
0.0
   0
ARC
   5
3B2
 100
AcDbEntity
   8
LEVEL007
 370
20
   6
HIDDEN
  62
1
 100
AcDbCircle
  10
 584.46938819770
  20
 286.58446174601
  30
0.0
  40
 3.5000000000000
 100
AcDbArc
  50
 7.4947174539257
  51
 90.000000000015
   0
ARC
   5
3B3
 100
AcDbEntity
   8
LEVEL007
 370
20
   6
HIDDEN
  62
1
 100
AcDbCircle
  10
 607.27289669968
  20
 286.58446174601
  30
0.0
  40
 3.5000000000000
 100
AcDbArc
  50
 89.999999999985
  51
 172.50528254607
   0
ARC
   5
3B4
 100
AcDbEntity
   8
LEVEL004
 370
20
   6
CONTINUOUS
  62
1
 100
AcDbCircle
  10
 595.87114244869
  20
 288.08446174601
  30
0.0
  40
 10.000000000000
 100
AcDbArc
  50
 187.49471745393
  51
 236.09873800313
   0
LINE
   5
3B5
 100
AcDbEntity
   8
LEVEL004
 370
20
 100
AcDbLine
   6
CONTINUOUS
  62
1
  10
 592.77114244869
  20
 279.78446174601
  30
0.0
  11
 592.77114244869
  21
 282.75446174601
  31
0.0
   0
ARC
   5
3B6
 100
AcDbEntity
   8
LEVEL004
 370
20
   6
CONTINUOUS
  62
1
 100
AcDbCircle
  10
 595.87114244869
  20
 288.08446174601
  30
0.0
  40
 10.000000000000
 100
AcDbArc
  50
 303.90126199687
  51
 352.50528254607
   0
LINE
   5
3B7
 100
AcDbEntity
   8
LEVEL004
 370
20
 100
AcDbLine
   6
CONTINUOUS
  62
1
  10
 598.97114244869
  20
 279.78446174601
  30
0.0
  11
 598.97114244869
  21
 282.75446174601
  31
0.0
   0
ARC
   5
3B8
 100
AcDbEntity
   8
LEVEL005
 370
20
   6
HIDDEN
  62
1
 100
AcDbCircle
  10
 595.87114244869
  20
 288.08446174601
  30
0.0
  40
 10.000000000000
 100
AcDbArc
  50
 251.94076950921
  51
 288.05923049079
   0
ELLIPSE
   5
3B9
 100
AcDbEntity
   8
LEVEL004
 370
20
   6
HIDDEN
  62
1
 100
AcDbEllipse
  10
 595.87114244869
  20
 278.57709618030
  30
0.0
  11
 3.1000000000000
  21
0.0
  31
0.0
  40
 0.71708622744303E-1
  41
-3.1415926535898
  42
 0.15853204166083E-14
   0
ARC
   5
3BA
 100
AcDbEntity
   8
LEVEL004
 370
20
   6
HIDDEN
  62
1
 100
AcDbCircle
  10
 595.87114244869
  20
 288.08446174601
  30
0.0
  40
 10.000000000000
 100
AcDbArc
  50
 236.09873800313
  51
 251.94076950922
   0
LINE
   5
3BB
 100
AcDbEntity
   8
LEVEL004
 370
20
 100
AcDbLine
   6
HIDDEN
  62
1
  10
 592.77114244869
  20
 278.57709618030
  30
0.0
  11
 592.77114244869
  21
 279.78446174601
  31
0.0
   0
ARC
   5
3BC
 100
AcDbEntity
   8
LEVEL004
 370
20
   6
HIDDEN
  62
1
 100
AcDbCircle
  10
 595.87114244869
  20
 288.08446174601
  30
0.0
  40
 10.000000000000
 100
AcDbArc
  50
 288.05923049078
  51
 303.90126199687
   0
LINE
   5
3BD
 100
AcDbEntity
   8
LEVEL004
 370
20
 100
AcDbLine
   6
HIDDEN
  62
1
  10
 598.97114244869
  20
 278.57709618030
  30
0.0
  11
 598.97114244869
  21
 279.78446174601
  31
0.0
   0
DIMENSION
   5
3BE
 100
AcDbEntity
   8
0
 370
15
   6
CONTINUOUS
  62
8
 100
AcDbDimension
   2
*D18
  10
 608.37114244869
  20
 305.08446174601
  30
0.0
  11
 595.87114244869
  21
 305.08446174601
  31
0.0
  70
0
   3
GMM001
 100
AcDbAlignedDimension
  13
 583.37114244869
  23
 290.08446174601
  33
0.0
  14
 608.37114244869
  24
 290.08446174601
  34
0.0
 100
AcDbRotatedDimension
   0
LINE
   5
3BF
 100
AcDbEntity
   8
LEVEL001
 370
15
 100
AcDbLine
   6
DASHDOT
  62
8
  10
 595.87114244869
  20
 299.46196397694
  30
0.0
  11
 595.87114244869
  21
 259.28446174601
  31
0.0
   0
LINE
   5
3C0
 100
AcDbEntity
   8
LEVEL004
 370
20
 100
AcDbLine
   6
CONTINUOUS
  62
1
  10
 735.32174729604
  20
 290.08446174601
  30
0.0
  11
 735.32174729604
  21
 288.08446174601
  31
0.0
   0
LINE
   5
3C1
 100
AcDbEntity
   8
LEVEL004
 370
20
 100
AcDbLine
   6
CONTINUOUS
  62
1
  10
 655.32174729604
  20
 290.08446174601
  30
0.0
  11
 655.32174729604
  21
 288.08446174601
  31
0.0
   0
LINE
   5
3C2
 100
AcDbEntity
   8
LEVEL004
 370
20
 100
AcDbLine
   6
CONTINUOUS
  62
1
  10
 655.32174729604
  20
 288.08446174601
  30
0.0
  11
 683.91999304505
  21
 288.08446174601
  31
0.0
   0
LINE
   5
3C3
 100
AcDbEntity
   8
LEVEL004
 370
20
 100
AcDbLine
   6
CONTINUOUS
  62
1
  10
 706.72350154703
  20
 288.08446174601
  30
0.0
  11
 735.32174729604
  21
 288.08446174601
  31
0.0
   0
LINE
   5
3C4
 100
AcDbEntity
   8
LEVEL004
 370
20
 100
AcDbLine
   6
CONTINUOUS
  62
1
  10
 655.32174729604
  20
 290.08446174601
  30
0.0
  11
 683.91999304505
  21
 290.08446174601
  31
0.0
   0
LINE
   5
3C5
 100
AcDbEntity
   8
LEVEL004
 370
20
 100
AcDbLine
   6
CONTINUOUS
  62
1
  10
 706.27619844614
  20
 290.08446174601
  30
0.0
  11
 735.32174729604
  21
 290.08446174601
  31
0.0
   0
LINE
   5
3C6
 100
AcDbEntity
   8
LEVEL004
 370
20
 100
AcDbLine
   6
CONTINUOUS
  62
1
  10
 706.27619844614
  20
 290.08446174601
  30
0.0
  11
 706.72350154703
  21
 290.08446174601
  31
0.0
   0
ARC
   5
3C7
 100
AcDbEntity
   8
LEVEL004
 370
20
   6
CONTINUOUS
  62
1
 100
AcDbCircle
  10
 706.72350154703
  20
 286.58446174601
  30
0.0
  40
 1.5000000000000
 100
AcDbArc
  50
 89.999999999996
  51
 172.50528254607
   0
ARC
   5
3C8
 100
AcDbEntity
   8
LEVEL004
 370
20
   6
CONTINUOUS
  62
1
 100
AcDbCircle
  10
 683.91999304505
  20
 286.58446174601
  30
0.0
  40
 1.5000000000000
 100
AcDbArc
  50
 7.4947174539293
  51
 90.000000000004
   0
LINE
   5
3C9
 100
AcDbEntity
   8
LEVEL004
 370
20
 100
AcDbLine
   6
CONTINUOUS
  62
1
  10
 706.72350154703
  20
 290.08446174601
  30
0.0
  11
 684.36729614593
  21
 290.08446174601
  31
0.0
   0
ARC
   5
3CA
 100
AcDbEntity
   8
LEVEL004
 370
20
   6
HIDDEN
  62
1
 100
AcDbCircle
  10
 695.32174729604
  20
 288.08446174600
  30
0.0
  40
 8.0000000000000
 100
AcDbArc
  50
 187.49471745390
  51
 352.50528254610
   0
ARC
   5
3CB
 100
AcDbEntity
   8
LEVEL004
 370
20
   6
HIDDEN
  62
1
 100
AcDbCircle
  10
 706.72350154703
  20
 286.58446174601
  30
0.0
  40
 3.5000000000000
 100
AcDbArc
  50
 90.000000000015
  51
 172.50528254607
   0
LINE
   5
3CC
 100
AcDbEntity
   8
LEVEL004
 370
20
 100
AcDbLine
   6
HIDDEN
  62
1
  10
 699.54565500087
  20
 281.29044940417
  30
0.0
  11
 698.42174729604
  21
 278.57709618030
  31
0.0
   0
LINE
   5
3CD
 100
AcDbEntity
   8
LEVEL004
 370
20
 100
AcDbLine
   6
HIDDEN
  62
1
  10
 687.53090131646
  20
 286.26712332883
  30
0.0
  11
 686.40699361163
  21
 283.55377010495
  31
0.0
   0
ARC
   5
3CE
 100
AcDbEntity
   8
LEVEL004
 370
20
   6
HIDDEN
  62
1
 100
AcDbCircle
  10
 683.91999304505
  20
 286.58446174601
  30
0.0
  40
 3.5000000000000
 100
AcDbArc
  50
 7.4947174539257
  51
 89.999999999985
   0
LINE
   5
3CF
 100
AcDbEntity
   8
LEVEL004
 370
20
 100
AcDbLine
   6
HIDDEN
  62
1
  10
 722.72174729604
  20
 289.78446174601
  30
0.0
  11
 727.92174729604
  21
 289.78446174601
  31
0.0
   0
LINE
   5
3D0
 100
AcDbEntity
   8
LEVEL004
 370
20
 100
AcDbLine
   6
HIDDEN
  62
1
  10
 722.72174729604
  20
 289.78446174601
  30
0.0
  11
 721.02174729604
  21
 288.08446174601
  31
0.0
   0
LINE
   5
3D1
 100
AcDbEntity
   8
LEVEL004
 370
20
 100
AcDbLine
   6
HIDDEN
  62
1
  10
 722.72174729604
  20
 289.78446174601
  30
0.0
  11
 722.72174729604
  21
 290.08446174601
  31
0.0
   0
LINE
   5
3D2
 100
AcDbEntity
   8
LEVEL004
 370
20
 100
AcDbLine
   6
HIDDEN
  62
1
  10
 727.92174729604
  20
 289.78446174601
  30
0.0
  11
 729.62174729604
  21
 288.08446174601
  31
0.0
   0
LINE
   5
3D3
 100
AcDbEntity
   8
LEVEL004
 370
20
 100
AcDbLine
   6
HIDDEN
  62
1
  10
 727.92174729604
  20
 289.78446174601
  30
0.0
  11
 727.92174729604
  21
 290.08446174601
  31
0.0
   0
LINE
   5
3D4
 100
AcDbEntity
   8
LEVEL004
 370
20
 100
AcDbLine
   6
HIDDEN
  62
1
  10
 667.92174729604
  20
 289.78446174601
  30
0.0
  11
 669.62174729604
  21
 288.08446174601
  31
0.0
   0
LINE
   5
3D5
 100
AcDbEntity
   8
LEVEL004
 370
20
 100
AcDbLine
   6
HIDDEN
  62
1
  10
 667.92174729604
  20
 289.78446174601
  30
0.0
  11
 667.92174729604
  21
 290.08446174601
  31
0.0
   0
LINE
   5
3D6
 100
AcDbEntity
   8
LEVEL004
 370
20
 100
AcDbLine
   6
HIDDEN
  62
1
  10
 667.92174729604
  20
 289.78446174601
  30
0.0
  11
 662.72174729604
  21
 289.78446174600
  31
0.0
   0
LINE
   5
3D7
 100
AcDbEntity
   8
LEVEL004
 370
20
 100
AcDbLine
   6
HIDDEN
  62
1
  10
 662.72174729604
  20
 289.78446174600
  30
0.0
  11
 661.02174729604
  21
 288.08446174600
  31
0.0
   0
LINE
   5
3D8
 100
AcDbEntity
   8
LEVEL004
 370
20
 100
AcDbLine
   6
HIDDEN
  62
1
  10
 662.72174729604
  20
 289.78446174600
  30
0.0
  11
 662.72174729604
  21
 290.08446174601
  31
0.0
   0
ARC
   5
3D9
 100
AcDbEntity
   8
LEVEL004
 370
20
   6
CONTINUOUS
  62
1
 100
AcDbCircle
  10
 695.32174729604
  20
 288.08446174601
  30
0.0
  40
 10.000000000000
 100
AcDbArc
  50
 303.90126199687
  51
 352.50528254607
   0
ARC
   5
3DA
 100
AcDbEntity
   8
LEVEL004
 370
20
   6
CONTINUOUS
  62
1
 100
AcDbCircle
  10
 695.32174729604
  20
 288.08446174601
  30
0.0
  40
 10.000000000000
 100
AcDbArc
  50
 187.49471745393
  51
 236.09873800315
   0
ARC
   5
3DB
 100
AcDbEntity
   8
LEVEL004
 370
20
   6
HIDDEN
  62
1
 100
AcDbCircle
  10
 695.32174729604
  20
 288.08446174601
  30
0.0
  40
 10.000000000000
 100
AcDbArc
  50
 236.09873800314
  51
 303.90126199686
   0
LINE
   5
3DC
 100
AcDbEntity
   8
LEVEL006
 370
15
 100
AcDbLine
   6
DASHDOT
  62
8
  10
 692.79705388620
  20
 281.98931267514
  30
0.0
  11
 690.61136876463
  21
 276.71260201158
  31
0.0
   0
LINE
   5
3DD
 100
AcDbEntity
   8
LEVEL005
 370
15
 100
AcDbLine
   6
DASHDOT
  62
8
  10
 665.32174729604
  20
 291.51203720712
  30
0.0
  11
 665.32174729604
  21
 286.42125158476
  31
0.0
   0
LINE
   5
3DE
 100
AcDbEntity
   8
LEVEL005
 370
15
 100
AcDbLine
   6
DASHDOT
  62
8
  10
 725.32174729604
  20
 291.51203720712
  30
0.0
  11
 725.32174729604
  21
 286.42125158476
  31
0.0
   0
DIMENSION
   5
3DF
 100
AcDbEntity
   8
0
 370
15
   6
CONTINUOUS
  62
8
 100
AcDbDimension
   2
*D19
  10
 757.19906304097
  20
 290.08446174601
  30
0.0
  11
 757.19906304097
  21
 297.61118538078
  31
0.0
  70
128
   3
GMM007
 100
AcDbAlignedDimension
  13
 735.32174729604
  23
 288.08446174601
  33
0.0
  14
 735.32174729604
  24
 290.08446174601
  34
0.0
  50
 90.000000000000
 100
AcDbRotatedDimension
   0
DIMENSION
   5
3E0
 100
AcDbEntity
   8
0
 370
15
   6
CONTINUOUS
  62
8
 100
AcDbDimension
   2
*D20
  10
 735.32174729604
  20
 305.08446174601
  30
0.0
  11
 695.32174729604
  21
 305.08446174601
  31
0.0
  70
0
   3
GMM001
 100
AcDbAlignedDimension
  13
 655.32174729604
  23
 290.08446174601
  33
0.0
  14
 735.32174729604
  24
 290.08446174601
  34
0.0
 100
AcDbRotatedDimension
   0
LINE
   5
3E1
 100
AcDbEntity
   8
LEVEL004
 370
20
 100
AcDbLine
   6
CONTINUOUS
  62
1
  10
 655.32174729604
  20
 411.73372819884
  30
0.0
  11
 655.32174729604
  21
 390.73372819884
  31
0.0
   0
LINE
   5
3E2
 100
AcDbEntity
   8
LEVEL004
 370
20
 100
AcDbLine
   6
CONTINUOUS
  62
1
  10
 735.32174729604
  20
 411.73372819884
  30
0.0
  11
 735.32174729604
  21
 390.73372819884
  31
0.0
   0
CIRCLE
   5
3E3
 100
AcDbEntity
   8
LEVEL004
 370
20
 100
AcDbCircle
   6
CONTINUOUS
  62
1
  10
 695.32174729604
  20
 401.23372819884
  30
0.0
  40
 10.000000000000
   0
ARC
   5
3E4
 100
AcDbEntity
   8
LEVEL004
 370
20
   6
CONTINUOUS
  62
1
 100
AcDbCircle
  10
 695.32174729604
  20
 401.23372819884
  30
0.0
  40
 3.1000000000000
 100
AcDbArc
  50
 270.00000000000
  51
 90.000000000000
   0
ELLIPSE
   5
3E5
 100
AcDbEntity
   8
LEVEL004
 370
20
   6
CONTINUOUS
  62
1
 100
AcDbEllipse
  10
 687.36049832550
  20
 401.23372819884
  30
0.0
  11
0.0
  21
-3.1000000000000
  31
0.0
  40
 0.30758216576479
  41
 3.1415926535898
  42
-0.14455775985966E-13
   0
ELLIPSE
   5
3E6
 100
AcDbEntity
   8
LEVEL004
 370
20
   6
CONTINUOUS
  62
1
 100
AcDbEllipse
  10
 688.47525200991
  20
 401.23372819884
  30
0.0
  11
0.0
  21
-3.1000000000000
  31
0.0
  40
 0.30758216576479
  41
 3.1415926535898
  42
-0.14455775985966E-13
   0
CIRCLE
   5
3E7
 100
AcDbEntity
   8
LEVEL004
 370
20
 100
AcDbCircle
   6
CONTINUOUS
  62
1
  10
 725.32174729604
  20
 401.23372819884
  30
0.0
  40
 2.5000000000000
   0
LINE
   5
3E8
 100
AcDbEntity
   8
LEVEL004
 370
20
 100
AcDbLine
   6
CONTINUOUS
  62
1
  10
 657.32174729604
  20
 413.73372819884
  30
0.0
  11
 733.32174729604
  21
 413.73372819884
  31
0.0
   0
LINE
   5
3E9
 100
AcDbEntity
   8
LEVEL004
 370
20
 100
AcDbLine
   6
CONTINUOUS
  62
1
  10
 733.32174729604
  20
 388.73372819884
  30
0.0
  11
 657.32174729604
  21
 388.73372819884
  31
0.0
   0
ARC
   5
3EA
 100
AcDbEntity
   8
LEVEL004
 370
20
   6
CONTINUOUS
  62
1
 100
AcDbCircle
  10
 733.32174729604
  20
 411.73372819884
  30
0.0
  40
 2.0000000000000
 100
AcDbArc
  50
0.0
  51
 90.000000000000
   0
ARC
   5
3EB
 100
AcDbEntity
   8
LEVEL004
 370
20
   6
CONTINUOUS
  62
1
 100
AcDbCircle
  10
 657.32174729604
  20
 411.73372819884
  30
0.0
  40
 2.0000000000000
 100
AcDbArc
  50
 90.000000000000
  51
 180.00000000000
   0
ARC
   5
3EC
 100
AcDbEntity
   8
LEVEL004
 370
20
   6
CONTINUOUS
  62
1
 100
AcDbCircle
  10
 733.32174729604
  20
 390.73372819884
  30
0.0
  40
 2.0000000000000
 100
AcDbArc
  50
 270.00000000000
  51
0.0
   0
CIRCLE
   5
3ED
 100
AcDbEntity
   8
LEVEL004
 370
20
 100
AcDbCircle
   6
CONTINUOUS
  62
1
  10
 665.32174729604
  20
 401.23372819884
  30
0.0
  40
 2.5000000000000
   0
ARC
   5
3EE
 100
AcDbEntity
   8
LEVEL004
 370
20
   6
CONTINUOUS
  62
1
 100
AcDbCircle
  10
 657.32174729604
  20
 390.73372819884
  30
0.0
  40
 2.0000000000000
 100
AcDbArc
  50
 180.00000000000
  51
 270.00000000000
   0
CIRCLE
   5
3EF
 100
AcDbEntity
   8
LEVEL004
 370
20
 100
AcDbCircle
   6
HIDDEN
  62
1
  10
 725.32174729604
  20
 401.23372819884
  30
0.0
  40
 4.3000000000000
   0
CIRCLE
   5
3F0
 100
AcDbEntity
   8
LEVEL004
 370
20
 100
AcDbCircle
   6
HIDDEN
  62
1
  10
 665.32174729604
  20
 401.23372819884
  30
0.0
  40
 4.3000000000000
   0
LINE
   5
3F1
 100
AcDbEntity
   8
LEVEL004
 370
20
 100
AcDbLine
   6
CONTINUOUS
  62
1
  10
 695.32174729604
  20
 398.13372819884
  30
0.0
  11
 690.47896916773
  21
 398.13372819884
  31
0.0
   0
LINE
   5
3F2
 100
AcDbEntity
   8
LEVEL004
 370
20
 100
AcDbLine
   6
CONTINUOUS
  62
1
  10
 690.47896916773
  20
 398.13372819884
  30
0.0
  11
 687.36049832550
  21
 398.13372819884
  31
0.0
   0
LINE
   5
3F3
 100
AcDbEntity
   8
LEVEL004
 370
20
 100
AcDbLine
   6
CONTINUOUS
  62
1
  10
 695.32174729604
  20
 404.33372819884
  30
0.0
  11
 690.47896916773
  21
 404.33372819884
  31
0.0
   0
LINE
   5
3F4
 100
AcDbEntity
   8
LEVEL004
 370
20
 100
AcDbLine
   6
CONTINUOUS
  62
1
  10
 690.47896916773
  20
 404.33372819884
  30
0.0
  11
 687.36049832550
  21
 404.33372819884
  31
0.0
   0
LINE
   5
3F5
 100
AcDbEntity
   8
0
 370
15
 100
AcDbLine
   6
DASHDOT
  62
8
  10
 725.32174729604
  20
 394.47329913936
  30
0.0
  11
 725.32174729604
  21
 407.99415725831
  31
0.0
   0
LINE
   5
3F6
 100
AcDbEntity
   8
0
 370
15
 100
AcDbLine
   6
DASHDOT
  62
8
  10
 730.96343324082
  20
 401.23372819884
  30
0.0
  11
 719.68006135126
  21
 401.23372819884
  31
0.0
   0
DIMENSION
   5
3F7
 100
AcDbEntity
   8
0
 370
15
   6
CONTINUOUS
  62
8
 100
AcDbDimension
   2
*D21
  10
 725.32174729604
  20
 368.73372819884
  30
0.0
  11
 695.32174729604
  21
 368.73372819884
  31
0.0
  70
0
   3
GMM001
 100
AcDbAlignedDimension
  13
 665.32174729604
  23
 394.47329913936
  33
0.0
  14
 725.32174729604
  24
 394.47329913936
  34
0.0
 100
AcDbRotatedDimension
   0
LINE
   5
3F8
 100
AcDbEntity
   8
0
 370
15
 100
AcDbLine
   6
DASHDOT
  62
8
  10
 665.32174729604
  20
 394.47329913936
  30
0.0
  11
 665.32174729604
  21
 407.99415725831
  31
0.0
   0
LINE
   5
3F9
 100
AcDbEntity
   8
0
 370
15
 100
AcDbLine
   6
DASHDOT
  62
8
  10
 670.96343324082
  20
 401.23372819884
  30
0.0
  11
 659.68006135126
  21
 401.23372819884
  31
0.0
   0
DIMENSION
   5
3FA
 100
AcDbEntity
   8
0
 370
15
   6
CONTINUOUS
  62
8
 100
AcDbDimension
   2
*D22
  10
 735.32174729604
  20
 348.73372819884
  30
0.0
  11
 695.32174729604
  21
 348.73372819884
  31
0.0
  70
0
   3
GMM001
 100
AcDbAlignedDimension
  13
 655.32174729604
  23
 390.73372819884
  33
0.0
  14
 735.32174729604
  24
 390.73372819884
  34
0.0
 100
AcDbRotatedDimension
   0
ARC
   5
3FB
 100
AcDbEntity
   8
LEVEL002
 370
15
   6
CONTINUOUS
  62
5
 100
AcDbCircle
  10
 695.32174729604
  20
 401.23372819884
  30
0.0
  40
 3.1500000000000
 100
AcDbArc
  50
 352.40872336399
  51
 7.5912766360125
   0
ARC
   5
3FC
 100
AcDbEntity
   8
LEVEL002
 370
15
   6
CONTINUOUS
  62
5
 100
AcDbCircle
  10
 698.34501607424
  20
 400.83080650083
  30
0.0
  40
 0.10000000000000
 100
AcDbArc
  50
 272.64135881594
  51
 352.40872337641
   0
ARC
   5
3FD
 100
AcDbEntity
   8
LEVEL002
 370
15
   6
CONTINUOUS
  62
5
 100
AcDbCircle
  10
 698.47174729604
  20
 398.08372819884
  30
0.0
  40
 2.6500000000000
 100
AcDbArc
  50
 92.641358814901
  51
 177.35864118511
   0
CIRCLE
   5
3FE
 100
AcDbEntity
   8
LEVEL002
 370
15
 100
AcDbCircle
   6
CONTINUOUS
  62
5
  10
 695.32174729604
  20
 401.23372819884
  30
0.0
  40
 5.7500000000000
   0
ARC
   5
3FF
 100
AcDbEntity
   8
LEVEL002
 370
15
   6
CONTINUOUS
  62
5
 100
AcDbCircle
  10
 698.34501607425
  20
 401.63664989682
  30
0.0
  40
 0.10000000000000
 100
AcDbArc
  50
 7.5912766369985
  51
 87.358641190063
   0
ARC
   5
400
 100
AcDbEntity
   8
LEVEL002
 370
15
   6
CONTINUOUS
  62
5
 100
AcDbCircle
  10
 698.47174729604
  20
 404.38372819884
  30
0.0
  40
 2.6500000000000
 100
AcDbArc
  50
 182.64135881489
  51
 267.35864118510
   0
ARC
   5
401
 100
AcDbEntity
   8
LEVEL002
 370
15
   6
CONTINUOUS
  62
5
 100
AcDbCircle
  10
 695.32174729604
  20
 401.23372819884
  30
0.0
  40
 3.1500000000000
 100
AcDbArc
  50
 82.408723364006
  51
 97.591276636056
   0
ARC
   5
402
 100
AcDbEntity
   8
LEVEL002
 370
15
   6
CONTINUOUS
  62
5
 100
AcDbCircle
  10
 695.72466899397
  20
 404.25699697705
  30
0.0
  40
 0.10000000000000
 100
AcDbArc
  50
 2.6413588101660
  51
 82.408723337014
   0
ARC
   5
403
 100
AcDbEntity
   8
LEVEL002
 370
15
   6
CONTINUOUS
  62
5
 100
AcDbCircle
  10
 694.91882559806
  20
 404.25699697707
  30
0.0
  40
 0.10000000000000
 100
AcDbArc
  50
 97.591276639265
  51
 177.35864119975
   0
ARC
   5
404
 100
AcDbEntity
   8
LEVEL002
 370
15
   6
CONTINUOUS
  62
5
 100
AcDbCircle
  10
 692.17174729604
  20
 404.38372819884
  30
0.0
  40
 2.6500000000000
 100
AcDbArc
  50
 272.64135881490
  51
 357.35864118511
   0
ARC
   5
405
 100
AcDbEntity
   8
LEVEL002
 370
15
   6
CONTINUOUS
  62
5
 100
AcDbCircle
  10
 695.32174729604
  20
 401.23372819884
  30
0.0
  40
 3.1500000000000
 100
AcDbArc
  50
 172.40872336399
  51
 187.59127663601
   0
ARC
   5
406
 100
AcDbEntity
   8
LEVEL002
 370
15
   6
CONTINUOUS
  62
5
 100
AcDbCircle
  10
 692.29847851783
  20
 401.63664989681
  30
0.0
  40
 0.10000000000000
 100
AcDbArc
  50
 92.641358813913
  51
 172.40872336133
   0
ARC
   5
407
 100
AcDbEntity
   8
LEVEL002
 370
15
   6
CONTINUOUS
  62
5
 100
AcDbCircle
  10
 692.17174729604
  20
 398.08372819883
  30
0.0
  40
 2.6500000000000
 100
AcDbArc
  50
 2.6413588148909
  51
 87.358641185099
   0
ARC
   5
408
 100
AcDbEntity
   8
LEVEL002
 370
15
   6
CONTINUOUS
  62
5
 100
AcDbCircle
  10
 692.29847851785
  20
 400.83080650085
  30
0.0
  40
 0.10000000000000
 100
AcDbArc
  50
 187.59127663348
  51
 267.35864117083
   0
ARC
   5
409
 100
AcDbEntity
   8
LEVEL002
 370
15
   6
CONTINUOUS
  62
5
 100
AcDbCircle
  10
 695.32174729604
  20
 401.23372819884
  30
0.0
  40
 3.1500000000000
 100
AcDbArc
  50
 262.40872336394
  51
 277.59127663599
   0
ARC
   5
40A
 100
AcDbEntity
   8
LEVEL002
 370
15
   6
CONTINUOUS
  62
5
 100
AcDbCircle
  10
 695.72466899402
  20
 398.21045942059
  30
0.0
  40
 0.10000000000000
 100
AcDbArc
  50
 277.59127663953
  51
 357.35864120526
   0
ARC
   5
40B
 100
AcDbEntity
   8
LEVEL002
 370
15
   6
CONTINUOUS
  62
5
 100
AcDbCircle
  10
 695.32174729604
  20
 401.23372819884
  30
0.0
  40
 5.2500000000000
 100
AcDbArc
  50
 202.71545977072
  51
 157.28454022928
   0
ARC
   5
40C
 100
AcDbEntity
   8
LEVEL002
 370
15
   6
CONTINUOUS
  62
5
 100
AcDbCircle
  10
 695.32174729604
  20
 401.23372819884
  30
0.0
  40
 5.2500000000000
 100
AcDbArc
  50
 157.28454022928
  51
 202.71545977072
   0
LINE
   5
40D
 100
AcDbEntity
   8
LEVEL001
 370
15
 100
AcDbLine
   6
HIDDEN
  62
2
  10
 688.86807577659
  20
 957.10047435921
  30
0.0
  11
 688.86807577659
  21
 969.60047435921
  31
0.0
   0
LINE
   5
40E
 100
AcDbEntity
   8
LEVEL001
 370
20
 100
AcDbLine
   6
CONTINUOUS
  62
7
  10
 688.86807577659
  20
 969.60047435921
  30
0.0
  11
 688.86807577659
  21
 1015.1004743592
  31
0.0
   0
LINE
   5
40F
 100
AcDbEntity
   8
LEVEL001
 370
15
 100
AcDbLine
   6
HIDDEN
  62
2
  10
 704.86807577659
  20
 969.60047435921
  30
0.0
  11
 704.86807577659
  21
 957.10047435921
  31
0.0
   0
LINE
   5
410
 100
AcDbEntity
   8
LEVEL001
 370
20
 100
AcDbLine
   6
CONTINUOUS
  62
7
  10
 704.86807577659
  20
 1015.1004743592
  30
0.0
  11
 704.86807577659
  21
 969.60047435921
  31
0.0
   0
LINE
   5
411
 100
AcDbEntity
   8
LEVEL001
 370
15
 100
AcDbLine
   6
HIDDEN
  62
2
  10
 688.82174729605
  20
 401.23372819884
  30
0.0
  11
 688.82174729605
  21
 413.73372819884
  31
0.0
   0
LINE
   5
412
 100
AcDbEntity
   8
LEVEL001
 370
20
 100
AcDbLine
   6
CONTINUOUS
  62
7
  10
 688.82174729605
  20
 413.73372819884
  30
0.0
  11
 688.82174729605
  21
 456.23372819884
  31
0.0
   0
LINE
   5
413
 100
AcDbEntity
   8
LEVEL001
 370
15
 100
AcDbLine
   6
HIDDEN
  62
2
  10
 701.82174729605
  20
 413.73372819884
  30
0.0
  11
 701.82174729605
  21
 401.23372819884
  31
0.0
   0
LINE
   5
414
 100
AcDbEntity
   8
LEVEL001
 370
20
 100
AcDbLine
   6
CONTINUOUS
  62
7
  10
 701.82174729605
  20
 456.23372819884
  30
0.0
  11
 701.82174729605
  21
 413.73372819884
  31
0.0
   0
MTEXT
   5
416
 100
AcDbEntity
   8
LEVEL001
 370
15
  62
8
 100
AcDbMText
  10
 1287.2799276686
  20
 624.92436335994
  30
0.0
  40
 12.000000000000
  41
0.0
  71
4
  72
1
   1
{\T1.000000;※出寸法Ｌは軸の中心までの寸法です。}\P{\T1.000000;※傾斜角度は片方向に０～４５%%dの範囲です。}
   7
GMM001
  44
 0.79999984000003
   0
LEADER
   5
417
 100
AcDbEntity
   8
0
 370
15
   6
CONTINUOUS
  62
8
 100
AcDbLeader
   3
GMM008
  73
0
  74
0
  75
0
  40
 10.000000000000
  41
 62.000000000000
  76
2
  10
 711.34533288875
  20
 255.04302482199
  30
0.0
  10
 728.40260705122
  20
 262.33940706548
  30
0.0
  77
8
 340
418
 213
0.0
 223
-4.0000000000000
 233
0.0
   0
MTEXT
   5
418
 102
{ACAD_REACTORS
 330
417
 102
}
 100
AcDbEntity
   8
0
 370
15
  62
8
 100
AcDbMText
  10
 728.40260705122
  20
 266.33940706548
  30
0.0
  40
 10.000000000000
  41
0.0
  71
7
  72
1
   1
\A1;下穴%%c５/皿%%c８
   7
GMM001
   0
LEADER
   5
419
 100
AcDbEntity
   8
0
 370
15
   6
CONTINUOUS
  62
8
 100
AcDbLeader
   3
GMM008
  73
0
  74
0
  75
0
  40
 10.000000000000
  41
 62.000000000000
  76
2
  10
 728.35495183199
  20
 403.99229127482
  30
0.0
  10
 743.81045607270
  20
 419.49429667213
  30
0.0
  77
8
 340
41A
 213
0.0
 223
-4.0000000000000
 233
0.0
   0
MTEXT
   5
41A
 102
{ACAD_REACTORS
 330
419
 102
}
 100
AcDbEntity
   8
0
 370
15
  62
8
 100
AcDbMText
  10
 743.81045607270
  20
 423.49429667213
  30
0.0
  40
 10.000000000000
  41
0.0
  71
7
  72
1
   1
\A1;下穴%%c５/皿%%c８
   7
GMM001
   0
LEADER
   5
41B
 100
AcDbEntity
   8
0
 370
15
   6
CONTINUOUS
  62
8
 100
AcDbLeader
   3
GMM008
  73
0
  74
0
  75
0
  40
 10.000000000000
  41
 62.000000000000
  76
2
  10
 729.90128031254
  20
 959.85903743519
  30
0.0
  10
 745.35678455325
  20
 975.36104283250
  30
0.0
  77
8
 340
41C
 213
0.0
 223
-4.0000000000000
 233
0.0
   0
MTEXT
   5
41C
 102
{ACAD_REACTORS
 330
41B
 102
}
 100
AcDbEntity
   8
0
 370
15
  62
8
 100
AcDbMText
  10
 745.35678455325
  20
 979.36104283250
  30
0.0
  40
 10.000000000000
  41
0.0
  71
7
  72
1
   1
\A1;下穴%%c５/皿%%c８
   7
GMM001
   0
LEADER
   5
41D
 100
AcDbEntity
   8
0
 370
15
   6
CONTINUOUS
  62
8
 100
AcDbLeader
   3
GMM008
  73
0
  74
0
  75
0
  40
 10.000000000000
  41
 62.000000000000
  76
2
  10
 716.59111817922
  20
 798.13815330560
  30
0.0
  10
 741.19556015286
  20
 790.65074010531
  30
0.0
  77
8
 340
41E
 213
0.0
 223
-4.0000000000000
 233
0.0
   0
MTEXT
   5
41E
 102
{ACAD_REACTORS
 330
41D
 102
}
 100
AcDbEntity
   8
0
 370
15
  62
8
 100
AcDbMText
  10
 741.19556015286
  20
 794.65074010531
  30
0.0
  40
 10.000000000000
  41
0.0
  71
7
  72
1
   1
\A1;下穴%%c５/皿%%c８
   7
GMM001
   0
MTEXT
   5
420
 100
AcDbEntity
   8
LEVEL001
 370
15
  62
8
 100
AcDbMText
  10
 1573.2000000001
  20
 194.66666666668
  30
0.0
  40
 8.0000000000000
  41
0.0
  71
5
  72
1
   1
\T1.000000;平成３１年　２月　１日
   7
GMM001
  44
 0.79999984000003
   0
ENDSEC
  0
SECTION
  2
OBJECTS
  0
DICTIONARY
  5
C
100
AcDbDictionary
  3
ACAD_GROUP
350
D
  3
ACAD_MLINESTYLE
350
1B
  3
DWGPROPS
350
1C
  0
DICTIONARY
  5
D
102
{ACAD_REACTORS
330
C
102
}
100
AcDbDictionary
  0
DICTIONARY
  5
1B
102
{ACAD_REACTORS
330
C
102
}
100
AcDbDictionary
  3
STANDARD
350
1D
  0
MLINESTYLE
  5
1D
102
{ACAD_REACTORS
330
1B
102
}
100
AcDbMlineStyle
  2
STANDARD
 70
     0
  3

 62
   256
 51
90.0
 52
90.0
 71
     2
 49
0.5
 62
   256
  6
BYLAYER
 49
-0.5
 62
   256
  6
BYLAYER
   0
XRECORD
   5
1C
 102
{ACAD_REACTORS
 330
C
 102
}
 330
C
 100
AcDbXrecord
 280
1
   1
DWGPROPS COOKIE
   2
 
   3
 
   4
haruna
   6
 
   7
PIKM(16軸・13軸)
   8
haruna
   9

 300
 = 
 301
 = 
 302
 = 
 303
 = 
 304
 = 
 305
 = 
 306
 = 
 307
 = 
 308
 = 
 309
 = 
  40
0.0
  41
 2458515.5000000
  42
 2458519.5000000
   1

  90
10
   0
ENDSEC
   0
EOF
