   0
SECTION
   2
HEADER
   9
$ACADVER
   1
AC1015
   9
$DWGCODEPAGE
   3
ANSI_932
   9
$LIMMIN
  10
0.0
  20
0.0
   9
$LIMMAX
  10
 1680.0000000000
  20
 1188.0000000000
   9
$EXTMIN
  10
0.0
  20
0.0
  30
0.0
   9
$EXTMAX
  10
 1680.0000000000
  20
 1188.0000000000
  30
0.0
   9
$LTSCALE
  40
 33.600000000000
   9
$HANDSEED
   5
3F2
   0
ENDSEC
   0
SECTION
   2
TABLES
  0
TABLE
  2
VPORT
  5
8
100
AcDbSymbolTable
 70
     1
  0
VPORT
  5
3F1
100
AcDbSymbolTableRecord
100
AcDbViewportTableRecord
  2
*ACTIVE
 70
     0
 10
0.0
 20
0.0
 11
1.0
 21
1.0
  12
 840.00000000000
  22
 594.00000000000
 13
0.0
 23
0.0
 14
1.0
 24
1.0
 15
0.0
 25
0.0
 16
0.0
 26
0.0
 36
1.0
 17
0.0
 27
0.0
 37
0.0
  40
 1680.0000000000
  41
 1.4787878787879
 42
50.0
 43
0.0
 44
0.0
 50
0.0
 51
0.0
 71
     0
 72
   100
 73
     1
 74
     1
 75
     0
 76
     0
 77
     0
 78
     0
  0
ENDTAB
  0
TABLE
  2
LTYPE
  5
5
100
AcDbSymbolTable
 70
    25
  0
LTYPE
  5
12
100
AcDbSymbolTableRecord
100
AcDbLinetypeTableRecord
  2
BYBLOCK
 70
     0
  3

 72
    65
 73
     0
 40
0.0
  0
LTYPE
  5
13
100
AcDbSymbolTableRecord
100
AcDbLinetypeTableRecord
  2
BYLAYER
 70
     0
  3

 72
    65
 73
     0
 40
0.0
  0
LTYPE
  5
14
100
AcDbSymbolTableRecord
100
AcDbLinetypeTableRecord
  2
CONTINUOUS
 70
     0
  3
Solid line
 72
    65
 73
     0
 40
0.0
  0
LTYPE
  5
20
100
AcDbSymbolTableRecord
100
AcDbLinetypeTableRecord
  2
BORDER
 70
     0
  3
__ __ . __ __ . __ __ . __ __ . __ __ . __ __ .
 72
    65
 73
     6
 40
1.75
 49
0.5
 74
     0
 49
-0.25
 74
     0
 49
0.5
 74
     0
 49
-0.25
 74
     0
 49
0.0
 74
     0
 49
-0.25
 74
     0
  0
LTYPE
  5
21
100
AcDbSymbolTableRecord
100
AcDbLinetypeTableRecord
  2
BORDER2
 70
     0
  3
__.__.__.__.__.__.__.__.__.__.__.__.__.__.__.__
 72
    65
 73
     6
 40
0.875
 49
0.25
 74
     0
 49
-0.125
 74
     0
 49
0.25
 74
     0
 49
-0.125
 74
     0
 49
0.0
 74
     0
 49
-0.125
 74
     0
  0
LTYPE
  5
22
100
AcDbSymbolTableRecord
100
AcDbLinetypeTableRecord
  2
BORDERX2
 70
     0
  3
____  ____  .  ____  ____  .  ____  ____  .  __
 72
    65
 73
     6
 40
3.5
 49
1.0
 74
     0
 49
-0.5
 74
     0
 49
1.0
 74
     0
 49
-0.5
 74
     0
 49
0.0
 74
     0
 49
-0.5
 74
     0
  0
LTYPE
  5
23
100
AcDbSymbolTableRecord
100
AcDbLinetypeTableRecord
  2
CENTER
 70
     0
  3
____ _ ____ _ ____ _ ____ _ ____ _ ____ _ ____ 
 72
    65
 73
     4
 40
2.0
 49
1.25
 74
     0
 49
-0.25
 74
     0
 49
0.25
 74
     0
 49
-0.25
 74
     0
  0
LTYPE
  5
24
100
AcDbSymbolTableRecord
100
AcDbLinetypeTableRecord
  2
CENTER2
 70
     0
  3
___ _ ___ _ ___ _ ___ _ ___ _ ___ _ ___ _ ___ _
 72
    65
 73
     4
 40
1.125
 49
0.75
 74
     0
 49
-0.125
 74
     0
 49
0.125
 74
     0
 49
-0.125
 74
     0
  0
LTYPE
  5
25
100
AcDbSymbolTableRecord
100
AcDbLinetypeTableRecord
  2
CENTERX2
 70
     0
  3
________  __  ________  __  ________  __  _____
 72
    65
 73
     4
 40
4.0
 49
2.5
 74
     0
 49
-0.5
 74
     0
 49
0.5
 74
     0
 49
-0.5
 74
     0
  0
LTYPE
  5
26
100
AcDbSymbolTableRecord
100
AcDbLinetypeTableRecord
  2
DASHDOT
 70
     0
  3
__ . __ . __ . __ . __ . __ . __ . __ . __ . __
 72
    65
 73
     4
 40
1.0
 49
0.5
 74
     0
 49
-0.25
 74
     0
 49
0.0
 74
     0
 49
-0.25
 74
     0
  0
LTYPE
  5
27
100
AcDbSymbolTableRecord
100
AcDbLinetypeTableRecord
  2
DASHDOT2
 70
     0
  3
_._._._._._._._._._._._._._._._._._._._._._._._
 72
    65
 73
     4
 40
0.5
 49
0.25
 74
     0
 49
-0.125
 74
     0
 49
0.0
 74
     0
 49
-0.125
 74
     0
  0
LTYPE
  5
28
100
AcDbSymbolTableRecord
100
AcDbLinetypeTableRecord
  2
DASHDOTX2
 70
     0
  3
____  .  ____  .  ____  .  ____  .  ____  .  __
 72
    65
 73
     4
 40
2.0
 49
1.0
 74
     0
 49
-0.5
 74
     0
 49
0.0
 74
     0
 49
-0.5
 74
     0
  0
LTYPE
  5
29
100
AcDbSymbolTableRecord
100
AcDbLinetypeTableRecord
  2
DASHED
 70
     0
  3
__ __ __ __ __ __ __ __ __ __ __ __ __ __ __ __
 72
    65
 73
     2
 40
0.75
 49
0.5
 74
     0
 49
-0.25
 74
     0
  0
LTYPE
  5
2A
100
AcDbSymbolTableRecord
100
AcDbLinetypeTableRecord
  2
DASHED2
 70
     0
  3
_ _ _ _ _ _ _ _ _ _ _ _ _ _ _ _ _ _ _ _ _ _ _ _
 72
    65
 73
     2
 40
0.375
 49
0.25
 74
     0
 49
-0.125
 74
     0
  0
LTYPE
  5
2B
100
AcDbSymbolTableRecord
100
AcDbLinetypeTableRecord
  2
DASHEDX2
 70
     0
  3
____  ____  ____  ____  ____  ____  ____  ____ 
 72
    65
 73
     2
 40
1.5
 49
1.0
 74
     0
 49
-0.5
 74
     0
  0
LTYPE
  5
2C
100
AcDbSymbolTableRecord
100
AcDbLinetypeTableRecord
  2
DIVIDE
 70
     0
  3
____ . . ____ . . ____ . . ____ . . ____ . . __
 72
    65
 73
     6
 40
1.25
 49
0.5
 74
     0
 49
-0.25
 74
     0
 49
0.0
 74
     0
 49
-0.25
 74
     0
 49
0.0
 74
     0
 49
-0.25
 74
     0
  0
LTYPE
  5
2D
100
AcDbSymbolTableRecord
100
AcDbLinetypeTableRecord
  2
DIVIDE2
 70
     0
  3
__..__..__..__..__..__..__..__..__..__..__..__.
 72
    65
 73
     6
 40
0.625
 49
0.25
 74
     0
 49
-0.125
 74
     0
 49
0.0
 74
     0
 49
-0.125
 74
     0
 49
0.0
 74
     0
 49
-0.125
 74
     0
  0
LTYPE
  5
2E
100
AcDbSymbolTableRecord
100
AcDbLinetypeTableRecord
  2
DIVIDEX2
 70
     0
  3
________  .  .  ________  .  .  ________  .  . 
 72
    65
 73
     6
 40
2.5
 49
1.0
 74
     0
 49
-0.5
 74
     0
 49
0.0
 74
     0
 49
-0.5
 74
     0
 49
0.0
 74
     0
 49
-0.5
 74
     0
  0
LTYPE
  5
2F
100
AcDbSymbolTableRecord
100
AcDbLinetypeTableRecord
  2
DOT
 70
     0
  3
. . . . . . . . . . . . . . . . . . . . . . . .
 72
    65
 73
     2
 40
0.25
 49
0.0
 74
     0
 49
-0.25
 74
     0
  0
LTYPE
  5
30
100
AcDbSymbolTableRecord
100
AcDbLinetypeTableRecord
  2
DOT2
 70
     0
  3
...............................................
 72
    65
 73
     2
 40
0.125
 49
0.0
 74
     0
 49
-0.125
 74
     0
  0
LTYPE
  5
31
100
AcDbSymbolTableRecord
100
AcDbLinetypeTableRecord
  2
DOTX2
 70
     0
  3
.  .  .  .  .  .  .  .  .  .  .  .  .  .  .  . 
 72
    65
 73
     2
 40
0.5
 49
0.0
 74
     0
 49
-0.5
 74
     0
  0
LTYPE
  5
32
100
AcDbSymbolTableRecord
100
AcDbLinetypeTableRecord
  2
HIDDEN
 70
     0
  3
__ __ __ __ __ __ __ __ __ __ __ __ __ __ __ __
 72
    65
 73
     2
 40
0.375
 49
0.25
 74
     0
 49
-0.125
 74
     0
  0
LTYPE
  5
33
100
AcDbSymbolTableRecord
100
AcDbLinetypeTableRecord
  2
HIDDEN2
 70
     0
  3
_ _ _ _ _ _ _ _ _ _ _ _ _ _ _ _ _ _ _ _ _ _ _ _
 72
    65
 73
     2
 40
0.1875
 49
0.125
 74
     0
 49
-0.0625
 74
     0
  0
LTYPE
  5
34
100
AcDbSymbolTableRecord
100
AcDbLinetypeTableRecord
  2
HIDDENX2
 70
     0
  3
____ ____ ____ ____ ____ ____ ____ ____ ____ __
 72
    65
 73
     2
 40
0.75
 49
0.5
 74
     0
 49
-0.25
 74
     0
  0
LTYPE
  5
35
100
AcDbSymbolTableRecord
100
AcDbLinetypeTableRecord
  2
PHANTOM
 70
     0
  3
______  __  __  ______  __  __  ______  __  __ 
 72
    65
 73
     6
 40
2.5
 49
1.25
 74
     0
 49
-0.25
 74
     0
 49
0.25
 74
     0
 49
-0.25
 74
     0
 49
0.25
 74
     0
 49
-0.25
 74
     0
  0
LTYPE
  5
36
100
AcDbSymbolTableRecord
100
AcDbLinetypeTableRecord
  2
PHANTOM2
 70
     0
  3
___ _ _ ___ _ _ ___ _ _ ___ _ _ ___ _ _ ___ _ _
 72
    65
 73
     6
 40
1.25
 49
0.625
 74
     0
 49
-0.125
 74
     0
 49
0.125
 74
     0
 49
-0.125
 74
     0
 49
0.125
 74
     0
 49
-0.125
 74
     0
  0
LTYPE
  5
37
100
AcDbSymbolTableRecord
100
AcDbLinetypeTableRecord
  2
PHANTOMX2
 70
     0
  3
____________    ____    ____    ____________   
 72
    65
 73
     6
 40
5.0
 49
2.5
 74
     0
 49
-0.5
 74
     0
 49
0.5
 74
     0
 49
-0.5
 74
     0
 49
0.5
 74
     0
 49
-0.5
 74
     0
  0
ENDTAB
   0
TABLE
   2
LAYER
   5
2
 100
AcDbSymbolTable
  70
6
   0
LAYER
   5
E
 100
AcDbSymbolTableRecord
 100
AcDbLayerTableRecord
   2
0
  70
0
  62
7
   6
CONTINUOUS
 390
30
   0
LAYER
   5
39
 100
AcDbSymbolTableRecord
 100
AcDbLayerTableRecord
   2
LEVEL001
  70
0
  62
7
   6
CONTINUOUS
 390
30
   0
LAYER
   5
3A
 100
AcDbSymbolTableRecord
 100
AcDbLayerTableRecord
   2
LEVEL002
  70
0
  62
7
   6
CONTINUOUS
 390
30
   0
LAYER
   5
3B
 100
AcDbSymbolTableRecord
 100
AcDbLayerTableRecord
   2
LEVEL004
  70
0
  62
7
   6
CONTINUOUS
 390
30
   0
LAYER
   5
3C
 100
AcDbSymbolTableRecord
 100
AcDbLayerTableRecord
   2
LEVEL006
  70
0
  62
7
   6
CONTINUOUS
 390
30
   0
LAYER
   5
3D
 100
AcDbSymbolTableRecord
 100
AcDbLayerTableRecord
   2
LEVEL007
  70
0
  62
7
   6
CONTINUOUS
 390
30
   0
ENDTAB
  0
TABLE
  2
STYLE
  5
3
100
AcDbSymbolTable
  70
4
  0
STYLE
  5
F
100
AcDbSymbolTableRecord
100
AcDbTextStyleTableRecord
  2
STANDARD
 70
     0
 40
0.0
 41
1.0
 50
0.0
 71
     0
 42
0.2
  3
TXT
  4
BIGFONT
  0
STYLE
  5
38
100
AcDbSymbolTableRecord
100
AcDbTextStyleTableRecord
  2
STANDARD1
 70
     4
 40
0.0
 41
1.0
 50
0.0
 71
     0
 42
0.2
  3
TXT
  4
BIGFONT
   0
STYLE
   5
3E
 100
AcDbSymbolTableRecord
 100
AcDbTextStyleTableRecord
   2
GMM001
  70
0
  40
0.0
  41
 1.0000000000000
  50
0.0
  71
     0
  42
1.0
   3
txt.shx
   4
bigfont.shx
   0
STYLE
   5
3F
 100
AcDbSymbolTableRecord
 100
AcDbTextStyleTableRecord
   2
GMM002
  70
0
  40
0.0
  41
 0.80000000000000
  50
0.0
  71
     0
  42
1.0
   3
txt.shx
   4
bigfont.shx
   0
ENDTAB
  0
TABLE
  2
VIEW
  5
6
100
AcDbSymbolTable
 70
     0
  0
ENDTAB
  0
TABLE
  2
UCS
  5
7
100
AcDbSymbolTable
 70
     0
  0
ENDTAB
  0
TABLE
  2
APPID
  5
9
100
AcDbSymbolTable
 70
     1
  0
APPID
  5
10
100
AcDbSymbolTableRecord
100
AcDbRegAppTableRecord
  2
ACAD
 70
     0
  0
ENDTAB
   0
TABLE
   2
DIMSTYLE
   5
A
 100
AcDbSymbolTable
  70
8
 100
AcDbDimStyleTable
  0
DIMSTYLE
105
1D
100
AcDbSymbolTableRecord
100
AcDbDimStyleTableRecord
  2
STANDARD
 70
     0
  3

  4

  5

  6

  7

 40
1.0
 41
0.18
 42
0.0625
 43
0.38
 44
0.18
 45
0.0
 46
0.0
 47
0.0
 48
0.0
140
0.18
141
0.09
142
0.0
143
25.4
144
1.0
145
0.0
146
1.0
147
0.09
 71
     0
 72
     0
 73
     1
 74
     1
 75
     0
 76
     0
 77
     0
 78
     0
170
     0
171
     2
172
     0
173
     0
174
     0
175
     0
176
     0
177
     0
178
     0
270
     2
271
     4
272
     4
273
     2
274
     2
340
F
275
     0
280
     0
281
     0
282
     0
283
     1
284
     0
285
     0
286
     0
287
     3
288
     0
   0
DIMSTYLE
 105
40
 100
AcDbSymbolTableRecord
 100
AcDbDimStyleTableRecord
   2
GMM001
  70
0
   3

   4

   5

   6

   7

  40
 1.0000000000000
  41
 8.0000000000000
  42
 4.0000000000000
  43
 32.000000000000
  44
 4.0000000000000
  45
0.0
  46
0.0
  47
0.0
  48
0.0
 140
 10.000000000000
 141
 4.0000000000000
 142
0.0
 143
 0.39400000000000E-1
 144
 1.0000000000000
 145
0.0
 146
 1.0000000000000
 147
 4.0000000000000
  71
0
  72
0
  73
0
  74
0
  75
0
  76
0
  77
3
  78
8
 170
0
 171
2
 172
1
 173
1
 174
0
 175
0
 176
8
 177
8
 178
8
 270
2
 271
6
 272
0
 273
2
 274
2
 340
3E
 275
1
 280
0
 281
0
 282
0
 283
1
 284
0
 285
0
 286
0
 287
3
 288
0
   0
DIMSTYLE
 105
41
 100
AcDbSymbolTableRecord
 100
AcDbDimStyleTableRecord
   2
GMM002
  70
0
   3

   4

   5

   6

   7

  40
 1.0000000000000
  41
 8.0000000000000
  42
 4.0000000000000
  43
 32.000000000000
  44
 4.0000000000000
  45
0.0
  46
0.0
  47
0.0
  48
0.0
 140
 10.000000000000
 141
 4.0000000000000
 142
0.0
 143
 0.39400000000000E-1
 144
 1.0000000000000
 145
0.0
 146
 1.0000000000000
 147
0.0
  71
0
  72
0
  73
0
  74
0
  75
0
  76
0
  77
1
  78
8
 170
0
 171
2
 172
1
 173
1
 174
0
 175
0
 176
8
 177
8
 178
8
 270
2
 271
6
 272
0
 273
2
 274
2
 340
3E
 275
1
 280
0
 281
0
 282
0
 283
1
 284
0
 285
0
 286
0
 287
3
 288
0
   0
DIMSTYLE
 105
42
 100
AcDbSymbolTableRecord
 100
AcDbDimStyleTableRecord
   2
GMM003
  70
0
   3

   4

   5

   6

   7

  40
 1.0000000000000
  41
 8.0000000000000
  42
 4.0000000000000
  43
 32.000000000000
  44
 4.0000000000000
  45
0.0
  46
0.0
  47
0.0
  48
0.0
 140
 10.000000000000
 141
 4.0000000000000
 142
0.0
 143
 0.39400000000000E-1
 144
 1.0000000000000
 145
0.0
 146
 1.0000000000000
 147
 4.4110275689600
  71
0
  72
0
  73
0
  74
0
  75
0
  76
0
  77
3
  78
8
 170
0
 171
2
 172
1
 173
1
 174
0
 175
0
 176
8
 177
8
 178
8
 270
2
 271
6
 272
0
 273
2
 274
2
 340
3E
 275
1
 280
0
 281
0
 282
0
 283
1
 284
0
 285
0
 286
0
 287
3
 288
1
   0
DIMSTYLE
 105
43
 100
AcDbSymbolTableRecord
 100
AcDbDimStyleTableRecord
   2
GMM004
  70
0
   3

   4

   5

   6

   7

  40
 1.0000000000000
  41
 8.0000000000000
  42
 4.0000000000000
  43
 32.000000000000
  44
0.0
  45
0.0
  46
0.0
  47
0.0
  48
0.0
 140
 10.000000000000
 141
 4.0000000000000
 142
0.0
 143
 0.39400000000000E-1
 144
 1.0000000000000
 145
0.0
 146
 1.0000000000000
 147
 4.0000000000000
  71
0
  72
0
  73
0
  74
0
  75
1
  76
1
  77
3
  78
8
 170
0
 171
2
 172
1
 173
1
 174
0
 175
0
 176
8
 177
8
 178
8
 270
2
 271
6
 272
0
 273
2
 274
2
 340
3E
 275
1
 280
0
 281
0
 282
0
 283
1
 284
0
 285
0
 286
0
 287
3
 288
1
   0
DIMSTYLE
 105
44
 100
AcDbSymbolTableRecord
 100
AcDbDimStyleTableRecord
   2
GMM005
  70
0
   3

   4

   5

   6

   7
_NONE
  40
 1.0000000000000
  41
 8.0000000000000
  42
 4.0000000000000
  43
 32.000000000000
  44
 4.0000000000000
  45
0.0
  46
0.0
  47
0.0
  48
0.0
 140
 10.000000000000
 141
 4.0000000000000
 142
0.0
 143
 0.39400000000000E-1
 144
 1.0000000000000
 145
0.0
 146
 1.0000000000000
 147
 4.0154679041007
  71
0
  72
0
  73
0
  74
0
  75
0
  76
0
  77
3
  78
8
 170
0
 171
2
 172
1
 173
1
 174
0
 175
0
 176
8
 177
8
 178
8
 270
2
 271
6
 272
0
 273
2
 274
2
 340
3E
 275
1
 280
0
 281
0
 282
0
 283
1
 284
0
 285
0
 286
0
 287
3
 288
1
   0
DIMSTYLE
 105
45
 100
AcDbSymbolTableRecord
 100
AcDbDimStyleTableRecord
   2
GMM006
  70
0
   3

   4

   5

   6

   7

  40
 1.0000000000000
  41
 8.0000000000000
  42
 4.0000000000000
  43
 32.000000000000
  44
 4.0000000000000
  45
0.0
  46
0.0
  47
0.0
  48
0.0
 140
 10.000000000000
 141
 4.0000000000000
 142
0.0
 143
 0.39400000000000E-1
 144
 1.0000000000000
 145
0.0
 146
 1.0000000000000
 147
 4.0000000000000
  71
0
  72
0
  73
0
  74
0
  75
0
  76
0
  77
3
  78
8
 170
0
 171
2
 172
1
 173
1
 174
0
 175
0
 176
8
 177
8
 178
8
 270
2
 271
6
 272
0
 273
2
 274
2
 340
3E
 275
1
 280
0
 281
0
 282
0
 283
1
 284
0
 285
0
 286
0
 287
3
 288
0
   0
ENDTAB
  0
TABLE
  2
BLOCK_RECORD
  5
1
100
AcDbSymbolTable
 70
     0
  0
BLOCK_RECORD
  5
18
100
AcDbSymbolTableRecord
100
AcDbBlockTableRecord
  2
*MODEL_SPACE
  0
BLOCK_RECORD
  5
15
100
AcDbSymbolTableRecord
100
AcDbBlockTableRecord
  2
*PAPER_SPACE
   0
BLOCK_RECORD
   5
46
 100
AcDbSymbolTableRecord
 100
AcDbBlockTableRecord
   2
*D1
   0
BLOCK_RECORD
   5
47
 100
AcDbSymbolTableRecord
 100
AcDbBlockTableRecord
   2
*D4
   0
BLOCK_RECORD
   5
48
 100
AcDbSymbolTableRecord
 100
AcDbBlockTableRecord
   2
*D5
   0
BLOCK_RECORD
   5
49
 100
AcDbSymbolTableRecord
 100
AcDbBlockTableRecord
   2
*D6
   0
BLOCK_RECORD
   5
4A
 100
AcDbSymbolTableRecord
 100
AcDbBlockTableRecord
   2
*D7
   0
BLOCK_RECORD
   5
4B
 100
AcDbSymbolTableRecord
 100
AcDbBlockTableRecord
   2
*D8
   0
BLOCK_RECORD
   5
4C
 100
AcDbSymbolTableRecord
 100
AcDbBlockTableRecord
   2
*D9
   0
BLOCK_RECORD
   5
4D
 100
AcDbSymbolTableRecord
 100
AcDbBlockTableRecord
   2
*D10
   0
BLOCK_RECORD
   5
4E
 100
AcDbSymbolTableRecord
 100
AcDbBlockTableRecord
   2
*D11
   0
BLOCK_RECORD
   5
4F
 100
AcDbSymbolTableRecord
 100
AcDbBlockTableRecord
   2
*D12
   0
BLOCK_RECORD
   5
50
 100
AcDbSymbolTableRecord
 100
AcDbBlockTableRecord
   2
*D13
   0
BLOCK_RECORD
   5
51
 100
AcDbSymbolTableRecord
 100
AcDbBlockTableRecord
   2
*D14
   0
BLOCK_RECORD
   5
52
 100
AcDbSymbolTableRecord
 100
AcDbBlockTableRecord
   2
*D15
   0
BLOCK_RECORD
   5
53
 100
AcDbSymbolTableRecord
 100
AcDbBlockTableRecord
   2
*D17
   0
BLOCK_RECORD
   5
54
 100
AcDbSymbolTableRecord
 100
AcDbBlockTableRecord
   2
*D18
   0
BLOCK_RECORD
   5
55
 100
AcDbSymbolTableRecord
 100
AcDbBlockTableRecord
   2
*D20
   0
BLOCK_RECORD
   5
56
 100
AcDbSymbolTableRecord
 100
AcDbBlockTableRecord
   2
*D21
   0
BLOCK_RECORD
   5
57
 100
AcDbSymbolTableRecord
 100
AcDbBlockTableRecord
   2
*D22
   0
BLOCK_RECORD
   5
58
 100
AcDbSymbolTableRecord
 100
AcDbBlockTableRecord
   2
*D23
   0
BLOCK_RECORD
   5
59
 100
AcDbSymbolTableRecord
 100
AcDbBlockTableRecord
   2
*D24
   0
BLOCK_RECORD
   5
5A
 100
AcDbSymbolTableRecord
 100
AcDbBlockTableRecord
   2
*D25
   0
BLOCK_RECORD
   5
5B
 100
AcDbSymbolTableRecord
 100
AcDbBlockTableRecord
   2
*D26
   0
BLOCK_RECORD
   5
5C
 100
AcDbSymbolTableRecord
 100
AcDbBlockTableRecord
   2
*D27
   0
BLOCK_RECORD
   5
5D
 100
AcDbSymbolTableRecord
 100
AcDbBlockTableRecord
   2
*D28
   0
BLOCK_RECORD
   5
5E
 100
AcDbSymbolTableRecord
 100
AcDbBlockTableRecord
   2
*D29
   0
BLOCK_RECORD
   5
5F
 100
AcDbSymbolTableRecord
 100
AcDbBlockTableRecord
   2
*D30
   0
BLOCK_RECORD
   5
60
 100
AcDbSymbolTableRecord
 100
AcDbBlockTableRecord
   2
*D31
   0
BLOCK_RECORD
   5
61
 100
AcDbSymbolTableRecord
 100
AcDbBlockTableRecord
   2
*D32
   0
BLOCK_RECORD
   5
62
 100
AcDbSymbolTableRecord
 100
AcDbBlockTableRecord
   2
*D33
   0
BLOCK_RECORD
   5
63
 100
AcDbSymbolTableRecord
 100
AcDbBlockTableRecord
   2
*D34
   0
BLOCK_RECORD
   5
64
 100
AcDbSymbolTableRecord
 100
AcDbBlockTableRecord
   2
_ARCHTICK
   0
BLOCK_RECORD
   5
65
 100
AcDbSymbolTableRecord
 100
AcDbBlockTableRecord
   2
_BOXBLANK
   0
BLOCK_RECORD
   5
66
 100
AcDbSymbolTableRecord
 100
AcDbBlockTableRecord
   2
_BOXFILLED
   0
BLOCK_RECORD
   5
67
 100
AcDbSymbolTableRecord
 100
AcDbBlockTableRecord
   2
_CLOSED
   0
BLOCK_RECORD
   5
68
 100
AcDbSymbolTableRecord
 100
AcDbBlockTableRecord
   2
_CLOSEDBLANK
   0
BLOCK_RECORD
   5
69
 100
AcDbSymbolTableRecord
 100
AcDbBlockTableRecord
   2
_DATUMBLANK
   0
BLOCK_RECORD
   5
6A
 100
AcDbSymbolTableRecord
 100
AcDbBlockTableRecord
   2
_DATUMFILLED
   0
BLOCK_RECORD
   5
6B
 100
AcDbSymbolTableRecord
 100
AcDbBlockTableRecord
   2
_DOT
   0
BLOCK_RECORD
   5
6C
 100
AcDbSymbolTableRecord
 100
AcDbBlockTableRecord
   2
_DOTBLANK
   0
BLOCK_RECORD
   5
6D
 100
AcDbSymbolTableRecord
 100
AcDbBlockTableRecord
   2
_DOTSMALL
   0
BLOCK_RECORD
   5
6E
 100
AcDbSymbolTableRecord
 100
AcDbBlockTableRecord
   2
_INTEGRAL
   0
BLOCK_RECORD
   5
6F
 100
AcDbSymbolTableRecord
 100
AcDbBlockTableRecord
   2
_NONE
   0
BLOCK_RECORD
   5
70
 100
AcDbSymbolTableRecord
 100
AcDbBlockTableRecord
   2
_OBLIQUE
   0
BLOCK_RECORD
   5
71
 100
AcDbSymbolTableRecord
 100
AcDbBlockTableRecord
   2
_OPEN
   0
BLOCK_RECORD
   5
72
 100
AcDbSymbolTableRecord
 100
AcDbBlockTableRecord
   2
_OPEN30
   0
BLOCK_RECORD
   5
73
 100
AcDbSymbolTableRecord
 100
AcDbBlockTableRecord
   2
_OPEN90
   0
BLOCK_RECORD
   5
74
 100
AcDbSymbolTableRecord
 100
AcDbBlockTableRecord
   2
_ORIGIN
   0
ENDTAB
   0
ENDSEC
  0
SECTION
  2
BLOCKS
  0
BLOCK
  5
19
100
AcDbEntity
  8
0
100
AcDbBlockBegin
  2
*MODEL_SPACE
 70
     0
 10
0.0
 20
0.0
 30
0.0
  3
*MODEL_SPACE
  1

  0
ENDBLK
  5
1A
100
AcDbEntity
  8
0
100
AcDbBlockEnd
  0
BLOCK
  5
16
100
AcDbEntity
 67
     1
  8
0
100
AcDbBlockBegin
  2
*PAPER_SPACE
 70
     0
 10
0.0
 20
0.0
 30
0.0
  3
*PAPER_SPACE
  1

  0
ENDBLK
  5
17
100
AcDbEntity
 67
     1
  8
0
100
AcDbBlockEnd
   0
BLOCK
   5
75
 100
AcDbEntity
   8
0
 100
AcDbBlockBegin
   2
_ARCHTICK
  70
0
  10
0.0
  20
0.0
  30
0.0
   3
_ARCHTICK
   0
POLYLINE
   5
76
 100
AcDbEntity
   8
0
 370
-2
   6
BYBLOCK
  62
0
 100
AcDb2dPolyline
  66
1
  10
0.0
  20
0.0
  30
0.0
  70
1
  40
 0.15000000000000
  41
 0.15000000000000
   0
VERTEX
   5
77
 100
AcDbEntity
   8
0
   6
BYBLOCK
  62
0
 100
AcDbVertex
 100
AcDb2dVertex
  10
-0.50000000000000
  20
-0.50000000000000
  30
0.0
  40
 0.15000000000000
  41
 0.15000000000000
   0
VERTEX
   5
78
 100
AcDbEntity
   8
0
   6
BYBLOCK
  62
0
 100
AcDbVertex
 100
AcDb2dVertex
  10
 0.50000000000000
  20
 0.50000000000000
  30
0.0
  40
 0.15000000000000
  41
 0.15000000000000
   0
SEQEND
   5
79
 100
AcDbEntity
   8
0
   6
BYBLOCK
  62
0
   0
ENDBLK
   5
7A
 100
AcDbEntity
   8
0
 100
AcDbBlockEnd
   0
BLOCK
   5
7B
 100
AcDbEntity
   8
0
 100
AcDbBlockBegin
   2
_OBLIQUE
  70
0
  10
0.0
  20
0.0
  30
0.0
   3
_OBLIQUE
   0
LINE
   5
7C
 100
AcDbEntity
   8
0
 370
-2
 100
AcDbLine
   6
BYBLOCK
  62
0
  10
-0.50000000000000
  20
-0.50000000000000
  30
0.0
  11
 0.50000000000000
  21
 0.50000000000000
  31
0.0
   0
ENDBLK
   5
7D
 100
AcDbEntity
   8
0
 100
AcDbBlockEnd
   0
BLOCK
   5
7E
 100
AcDbEntity
   8
0
 100
AcDbBlockBegin
   2
_BOXBLANK
  70
0
  10
0.0
  20
0.0
  30
0.0
   3
_BOXBLANK
   0
LINE
   5
7F
 100
AcDbEntity
   8
0
 370
-2
 100
AcDbLine
   6
BYBLOCK
  62
0
  10
-0.50000000000000
  20
-0.50000000000000
  30
0.0
  11
 0.50000000000000
  21
-0.50000000000000
  31
0.0
   0
LINE
   5
80
 100
AcDbEntity
   8
0
 370
-2
 100
AcDbLine
   6
BYBLOCK
  62
0
  10
 0.50000000000000
  20
-0.50000000000000
  30
0.0
  11
 0.50000000000000
  21
 0.50000000000000
  31
0.0
   0
LINE
   5
81
 100
AcDbEntity
   8
0
 370
-2
 100
AcDbLine
   6
BYBLOCK
  62
0
  10
 0.50000000000000
  20
 0.50000000000000
  30
0.0
  11
-0.50000000000000
  21
 0.50000000000000
  31
0.0
   0
LINE
   5
82
 100
AcDbEntity
   8
0
 370
-2
 100
AcDbLine
   6
BYBLOCK
  62
0
  10
-0.50000000000000
  20
 0.50000000000000
  30
0.0
  11
-0.50000000000000
  21
-0.50000000000000
  31
0.0
   0
LINE
   5
83
 100
AcDbEntity
   8
0
 370
-2
 100
AcDbLine
   6
BYBLOCK
  62
0
  10
-0.50000000000000
  20
0.0
  30
0.0
  11
-1.0000000000000
  21
0.0
  31
0.0
   0
ENDBLK
   5
84
 100
AcDbEntity
   8
0
 100
AcDbBlockEnd
   0
BLOCK
   5
85
 100
AcDbEntity
   8
0
 100
AcDbBlockBegin
   2
_BOXFILLED
  70
0
  10
0.0
  20
0.0
  30
0.0
   3
_BOXFILLED
   0
SOLID
   5
86
 100
AcDbEntity
   8
0
 100
AcDbTrace
   6
BYBLOCK
  62
0
  10
-0.50000000000000
  20
 0.50000000000000
  30
0.0
  11
 0.50000000000000
  21
 0.50000000000000
  31
0.0
  12
-0.50000000000000
  22
-0.50000000000000
  32
0.0
  13
 0.50000000000000
  23
-0.50000000000000
  33
0.0
   0
LINE
   5
87
 100
AcDbEntity
   8
0
 370
-2
 100
AcDbLine
   6
BYBLOCK
  62
0
  10
-0.50000000000000
  20
0.0
  30
0.0
  11
-1.0000000000000
  21
0.0
  31
0.0
   0
ENDBLK
   5
88
 100
AcDbEntity
   8
0
 100
AcDbBlockEnd
   0
BLOCK
   5
89
 100
AcDbEntity
   8
0
 100
AcDbBlockBegin
   2
_CLOSED
  70
0
  10
0.0
  20
0.0
  30
0.0
   3
_CLOSED
   0
LINE
   5
8A
 100
AcDbEntity
   8
0
 370
-2
 100
AcDbLine
   6
BYBLOCK
  62
0
  10
-1.0000000000000
  20
 0.16666666666667
  30
0.0
  11
0.0
  21
0.0
  31
0.0
   0
LINE
   5
8B
 100
AcDbEntity
   8
0
 370
-2
 100
AcDbLine
   6
BYBLOCK
  62
0
  10
0.0
  20
0.0
  30
0.0
  11
-1.0000000000000
  21
-0.16666666666667
  31
0.0
   0
LINE
   5
8C
 100
AcDbEntity
   8
0
 370
-2
 100
AcDbLine
   6
BYBLOCK
  62
0
  10
-1.0000000000000
  20
 0.16666666666667
  30
0.0
  11
-1.0000000000000
  21
-0.16666666666667
  31
0.0
   0
LINE
   5
8D
 100
AcDbEntity
   8
0
 370
-2
 100
AcDbLine
   6
BYBLOCK
  62
0
  10
0.0
  20
0.0
  30
0.0
  11
-1.0000000000000
  21
0.0
  31
0.0
   0
ENDBLK
   5
8E
 100
AcDbEntity
   8
0
 100
AcDbBlockEnd
   0
BLOCK
   5
8F
 100
AcDbEntity
   8
0
 100
AcDbBlockBegin
   2
_OPEN
  70
0
  10
0.0
  20
0.0
  30
0.0
   3
_OPEN
   0
LINE
   5
90
 100
AcDbEntity
   8
0
 370
-2
 100
AcDbLine
   6
BYBLOCK
  62
0
  10
-1.0000000000000
  20
 0.16666666666667
  30
0.0
  11
0.0
  21
0.0
  31
0.0
   0
LINE
   5
91
 100
AcDbEntity
   8
0
 370
-2
 100
AcDbLine
   6
BYBLOCK
  62
0
  10
0.0
  20
0.0
  30
0.0
  11
-1.0000000000000
  21
-0.16666666666667
  31
0.0
   0
LINE
   5
92
 100
AcDbEntity
   8
0
 370
-2
 100
AcDbLine
   6
BYBLOCK
  62
0
  10
0.0
  20
0.0
  30
0.0
  11
-1.0000000000000
  21
0.0
  31
0.0
   0
ENDBLK
   5
93
 100
AcDbEntity
   8
0
 100
AcDbBlockEnd
   0
BLOCK
   5
94
 100
AcDbEntity
   8
0
 100
AcDbBlockBegin
   2
_OPEN30
  70
0
  10
0.0
  20
0.0
  30
0.0
   3
_OPEN30
   0
LINE
   5
95
 100
AcDbEntity
   8
0
 370
-2
 100
AcDbLine
   6
BYBLOCK
  62
0
  10
-1.0000000000000
  20
 0.26794919243110
  30
0.0
  11
0.0
  21
0.0
  31
0.0
   0
LINE
   5
96
 100
AcDbEntity
   8
0
 370
-2
 100
AcDbLine
   6
BYBLOCK
  62
0
  10
0.0
  20
0.0
  30
0.0
  11
-1.0000000000000
  21
-0.26794919243110
  31
0.0
   0
LINE
   5
97
 100
AcDbEntity
   8
0
 370
-2
 100
AcDbLine
   6
BYBLOCK
  62
0
  10
0.0
  20
0.0
  30
0.0
  11
-1.0000000000000
  21
0.0
  31
0.0
   0
ENDBLK
   5
98
 100
AcDbEntity
   8
0
 100
AcDbBlockEnd
   0
BLOCK
   5
99
 100
AcDbEntity
   8
0
 100
AcDbBlockBegin
   2
_OPEN90
  70
0
  10
0.0
  20
0.0
  30
0.0
   3
_OPEN90
   0
LINE
   5
9A
 100
AcDbEntity
   8
0
 370
-2
 100
AcDbLine
   6
BYBLOCK
  62
0
  10
-0.50000000000000
  20
 0.50000000000000
  30
0.0
  11
0.0
  21
0.0
  31
0.0
   0
LINE
   5
9B
 100
AcDbEntity
   8
0
 370
-2
 100
AcDbLine
   6
BYBLOCK
  62
0
  10
0.0
  20
0.0
  30
0.0
  11
-0.50000000000000
  21
-0.50000000000000
  31
0.0
   0
LINE
   5
9C
 100
AcDbEntity
   8
0
 370
-2
 100
AcDbLine
   6
BYBLOCK
  62
0
  10
0.0
  20
0.0
  30
0.0
  11
-1.0000000000000
  21
0.0
  31
0.0
   0
ENDBLK
   5
9D
 100
AcDbEntity
   8
0
 100
AcDbBlockEnd
   0
BLOCK
   5
9E
 100
AcDbEntity
   8
0
 100
AcDbBlockBegin
   2
_CLOSEDBLANK
  70
0
  10
0.0
  20
0.0
  30
0.0
   3
_CLOSEDBLANK
   0
LINE
   5
9F
 100
AcDbEntity
   8
0
 370
-2
 100
AcDbLine
   6
BYBLOCK
  62
0
  10
-1.0000000000000
  20
 0.16666666666667
  30
0.0
  11
0.0
  21
0.0
  31
0.0
   0
LINE
   5
A0
 100
AcDbEntity
   8
0
 370
-2
 100
AcDbLine
   6
BYBLOCK
  62
0
  10
0.0
  20
0.0
  30
0.0
  11
-1.0000000000000
  21
-0.16666666666667
  31
0.0
   0
LINE
   5
A1
 100
AcDbEntity
   8
0
 370
-2
 100
AcDbLine
   6
BYBLOCK
  62
0
  10
-1.0000000000000
  20
 0.16666666666667
  30
0.0
  11
-1.0000000000000
  21
-0.16666666666667
  31
0.0
   0
ENDBLK
   5
A2
 100
AcDbEntity
   8
0
 100
AcDbBlockEnd
   0
BLOCK
   5
A3
 100
AcDbEntity
   8
0
 100
AcDbBlockBegin
   2
_DOT
  70
0
  10
0.0
  20
0.0
  30
0.0
   3
_DOT
   0
POLYLINE
   5
A4
 100
AcDbEntity
   8
0
 370
-2
   6
BYBLOCK
  62
0
 100
AcDb2dPolyline
  66
1
  10
0.0
  20
0.0
  30
0.0
  70
1
  40
 0.50000000000000
  41
 0.50000000000000
   0
VERTEX
   5
A5
 100
AcDbEntity
   8
0
   6
BYBLOCK
  62
0
 100
AcDbVertex
 100
AcDb2dVertex
  10
-0.25000000000000
  20
0.0
  30
0.0
  42
 1.0000000000000
  40
 0.50000000000000
  41
 0.50000000000000
   0
VERTEX
   5
A6
 100
AcDbEntity
   8
0
   6
BYBLOCK
  62
0
 100
AcDbVertex
 100
AcDb2dVertex
  10
 0.25000000000000
  20
0.0
  30
0.0
  42
 1.0000000000000
  40
 0.50000000000000
  41
 0.50000000000000
   0
SEQEND
   5
A7
 100
AcDbEntity
   8
0
   6
BYBLOCK
  62
0
   0
LINE
   5
A8
 100
AcDbEntity
   8
0
 370
-2
 100
AcDbLine
   6
BYBLOCK
  62
0
  10
-0.50000000000000
  20
0.0
  30
0.0
  11
-1.0000000000000
  21
0.0
  31
0.0
   0
ENDBLK
   5
A9
 100
AcDbEntity
   8
0
 100
AcDbBlockEnd
   0
BLOCK
   5
AA
 100
AcDbEntity
   8
0
 100
AcDbBlockBegin
   2
_DOTSMALL
  70
0
  10
0.0
  20
0.0
  30
0.0
   3
_DOTSMALL
   0
POLYLINE
   5
AB
 100
AcDbEntity
   8
0
 370
-2
   6
BYBLOCK
  62
0
 100
AcDb2dPolyline
  66
1
  10
0.0
  20
0.0
  30
0.0
  70
1
  40
 0.50000000000000
  41
 0.50000000000000
   0
VERTEX
   5
AC
 100
AcDbEntity
   8
0
   6
BYBLOCK
  62
0
 100
AcDbVertex
 100
AcDb2dVertex
  10
-0.62500000000000E-1
  20
0.0
  30
0.0
  42
 1.0000000000000
  40
 0.50000000000000
  41
 0.50000000000000
   0
VERTEX
   5
AD
 100
AcDbEntity
   8
0
   6
BYBLOCK
  62
0
 100
AcDbVertex
 100
AcDb2dVertex
  10
 0.62500000000000E-1
  20
0.0
  30
0.0
  42
 1.0000000000000
  40
 0.50000000000000
  41
 0.50000000000000
   0
SEQEND
   5
AE
 100
AcDbEntity
   8
0
   6
BYBLOCK
  62
0
   0
ENDBLK
   5
AF
 100
AcDbEntity
   8
0
 100
AcDbBlockEnd
   0
BLOCK
   5
B0
 100
AcDbEntity
   8
0
 100
AcDbBlockBegin
   2
_DATUMBLANK
  70
0
  10
0.0
  20
0.0
  30
0.0
   3
_DATUMBLANK
   0
LINE
   5
B1
 100
AcDbEntity
   8
0
 370
-2
 100
AcDbLine
   6
BYBLOCK
  62
0
  10
0.0
  20
 0.57735027000000
  30
0.0
  11
-1.0000000000000
  21
0.0
  31
0.0
   0
LINE
   5
B2
 100
AcDbEntity
   8
0
 370
-2
 100
AcDbLine
   6
BYBLOCK
  62
0
  10
-1.0000000000000
  20
0.0
  30
0.0
  11
0.0
  21
-0.57735027000000
  31
0.0
   0
LINE
   5
B3
 100
AcDbEntity
   8
0
 370
-2
 100
AcDbLine
   6
BYBLOCK
  62
0
  10
0.0
  20
-0.57735027000000
  30
0.0
  11
0.0
  21
 0.57735027000000
  31
0.0
   0
ENDBLK
   5
B4
 100
AcDbEntity
   8
0
 100
AcDbBlockEnd
   0
BLOCK
   5
B5
 100
AcDbEntity
   8
0
 100
AcDbBlockBegin
   2
_DATUMFILLED
  70
0
  10
0.0
  20
0.0
  30
0.0
   3
_DATUMFILLED
   0
SOLID
   5
B6
 100
AcDbEntity
   8
0
 100
AcDbTrace
   6
BYBLOCK
  62
0
  10
0.0
  20
 0.57735027000000
  30
0.0
  11
-1.0000000000000
  21
0.0
  31
0.0
  12
0.0
  22
-0.57735027000000
  32
0.0
  13
0.0
  23
-0.57735027000000
  33
0.0
   0
ENDBLK
   5
B7
 100
AcDbEntity
   8
0
 100
AcDbBlockEnd
   0
BLOCK
   5
B8
 100
AcDbEntity
   8
0
 100
AcDbBlockBegin
   2
_ORIGIN
  70
0
  10
0.0
  20
0.0
  30
0.0
   3
_ORIGIN
   0
CIRCLE
   5
B9
 100
AcDbEntity
   8
0
 370
-2
 100
AcDbCircle
   6
BYBLOCK
  62
0
  10
0.0
  20
0.0
  30
0.0
  40
 0.50000000000000
   0
LINE
   5
BA
 100
AcDbEntity
   8
0
 370
-2
 100
AcDbLine
   6
BYBLOCK
  62
0
  10
0.0
  20
0.0
  30
0.0
  11
-1.0000000000000
  21
0.0
  31
0.0
   0
ENDBLK
   5
BB
 100
AcDbEntity
   8
0
 100
AcDbBlockEnd
   0
BLOCK
   5
BC
 100
AcDbEntity
   8
0
 100
AcDbBlockBegin
   2
_NONE
  70
0
  10
0.0
  20
0.0
  30
0.0
   3
_NONE
   0
CIRCLE
   5
BD
 100
AcDbEntity
   8
0
 370
-2
 100
AcDbCircle
   6
BYBLOCK
  62
0
  10
0.0
  20
0.0
  30
0.0
  40
 0.25000000000000
   0
ENDBLK
   5
BE
 100
AcDbEntity
   8
0
 100
AcDbBlockEnd
   0
BLOCK
   5
BF
 100
AcDbEntity
   8
0
 100
AcDbBlockBegin
   2
_DOTBLANK
  70
0
  10
0.0
  20
0.0
  30
0.0
   3
_DOTBLANK
   0
CIRCLE
   5
C0
 100
AcDbEntity
   8
0
 370
-2
 100
AcDbCircle
   6
BYBLOCK
  62
0
  10
0.0
  20
0.0
  30
0.0
  40
 0.50000000000000
   0
LINE
   5
C1
 100
AcDbEntity
   8
0
 370
-2
 100
AcDbLine
   6
BYBLOCK
  62
0
  10
-0.50000000000000
  20
0.0
  30
0.0
  11
-1.0000000000000
  21
0.0
  31
0.0
   0
ENDBLK
   5
C2
 100
AcDbEntity
   8
0
 100
AcDbBlockEnd
   0
BLOCK
   5
C3
 100
AcDbEntity
   8
0
 100
AcDbBlockBegin
   2
_INTEGRAL
  70
0
  10
0.0
  20
0.0
  30
0.0
   3
_INTEGRAL
   0
ARC
   5
C4
 100
AcDbEntity
   8
0
 370
-2
   6
BYBLOCK
  62
0
 100
AcDbCircle
  10
 0.44488800000000
  20
-0.91335000000000E-1
  30
0.0
  40
 0.45416700000000
 100
AcDbArc
  50
 102.00000000000
  51
 168.00000000000
   0
ARC
   5
C5
 100
AcDbEntity
   8
0
 370
-2
   6
BYBLOCK
  62
0
 100
AcDbCircle
  10
-0.44488800000000
  20
 0.91335000000000E-1
  30
0.0
  40
 0.45416700000000
 100
AcDbArc
  50
 282.00000000000
  51
 348.00000000000
   0
ENDBLK
   5
C6
 100
AcDbEntity
   8
0
 100
AcDbBlockEnd
   0
BLOCK
   5
C7
 100
AcDbEntity
   8
0
 100
AcDbBlockBegin
   2
*D1
  70
65
  10
0.0
  20
0.0
  30
0.0
   3
*D1
   0
LINE
   5
C8
 100
AcDbEntity
   8
0
 370
20
 100
AcDbLine
   6
CONTINUOUS
  62
8
  10
 1052.2966571804
  20
 1010.7536066099
  30
0.0
  11
 1088.1728416606
  21
 1010.7536066099
  31
0.0
   0
LINE
   5
C9
 100
AcDbEntity
   8
0
 370
20
 100
AcDbLine
   6
CONTINUOUS
  62
8
  10
 1052.2966571804
  20
 1035.7536066099
  30
0.0
  11
 1088.1728416606
  21
 1035.7536066099
  31
0.0
   0
LINE
   5
CA
 100
AcDbEntity
   8
0
 370
20
 100
AcDbLine
   6
CONTINUOUS
  62
8
  10
 1084.1728416606
  20
 1010.7536066099
  30
0.0
  11
 1084.1728416606
  21
 1023.2536066099
  31
0.0
   0
LINE
   5
CB
 100
AcDbEntity
   8
0
 370
20
 100
AcDbLine
   6
CONTINUOUS
  62
8
  10
 1084.1728416606
  20
 1035.7536066099
  30
0.0
  11
 1084.1728416606
  21
 1023.2536066099
  31
0.0
   0
SOLID
   5
CC
 100
AcDbEntity
   8
0
 100
AcDbTrace
   6
CONTINUOUS
  62
8
  10
 1084.1728416606
  20
 1010.7536066099
  30
0.0
  11
 1085.5834575063
  21
 1018.7536066099
  31
0.0
  12
 1082.7622258149
  22
 1018.7536066099
  32
0.0
  13
 1082.7622258149
  23
 1018.7536066099
  33
0.0
   0
SOLID
   5
CD
 100
AcDbEntity
   8
0
 100
AcDbTrace
   6
CONTINUOUS
  62
8
  10
 1084.1728416606
  20
 1035.7536066099
  30
0.0
  11
 1082.7622258149
  21
 1027.7536066099
  31
0.0
  12
 1085.5834575063
  22
 1027.7536066099
  32
0.0
  13
 1085.5834575063
  23
 1027.7536066099
  33
0.0
   0
MTEXT
   5
CE
 100
AcDbEntity
   8
0
 370
20
  62
8
 100
AcDbMText
  10
 1080.1728416606
  20
 1023.2536066099
  30
0.0
  40
 10.000000000000
  41
0.0
  71
8
  72
1
   1
\A1;25
   7
GMM001
  11
0.0
  21
 1.0000000000000
  31
0.0
   0
ENDBLK
   5
CF
 100
AcDbEntity
   8
0
 100
AcDbBlockEnd
   0
BLOCK
   5
D0
 100
AcDbEntity
   8
0
 100
AcDbBlockBegin
   2
*D4
  70
65
  10
0.0
  20
0.0
  30
0.0
   3
*D4
   0
LINE
   5
D1
 100
AcDbEntity
   8
0
 370
20
 100
AcDbLine
   6
CONTINUOUS
  62
8
  10
 367.29665718044
  20
 818.72197356779
  30
0.0
  11
 367.29665718044
  21
 838.72197356779
  31
0.0
   0
LINE
   5
D2
 100
AcDbEntity
   8
0
 370
20
 100
AcDbLine
   6
CONTINUOUS
  62
8
  10
 447.29665718044
  20
 818.72197356779
  30
0.0
  11
 447.29665718044
  21
 838.72197356779
  31
0.0
   0
LINE
   5
D3
 100
AcDbEntity
   8
0
 370
20
 100
AcDbLine
   6
CONTINUOUS
  62
8
  10
 367.29665718044
  20
 834.72197356779
  30
0.0
  11
 407.29665718044
  21
 834.72197356779
  31
0.0
   0
LINE
   5
D4
 100
AcDbEntity
   8
0
 370
20
 100
AcDbLine
   6
CONTINUOUS
  62
8
  10
 447.29665718044
  20
 834.72197356779
  30
0.0
  11
 407.29665718044
  21
 834.72197356779
  31
0.0
   0
SOLID
   5
D5
 100
AcDbEntity
   8
0
 100
AcDbTrace
   6
CONTINUOUS
  62
8
  10
 367.29665718044
  20
 834.72197356779
  30
0.0
  11
 375.29665718044
  21
 833.31135772212
  31
0.0
  12
 375.29665718044
  22
 836.13258941346
  32
0.0
  13
 375.29665718044
  23
 836.13258941346
  33
0.0
   0
SOLID
   5
D6
 100
AcDbEntity
   8
0
 100
AcDbTrace
   6
CONTINUOUS
  62
8
  10
 447.29665718044
  20
 834.72197356779
  30
0.0
  11
 439.29665718044
  21
 836.13258941346
  31
0.0
  12
 439.29665718044
  22
 833.31135772212
  32
0.0
  13
 439.29665718044
  23
 833.31135772212
  33
0.0
   0
MTEXT
   5
D7
 100
AcDbEntity
   8
0
 370
20
  62
8
 100
AcDbMText
  10
 407.29665718044
  20
 838.72197356779
  30
0.0
  40
 10.000000000000
  41
0.0
  71
8
  72
1
   1
\A1;80
   7
GMM001
   0
ENDBLK
   5
D8
 100
AcDbEntity
   8
0
 100
AcDbBlockEnd
   0
BLOCK
   5
D9
 100
AcDbEntity
   8
0
 100
AcDbBlockBegin
   2
*D5
  70
65
  10
0.0
  20
0.0
  30
0.0
   3
*D5
   0
LINE
   5
DA
 100
AcDbEntity
   8
0
 370
20
 100
AcDbLine
   6
CONTINUOUS
  62
8
  10
 257.52068126983
  20
 818.72197356779
  30
0.0
  11
 257.52068126983
  21
 838.72197356779
  31
0.0
   0
LINE
   5
DB
 100
AcDbEntity
   8
0
 370
20
 100
AcDbLine
   6
CONTINUOUS
  62
8
  10
 277.52068126983
  20
 818.72197356779
  30
0.0
  11
 277.52068126983
  21
 838.72197356779
  31
0.0
   0
LINE
   5
DC
 100
AcDbEntity
   8
0
 370
20
 100
AcDbLine
   6
CONTINUOUS
  62
8
  10
 257.52068126983
  20
 834.72197356779
  30
0.0
  11
 267.52068126983
  21
 834.72197356779
  31
0.0
   0
LINE
   5
DD
 100
AcDbEntity
   8
0
 370
20
 100
AcDbLine
   6
CONTINUOUS
  62
8
  10
 277.52068126983
  20
 834.72197356779
  30
0.0
  11
 267.52068126983
  21
 834.72197356779
  31
0.0
   0
SOLID
   5
DE
 100
AcDbEntity
   8
0
 100
AcDbTrace
   6
CONTINUOUS
  62
8
  10
 257.52068126983
  20
 834.72197356779
  30
0.0
  11
 265.52068126983
  21
 833.31135772212
  31
0.0
  12
 265.52068126983
  22
 836.13258941346
  32
0.0
  13
 265.52068126983
  23
 836.13258941346
  33
0.0
   0
SOLID
   5
DF
 100
AcDbEntity
   8
0
 100
AcDbTrace
   6
CONTINUOUS
  62
8
  10
 277.52068126983
  20
 834.72197356779
  30
0.0
  11
 269.52068126983
  21
 836.13258941346
  31
0.0
  12
 269.52068126983
  22
 833.31135772212
  32
0.0
  13
 269.52068126983
  23
 833.31135772212
  33
0.0
   0
MTEXT
   5
E0
 100
AcDbEntity
   8
0
 370
20
  62
8
 100
AcDbMText
  10
 267.52068126983
  20
 838.72197356779
  30
0.0
  40
 10.000000000000
  41
0.0
  71
8
  72
1
   1
\A1;20
   7
GMM001
   0
ENDBLK
   5
E1
 100
AcDbEntity
   8
0
 100
AcDbBlockEnd
   0
BLOCK
   5
E2
 100
AcDbEntity
   8
0
 100
AcDbBlockBegin
   2
*D6
  70
65
  10
0.0
  20
0.0
  30
0.0
   3
*D6
   0
LINE
   5
E3
 100
AcDbEntity
   8
0
 370
20
 100
AcDbLine
   6
CONTINUOUS
  62
8
  10
 970.29665718044
  20
 818.72197356759
  30
0.0
  11
 970.29665718044
  21
 839.84735734078
  31
0.0
   0
LINE
   5
E4
 100
AcDbEntity
   8
0
 370
20
 100
AcDbLine
   6
CONTINUOUS
  62
8
  10
 1050.2966571804
  20
 818.72197356759
  30
0.0
  11
 1050.2966571804
  21
 839.84735734078
  31
0.0
   0
LINE
   5
E5
 100
AcDbEntity
   8
0
 370
20
 100
AcDbLine
   6
CONTINUOUS
  62
8
  10
 970.29665718044
  20
 835.84735734078
  30
0.0
  11
 1010.2966571804
  21
 835.84735734078
  31
0.0
   0
LINE
   5
E6
 100
AcDbEntity
   8
0
 370
20
 100
AcDbLine
   6
CONTINUOUS
  62
8
  10
 1050.2966571804
  20
 835.84735734078
  30
0.0
  11
 1010.2966571804
  21
 835.84735734078
  31
0.0
   0
SOLID
   5
E7
 100
AcDbEntity
   8
0
 100
AcDbTrace
   6
CONTINUOUS
  62
8
  10
 970.29665718044
  20
 835.84735734078
  30
0.0
  11
 978.29665718044
  21
 834.43674149511
  31
0.0
  12
 978.29665718044
  22
 837.25797318644
  32
0.0
  13
 978.29665718044
  23
 837.25797318644
  33
0.0
   0
SOLID
   5
E8
 100
AcDbEntity
   8
0
 100
AcDbTrace
   6
CONTINUOUS
  62
8
  10
 1050.2966571804
  20
 835.84735734078
  30
0.0
  11
 1042.2966571804
  21
 837.25797318644
  31
0.0
  12
 1042.2966571804
  22
 834.43674149511
  32
0.0
  13
 1042.2966571804
  23
 834.43674149511
  33
0.0
   0
MTEXT
   5
E9
 100
AcDbEntity
   8
0
 370
20
  62
8
 100
AcDbMText
  10
 1010.2966571804
  20
 839.84735734078
  30
0.0
  40
 10.000000000000
  41
0.0
  71
8
  72
1
   1
\A1;80
   7
GMM001
   0
ENDBLK
   5
EA
 100
AcDbEntity
   8
0
 100
AcDbBlockEnd
   0
BLOCK
   5
EB
 100
AcDbEntity
   8
0
 100
AcDbBlockBegin
   2
*D7
  70
65
  10
0.0
  20
0.0
  30
0.0
   3
*D7
   0
LINE
   5
EC
 100
AcDbEntity
   8
0
 370
20
 100
AcDbLine
   6
CONTINUOUS
  62
8
  10
 858.02068126983
  20
 818.72197356759
  30
0.0
  11
 858.02068126983
  21
 839.84735734078
  31
0.0
   0
LINE
   5
ED
 100
AcDbEntity
   8
0
 370
20
 100
AcDbLine
   6
CONTINUOUS
  62
8
  10
 883.02068126983
  20
 818.72197356759
  30
0.0
  11
 883.02068126983
  21
 839.84735734078
  31
0.0
   0
LINE
   5
EE
 100
AcDbEntity
   8
0
 370
20
 100
AcDbLine
   6
CONTINUOUS
  62
8
  10
 858.02068126983
  20
 835.84735734078
  30
0.0
  11
 870.52068126983
  21
 835.84735734078
  31
0.0
   0
LINE
   5
EF
 100
AcDbEntity
   8
0
 370
20
 100
AcDbLine
   6
CONTINUOUS
  62
8
  10
 883.02068126983
  20
 835.84735734078
  30
0.0
  11
 870.52068126983
  21
 835.84735734078
  31
0.0
   0
SOLID
   5
F0
 100
AcDbEntity
   8
0
 100
AcDbTrace
   6
CONTINUOUS
  62
8
  10
 858.02068126983
  20
 835.84735734078
  30
0.0
  11
 866.02068126983
  21
 834.43674149511
  31
0.0
  12
 866.02068126983
  22
 837.25797318644
  32
0.0
  13
 866.02068126983
  23
 837.25797318644
  33
0.0
   0
SOLID
   5
F1
 100
AcDbEntity
   8
0
 100
AcDbTrace
   6
CONTINUOUS
  62
8
  10
 883.02068126983
  20
 835.84735734078
  30
0.0
  11
 875.02068126983
  21
 837.25797318644
  31
0.0
  12
 875.02068126983
  22
 834.43674149511
  32
0.0
  13
 875.02068126983
  23
 834.43674149511
  33
0.0
   0
MTEXT
   5
F2
 100
AcDbEntity
   8
0
 370
20
  62
8
 100
AcDbMText
  10
 870.52068126983
  20
 839.84735734078
  30
0.0
  40
 10.000000000000
  41
0.0
  71
8
  72
1
   1
\A1;25
   7
GMM001
   0
ENDBLK
   5
F3
 100
AcDbEntity
   8
0
 100
AcDbBlockEnd
   0
BLOCK
   5
F4
 100
AcDbEntity
   8
0
 100
AcDbBlockBegin
   2
*D8
  70
65
  10
0.0
  20
0.0
  30
0.0
   3
*D8
   0
LINE
   5
F5
 100
AcDbEntity
   8
0
 370
20
 100
AcDbLine
   6
CONTINUOUS
  62
8
  10
 451.29665718044
  20
 812.22197356779
  30
0.0
  11
 473.54512331723
  21
 812.22197356779
  31
0.0
   0
LINE
   5
F6
 100
AcDbEntity
   8
0
 370
20
 100
AcDbLine
   6
CONTINUOUS
  62
8
  10
 451.29665718044
  20
 814.72197356779
  30
0.0
  11
 473.54512331723
  21
 814.72197356779
  31
0.0
   0
LINE
   5
F7
 100
AcDbEntity
   8
0
 370
20
 100
AcDbLine
   6
CONTINUOUS
  62
8
  10
 469.54512331723
  20
 802.22197356779
  30
0.0
  11
 469.54512331723
  21
 813.47197356779
  31
0.0
   0
LINE
   5
F8
 100
AcDbEntity
   8
0
 370
20
 100
AcDbLine
   6
CONTINUOUS
  62
8
  10
 469.54512331723
  20
 845.59741748534
  30
0.0
  11
 469.54512331723
  21
 813.47197356779
  31
0.0
   0
SOLID
   5
F9
 100
AcDbEntity
   8
0
 100
AcDbTrace
   6
CONTINUOUS
  62
8
  10
 469.54512331723
  20
 812.22197356779
  30
0.0
  11
 468.13450747156
  21
 804.22197356779
  31
0.0
  12
 470.95573916290
  22
 804.22197356779
  32
0.0
  13
 470.95573916290
  23
 804.22197356779
  33
0.0
   0
SOLID
   5
FA
 100
AcDbEntity
   8
0
 100
AcDbTrace
   6
CONTINUOUS
  62
8
  10
 469.54512331723
  20
 814.72197356779
  30
0.0
  11
 470.95573916290
  21
 822.72197356779
  31
0.0
  12
 468.13450747156
  22
 822.72197356779
  32
0.0
  13
 468.13450747156
  23
 822.72197356779
  33
0.0
   0
MTEXT
   5
FB
 100
AcDbEntity
   8
0
 370
20
  62
8
 100
AcDbMText
  10
 465.13409574827
  20
 823.59741748534
  30
0.0
  40
 10.000000000000
  41
0.0
  71
7
  72
1
   1
\A1;2.5
   7
GMM001
  11
0.0
  21
 1.0000000000000
  31
0.0
   0
ENDBLK
   5
FC
 100
AcDbEntity
   8
0
 100
AcDbBlockEnd
   0
BLOCK
   5
FD
 100
AcDbEntity
   8
0
 100
AcDbBlockBegin
   2
*D9
  70
65
  10
0.0
  20
0.0
  30
0.0
   3
*D9
   0
LINE
   5
FE
 100
AcDbEntity
   8
0
 370
20
 100
AcDbLine
   6
CONTINUOUS
  62
8
  10
 449.29665718044
  20
 1013.2536066101
  30
0.0
  11
 473.54512331723
  21
 1013.2536066101
  31
0.0
   0
LINE
   5
FF
 100
AcDbEntity
   8
0
 370
20
 100
AcDbLine
   6
CONTINUOUS
  62
8
  10
 449.29665718044
  20
 1033.2536066101
  30
0.0
  11
 473.54512331723
  21
 1033.2536066101
  31
0.0
   0
LINE
   5
100
 100
AcDbEntity
   8
0
 370
20
 100
AcDbLine
   6
CONTINUOUS
  62
8
  10
 469.54512331723
  20
 1013.2536066101
  30
0.0
  11
 469.54512331723
  21
 1023.2536066101
  31
0.0
   0
LINE
   5
101
 100
AcDbEntity
   8
0
 370
20
 100
AcDbLine
   6
CONTINUOUS
  62
8
  10
 469.54512331723
  20
 1033.2536066101
  30
0.0
  11
 469.54512331723
  21
 1023.2536066101
  31
0.0
   0
SOLID
   5
102
 100
AcDbEntity
   8
0
 100
AcDbTrace
   6
CONTINUOUS
  62
8
  10
 469.54512331723
  20
 1013.2536066101
  30
0.0
  11
 470.95573916290
  21
 1021.2536066101
  31
0.0
  12
 468.13450747156
  22
 1021.2536066101
  32
0.0
  13
 468.13450747156
  23
 1021.2536066101
  33
0.0
   0
SOLID
   5
103
 100
AcDbEntity
   8
0
 100
AcDbTrace
   6
CONTINUOUS
  62
8
  10
 469.54512331723
  20
 1033.2536066101
  30
0.0
  11
 468.13450747156
  21
 1025.2536066101
  31
0.0
  12
 470.95573916290
  22
 1025.2536066101
  32
0.0
  13
 470.95573916290
  23
 1025.2536066101
  33
0.0
   0
MTEXT
   5
104
 100
AcDbEntity
   8
0
 370
20
  62
8
 100
AcDbMText
  10
 465.54512331723
  20
 1023.2536066101
  30
0.0
  40
 10.000000000000
  41
0.0
  71
8
  72
1
   1
\A1;20
   7
GMM001
  11
0.0
  21
 1.0000000000000
  31
0.0
   0
ENDBLK
   5
105
 100
AcDbEntity
   8
0
 100
AcDbBlockEnd
   0
BLOCK
   5
106
 100
AcDbEntity
   8
0
 100
AcDbBlockBegin
   2
*D10
  70
65
  10
0.0
  20
0.0
  30
0.0
   3
*D10
   0
LINE
   5
107
 100
AcDbEntity
   8
0
 370
20
 100
AcDbLine
   6
CONTINUOUS
  62
8
  10
 1054.2966571804
  20
 812.22197356779
  30
0.0
  11
 1076.5451233172
  21
 812.22197356779
  31
0.0
   0
LINE
   5
108
 100
AcDbEntity
   8
0
 370
20
 100
AcDbLine
   6
CONTINUOUS
  62
8
  10
 1054.2966571804
  20
 814.72197356779
  30
0.0
  11
 1076.5451233172
  21
 814.72197356779
  31
0.0
   0
LINE
   5
109
 100
AcDbEntity
   8
0
 370
20
 100
AcDbLine
   6
CONTINUOUS
  62
8
  10
 1072.5451233172
  20
 802.22197356779
  30
0.0
  11
 1072.5451233172
  21
 813.47197356779
  31
0.0
   0
LINE
   5
10A
 100
AcDbEntity
   8
0
 370
20
 100
AcDbLine
   6
CONTINUOUS
  62
8
  10
 1072.5451233172
  20
 845.59741748534
  30
0.0
  11
 1072.5451233172
  21
 813.47197356779
  31
0.0
   0
SOLID
   5
10B
 100
AcDbEntity
   8
0
 100
AcDbTrace
   6
CONTINUOUS
  62
8
  10
 1072.5451233172
  20
 812.22197356779
  30
0.0
  11
 1071.1345074716
  21
 804.22197356779
  31
0.0
  12
 1073.9557391629
  22
 804.22197356779
  32
0.0
  13
 1073.9557391629
  23
 804.22197356779
  33
0.0
   0
SOLID
   5
10C
 100
AcDbEntity
   8
0
 100
AcDbTrace
   6
CONTINUOUS
  62
8
  10
 1072.5451233172
  20
 814.72197356779
  30
0.0
  11
 1073.9557391629
  21
 822.72197356779
  31
0.0
  12
 1071.1345074716
  22
 822.72197356779
  32
0.0
  13
 1071.1345074716
  23
 822.72197356779
  33
0.0
   0
MTEXT
   5
10D
 100
AcDbEntity
   8
0
 370
20
  62
8
 100
AcDbMText
  10
 1068.1340957483
  20
 823.59741748534
  30
0.0
  40
 10.000000000000
  41
0.0
  71
7
  72
1
   1
\A1;2.5
   7
GMM001
  11
0.0
  21
 1.0000000000000
  31
0.0
   0
ENDBLK
   5
10E
 100
AcDbEntity
   8
0
 100
AcDbBlockEnd
   0
BLOCK
   5
10F
 100
AcDbEntity
   8
0
 100
AcDbBlockBegin
   2
*D11
  70
65
  10
0.0
  20
0.0
  30
0.0
   3
*D11
   0
LINE
   5
110
 100
AcDbEntity
   8
0
 370
20
 100
AcDbLine
   6
CONTINUOUS
  62
8
  10
 367.29665718044
  20
 1011.2536066101
  30
0.0
  11
 367.29665718044
  21
 931.75360661013
  31
0.0
   0
LINE
   5
111
 100
AcDbEntity
   8
0
 370
20
 100
AcDbLine
   6
CONTINUOUS
  62
8
  10
 447.29665718044
  20
 1011.2536066101
  30
0.0
  11
 447.29665718044
  21
 931.75360661013
  31
0.0
   0
LINE
   5
112
 100
AcDbEntity
   8
0
 370
20
 100
AcDbLine
   6
CONTINUOUS
  62
8
  10
 367.29665718044
  20
 935.75360661013
  30
0.0
  11
 407.29665718044
  21
 935.75360661013
  31
0.0
   0
LINE
   5
113
 100
AcDbEntity
   8
0
 370
20
 100
AcDbLine
   6
CONTINUOUS
  62
8
  10
 447.29665718044
  20
 935.75360661013
  30
0.0
  11
 407.29665718044
  21
 935.75360661013
  31
0.0
   0
SOLID
   5
114
 100
AcDbEntity
   8
0
 100
AcDbTrace
   6
CONTINUOUS
  62
8
  10
 367.29665718044
  20
 935.75360661013
  30
0.0
  11
 375.29665718044
  21
 934.34299076446
  31
0.0
  12
 375.29665718044
  22
 937.16422245580
  32
0.0
  13
 375.29665718044
  23
 937.16422245580
  33
0.0
   0
SOLID
   5
115
 100
AcDbEntity
   8
0
 100
AcDbTrace
   6
CONTINUOUS
  62
8
  10
 447.29665718044
  20
 935.75360661013
  30
0.0
  11
 439.29665718044
  21
 937.16422245580
  31
0.0
  12
 439.29665718044
  22
 934.34299076446
  32
0.0
  13
 439.29665718044
  23
 934.34299076446
  33
0.0
   0
MTEXT
   5
116
 100
AcDbEntity
   8
0
 370
20
  62
8
 100
AcDbMText
  10
 407.29665718044
  20
 939.75360661013
  30
0.0
  40
 10.000000000000
  41
0.0
  71
8
  72
1
   1
\A1;80
   7
GMM001
   0
ENDBLK
   5
117
 100
AcDbEntity
   8
0
 100
AcDbBlockEnd
   0
BLOCK
   5
118
 100
AcDbEntity
   8
0
 100
AcDbBlockBegin
   2
*D12
  70
65
  10
0.0
  20
0.0
  30
0.0
   3
*D12
   0
LINE
   5
119
 100
AcDbEntity
   8
0
 370
20
 100
AcDbLine
   6
CONTINUOUS
  62
8
  10
 377.29665718044
  20
 1016.0027073623
  30
0.0
  11
 377.29665718044
  21
 951.75360661013
  31
0.0
   0
LINE
   5
11A
 100
AcDbEntity
   8
0
 370
20
 100
AcDbLine
   6
CONTINUOUS
  62
8
  10
 437.29665718044
  20
 1011.3293661610
  30
0.0
  11
 437.29665718044
  21
 951.75360661013
  31
0.0
   0
LINE
   5
11B
 100
AcDbEntity
   8
0
 370
20
 100
AcDbLine
   6
CONTINUOUS
  62
8
  10
 377.29665718044
  20
 955.75360661013
  30
0.0
  11
 407.29665718044
  21
 955.75360661013
  31
0.0
   0
LINE
   5
11C
 100
AcDbEntity
   8
0
 370
20
 100
AcDbLine
   6
CONTINUOUS
  62
8
  10
 437.29665718044
  20
 955.75360661013
  30
0.0
  11
 407.29665718044
  21
 955.75360661013
  31
0.0
   0
SOLID
   5
11D
 100
AcDbEntity
   8
0
 100
AcDbTrace
   6
CONTINUOUS
  62
8
  10
 377.29665718044
  20
 955.75360661013
  30
0.0
  11
 385.29665718044
  21
 954.34299076446
  31
0.0
  12
 385.29665718044
  22
 957.16422245580
  32
0.0
  13
 385.29665718044
  23
 957.16422245580
  33
0.0
   0
SOLID
   5
11E
 100
AcDbEntity
   8
0
 100
AcDbTrace
   6
CONTINUOUS
  62
8
  10
 437.29665718044
  20
 955.75360661013
  30
0.0
  11
 429.29665718044
  21
 957.16422245580
  31
0.0
  12
 429.29665718044
  22
 954.34299076446
  32
0.0
  13
 429.29665718044
  23
 954.34299076446
  33
0.0
   0
MTEXT
   5
11F
 100
AcDbEntity
   8
0
 370
20
  62
8
 100
AcDbMText
  10
 407.29665718044
  20
 959.75360661013
  30
0.0
  40
 10.000000000000
  41
0.0
  71
8
  72
1
   1
\A1;60
   7
GMM001
   0
ENDBLK
   5
120
 100
AcDbEntity
   8
0
 100
AcDbBlockEnd
   0
BLOCK
   5
121
 100
AcDbEntity
   8
0
 100
AcDbBlockBegin
   2
*D13
  70
65
  10
0.0
  20
0.0
  30
0.0
   3
*D13
   0
LINE
   5
122
 100
AcDbEntity
   8
0
 370
20
 100
AcDbLine
   6
CONTINUOUS
  62
8
  10
 980.29665718044
  20
 1017.7361591578
  30
0.0
  11
 980.29665718044
  21
 951.75360661013
  31
0.0
   0
LINE
   5
123
 100
AcDbEntity
   8
0
 370
20
 100
AcDbLine
   6
CONTINUOUS
  62
8
  10
 1040.2966571804
  20
 1007.7361591578
  30
0.0
  11
 1040.2966571804
  21
 951.75360661013
  31
0.0
   0
LINE
   5
124
 100
AcDbEntity
   8
0
 370
20
 100
AcDbLine
   6
CONTINUOUS
  62
8
  10
 980.29665718044
  20
 955.75360661013
  30
0.0
  11
 1010.2966571804
  21
 955.75360661013
  31
0.0
   0
LINE
   5
125
 100
AcDbEntity
   8
0
 370
20
 100
AcDbLine
   6
CONTINUOUS
  62
8
  10
 1040.2966571804
  20
 955.75360661013
  30
0.0
  11
 1010.2966571804
  21
 955.75360661013
  31
0.0
   0
SOLID
   5
126
 100
AcDbEntity
   8
0
 100
AcDbTrace
   6
CONTINUOUS
  62
8
  10
 980.29665718044
  20
 955.75360661013
  30
0.0
  11
 988.29665718044
  21
 954.34299076446
  31
0.0
  12
 988.29665718044
  22
 957.16422245580
  32
0.0
  13
 988.29665718044
  23
 957.16422245580
  33
0.0
   0
SOLID
   5
127
 100
AcDbEntity
   8
0
 100
AcDbTrace
   6
CONTINUOUS
  62
8
  10
 1040.2966571804
  20
 955.75360661013
  30
0.0
  11
 1032.2966571804
  21
 957.16422245580
  31
0.0
  12
 1032.2966571804
  22
 954.34299076446
  32
0.0
  13
 1032.2966571804
  23
 954.34299076446
  33
0.0
   0
MTEXT
   5
128
 100
AcDbEntity
   8
0
 370
20
  62
8
 100
AcDbMText
  10
 1010.2966571804
  20
 959.75360661013
  30
0.0
  40
 10.000000000000
  41
0.0
  71
8
  72
1
   1
\A1;60
   7
GMM001
   0
ENDBLK
   5
129
 100
AcDbEntity
   8
0
 100
AcDbBlockEnd
   0
BLOCK
   5
12A
 100
AcDbEntity
   8
0
 100
AcDbBlockBegin
   2
*D14
  70
65
  10
0.0
  20
0.0
  30
0.0
   3
*D14
   0
LINE
   5
12B
 100
AcDbEntity
   8
0
 370
20
 100
AcDbLine
   6
CONTINUOUS
  62
8
  10
 970.29665718044
  20
 1008.7536066099
  30
0.0
  11
 970.29665718044
  21
 931.75360661013
  31
0.0
   0
LINE
   5
12C
 100
AcDbEntity
   8
0
 370
20
 100
AcDbLine
   6
CONTINUOUS
  62
8
  10
 1050.2966571804
  20
 1008.7536066099
  30
0.0
  11
 1050.2966571804
  21
 931.75360661013
  31
0.0
   0
LINE
   5
12D
 100
AcDbEntity
   8
0
 370
20
 100
AcDbLine
   6
CONTINUOUS
  62
8
  10
 970.29665718044
  20
 935.75360661013
  30
0.0
  11
 1010.2966571804
  21
 935.75360661013
  31
0.0
   0
LINE
   5
12E
 100
AcDbEntity
   8
0
 370
20
 100
AcDbLine
   6
CONTINUOUS
  62
8
  10
 1050.2966571804
  20
 935.75360661013
  30
0.0
  11
 1010.2966571804
  21
 935.75360661013
  31
0.0
   0
SOLID
   5
12F
 100
AcDbEntity
   8
0
 100
AcDbTrace
   6
CONTINUOUS
  62
8
  10
 970.29665718044
  20
 935.75360661013
  30
0.0
  11
 978.29665718044
  21
 934.34299076446
  31
0.0
  12
 978.29665718044
  22
 937.16422245580
  32
0.0
  13
 978.29665718044
  23
 937.16422245580
  33
0.0
   0
SOLID
   5
130
 100
AcDbEntity
   8
0
 100
AcDbTrace
   6
CONTINUOUS
  62
8
  10
 1050.2966571804
  20
 935.75360661013
  30
0.0
  11
 1042.2966571804
  21
 937.16422245580
  31
0.0
  12
 1042.2966571804
  22
 934.34299076446
  32
0.0
  13
 1042.2966571804
  23
 934.34299076446
  33
0.0
   0
MTEXT
   5
131
 100
AcDbEntity
   8
0
 370
20
  62
8
 100
AcDbMText
  10
 1010.2966571804
  20
 939.75360661013
  30
0.0
  40
 10.000000000000
  41
0.0
  71
8
  72
1
   1
\A1;80
   7
GMM001
   0
ENDBLK
   5
132
 100
AcDbEntity
   8
0
 100
AcDbBlockEnd
   0
BLOCK
   5
133
 100
AcDbEntity
   8
0
 100
AcDbBlockBegin
   2
*D15
  70
65
  10
0.0
  20
0.0
  30
0.0
   3
*D15
   0
LINE
   5
134
 100
AcDbEntity
   8
0
 370
20
 100
AcDbLine
   6
CONTINUOUS
  62
8
  10
 240.02068126983
  20
 704.72197356779
  30
0.0
  11
 240.02068126983
  21
 674.72197356779
  31
0.0
   0
LINE
   5
135
 100
AcDbEntity
   8
0
 370
20
 100
AcDbLine
   6
CONTINUOUS
  62
8
  10
 295.02068126983
  20
 704.72197356779
  30
0.0
  11
 295.02068126983
  21
 674.72197356779
  31
0.0
   0
LINE
   5
136
 100
AcDbEntity
   8
0
 370
20
 100
AcDbLine
   6
CONTINUOUS
  62
8
  10
 240.02068126983
  20
 678.72197356779
  30
0.0
  11
 267.52068126983
  21
 678.72197356779
  31
0.0
   0
LINE
   5
137
 100
AcDbEntity
   8
0
 370
20
 100
AcDbLine
   6
CONTINUOUS
  62
8
  10
 295.02068126983
  20
 678.72197356779
  30
0.0
  11
 267.52068126983
  21
 678.72197356779
  31
0.0
   0
SOLID
   5
138
 100
AcDbEntity
   8
0
 100
AcDbTrace
   6
CONTINUOUS
  62
8
  10
 240.02068126983
  20
 678.72197356779
  30
0.0
  11
 248.02068126983
  21
 677.31135772212
  31
0.0
  12
 248.02068126983
  22
 680.13258941346
  32
0.0
  13
 248.02068126983
  23
 680.13258941346
  33
0.0
   0
SOLID
   5
139
 100
AcDbEntity
   8
0
 100
AcDbTrace
   6
CONTINUOUS
  62
8
  10
 295.02068126983
  20
 678.72197356779
  30
0.0
  11
 287.02068126983
  21
 680.13258941346
  31
0.0
  12
 287.02068126983
  22
 677.31135772212
  32
0.0
  13
 287.02068126983
  23
 677.31135772212
  33
0.0
   0
MTEXT
   5
13A
 100
AcDbEntity
   8
0
 370
20
  62
8
 100
AcDbMText
  10
 267.52068126983
  20
 682.72197356779
  30
0.0
  40
 10.000000000000
  41
0.0
  71
8
  72
1
   1
\A1;55
   7
GMM001
   0
ENDBLK
   5
13B
 100
AcDbEntity
   8
0
 100
AcDbBlockEnd
   0
BLOCK
   5
13C
 100
AcDbEntity
   8
0
 100
AcDbBlockBegin
   2
*D17
  70
65
  10
0.0
  20
0.0
  30
0.0
   3
*D17
   0
LINE
   5
13D
 100
AcDbEntity
   8
0
 370
20
 100
AcDbLine
   6
CONTINUOUS
  62
8
  10
 285.52068126983
  20
 767.40416449580
  30
0.0
  11
 267.52068126983
  21
 767.40416449580
  31
0.0
   0
LINE
   5
13E
 100
AcDbEntity
   8
0
 370
20
 100
AcDbLine
   6
CONTINUOUS
  62
8
  10
 236.82134163944
  20
 767.40416449580
  30
0.0
  11
 267.52068126983
  21
 767.40416449580
  31
0.0
   0
SOLID
   5
13F
 100
AcDbEntity
   8
0
 100
AcDbTrace
   6
CONTINUOUS
  62
8
  10
 275.52068126983
  20
 767.40416449580
  30
0.0
  11
 283.52068126983
  21
 765.99354865013
  31
0.0
  12
 283.52068126983
  22
 768.81478034147
  32
0.0
  13
 283.52068126983
  23
 768.81478034147
  33
0.0
   0
SOLID
   5
140
 100
AcDbEntity
   8
0
 100
AcDbTrace
   6
CONTINUOUS
  62
8
  10
 259.52068126983
  20
 767.40416449580
  30
0.0
  11
 251.52068126983
  21
 768.81478034147
  31
0.0
  12
 251.52068126983
  22
 765.99354865013
  32
0.0
  13
 251.52068126983
  23
 765.99354865013
  33
0.0
   0
MTEXT
   5
141
 100
AcDbEntity
   8
0
 370
20
  62
8
 100
AcDbMText
  10
 254.82134163944
  20
 771.40416449580
  30
0.0
  40
 10.000000000000
  41
0.0
  71
9
  72
1
   1
\A1;16
   7
GMM001
   0
ENDBLK
   5
142
 100
AcDbEntity
   8
0
 100
AcDbBlockEnd
   0
BLOCK
   5
143
 100
AcDbEntity
   8
0
 100
AcDbBlockBegin
   2
*D18
  70
65
  10
0.0
  20
0.0
  30
0.0
   3
*D18
   0
LINE
   5
144
 100
AcDbEntity
   8
0
 370
20
 100
AcDbLine
   6
CONTINUOUS
  62
8
  10
 843.02068126983
  20
 704.72197356759
  30
0.0
  11
 843.02068126983
  21
 674.72197356759
  31
0.0
   0
LINE
   5
145
 100
AcDbEntity
   8
0
 370
20
 100
AcDbLine
   6
CONTINUOUS
  62
8
  10
 898.02068126983
  20
 704.72197356759
  30
0.0
  11
 898.02068126983
  21
 674.72197356759
  31
0.0
   0
LINE
   5
146
 100
AcDbEntity
   8
0
 370
20
 100
AcDbLine
   6
CONTINUOUS
  62
8
  10
 843.02068126983
  20
 678.72197356759
  30
0.0
  11
 870.52068126983
  21
 678.72197356759
  31
0.0
   0
LINE
   5
147
 100
AcDbEntity
   8
0
 370
20
 100
AcDbLine
   6
CONTINUOUS
  62
8
  10
 898.02068126983
  20
 678.72197356759
  30
0.0
  11
 870.52068126983
  21
 678.72197356759
  31
0.0
   0
SOLID
   5
148
 100
AcDbEntity
   8
0
 100
AcDbTrace
   6
CONTINUOUS
  62
8
  10
 843.02068126983
  20
 678.72197356759
  30
0.0
  11
 851.02068126983
  21
 677.31135772192
  31
0.0
  12
 851.02068126983
  22
 680.13258941325
  32
0.0
  13
 851.02068126983
  23
 680.13258941325
  33
0.0
   0
SOLID
   5
149
 100
AcDbEntity
   8
0
 100
AcDbTrace
   6
CONTINUOUS
  62
8
  10
 898.02068126983
  20
 678.72197356759
  30
0.0
  11
 890.02068126983
  21
 680.13258941325
  31
0.0
  12
 890.02068126983
  22
 677.31135772192
  32
0.0
  13
 890.02068126983
  23
 677.31135772192
  33
0.0
   0
MTEXT
   5
14A
 100
AcDbEntity
   8
0
 370
20
  62
8
 100
AcDbMText
  10
 870.52068126983
  20
 682.72197356759
  30
0.0
  40
 10.000000000000
  41
0.0
  71
8
  72
1
   1
\A1;55
   7
GMM001
   0
ENDBLK
   5
14B
 100
AcDbEntity
   8
0
 100
AcDbBlockEnd
   0
BLOCK
   5
14C
 100
AcDbEntity
   8
0
 100
AcDbBlockBegin
   2
*D20
  70
65
  10
0.0
  20
0.0
  30
0.0
   3
*D20
   0
LINE
   5
14D
 100
AcDbEntity
   8
0
 370
20
 100
AcDbLine
   6
CONTINUOUS
  62
8
  10
 888.52068126983
  20
 767.40416449560
  30
0.0
  11
 870.52068126983
  21
 767.40416449560
  31
0.0
   0
LINE
   5
14E
 100
AcDbEntity
   8
0
 370
20
 100
AcDbLine
   6
CONTINUOUS
  62
8
  10
 839.82134163944
  20
 767.40416449560
  30
0.0
  11
 870.52068126983
  21
 767.40416449560
  31
0.0
   0
SOLID
   5
14F
 100
AcDbEntity
   8
0
 100
AcDbTrace
   6
CONTINUOUS
  62
8
  10
 878.52068126983
  20
 767.40416449560
  30
0.0
  11
 886.52068126983
  21
 765.99354864993
  31
0.0
  12
 886.52068126983
  22
 768.81478034127
  32
0.0
  13
 886.52068126983
  23
 768.81478034127
  33
0.0
   0
SOLID
   5
150
 100
AcDbEntity
   8
0
 100
AcDbTrace
   6
CONTINUOUS
  62
8
  10
 862.52068126983
  20
 767.40416449560
  30
0.0
  11
 854.52068126983
  21
 768.81478034127
  31
0.0
  12
 854.52068126983
  22
 765.99354864993
  32
0.0
  13
 854.52068126983
  23
 765.99354864993
  33
0.0
   0
MTEXT
   5
151
 100
AcDbEntity
   8
0
 370
20
  62
8
 100
AcDbMText
  10
 857.82134163944
  20
 771.40416449560
  30
0.0
  40
 10.000000000000
  41
0.0
  71
9
  72
1
   1
\A1;16
   7
GMM001
   0
ENDBLK
   5
152
 100
AcDbEntity
   8
0
 100
AcDbBlockEnd
   0
BLOCK
   5
153
 100
AcDbEntity
   8
0
 100
AcDbBlockBegin
   2
*D21
  70
65
  10
0.0
  20
0.0
  30
0.0
   3
*D21
   0
LINE
   5
154
 100
AcDbEntity
   8
0
 370
20
 100
AcDbLine
   6
CONTINUOUS
  62
8
  10
 902.02068126983
  20
 708.72197356759
  30
0.0
  11
 925.04794643453
  21
 708.72197356759
  31
0.0
   0
LINE
   5
155
 100
AcDbEntity
   8
0
 370
20
 100
AcDbLine
   6
CONTINUOUS
  62
8
  10
 921.04794643453
  20
 681.15667802999
  30
0.0
  11
 921.04794643453
  21
 710.47197356759
  31
0.0
   0
LINE
   5
156
 100
AcDbEntity
   8
0
 370
20
 100
AcDbLine
   6
CONTINUOUS
  62
8
  10
 921.04794643453
  20
 712.22197356759
  30
0.0
  11
 921.04794643453
  21
 710.47197356759
  31
0.0
   0
SOLID
   5
157
 100
AcDbEntity
   8
0
 100
AcDbTrace
   6
CONTINUOUS
  62
8
  10
 921.04794643453
  20
 708.72197356759
  30
0.0
  11
 919.63733058887
  21
 700.72197356759
  31
0.0
  12
 922.45856228020
  22
 700.72197356759
  32
0.0
  13
 922.45856228020
  23
 700.72197356759
  33
0.0
   0
MTEXT
   5
158
 100
AcDbEntity
   8
0
 370
20
  62
8
 100
AcDbMText
  10
 917.03247853043
  20
 703.15667802999
  30
0.0
  40
 10.000000000000
  41
0.0
  71
9
  72
1
   1
\A1;3.5
   7
GMM001
  11
0.0
  21
 1.0000000000000
  31
0.0
   0
ENDBLK
   5
159
 100
AcDbEntity
   8
0
 100
AcDbBlockEnd
   0
BLOCK
   5
15A
 100
AcDbEntity
   8
0
 100
AcDbBlockBegin
   2
*D22
  70
65
  10
0.0
  20
0.0
  30
0.0
   3
*D22
   0
LINE
   5
15B
 100
AcDbEntity
   8
0
 370
20
 100
AcDbLine
   6
CONTINUOUS
  62
8
  10
 900.52068126983
  20
 712.22197356759
  30
0.0
  11
 925.04794643453
  21
 712.22197356759
  31
0.0
   0
LINE
   5
15C
 100
AcDbEntity
   8
0
 370
20
 100
AcDbLine
   6
CONTINUOUS
  62
8
  10
 887.02068126983
  20
 812.22197356759
  30
0.0
  11
 925.04794643453
  21
 812.22197356759
  31
0.0
   0
LINE
   5
15D
 100
AcDbEntity
   8
0
 370
20
 100
AcDbLine
   6
CONTINUOUS
  62
8
  10
 921.04794643453
  20
 712.22197356759
  30
0.0
  11
 921.04794643453
  21
 762.22197356759
  31
0.0
   0
LINE
   5
15E
 100
AcDbEntity
   8
0
 370
20
 100
AcDbLine
   6
CONTINUOUS
  62
8
  10
 921.04794643453
  20
 812.22197356759
  30
0.0
  11
 921.04794643453
  21
 762.22197356759
  31
0.0
   0
SOLID
   5
15F
 100
AcDbEntity
   8
0
 100
AcDbTrace
   6
CONTINUOUS
  62
8
  10
 921.04794643453
  20
 712.22197356759
  30
0.0
  11
 922.45856228020
  21
 720.22197356759
  31
0.0
  12
 919.63733058887
  22
 720.22197356759
  32
0.0
  13
 919.63733058887
  23
 720.22197356759
  33
0.0
   0
SOLID
   5
160
 100
AcDbEntity
   8
0
 100
AcDbTrace
   6
CONTINUOUS
  62
8
  10
 921.04794643453
  20
 812.22197356759
  30
0.0
  11
 919.63733058887
  21
 804.22197356759
  31
0.0
  12
 922.45856228020
  22
 804.22197356759
  32
0.0
  13
 922.45856228020
  23
 804.22197356759
  33
0.0
   0
MTEXT
   5
161
 100
AcDbEntity
   8
0
 370
20
  62
8
 100
AcDbMText
  10
 917.04794643453
  20
 762.22197356759
  30
0.0
  40
 10.000000000000
  41
0.0
  71
8
  72
1
   1
\A1;H
   7
GMM001
  11
0.0
  21
 1.0000000000000
  31
0.0
   0
ENDBLK
   5
162
 100
AcDbEntity
   8
0
 100
AcDbBlockEnd
   0
BLOCK
   5
163
 100
AcDbEntity
   8
0
 100
AcDbBlockBegin
   2
*D23
  70
65
  10
0.0
  20
0.0
  30
0.0
   3
*D23
   0
LINE
   5
164
 100
AcDbEntity
   8
0
 370
20
 100
AcDbLine
   6
CONTINUOUS
  62
8
  10
 299.02068126983
  20
 708.72197356779
  30
0.0
  11
 322.04794643453
  21
 708.72197356779
  31
0.0
   0
LINE
   5
165
 100
AcDbEntity
   8
0
 370
20
 100
AcDbLine
   6
CONTINUOUS
  62
8
  10
 318.04794643453
  20
 681.15667803020
  30
0.0
  11
 318.04794643453
  21
 710.47197356779
  31
0.0
   0
LINE
   5
166
 100
AcDbEntity
   8
0
 370
20
 100
AcDbLine
   6
CONTINUOUS
  62
8
  10
 318.04794643453
  20
 712.22197356779
  30
0.0
  11
 318.04794643453
  21
 710.47197356779
  31
0.0
   0
SOLID
   5
167
 100
AcDbEntity
   8
0
 100
AcDbTrace
   6
CONTINUOUS
  62
8
  10
 318.04794643453
  20
 708.72197356779
  30
0.0
  11
 316.63733058887
  21
 700.72197356779
  31
0.0
  12
 319.45856228020
  22
 700.72197356779
  32
0.0
  13
 319.45856228020
  23
 700.72197356779
  33
0.0
   0
MTEXT
   5
168
 100
AcDbEntity
   8
0
 370
20
  62
8
 100
AcDbMText
  10
 314.03247853043
  20
 703.15667803020
  30
0.0
  40
 10.000000000000
  41
0.0
  71
9
  72
1
   1
\A1;3.5
   7
GMM001
  11
0.0
  21
 1.0000000000000
  31
0.0
   0
ENDBLK
   5
169
 100
AcDbEntity
   8
0
 100
AcDbBlockEnd
   0
BLOCK
   5
16A
 100
AcDbEntity
   8
0
 100
AcDbBlockBegin
   2
*D24
  70
65
  10
0.0
  20
0.0
  30
0.0
   3
*D24
   0
LINE
   5
16B
 100
AcDbEntity
   8
0
 370
20
 100
AcDbLine
   6
CONTINUOUS
  62
8
  10
 297.52068126983
  20
 712.22197356779
  30
0.0
  11
 322.04794643453
  21
 712.22197356779
  31
0.0
   0
LINE
   5
16C
 100
AcDbEntity
   8
0
 370
20
 100
AcDbLine
   6
CONTINUOUS
  62
8
  10
 281.52068126983
  20
 812.22197356779
  30
0.0
  11
 322.04794643453
  21
 812.22197356779
  31
0.0
   0
LINE
   5
16D
 100
AcDbEntity
   8
0
 370
20
 100
AcDbLine
   6
CONTINUOUS
  62
8
  10
 318.04794643453
  20
 712.22197356779
  30
0.0
  11
 318.04794643453
  21
 762.22197356779
  31
0.0
   0
LINE
   5
16E
 100
AcDbEntity
   8
0
 370
20
 100
AcDbLine
   6
CONTINUOUS
  62
8
  10
 318.04794643453
  20
 812.22197356779
  30
0.0
  11
 318.04794643453
  21
 762.22197356779
  31
0.0
   0
SOLID
   5
16F
 100
AcDbEntity
   8
0
 100
AcDbTrace
   6
CONTINUOUS
  62
8
  10
 318.04794643453
  20
 712.22197356779
  30
0.0
  11
 319.45856228020
  21
 720.22197356779
  31
0.0
  12
 316.63733058887
  22
 720.22197356779
  32
0.0
  13
 316.63733058887
  23
 720.22197356779
  33
0.0
   0
SOLID
   5
170
 100
AcDbEntity
   8
0
 100
AcDbTrace
   6
CONTINUOUS
  62
8
  10
 318.04794643453
  20
 812.22197356779
  30
0.0
  11
 316.63733058887
  21
 804.22197356779
  31
0.0
  12
 319.45856228020
  22
 804.22197356779
  32
0.0
  13
 319.45856228020
  23
 804.22197356779
  33
0.0
   0
MTEXT
   5
171
 100
AcDbEntity
   8
0
 370
20
  62
8
 100
AcDbMText
  10
 314.04794643453
  20
 762.22197356779
  30
0.0
  40
 10.000000000000
  41
0.0
  71
8
  72
1
   1
\A1;H
   7
GMM001
  11
0.0
  21
 1.0000000000000
  31
0.0
   0
ENDBLK
   5
172
 100
AcDbEntity
   8
0
 100
AcDbBlockEnd
   0
BLOCK
   5
173
 100
AcDbEntity
   8
0
 100
AcDbBlockBegin
   2
*D25
  70
65
  10
0.0
  20
0.0
  30
0.0
   3
*D25
   0
LINE
   5
174
 100
AcDbEntity
   8
0
 370
20
 100
AcDbLine
   6
CONTINUOUS
  62
8
  10
 379.79665718046
  20
 1019.2536066101
  30
0.0
  11
 379.79665718046
  21
 968.31825668720
  31
0.0
   0
LINE
   5
175
 100
AcDbEntity
   8
0
 370
20
 100
AcDbLine
   6
CONTINUOUS
  62
8
  10
 434.79665718044
  20
 1019.2536066101
  30
0.0
  11
 434.79665718044
  21
 968.31825668720
  31
0.0
   0
LINE
   5
176
 100
AcDbEntity
   8
0
 370
20
 100
AcDbLine
   6
CONTINUOUS
  62
8
  10
 379.79665718046
  20
 972.31825668720
  30
0.0
  11
 407.29665718045
  21
 972.31825668720
  31
0.0
   0
LINE
   5
177
 100
AcDbEntity
   8
0
 370
20
 100
AcDbLine
   6
CONTINUOUS
  62
8
  10
 434.79665718044
  20
 972.31825668720
  30
0.0
  11
 407.29665718045
  21
 972.31825668720
  31
0.0
   0
SOLID
   5
178
 100
AcDbEntity
   8
0
 100
AcDbTrace
   6
CONTINUOUS
  62
8
  10
 379.79665718046
  20
 972.31825668720
  30
0.0
  11
 387.79665718046
  21
 970.90764084154
  31
0.0
  12
 387.79665718046
  22
 973.72887253287
  32
0.0
  13
 387.79665718046
  23
 973.72887253287
  33
0.0
   0
SOLID
   5
179
 100
AcDbEntity
   8
0
 100
AcDbTrace
   6
CONTINUOUS
  62
8
  10
 434.79665718044
  20
 972.31825668720
  30
0.0
  11
 426.79665718044
  21
 973.72887253287
  31
0.0
  12
 426.79665718044
  22
 970.90764084154
  32
0.0
  13
 426.79665718044
  23
 970.90764084154
  33
0.0
   0
MTEXT
   5
17A
 100
AcDbEntity
   8
0
 370
20
  62
8
 100
AcDbMText
  10
 407.29665718045
  20
 976.31825668720
  30
0.0
  40
 10.000000000000
  41
0.0
  71
8
  72
1
   1
\A1;55
   7
GMM001
   0
ENDBLK
   5
17B
 100
AcDbEntity
   8
0
 100
AcDbBlockEnd
   0
BLOCK
   5
17C
 100
AcDbEntity
   8
0
 100
AcDbBlockBegin
   2
*D26
  70
65
  10
0.0
  20
0.0
  30
0.0
   3
*D26
   0
LINE
   5
17D
 100
AcDbEntity
   8
0
 370
20
 100
AcDbLine
   6
CONTINUOUS
  62
8
  10
 982.79665718046
  20
 1019.2536066099
  30
0.0
  11
 982.79665718046
  21
 968.31825668700
  31
0.0
   0
LINE
   5
17E
 100
AcDbEntity
   8
0
 370
20
 100
AcDbLine
   6
CONTINUOUS
  62
8
  10
 1037.7966571804
  20
 1019.2536066099
  30
0.0
  11
 1037.7966571804
  21
 968.31825668700
  31
0.0
   0
LINE
   5
17F
 100
AcDbEntity
   8
0
 370
20
 100
AcDbLine
   6
CONTINUOUS
  62
8
  10
 982.79665718046
  20
 972.31825668700
  30
0.0
  11
 1010.2966571804
  21
 972.31825668700
  31
0.0
   0
LINE
   5
180
 100
AcDbEntity
   8
0
 370
20
 100
AcDbLine
   6
CONTINUOUS
  62
8
  10
 1037.7966571804
  20
 972.31825668700
  30
0.0
  11
 1010.2966571804
  21
 972.31825668700
  31
0.0
   0
SOLID
   5
181
 100
AcDbEntity
   8
0
 100
AcDbTrace
   6
CONTINUOUS
  62
8
  10
 982.79665718046
  20
 972.31825668700
  30
0.0
  11
 990.79665718046
  21
 970.90764084133
  31
0.0
  12
 990.79665718046
  22
 973.72887253267
  32
0.0
  13
 990.79665718046
  23
 973.72887253267
  33
0.0
   0
SOLID
   5
182
 100
AcDbEntity
   8
0
 100
AcDbTrace
   6
CONTINUOUS
  62
8
  10
 1037.7966571804
  20
 972.31825668700
  30
0.0
  11
 1029.7966571804
  21
 973.72887253267
  31
0.0
  12
 1029.7966571804
  22
 970.90764084133
  32
0.0
  13
 1029.7966571804
  23
 970.90764084133
  33
0.0
   0
MTEXT
   5
183
 100
AcDbEntity
   8
0
 370
20
  62
8
 100
AcDbMText
  10
 1010.2966571804
  20
 976.31825668700
  30
0.0
  40
 10.000000000000
  41
0.0
  71
8
  72
1
   1
\A1;55
   7
GMM001
   0
ENDBLK
   5
184
 100
AcDbEntity
   8
0
 100
AcDbBlockEnd
   0
BLOCK
   5
185
 100
AcDbEntity
   8
0
 100
AcDbBlockBegin
   2
*D27
  70
65
  10
0.0
  20
0.0
  30
0.0
   3
*D27
   0
LINE
   5
186
 100
AcDbEntity
   8
0
 370
20
 100
AcDbLine
   6
CONTINUOUS
  62
8
  10
 379.79665718044
  20
 704.72197356779
  30
0.0
  11
 379.79665718044
  21
 674.72197356779
  31
0.0
   0
LINE
   5
187
 100
AcDbEntity
   8
0
 370
20
 100
AcDbLine
   6
CONTINUOUS
  62
8
  10
 434.79665718044
  20
 704.72197356779
  30
0.0
  11
 434.79665718044
  21
 674.72197356779
  31
0.0
   0
LINE
   5
188
 100
AcDbEntity
   8
0
 370
20
 100
AcDbLine
   6
CONTINUOUS
  62
8
  10
 379.79665718044
  20
 678.72197356779
  30
0.0
  11
 407.29665718044
  21
 678.72197356779
  31
0.0
   0
LINE
   5
189
 100
AcDbEntity
   8
0
 370
20
 100
AcDbLine
   6
CONTINUOUS
  62
8
  10
 434.79665718044
  20
 678.72197356779
  30
0.0
  11
 407.29665718044
  21
 678.72197356779
  31
0.0
   0
SOLID
   5
18A
 100
AcDbEntity
   8
0
 100
AcDbTrace
   6
CONTINUOUS
  62
8
  10
 379.79665718044
  20
 678.72197356779
  30
0.0
  11
 387.79665718044
  21
 677.31135772212
  31
0.0
  12
 387.79665718044
  22
 680.13258941346
  32
0.0
  13
 387.79665718044
  23
 680.13258941346
  33
0.0
   0
SOLID
   5
18B
 100
AcDbEntity
   8
0
 100
AcDbTrace
   6
CONTINUOUS
  62
8
  10
 434.79665718044
  20
 678.72197356779
  30
0.0
  11
 426.79665718044
  21
 680.13258941346
  31
0.0
  12
 426.79665718044
  22
 677.31135772212
  32
0.0
  13
 426.79665718044
  23
 677.31135772212
  33
0.0
   0
MTEXT
   5
18C
 100
AcDbEntity
   8
0
 370
20
  62
8
 100
AcDbMText
  10
 407.29665718044
  20
 682.72197356779
  30
0.0
  40
 10.000000000000
  41
0.0
  71
8
  72
1
   1
\A1;55
   7
GMM001
   0
ENDBLK
   5
18D
 100
AcDbEntity
   8
0
 100
AcDbBlockEnd
   0
BLOCK
   5
18E
 100
AcDbEntity
   8
0
 100
AcDbBlockBegin
   2
*D28
  70
65
  10
0.0
  20
0.0
  30
0.0
   3
*D28
   0
LINE
   5
18F
 100
AcDbEntity
   8
0
 370
20
 100
AcDbLine
   6
CONTINUOUS
  62
8
  10
 389.29665718044
  20
 767.40416449580
  30
0.0
  11
 407.29665718044
  21
 767.40416449580
  31
0.0
   0
LINE
   5
190
 100
AcDbEntity
   8
0
 370
20
 100
AcDbLine
   6
CONTINUOUS
  62
8
  10
 441.30139174373
  20
 767.40416449580
  30
0.0
  11
 407.29665718044
  21
 767.40416449580
  31
0.0
   0
SOLID
   5
191
 100
AcDbEntity
   8
0
 100
AcDbTrace
   6
CONTINUOUS
  62
8
  10
 399.29665718044
  20
 767.40416449580
  30
0.0
  11
 391.29665718044
  21
 768.81478034147
  31
0.0
  12
 391.29665718044
  22
 765.99354865013
  32
0.0
  13
 391.29665718044
  23
 765.99354865013
  33
0.0
   0
SOLID
   5
192
 100
AcDbEntity
   8
0
 100
AcDbTrace
   6
CONTINUOUS
  62
8
  10
 415.29665718044
  20
 767.40416449580
  30
0.0
  11
 423.29665718044
  21
 765.99354865013
  31
0.0
  12
 423.29665718044
  22
 768.81478034147
  32
0.0
  13
 423.29665718044
  23
 768.81478034147
  33
0.0
   0
MTEXT
   5
193
 100
AcDbEntity
   8
0
 370
20
  62
8
 100
AcDbMText
  10
 423.30139174373
  20
 771.40416449580
  30
0.0
  40
 10.000000000000
  41
0.0
  71
7
  72
1
   1
\A1;16
   7
GMM001
   0
ENDBLK
   5
194
 100
AcDbEntity
   8
0
 100
AcDbBlockEnd
   0
BLOCK
   5
195
 100
AcDbEntity
   8
0
 100
AcDbBlockBegin
   2
*D29
  70
65
  10
0.0
  20
0.0
  30
0.0
   3
*D29
   0
LINE
   5
196
 100
AcDbEntity
   8
0
 370
20
 100
AcDbLine
   6
CONTINUOUS
  62
8
  10
 982.79665718044
  20
 704.72197356759
  30
0.0
  11
 982.79665718044
  21
 674.72197356759
  31
0.0
   0
LINE
   5
197
 100
AcDbEntity
   8
0
 370
20
 100
AcDbLine
   6
CONTINUOUS
  62
8
  10
 1037.7966571804
  20
 704.72197356759
  30
0.0
  11
 1037.7966571804
  21
 674.72197356759
  31
0.0
   0
LINE
   5
198
 100
AcDbEntity
   8
0
 370
20
 100
AcDbLine
   6
CONTINUOUS
  62
8
  10
 982.79665718044
  20
 678.72197356759
  30
0.0
  11
 1010.2966571804
  21
 678.72197356759
  31
0.0
   0
LINE
   5
199
 100
AcDbEntity
   8
0
 370
20
 100
AcDbLine
   6
CONTINUOUS
  62
8
  10
 1037.7966571804
  20
 678.72197356759
  30
0.0
  11
 1010.2966571804
  21
 678.72197356759
  31
0.0
   0
SOLID
   5
19A
 100
AcDbEntity
   8
0
 100
AcDbTrace
   6
CONTINUOUS
  62
8
  10
 982.79665718044
  20
 678.72197356759
  30
0.0
  11
 990.79665718044
  21
 677.31135772192
  31
0.0
  12
 990.79665718044
  22
 680.13258941325
  32
0.0
  13
 990.79665718044
  23
 680.13258941325
  33
0.0
   0
SOLID
   5
19B
 100
AcDbEntity
   8
0
 100
AcDbTrace
   6
CONTINUOUS
  62
8
  10
 1037.7966571804
  20
 678.72197356759
  30
0.0
  11
 1029.7966571804
  21
 680.13258941325
  31
0.0
  12
 1029.7966571804
  22
 677.31135772192
  32
0.0
  13
 1029.7966571804
  23
 677.31135772192
  33
0.0
   0
MTEXT
   5
19C
 100
AcDbEntity
   8
0
 370
20
  62
8
 100
AcDbMText
  10
 1010.2966571804
  20
 682.72197356759
  30
0.0
  40
 10.000000000000
  41
0.0
  71
8
  72
1
   1
\A1;55
   7
GMM001
   0
ENDBLK
   5
19D
 100
AcDbEntity
   8
0
 100
AcDbBlockEnd
   0
BLOCK
   5
19E
 100
AcDbEntity
   8
0
 100
AcDbBlockBegin
   2
*D30
  70
65
  10
0.0
  20
0.0
  30
0.0
   3
*D30
   0
LINE
   5
19F
 100
AcDbEntity
   8
0
 370
20
 100
AcDbLine
   6
CONTINUOUS
  62
8
  10
 992.29665718044
  20
 767.40416449560
  30
0.0
  11
 1010.2966571804
  21
 767.40416449560
  31
0.0
   0
LINE
   5
1A0
 100
AcDbEntity
   8
0
 370
20
 100
AcDbLine
   6
CONTINUOUS
  62
8
  10
 1044.3013917437
  20
 767.40416449560
  30
0.0
  11
 1010.2966571804
  21
 767.40416449560
  31
0.0
   0
SOLID
   5
1A1
 100
AcDbEntity
   8
0
 100
AcDbTrace
   6
CONTINUOUS
  62
8
  10
 1002.2966571804
  20
 767.40416449560
  30
0.0
  11
 994.29665718044
  21
 768.81478034127
  31
0.0
  12
 994.29665718044
  22
 765.99354864993
  32
0.0
  13
 994.29665718044
  23
 765.99354864993
  33
0.0
   0
SOLID
   5
1A2
 100
AcDbEntity
   8
0
 100
AcDbTrace
   6
CONTINUOUS
  62
8
  10
 1018.2966571804
  20
 767.40416449560
  30
0.0
  11
 1026.2966571804
  21
 765.99354864993
  31
0.0
  12
 1026.2966571804
  22
 768.81478034127
  32
0.0
  13
 1026.2966571804
  23
 768.81478034127
  33
0.0
   0
MTEXT
   5
1A3
 100
AcDbEntity
   8
0
 370
20
  62
8
 100
AcDbMText
  10
 1026.3013917437
  20
 771.40416449560
  30
0.0
  40
 10.000000000000
  41
0.0
  71
7
  72
1
   1
\A1;16
   7
GMM001
   0
ENDBLK
   5
1A4
 100
AcDbEntity
   8
0
 100
AcDbBlockEnd
   0
BLOCK
   5
1A5
 100
AcDbEntity
   8
0
 100
AcDbBlockBegin
   2
*D31
  70
65
  10
0.0
  20
0.0
  30
0.0
   3
*D31
   0
LINE
   5
1A6
 100
AcDbEntity
   8
0
 370
20
 100
AcDbLine
   6
CONTINUOUS
  62
8
  10
 1041.7966571804
  20
 708.72197356759
  30
0.0
  11
 1076.5451233172
  21
 708.72197356759
  31
0.0
   0
LINE
   5
1A7
 100
AcDbEntity
   8
0
 370
20
 100
AcDbLine
   6
CONTINUOUS
  62
8
  10
 1072.5451233172
  20
 681.15667802999
  30
0.0
  11
 1072.5451233172
  21
 710.47197356759
  31
0.0
   0
LINE
   5
1A8
 100
AcDbEntity
   8
0
 370
20
 100
AcDbLine
   6
CONTINUOUS
  62
8
  10
 1072.5451233172
  20
 712.22197356759
  30
0.0
  11
 1072.5451233172
  21
 710.47197356759
  31
0.0
   0
SOLID
   5
1A9
 100
AcDbEntity
   8
0
 100
AcDbTrace
   6
CONTINUOUS
  62
8
  10
 1072.5451233172
  20
 708.72197356759
  30
0.0
  11
 1071.1345074716
  21
 700.72197356759
  31
0.0
  12
 1073.9557391629
  22
 700.72197356759
  32
0.0
  13
 1073.9557391629
  23
 700.72197356759
  33
0.0
   0
MTEXT
   5
1AA
 100
AcDbEntity
   8
0
 370
20
  62
8
 100
AcDbMText
  10
 1068.5296554131
  20
 703.15667802999
  30
0.0
  40
 10.000000000000
  41
0.0
  71
9
  72
1
   1
\A1;3.5
   7
GMM001
  11
0.0
  21
 1.0000000000000
  31
0.0
   0
ENDBLK
   5
1AB
 100
AcDbEntity
   8
0
 100
AcDbBlockEnd
   0
BLOCK
   5
1AC
 100
AcDbEntity
   8
0
 100
AcDbBlockBegin
   2
*D32
  70
65
  10
0.0
  20
0.0
  30
0.0
   3
*D32
   0
LINE
   5
1AD
 100
AcDbEntity
   8
0
 370
20
 100
AcDbLine
   6
CONTINUOUS
  62
8
  10
 1040.2966571804
  20
 712.22197356759
  30
0.0
  11
 1076.5451233172
  21
 712.22197356759
  31
0.0
   0
LINE
   5
1AE
 100
AcDbEntity
   8
0
 370
20
 100
AcDbLine
   6
CONTINUOUS
  62
8
  10
 1054.2966571804
  20
 812.22197356759
  30
0.0
  11
 1076.5451233172
  21
 812.22197356759
  31
0.0
   0
LINE
   5
1AF
 100
AcDbEntity
   8
0
 370
20
 100
AcDbLine
   6
CONTINUOUS
  62
8
  10
 1072.5451233172
  20
 712.22197356759
  30
0.0
  11
 1072.5451233172
  21
 762.22197356759
  31
0.0
   0
LINE
   5
1B0
 100
AcDbEntity
   8
0
 370
20
 100
AcDbLine
   6
CONTINUOUS
  62
8
  10
 1072.5451233172
  20
 812.22197356759
  30
0.0
  11
 1072.5451233172
  21
 762.22197356759
  31
0.0
   0
SOLID
   5
1B1
 100
AcDbEntity
   8
0
 100
AcDbTrace
   6
CONTINUOUS
  62
8
  10
 1072.5451233172
  20
 712.22197356759
  30
0.0
  11
 1073.9557391629
  21
 720.22197356759
  31
0.0
  12
 1071.1345074716
  22
 720.22197356759
  32
0.0
  13
 1071.1345074716
  23
 720.22197356759
  33
0.0
   0
SOLID
   5
1B2
 100
AcDbEntity
   8
0
 100
AcDbTrace
   6
CONTINUOUS
  62
8
  10
 1072.5451233172
  20
 812.22197356759
  30
0.0
  11
 1071.1345074716
  21
 804.22197356759
  31
0.0
  12
 1073.9557391629
  22
 804.22197356759
  32
0.0
  13
 1073.9557391629
  23
 804.22197356759
  33
0.0
   0
MTEXT
   5
1B3
 100
AcDbEntity
   8
0
 370
20
  62
8
 100
AcDbMText
  10
 1068.5451233172
  20
 762.22197356759
  30
0.0
  40
 10.000000000000
  41
0.0
  71
8
  72
1
   1
\A1;H
   7
GMM001
  11
0.0
  21
 1.0000000000000
  31
0.0
   0
ENDBLK
   5
1B4
 100
AcDbEntity
   8
0
 100
AcDbBlockEnd
   0
BLOCK
   5
1B5
 100
AcDbEntity
   8
0
 100
AcDbBlockBegin
   2
*D33
  70
65
  10
0.0
  20
0.0
  30
0.0
   3
*D33
   0
LINE
   5
1B6
 100
AcDbEntity
   8
0
 370
20
 100
AcDbLine
   6
CONTINUOUS
  62
8
  10
 438.79665718044
  20
 708.72197356779
  30
0.0
  11
 473.54512331723
  21
 708.72197356779
  31
0.0
   0
LINE
   5
1B7
 100
AcDbEntity
   8
0
 370
20
 100
AcDbLine
   6
CONTINUOUS
  62
8
  10
 469.54512331723
  20
 681.15667803020
  30
0.0
  11
 469.54512331723
  21
 710.47197356779
  31
0.0
   0
LINE
   5
1B8
 100
AcDbEntity
   8
0
 370
20
 100
AcDbLine
   6
CONTINUOUS
  62
8
  10
 469.54512331723
  20
 712.22197356779
  30
0.0
  11
 469.54512331723
  21
 710.47197356779
  31
0.0
   0
SOLID
   5
1B9
 100
AcDbEntity
   8
0
 100
AcDbTrace
   6
CONTINUOUS
  62
8
  10
 469.54512331723
  20
 708.72197356779
  30
0.0
  11
 468.13450747156
  21
 700.72197356779
  31
0.0
  12
 470.95573916290
  22
 700.72197356779
  32
0.0
  13
 470.95573916290
  23
 700.72197356779
  33
0.0
   0
MTEXT
   5
1BA
 100
AcDbEntity
   8
0
 370
20
  62
8
 100
AcDbMText
  10
 465.52965541313
  20
 703.15667803020
  30
0.0
  40
 10.000000000000
  41
0.0
  71
9
  72
1
   1
\A1;3.5
   7
GMM001
  11
0.0
  21
 1.0000000000000
  31
0.0
   0
ENDBLK
   5
1BB
 100
AcDbEntity
   8
0
 100
AcDbBlockEnd
   0
BLOCK
   5
1BC
 100
AcDbEntity
   8
0
 100
AcDbBlockBegin
   2
*D34
  70
65
  10
0.0
  20
0.0
  30
0.0
   3
*D34
   0
LINE
   5
1BD
 100
AcDbEntity
   8
0
 370
20
 100
AcDbLine
   6
CONTINUOUS
  62
8
  10
 437.29665718044
  20
 712.22197356779
  30
0.0
  11
 473.54512331723
  21
 712.22197356779
  31
0.0
   0
LINE
   5
1BE
 100
AcDbEntity
   8
0
 370
20
 100
AcDbLine
   6
CONTINUOUS
  62
8
  10
 450.16412617870
  20
 812.22197356779
  30
0.0
  11
 473.54512331723
  21
 812.22197356779
  31
0.0
   0
LINE
   5
1BF
 100
AcDbEntity
   8
0
 370
20
 100
AcDbLine
   6
CONTINUOUS
  62
8
  10
 469.54512331723
  20
 712.22197356779
  30
0.0
  11
 469.54512331723
  21
 762.22197356779
  31
0.0
   0
LINE
   5
1C0
 100
AcDbEntity
   8
0
 370
20
 100
AcDbLine
   6
CONTINUOUS
  62
8
  10
 469.54512331723
  20
 812.22197356779
  30
0.0
  11
 469.54512331723
  21
 762.22197356779
  31
0.0
   0
SOLID
   5
1C1
 100
AcDbEntity
   8
0
 100
AcDbTrace
   6
CONTINUOUS
  62
8
  10
 469.54512331723
  20
 712.22197356779
  30
0.0
  11
 470.95573916290
  21
 720.22197356779
  31
0.0
  12
 468.13450747156
  22
 720.22197356779
  32
0.0
  13
 468.13450747156
  23
 720.22197356779
  33
0.0
   0
SOLID
   5
1C2
 100
AcDbEntity
   8
0
 100
AcDbTrace
   6
CONTINUOUS
  62
8
  10
 469.54512331723
  20
 812.22197356779
  30
0.0
  11
 468.13450747156
  21
 804.22197356779
  31
0.0
  12
 470.95573916290
  22
 804.22197356779
  32
0.0
  13
 470.95573916290
  23
 804.22197356779
  33
0.0
   0
MTEXT
   5
1C3
 100
AcDbEntity
   8
0
 370
20
  62
8
 100
AcDbMText
  10
 465.54512331723
  20
 762.22197356779
  30
0.0
  40
 10.000000000000
  41
0.0
  71
8
  72
1
   1
\A1;H
   7
GMM001
  11
0.0
  21
 1.0000000000000
  31
0.0
   0
ENDBLK
   5
1C4
 100
AcDbEntity
   8
0
 100
AcDbBlockEnd
   0
ENDSEC
   0
SECTION
   2
ENTITIES
   0
LINE
   5
1C5
 100
AcDbEntity
   8
LEVEL001
 370
40
 100
AcDbLine
   6
CONTINUOUS
  62
3
  10
 1268.0000000001
  20
 1027.0000000000
  30
0.0
  11
 1618.0000000001
  21
 1027.0000000000
  31
0.0
   0
LINE
   5
1C6
 100
AcDbEntity
   8
LEVEL001
 370
40
 100
AcDbLine
   6
CONTINUOUS
  62
3
  10
 1268.0000000001
  20
 947.00000000001
  30
0.0
  11
 1618.0000000001
  21
 947.00000000001
  31
0.0
   0
LINE
   5
1C7
 100
AcDbEntity
   8
LEVEL001
 370
40
 100
AcDbLine
   6
CONTINUOUS
  62
3
  10
 1268.0000000001
  20
 867.00000000001
  30
0.0
  11
 1618.0000000001
  21
 867.00000000001
  31
0.0
   0
LINE
   5
1C8
 100
AcDbEntity
   8
LEVEL001
 370
40
 100
AcDbLine
   6
CONTINUOUS
  62
3
  10
 1468.0000000001
  20
 208.00000000001
  30
0.0
  11
 1468.0000000001
  21
 48.000000000009
  31
0.0
   0
LINE
   5
1C9
 100
AcDbEntity
   8
LEVEL001
 370
40
 100
AcDbLine
   6
CONTINUOUS
  62
3
  10
 1268.0000000001
  20
 288.00000000001
  30
0.0
  11
 1618.0000000001
  21
 288.00000000001
  31
0.0
   0
LINE
   5
1CA
 100
AcDbEntity
   8
LEVEL001
 370
40
 100
AcDbLine
   6
CONTINUOUS
  62
3
  10
 1268.0000000001
  20
 208.00000000001
  30
0.0
  11
 1618.0000000001
  21
 208.00000000001
  31
0.0
   0
LINE
   5
1CB
 100
AcDbEntity
   8
LEVEL001
 370
40
 100
AcDbLine
   6
CONTINUOUS
  62
3
  10
 1268.0000000001
  20
 128.00000000001
  30
0.0
  11
 1618.0000000001
  21
 128.00000000001
  31
0.0
   0
LINE
   5
1CC
 100
AcDbEntity
   8
LEVEL001
 370
40
 100
AcDbLine
   6
CONTINUOUS
  62
3
  10
 1468.0000000001
  20
 181.33333333334
  30
0.0
  11
 1618.0000000001
  21
 181.33333333334
  31
0.0
   0
LINE
   5
1CD
 100
AcDbEntity
   8
LEVEL001
 370
40
 100
AcDbLine
   6
CONTINUOUS
  62
3
  10
 1468.0000000001
  20
 154.66666666668
  30
0.0
  11
 1618.0000000001
  21
 154.66666666668
  31
0.0
   0
LINE
   5
1CE
 100
AcDbEntity
   8
LEVEL001
 370
40
 100
AcDbLine
   6
CONTINUOUS
  62
3
  10
 1409.8800000003
  20
 1087.3400000000
  30
0.0
  11
 1386.8400000003
  21
 1087.3400000000
  31
0.0
   0
LINE
   5
1CF
 100
AcDbEntity
   8
LEVEL001
 370
40
 100
AcDbLine
   6
CONTINUOUS
  62
3
  10
 1386.8400000003
  20
 1087.3400000000
  30
0.0
  11
 1386.8400000003
  21
 1052.7800000000
  31
0.0
   0
LINE
   5
1D0
 100
AcDbEntity
   8
LEVEL001
 370
40
 100
AcDbLine
   6
CONTINUOUS
  62
3
  10
 1386.8400000003
  20
 1052.7800000000
  30
0.0
  11
 1398.3600000003
  21
 1052.7800000000
  31
0.0
   0
LINE
   5
1D1
 100
AcDbEntity
   8
LEVEL001
 370
40
 100
AcDbLine
   6
CONTINUOUS
  62
3
  10
 1398.3600000003
  20
 1052.7800000000
  30
0.0
  11
 1398.3600000003
  21
 1058.5400000000
  31
0.0
   0
LINE
   5
1D2
 100
AcDbEntity
   8
LEVEL001
 370
40
 100
AcDbLine
   6
CONTINUOUS
  62
3
  10
 1398.3600000003
  20
 1058.5400000000
  30
0.0
  11
 1409.8800000003
  21
 1058.5400000000
  31
0.0
   0
ARC
   5
1D3
 100
AcDbEntity
   8
LEVEL001
 370
40
   6
CONTINUOUS
  62
3
 100
AcDbCircle
  10
 1409.8800000003
  20
 1072.9400000000
  30
0.0
  40
 14.400000000000
 100
AcDbArc
  50
 270.00000000000
  51
 90.000000000000
   0
LINE
   5
1D4
 100
AcDbEntity
   8
LEVEL001
 370
40
 100
AcDbLine
   6
CONTINUOUS
  62
3
  10
 1398.3600000003
  20
 1070.0600000000
  30
0.0
  11
 1409.8800000003
  21
 1070.0600000000
  31
0.0
   0
ARC
   5
1D5
 100
AcDbEntity
   8
LEVEL001
 370
40
   6
CONTINUOUS
  62
3
 100
AcDbCircle
  10
 1409.8800000003
  20
 1072.9400000000
  30
0.0
  40
 2.8800000000000
 100
AcDbArc
  50
 270.00000000000
  51
 90.000000000000
   0
LINE
   5
1D6
 100
AcDbEntity
   8
LEVEL001
 370
40
 100
AcDbLine
   6
CONTINUOUS
  62
3
  10
 1409.8800000003
  20
 1075.8200000000
  30
0.0
  11
 1398.3600000003
  21
 1075.8200000000
  31
0.0
   0
LINE
   5
1D7
 100
AcDbEntity
   8
LEVEL001
 370
40
 100
AcDbLine
   6
CONTINUOUS
  62
3
  10
 1398.3600000003
  20
 1075.8200000000
  30
0.0
  11
 1398.3600000003
  21
 1070.0600000000
  31
0.0
   0
LINE
   5
1D8
 100
AcDbEntity
   8
LEVEL001
 370
40
 100
AcDbLine
   6
CONTINUOUS
  62
3
  10
 1415.6400000003
  20
 1052.7800000000
  30
0.0
  11
 1438.6800000003
  21
 1087.3400000000
  31
0.0
   0
LINE
   5
1D9
 100
AcDbEntity
   8
LEVEL001
 370
40
 100
AcDbLine
   6
CONTINUOUS
  62
3
  10
 1438.6800000003
  20
 1087.3400000000
  30
0.0
  11
 1467.4800000003
  21
 1087.3400000000
  31
0.0
   0
LINE
   5
1DA
 100
AcDbEntity
   8
LEVEL001
 370
40
 100
AcDbLine
   6
CONTINUOUS
  62
3
  10
 1467.4800000003
  20
 1087.3400000000
  30
0.0
  11
 1467.4800000003
  21
 1064.3000000000
  31
0.0
   0
LINE
   5
1DB
 100
AcDbEntity
   8
LEVEL001
 370
40
 100
AcDbLine
   6
CONTINUOUS
  62
3
  10
 1467.4800000003
  20
 1064.3000000000
  30
0.0
  11
 1484.7600000003
  21
 1064.3000000000
  31
0.0
   0
LINE
   5
1DC
 100
AcDbEntity
   8
LEVEL001
 370
40
 100
AcDbLine
   6
CONTINUOUS
  62
3
  10
 1484.7600000003
  20
 1064.3000000000
  30
0.0
  11
 1484.7600000003
  21
 1075.8200000000
  31
0.0
   0
LINE
   5
1DD
 100
AcDbEntity
   8
LEVEL001
 370
40
 100
AcDbLine
   6
CONTINUOUS
  62
3
  10
 1484.7600000003
  20
 1075.8200000000
  30
0.0
  11
 1473.2400000003
  21
 1075.8200000000
  31
0.0
   0
LINE
   5
1DE
 100
AcDbEntity
   8
LEVEL001
 370
40
 100
AcDbLine
   6
CONTINUOUS
  62
3
  10
 1473.2400000003
  20
 1075.8200000000
  30
0.0
  11
 1473.2400000003
  21
 1087.3400000000
  31
0.0
   0
LINE
   5
1DF
 100
AcDbEntity
   8
LEVEL001
 370
40
 100
AcDbLine
   6
CONTINUOUS
  62
3
  10
 1473.2400000003
  20
 1087.3400000000
  30
0.0
  11
 1542.3600000003
  21
 1087.3400000000
  31
0.0
   0
LINE
   5
1E0
 100
AcDbEntity
   8
LEVEL001
 370
40
 100
AcDbLine
   6
CONTINUOUS
  62
3
  10
 1542.3600000003
  20
 1087.3400000000
  30
0.0
  11
 1542.3600000003
  21
 1075.8200000000
  31
0.0
   0
LINE
   5
1E1
 100
AcDbEntity
   8
LEVEL001
 370
40
 100
AcDbLine
   6
CONTINUOUS
  62
3
  10
 1542.3600000003
  20
 1075.8200000000
  30
0.0
  11
 1519.3200000003
  21
 1075.8200000000
  31
0.0
   0
LINE
   5
1E2
 100
AcDbEntity
   8
LEVEL001
 370
40
 100
AcDbLine
   6
CONTINUOUS
  62
3
  10
 1519.3200000003
  20
 1075.8200000000
  30
0.0
  11
 1519.3200000003
  21
 1072.9400000000
  31
0.0
   0
LINE
   5
1E3
 100
AcDbEntity
   8
LEVEL001
 370
40
 100
AcDbLine
   6
CONTINUOUS
  62
3
  10
 1519.3200000003
  20
 1072.9400000000
  30
0.0
  11
 1539.4800000003
  21
 1072.9400000000
  31
0.0
   0
LINE
   5
1E4
 100
AcDbEntity
   8
LEVEL001
 370
40
 100
AcDbLine
   6
CONTINUOUS
  62
3
  10
 1539.4800000003
  20
 1072.9400000000
  30
0.0
  11
 1539.4800000003
  21
 1067.1800000000
  31
0.0
   0
LINE
   5
1E5
 100
AcDbEntity
   8
LEVEL001
 370
40
 100
AcDbLine
   6
CONTINUOUS
  62
3
  10
 1539.4800000003
  20
 1067.1800000000
  30
0.0
  11
 1519.3200000003
  21
 1067.1800000000
  31
0.0
   0
LINE
   5
1E6
 100
AcDbEntity
   8
LEVEL001
 370
40
 100
AcDbLine
   6
CONTINUOUS
  62
3
  10
 1519.3200000003
  20
 1067.1800000000
  30
0.0
  11
 1519.3200000003
  21
 1064.3000000000
  31
0.0
   0
LINE
   5
1E7
 100
AcDbEntity
   8
LEVEL001
 370
40
 100
AcDbLine
   6
CONTINUOUS
  62
3
  10
 1519.3200000003
  20
 1064.3000000000
  30
0.0
  11
 1542.3600000003
  21
 1064.3000000000
  31
0.0
   0
LINE
   5
1E8
 100
AcDbEntity
   8
LEVEL001
 370
40
 100
AcDbLine
   6
CONTINUOUS
  62
3
  10
 1542.3600000003
  20
 1064.3000000000
  30
0.0
  11
 1542.3600000003
  21
 1052.7800000000
  31
0.0
   0
LINE
   5
1E9
 100
AcDbEntity
   8
LEVEL001
 370
40
 100
AcDbLine
   6
CONTINUOUS
  62
3
  10
 1542.3600000003
  20
 1052.7800000000
  30
0.0
  11
 1507.8000000003
  21
 1052.7800000000
  31
0.0
   0
LINE
   5
1EA
 100
AcDbEntity
   8
LEVEL001
 370
40
 100
AcDbLine
   6
CONTINUOUS
  62
3
  10
 1507.8000000003
  20
 1052.7800000000
  30
0.0
  11
 1507.8000000003
  21
 1075.8200000000
  31
0.0
   0
LINE
   5
1EB
 100
AcDbEntity
   8
LEVEL001
 370
40
 100
AcDbLine
   6
CONTINUOUS
  62
3
  10
 1507.8000000003
  20
 1075.8200000000
  30
0.0
  11
 1496.2800000003
  21
 1075.8200000000
  31
0.0
   0
LINE
   5
1EC
 100
AcDbEntity
   8
LEVEL001
 370
40
 100
AcDbLine
   6
CONTINUOUS
  62
3
  10
 1496.2800000003
  20
 1075.8200000000
  30
0.0
  11
 1496.2800000003
  21
 1052.7800000000
  31
0.0
   0
LINE
   5
1ED
 100
AcDbEntity
   8
LEVEL001
 370
40
 100
AcDbLine
   6
CONTINUOUS
  62
3
  10
 1496.2800000003
  20
 1052.7800000000
  30
0.0
  11
 1455.9600000003
  21
 1052.7800000000
  31
0.0
   0
LINE
   5
1EE
 100
AcDbEntity
   8
LEVEL001
 370
40
 100
AcDbLine
   6
CONTINUOUS
  62
3
  10
 1455.9600000003
  20
 1052.7800000000
  30
0.0
  11
 1455.9600000003
  21
 1087.3400000000
  31
0.0
   0
LINE
   5
1EF
 100
AcDbEntity
   8
LEVEL001
 370
40
 100
AcDbLine
   6
CONTINUOUS
  62
3
  10
 1455.9600000003
  20
 1087.3400000000
  30
0.0
  11
 1432.9200000003
  21
 1052.7800000000
  31
0.0
   0
LINE
   5
1F0
 100
AcDbEntity
   8
LEVEL001
 370
40
 100
AcDbLine
   6
CONTINUOUS
  62
3
  10
 1432.9200000003
  20
 1052.7800000000
  30
0.0
  11
 1415.6400000003
  21
 1052.7800000000
  31
0.0
   0
LINE
   5
1F1
 100
AcDbEntity
   8
LEVEL001
 370
40
 100
AcDbLine
   6
CONTINUOUS
  62
3
  10
 1452.1200000003
  20
 1074.6573415511
  30
0.0
  11
 1437.5351056329
  21
 1052.7800000000
  31
0.0
   0
LINE
   5
1F2
 100
AcDbEntity
   8
LEVEL001
 370
40
 100
AcDbLine
   6
CONTINUOUS
  62
3
  10
 1437.5351056329
  20
 1052.7800000000
  30
0.0
  11
 1452.1200000003
  21
 1052.7800000000
  31
0.0
   0
LINE
   5
1F3
 100
AcDbEntity
   8
LEVEL001
 370
40
 100
AcDbLine
   6
CONTINUOUS
  62
3
  10
 1452.1200000003
  20
 1052.7800000000
  30
0.0
  11
 1452.1200000003
  21
 1074.6573415511
  31
0.0
   0
ARC
   5
1F4
 100
AcDbEntity
   8
LEVEL001
 370
40
   6
CONTINUOUS
  62
3
 100
AcDbCircle
  10
 1559.6400000003
  20
 1070.0600000000
  30
0.0
  40
 17.280000000000
 100
AcDbArc
  50
 90.000000000000
  51
 270.00000000000
   0
ARC
   5
1F5
 100
AcDbEntity
   8
LEVEL001
 370
40
   6
CONTINUOUS
  62
3
 100
AcDbCircle
  10
 1559.6400000003
  20
 1070.0600000000
  30
0.0
  40
 5.7600000000000
 100
AcDbArc
  50
 90.000000000000
  51
 270.00000000000
   0
LINE
   5
1F6
 100
AcDbEntity
   8
LEVEL001
 370
40
 100
AcDbLine
   6
CONTINUOUS
  62
3
  10
 1559.6400000003
  20
 1087.3400000000
  30
0.0
  11
 1576.9200000003
  21
 1087.3400000000
  31
0.0
   0
LINE
   5
1F7
 100
AcDbEntity
   8
LEVEL001
 370
40
 100
AcDbLine
   6
CONTINUOUS
  62
3
  10
 1576.9200000003
  20
 1087.3400000000
  30
0.0
  11
 1576.9200000003
  21
 1075.8200000000
  31
0.0
   0
LINE
   5
1F8
 100
AcDbEntity
   8
LEVEL001
 370
40
 100
AcDbLine
   6
CONTINUOUS
  62
3
  10
 1576.9200000003
  20
 1075.8200000000
  30
0.0
  11
 1559.6400000003
  21
 1075.8200000000
  31
0.0
   0
LINE
   5
1F9
 100
AcDbEntity
   8
LEVEL001
 370
40
 100
AcDbLine
   6
CONTINUOUS
  62
3
  10
 1386.8400000003
  20
 1087.3400000000
  30
0.0
  11
 1386.8400000003
  21
 1052.7800000000
  31
0.0
   0
LINE
   5
1FA
 100
AcDbEntity
   8
LEVEL001
 370
40
 100
AcDbLine
   6
CONTINUOUS
  62
3
  10
 1386.8400000003
  20
 1052.7800000000
  30
0.0
  11
 1398.3600000003
  21
 1052.7800000000
  31
0.0
   0
LINE
   5
1FB
 100
AcDbEntity
   8
LEVEL001
 370
40
 100
AcDbLine
   6
CONTINUOUS
  62
3
  10
 1398.3600000003
  20
 1052.7800000000
  30
0.0
  11
 1398.3600000003
  21
 1058.5400000000
  31
0.0
   0
LINE
   5
1FC
 100
AcDbEntity
   8
LEVEL001
 370
40
 100
AcDbLine
   6
CONTINUOUS
  62
3
  10
 1398.3600000003
  20
 1058.5400000000
  30
0.0
  11
 1409.8800000003
  21
 1058.5400000000
  31
0.0
   0
ARC
   5
1FD
 100
AcDbEntity
   8
LEVEL001
 370
40
   6
CONTINUOUS
  62
3
 100
AcDbCircle
  10
 1409.8800000003
  20
 1072.9400000000
  30
0.0
  40
 14.400000000000
 100
AcDbArc
  50
 270.00000000000
  51
 90.000000000000
   0
LINE
   5
1FE
 100
AcDbEntity
   8
LEVEL001
 370
40
 100
AcDbLine
   6
CONTINUOUS
  62
3
  10
 1409.8800000003
  20
 1087.3400000000
  30
0.0
  11
 1386.8400000003
  21
 1087.3400000000
  31
0.0
   0
LINE
   5
1FF
 100
AcDbEntity
   8
LEVEL001
 370
40
 100
AcDbLine
   6
CONTINUOUS
  62
3
  10
 1398.3600000003
  20
 1075.8200000000
  30
0.0
  11
 1398.3600000003
  21
 1070.0600000000
  31
0.0
   0
LINE
   5
200
 100
AcDbEntity
   8
LEVEL001
 370
40
 100
AcDbLine
   6
CONTINUOUS
  62
3
  10
 1398.3600000003
  20
 1070.0600000000
  30
0.0
  11
 1409.8800000003
  21
 1070.0600000000
  31
0.0
   0
ARC
   5
201
 100
AcDbEntity
   8
LEVEL001
 370
40
   6
CONTINUOUS
  62
3
 100
AcDbCircle
  10
 1409.8800000003
  20
 1072.9400000000
  30
0.0
  40
 2.8800000000000
 100
AcDbArc
  50
 270.00000000000
  51
 90.000000000000
   0
LINE
   5
202
 100
AcDbEntity
   8
LEVEL001
 370
40
 100
AcDbLine
   6
CONTINUOUS
  62
3
  10
 1409.8800000003
  20
 1075.8200000000
  30
0.0
  11
 1398.3600000003
  21
 1075.8200000000
  31
0.0
   0
LINE
   5
203
 100
AcDbEntity
   8
LEVEL001
 370
40
 100
AcDbLine
   6
CONTINUOUS
  62
3
  10
 1438.6800000003
  20
 1087.3400000000
  30
0.0
  11
 1415.6400000003
  21
 1052.7800000000
  31
0.0
   0
LINE
   5
204
 100
AcDbEntity
   8
LEVEL001
 370
40
 100
AcDbLine
   6
CONTINUOUS
  62
3
  10
 1415.6400000003
  20
 1052.7800000000
  30
0.0
  11
 1432.9200000003
  21
 1052.7800000000
  31
0.0
   0
LINE
   5
205
 100
AcDbEntity
   8
LEVEL001
 370
40
 100
AcDbLine
   6
CONTINUOUS
  62
3
  10
 1432.9200000003
  20
 1052.7800000000
  30
0.0
  11
 1455.9600000003
  21
 1087.3400000000
  31
0.0
   0
LINE
   5
206
 100
AcDbEntity
   8
LEVEL001
 370
40
 100
AcDbLine
   6
CONTINUOUS
  62
3
  10
 1455.9600000003
  20
 1087.3400000000
  30
0.0
  11
 1438.6800000003
  21
 1087.3400000000
  31
0.0
   0
LINE
   5
207
 100
AcDbEntity
   8
LEVEL001
 370
40
 100
AcDbLine
   6
CONTINUOUS
  62
3
  10
 1452.1200000003
  20
 1052.7800000000
  30
0.0
  11
 1452.1200000003
  21
 1074.6573415511
  31
0.0
   0
LINE
   5
208
 100
AcDbEntity
   8
LEVEL001
 370
40
 100
AcDbLine
   6
CONTINUOUS
  62
3
  10
 1452.1200000003
  20
 1074.6573415511
  30
0.0
  11
 1437.5351056329
  21
 1052.7800000000
  31
0.0
   0
LINE
   5
209
 100
AcDbEntity
   8
LEVEL001
 370
40
 100
AcDbLine
   6
CONTINUOUS
  62
3
  10
 1437.5351056329
  20
 1052.7800000000
  30
0.0
  11
 1452.1200000003
  21
 1052.7800000000
  31
0.0
   0
LINE
   5
20A
 100
AcDbEntity
   8
LEVEL001
 370
40
 100
AcDbLine
   6
CONTINUOUS
  62
3
  10
 1455.9600000003
  20
 1052.7800000000
  30
0.0
  11
 1496.2800000003
  21
 1052.7800000000
  31
0.0
   0
LINE
   5
20B
 100
AcDbEntity
   8
LEVEL001
 370
40
 100
AcDbLine
   6
CONTINUOUS
  62
3
  10
 1496.2800000003
  20
 1052.7800000000
  30
0.0
  11
 1496.2800000003
  21
 1075.8200000000
  31
0.0
   0
LINE
   5
20C
 100
AcDbEntity
   8
LEVEL001
 370
40
 100
AcDbLine
   6
CONTINUOUS
  62
3
  10
 1496.2800000003
  20
 1075.8200000000
  30
0.0
  11
 1507.8000000003
  21
 1075.8200000000
  31
0.0
   0
LINE
   5
20D
 100
AcDbEntity
   8
LEVEL001
 370
40
 100
AcDbLine
   6
CONTINUOUS
  62
3
  10
 1507.8000000003
  20
 1075.8200000000
  30
0.0
  11
 1507.8000000003
  21
 1052.7800000000
  31
0.0
   0
LINE
   5
20E
 100
AcDbEntity
   8
LEVEL001
 370
40
 100
AcDbLine
   6
CONTINUOUS
  62
3
  10
 1507.8000000003
  20
 1052.7800000000
  30
0.0
  11
 1542.3600000003
  21
 1052.7800000000
  31
0.0
   0
LINE
   5
20F
 100
AcDbEntity
   8
LEVEL001
 370
40
 100
AcDbLine
   6
CONTINUOUS
  62
3
  10
 1542.3600000003
  20
 1052.7800000000
  30
0.0
  11
 1542.3600000003
  21
 1064.3000000000
  31
0.0
   0
LINE
   5
210
 100
AcDbEntity
   8
LEVEL001
 370
40
 100
AcDbLine
   6
CONTINUOUS
  62
3
  10
 1542.3600000003
  20
 1064.3000000000
  30
0.0
  11
 1519.3200000003
  21
 1064.3000000000
  31
0.0
   0
LINE
   5
211
 100
AcDbEntity
   8
LEVEL001
 370
40
 100
AcDbLine
   6
CONTINUOUS
  62
3
  10
 1519.3200000003
  20
 1064.3000000000
  30
0.0
  11
 1519.3200000003
  21
 1067.1800000000
  31
0.0
   0
LINE
   5
212
 100
AcDbEntity
   8
LEVEL001
 370
40
 100
AcDbLine
   6
CONTINUOUS
  62
3
  10
 1519.3200000003
  20
 1067.1800000000
  30
0.0
  11
 1539.4800000003
  21
 1067.1800000000
  31
0.0
   0
LINE
   5
213
 100
AcDbEntity
   8
LEVEL001
 370
40
 100
AcDbLine
   6
CONTINUOUS
  62
3
  10
 1539.4800000003
  20
 1067.1800000000
  30
0.0
  11
 1539.4800000003
  21
 1072.9400000000
  31
0.0
   0
LINE
   5
214
 100
AcDbEntity
   8
LEVEL001
 370
40
 100
AcDbLine
   6
CONTINUOUS
  62
3
  10
 1539.4800000003
  20
 1072.9400000000
  30
0.0
  11
 1519.3200000003
  21
 1072.9400000000
  31
0.0
   0
LINE
   5
215
 100
AcDbEntity
   8
LEVEL001
 370
40
 100
AcDbLine
   6
CONTINUOUS
  62
3
  10
 1519.3200000003
  20
 1072.9400000000
  30
0.0
  11
 1519.3200000003
  21
 1075.8200000000
  31
0.0
   0
LINE
   5
216
 100
AcDbEntity
   8
LEVEL001
 370
40
 100
AcDbLine
   6
CONTINUOUS
  62
3
  10
 1519.3200000003
  20
 1075.8200000000
  30
0.0
  11
 1542.3600000003
  21
 1075.8200000000
  31
0.0
   0
LINE
   5
217
 100
AcDbEntity
   8
LEVEL001
 370
40
 100
AcDbLine
   6
CONTINUOUS
  62
3
  10
 1542.3600000003
  20
 1075.8200000000
  30
0.0
  11
 1542.3600000003
  21
 1087.3400000000
  31
0.0
   0
LINE
   5
218
 100
AcDbEntity
   8
LEVEL001
 370
40
 100
AcDbLine
   6
CONTINUOUS
  62
3
  10
 1542.3600000003
  20
 1087.3400000000
  30
0.0
  11
 1473.2400000003
  21
 1087.3400000000
  31
0.0
   0
LINE
   5
219
 100
AcDbEntity
   8
LEVEL001
 370
40
 100
AcDbLine
   6
CONTINUOUS
  62
3
  10
 1473.2400000003
  20
 1087.3400000000
  30
0.0
  11
 1473.2400000003
  21
 1075.8200000000
  31
0.0
   0
LINE
   5
21A
 100
AcDbEntity
   8
LEVEL001
 370
40
 100
AcDbLine
   6
CONTINUOUS
  62
3
  10
 1473.2400000003
  20
 1075.8200000000
  30
0.0
  11
 1484.7600000003
  21
 1075.8200000000
  31
0.0
   0
LINE
   5
21B
 100
AcDbEntity
   8
LEVEL001
 370
40
 100
AcDbLine
   6
CONTINUOUS
  62
3
  10
 1484.7600000003
  20
 1075.8200000000
  30
0.0
  11
 1484.7600000003
  21
 1064.3000000000
  31
0.0
   0
LINE
   5
21C
 100
AcDbEntity
   8
LEVEL001
 370
40
 100
AcDbLine
   6
CONTINUOUS
  62
3
  10
 1484.7600000003
  20
 1064.3000000000
  30
0.0
  11
 1467.4800000003
  21
 1064.3000000000
  31
0.0
   0
LINE
   5
21D
 100
AcDbEntity
   8
LEVEL001
 370
40
 100
AcDbLine
   6
CONTINUOUS
  62
3
  10
 1467.4800000003
  20
 1064.3000000000
  30
0.0
  11
 1467.4800000003
  21
 1087.3400000000
  31
0.0
   0
LINE
   5
21E
 100
AcDbEntity
   8
LEVEL001
 370
40
 100
AcDbLine
   6
CONTINUOUS
  62
3
  10
 1467.4800000003
  20
 1087.3400000000
  30
0.0
  11
 1455.9600000003
  21
 1087.3400000000
  31
0.0
   0
LINE
   5
21F
 100
AcDbEntity
   8
LEVEL001
 370
40
 100
AcDbLine
   6
CONTINUOUS
  62
3
  10
 1455.9600000003
  20
 1087.3400000000
  30
0.0
  11
 1455.9600000003
  21
 1052.7800000000
  31
0.0
   0
LINE
   5
220
 100
AcDbEntity
   8
LEVEL001
 370
40
 100
AcDbLine
   6
CONTINUOUS
  62
3
  10
 1559.6400000003
  20
 1052.7800000000
  30
0.0
  11
 1576.9200000003
  21
 1052.7800000000
  31
0.0
   0
LINE
   5
221
 100
AcDbEntity
   8
LEVEL001
 370
40
 100
AcDbLine
   6
CONTINUOUS
  62
3
  10
 1576.9200000003
  20
 1052.7800000000
  30
0.0
  11
 1576.9200000003
  21
 1064.3000000000
  31
0.0
   0
LINE
   5
222
 100
AcDbEntity
   8
LEVEL001
 370
40
 100
AcDbLine
   6
CONTINUOUS
  62
3
  10
 1576.9200000003
  20
 1064.3000000000
  30
0.0
  11
 1559.6400000003
  21
 1064.3000000000
  31
0.0
   0
ARC
   5
223
 100
AcDbEntity
   8
LEVEL001
 370
40
   6
CONTINUOUS
  62
3
 100
AcDbCircle
  10
 1559.6400000003
  20
 1070.0600000000
  30
0.0
  40
 5.7600000000000
 100
AcDbArc
  50
 90.000000000000
  51
 270.00000000000
   0
LINE
   5
224
 100
AcDbEntity
   8
LEVEL001
 370
40
 100
AcDbLine
   6
CONTINUOUS
  62
3
  10
 1559.6400000003
  20
 1075.8200000000
  30
0.0
  11
 1576.9200000003
  21
 1075.8200000000
  31
0.0
   0
LINE
   5
225
 100
AcDbEntity
   8
LEVEL001
 370
40
 100
AcDbLine
   6
CONTINUOUS
  62
3
  10
 1576.9200000003
  20
 1075.8200000000
  30
0.0
  11
 1576.9200000003
  21
 1087.3400000000
  31
0.0
   0
LINE
   5
226
 100
AcDbEntity
   8
LEVEL001
 370
40
 100
AcDbLine
   6
CONTINUOUS
  62
3
  10
 1576.9200000003
  20
 1087.3400000000
  30
0.0
  11
 1559.6400000003
  21
 1087.3400000000
  31
0.0
   0
ARC
   5
227
 100
AcDbEntity
   8
LEVEL001
 370
40
   6
CONTINUOUS
  62
3
 100
AcDbCircle
  10
 1559.6400000003
  20
 1070.0600000000
  30
0.0
  40
 17.280000000000
 100
AcDbArc
  50
 90.000000000000
  51
 270.00000000000
   0
LINE
   5
228
 100
AcDbEntity
   8
LEVEL001
 370
40
 100
AcDbLine
   6
CONTINUOUS
  62
3
  10
 1375.3200000003
  20
 1060.4600000000
  30
0.0
  11
 1360.9200000003
  21
 1083.5000000000
  31
0.0
   0
LINE
   5
229
 100
AcDbEntity
   8
LEVEL001
 370
40
 100
AcDbLine
   6
CONTINUOUS
  62
3
  10
 1360.9200000003
  20
 1083.5000000000
  30
0.0
  11
 1375.3200000003
  21
 1083.5000000000
  31
0.0
   0
LINE
   5
22A
 100
AcDbEntity
   8
LEVEL001
 370
40
 100
AcDbLine
   6
CONTINUOUS
  62
3
  10
 1375.3200000003
  20
 1083.5000000000
  30
0.0
  11
 1375.3200000003
  21
 1060.4600000000
  31
0.0
   0
LINE
   5
22B
 100
AcDbEntity
   8
LEVEL001
 370
40
 100
AcDbLine
   6
CONTINUOUS
  62
3
  10
 1360.9200000003
  20
 1083.5000000000
  30
0.0
  11
 1375.3200000003
  21
 1060.4600000000
  31
0.0
   0
LINE
   5
22C
 100
AcDbEntity
   8
LEVEL001
 370
40
 100
AcDbLine
   6
CONTINUOUS
  62
3
  10
 1375.3200000003
  20
 1060.4600000000
  30
0.0
  11
 1375.3200000003
  21
 1083.5000000000
  31
0.0
   0
LINE
   5
22D
 100
AcDbEntity
   8
LEVEL001
 370
40
 100
AcDbLine
   6
CONTINUOUS
  62
3
  10
 1375.3200000003
  20
 1083.5000000000
  30
0.0
  11
 1360.9200000003
  21
 1083.5000000000
  31
0.0
   0
LINE
   5
22E
 100
AcDbEntity
   8
LEVEL001
 370
40
 100
AcDbLine
   6
CONTINUOUS
  62
3
  10
 1329.5600000003
  20
 1114.2200000000
  30
0.0
  11
 1309.0800000003
  21
 1083.5000000000
  31
0.0
   0
LINE
   5
22F
 100
AcDbEntity
   8
LEVEL001
 370
40
 100
AcDbLine
   6
CONTINUOUS
  62
3
  10
 1309.0800000003
  20
 1083.5000000000
  30
0.0
  11
 1329.5600000003
  21
 1052.7800000000
  31
0.0
   0
LINE
   5
230
 100
AcDbEntity
   8
LEVEL001
 370
40
 100
AcDbLine
   6
CONTINUOUS
  62
3
  10
 1346.8400000003
  20
 1052.7800000000
  30
0.0
  11
 1326.3600000003
  21
 1083.5000000000
  31
0.0
   0
LINE
   5
231
 100
AcDbEntity
   8
LEVEL001
 370
40
 100
AcDbLine
   6
CONTINUOUS
  62
3
  10
 1326.3600000003
  20
 1083.5000000000
  30
0.0
  11
 1346.8400000003
  21
 1114.2200000000
  31
0.0
   0
LINE
   5
232
 100
AcDbEntity
   8
LEVEL001
 370
40
 100
AcDbLine
   6
CONTINUOUS
  62
3
  10
 1355.4800000003
  20
 1114.2200000000
  30
0.0
  11
 1335.0000000003
  21
 1083.5000000000
  31
0.0
   0
LINE
   5
233
 100
AcDbEntity
   8
LEVEL001
 370
40
 100
AcDbLine
   6
CONTINUOUS
  62
3
  10
 1335.0000000003
  20
 1083.5000000000
  30
0.0
  11
 1355.4800000003
  21
 1052.7800000000
  31
0.0
   0
LINE
   5
234
 100
AcDbEntity
   8
LEVEL001
 370
40
 100
AcDbLine
   6
CONTINUOUS
  62
3
  10
 1372.7600000003
  20
 1052.7800000000
  30
0.0
  11
 1352.2800000003
  21
 1083.5000000000
  31
0.0
   0
LINE
   5
235
 100
AcDbEntity
   8
LEVEL001
 370
40
 100
AcDbLine
   6
CONTINUOUS
  62
3
  10
 1352.2800000003
  20
 1083.5000000000
  30
0.0
  11
 1372.7600000003
  21
 1114.2200000000
  31
0.0
   0
LINE
   5
236
 100
AcDbEntity
   8
LEVEL001
 370
40
 100
AcDbLine
   6
CONTINUOUS
  62
3
  10
 1329.5600000003
  20
 1052.7800000000
  30
0.0
  11
 1309.0800000003
  21
 1083.5000000000
  31
0.0
   0
LINE
   5
237
 100
AcDbEntity
   8
LEVEL001
 370
40
 100
AcDbLine
   6
CONTINUOUS
  62
3
  10
 1309.0800000003
  20
 1083.5000000000
  30
0.0
  11
 1329.5600000003
  21
 1114.2200000000
  31
0.0
   0
LINE
   5
238
 100
AcDbEntity
   8
LEVEL001
 370
40
 100
AcDbLine
   6
CONTINUOUS
  62
3
  10
 1329.5600000003
  20
 1114.2200000000
  30
0.0
  11
 1346.8400000003
  21
 1114.2200000000
  31
0.0
   0
LINE
   5
239
 100
AcDbEntity
   8
LEVEL001
 370
40
 100
AcDbLine
   6
CONTINUOUS
  62
3
  10
 1346.8400000003
  20
 1114.2200000000
  30
0.0
  11
 1326.3600000003
  21
 1083.5000000000
  31
0.0
   0
LINE
   5
23A
 100
AcDbEntity
   8
LEVEL001
 370
40
 100
AcDbLine
   6
CONTINUOUS
  62
3
  10
 1326.3600000003
  20
 1083.5000000000
  30
0.0
  11
 1346.8400000003
  21
 1052.7800000000
  31
0.0
   0
LINE
   5
23B
 100
AcDbEntity
   8
LEVEL001
 370
40
 100
AcDbLine
   6
CONTINUOUS
  62
3
  10
 1346.8400000003
  20
 1052.7800000000
  30
0.0
  11
 1329.5600000003
  21
 1052.7800000000
  31
0.0
   0
LINE
   5
23C
 100
AcDbEntity
   8
LEVEL001
 370
40
 100
AcDbLine
   6
CONTINUOUS
  62
3
  10
 1355.4800000003
  20
 1052.7800000000
  30
0.0
  11
 1335.0000000003
  21
 1083.5000000000
  31
0.0
   0
LINE
   5
23D
 100
AcDbEntity
   8
LEVEL001
 370
40
 100
AcDbLine
   6
CONTINUOUS
  62
3
  10
 1335.0000000003
  20
 1083.5000000000
  30
0.0
  11
 1355.4800000003
  21
 1114.2200000000
  31
0.0
   0
LINE
   5
23E
 100
AcDbEntity
   8
LEVEL001
 370
40
 100
AcDbLine
   6
CONTINUOUS
  62
3
  10
 1355.4800000003
  20
 1114.2200000000
  30
0.0
  11
 1372.7600000003
  21
 1114.2200000000
  31
0.0
   0
LINE
   5
23F
 100
AcDbEntity
   8
LEVEL001
 370
40
 100
AcDbLine
   6
CONTINUOUS
  62
3
  10
 1372.7600000003
  20
 1114.2200000000
  30
0.0
  11
 1352.2800000003
  21
 1083.5000000000
  31
0.0
   0
LINE
   5
240
 100
AcDbEntity
   8
LEVEL001
 370
40
 100
AcDbLine
   6
CONTINUOUS
  62
3
  10
 1352.2800000003
  20
 1083.5000000000
  30
0.0
  11
 1372.7600000003
  21
 1052.7800000000
  31
0.0
   0
LINE
   5
241
 100
AcDbEntity
   8
LEVEL001
 370
40
 100
AcDbLine
   6
CONTINUOUS
  62
3
  10
 1372.7600000003
  20
 1052.7800000000
  30
0.0
  11
 1355.4800000003
  21
 1052.7800000000
  31
0.0
   0
LINE
   5
242
 100
AcDbEntity
   8
LEVEL001
 370
40
 100
AcDbLine
   6
CONTINUOUS
  62
3
  10
 1268.0000000001
  20
 333.38360969059
  30
0.0
  11
 1618.0000000001
  21
 333.38360969059
  31
0.0
   0
HATCH
   5
243
 100
AcDbEntity
   8
0
  62
1
 100
AcDbHatch
  10
0.0
  20
0.0
  30
0.0
 210
0.0
 220
0.0
 230
 1.0000000000000
   2
SOLID
  70
1
  71
1
  91
1
  92
1
  93
6
  72
1
  10
 1326.3600000003
  20
 1083.5000000000
  11
 1346.8400000003
  21
 1052.7800000000
  72
1
  10
 1346.8400000003
  20
 1052.7800000000
  11
 1329.5600000003
  21
 1052.7800000000
  72
1
  10
 1329.5600000003
  20
 1052.7800000000
  11
 1309.0800000003
  21
 1083.5000000000
  72
1
  10
 1309.0800000003
  20
 1083.5000000000
  11
 1329.5600000003
  21
 1114.2200000000
  72
1
  10
 1329.5600000003
  20
 1114.2200000000
  11
 1346.8400000003
  21
 1114.2200000000
  72
1
  10
 1346.8400000003
  20
 1114.2200000000
  11
 1326.3600000003
  21
 1083.5000000000
  97
1
 330

  75
0
  76
1
  98
1
  10
0.0
  20
0.0
   0
HATCH
   5
244
 100
AcDbEntity
   8
0
  62
1
 100
AcDbHatch
  10
0.0
  20
0.0
  30
0.0
 210
0.0
 220
0.0
 230
 1.0000000000000
   2
SOLID
  70
1
  71
1
  91
1
  92
1
  93
6
  72
1
  10
 1355.4800000003
  20
 1114.2200000000
  11
 1372.7600000003
  21
 1114.2200000000
  72
1
  10
 1372.7600000003
  20
 1114.2200000000
  11
 1352.2800000003
  21
 1083.5000000000
  72
1
  10
 1352.2800000003
  20
 1083.5000000000
  11
 1372.7600000003
  21
 1052.7800000000
  72
1
  10
 1372.7600000003
  20
 1052.7800000000
  11
 1355.4800000003
  21
 1052.7800000000
  72
1
  10
 1355.4800000003
  20
 1052.7800000000
  11
 1335.0000000003
  21
 1083.5000000000
  72
1
  10
 1335.0000000003
  20
 1083.5000000000
  11
 1355.4800000003
  21
 1114.2200000000
  97
1
 330

  75
0
  76
1
  98
1
  10
0.0
  20
0.0
   0
HATCH
   5
245
 100
AcDbEntity
   8
0
  62
1
 100
AcDbHatch
  10
0.0
  20
0.0
  30
0.0
 210
0.0
 220
0.0
 230
 1.0000000000000
   2
SOLID
  70
1
  71
1
  91
1
  92
1
  93
3
  72
1
  10
 1360.9200000003
  20
 1083.5000000000
  11
 1375.3200000003
  21
 1083.5000000000
  72
1
  10
 1375.3200000003
  20
 1083.5000000000
  11
 1375.3200000003
  21
 1060.4600000000
  72
1
  10
 1375.3200000003
  20
 1060.4600000000
  11
 1360.9200000003
  21
 1083.5000000000
  97
1
 330

  75
0
  76
1
  98
1
  10
0.0
  20
0.0
   0
HATCH
   5
246
 100
AcDbEntity
   8
0
  62
1
 100
AcDbHatch
  10
0.0
  20
0.0
  30
0.0
 210
0.0
 220
0.0
 230
 1.0000000000000
   2
SOLID
  70
1
  71
1
  91
2
  92
1
  93
6
  72
2
  10
 1409.8800000003
  20
 1072.9400000000
  40
 14.400000000000
  50
 270.00000000000
  51
 90.000000000000
  73
0
  72
1
  10
 1409.8800000003
  20
 1058.5400000000
  11
 1398.3600000003
  21
 1058.5400000000
  72
1
  10
 1398.3600000003
  20
 1058.5400000000
  11
 1398.3600000003
  21
 1052.7800000000
  72
1
  10
 1398.3600000003
  20
 1052.7800000000
  11
 1386.8400000003
  21
 1052.7800000000
  72
1
  10
 1386.8400000003
  20
 1052.7800000000
  11
 1386.8400000003
  21
 1087.3400000000
  72
1
  10
 1386.8400000003
  20
 1087.3400000000
  11
 1409.8800000003
  21
 1087.3400000000
  97
1
 330

  92
16
  93
4
  72
2
  10
 1409.8800000003
  20
 1072.9400000000
  40
 2.8800000000000
  50
 270.00000000000
  51
 90.000000000000
  73
1
  72
1
  10
 1409.8800000003
  20
 1075.8200000000
  11
 1398.3600000003
  21
 1075.8200000000
  72
1
  10
 1398.3600000003
  20
 1075.8200000000
  11
 1398.3600000003
  21
 1070.0600000000
  72
1
  10
 1398.3600000003
  20
 1070.0600000000
  11
 1409.8800000003
  21
 1070.0600000000
  97
1
 330

  75
0
  76
1
  98
1
  10
0.0
  20
0.0
   0
HATCH
   5
247
 100
AcDbEntity
   8
0
  62
1
 100
AcDbHatch
  10
0.0
  20
0.0
  30
0.0
 210
0.0
 220
0.0
 230
 1.0000000000000
   2
SOLID
  70
1
  71
1
  91
1
  92
1
  93
4
  72
1
  10
 1438.6800000003
  20
 1087.3400000000
  11
 1455.9600000003
  21
 1087.3400000000
  72
1
  10
 1455.9600000003
  20
 1087.3400000000
  11
 1432.9200000003
  21
 1052.7800000000
  72
1
  10
 1432.9200000003
  20
 1052.7800000000
  11
 1415.6400000003
  21
 1052.7800000000
  72
1
  10
 1415.6400000003
  20
 1052.7800000000
  11
 1438.6800000003
  21
 1087.3400000000
  97
1
 330

  75
0
  76
1
  98
1
  10
0.0
  20
0.0
   0
HATCH
   5
248
 100
AcDbEntity
   8
0
  62
1
 100
AcDbHatch
  10
0.0
  20
0.0
  30
0.0
 210
0.0
 220
0.0
 230
 1.0000000000000
   2
SOLID
  70
1
  71
1
  91
1
  92
1
  93
3
  72
1
  10
 1437.5351056329
  20
 1052.7800000000
  11
 1452.1200000003
  21
 1074.6573415511
  72
1
  10
 1452.1200000003
  20
 1074.6573415511
  11
 1452.1200000003
  21
 1052.7800000000
  72
1
  10
 1452.1200000003
  20
 1052.7800000000
  11
 1437.5351056329
  21
 1052.7800000000
  97
1
 330

  75
0
  76
1
  98
1
  10
0.0
  20
0.0
   0
HATCH
   5
249
 100
AcDbEntity
   8
0
  62
1
 100
AcDbHatch
  10
0.0
  20
0.0
  30
0.0
 210
0.0
 220
0.0
 230
 1.0000000000000
   2
SOLID
  70
1
  71
1
  91
1
  92
1
  93
22
  72
1
  10
 1519.3200000003
  20
 1064.3000000000
  11
 1542.3600000003
  21
 1064.3000000000
  72
1
  10
 1542.3600000003
  20
 1064.3000000000
  11
 1542.3600000003
  21
 1052.7800000000
  72
1
  10
 1542.3600000003
  20
 1052.7800000000
  11
 1507.8000000003
  21
 1052.7800000000
  72
1
  10
 1507.8000000003
  20
 1052.7800000000
  11
 1507.8000000003
  21
 1075.8200000000
  72
1
  10
 1507.8000000003
  20
 1075.8200000000
  11
 1496.2800000003
  21
 1075.8200000000
  72
1
  10
 1496.2800000003
  20
 1075.8200000000
  11
 1496.2800000003
  21
 1052.7800000000
  72
1
  10
 1496.2800000003
  20
 1052.7800000000
  11
 1455.9600000003
  21
 1052.7800000000
  72
1
  10
 1455.9600000003
  20
 1052.7800000000
  11
 1455.9600000003
  21
 1087.3400000000
  72
1
  10
 1455.9600000003
  20
 1087.3400000000
  11
 1467.4800000003
  21
 1087.3400000000
  72
1
  10
 1467.4800000003
  20
 1087.3400000000
  11
 1467.4800000003
  21
 1064.3000000000
  72
1
  10
 1467.4800000003
  20
 1064.3000000000
  11
 1484.7600000003
  21
 1064.3000000000
  72
1
  10
 1484.7600000003
  20
 1064.3000000000
  11
 1484.7600000003
  21
 1075.8200000000
  72
1
  10
 1484.7600000003
  20
 1075.8200000000
  11
 1473.2400000003
  21
 1075.8200000000
  72
1
  10
 1473.2400000003
  20
 1075.8200000000
  11
 1473.2400000003
  21
 1087.3400000000
  72
1
  10
 1473.2400000003
  20
 1087.3400000000
  11
 1542.3600000003
  21
 1087.3400000000
  72
1
  10
 1542.3600000003
  20
 1087.3400000000
  11
 1542.3600000003
  21
 1075.8200000000
  72
1
  10
 1542.3600000003
  20
 1075.8200000000
  11
 1519.3200000003
  21
 1075.8200000000
  72
1
  10
 1519.3200000003
  20
 1075.8200000000
  11
 1519.3200000003
  21
 1072.9400000000
  72
1
  10
 1519.3200000003
  20
 1072.9400000000
  11
 1539.4800000003
  21
 1072.9400000000
  72
1
  10
 1539.4800000003
  20
 1072.9400000000
  11
 1539.4800000003
  21
 1067.1800000000
  72
1
  10
 1539.4800000003
  20
 1067.1800000000
  11
 1519.3200000003
  21
 1067.1800000000
  72
1
  10
 1519.3200000003
  20
 1067.1800000000
  11
 1519.3200000003
  21
 1064.3000000000
  97
1
 330

  75
0
  76
1
  98
1
  10
0.0
  20
0.0
   0
HATCH
   5
24A
 100
AcDbEntity
   8
0
  62
1
 100
AcDbHatch
  10
0.0
  20
0.0
  30
0.0
 210
0.0
 220
0.0
 230
 1.0000000000000
   2
SOLID
  70
1
  71
1
  91
1
  92
1
  93
8
  72
1
  10
 1559.6400000003
  20
 1087.3400000000
  11
 1576.9200000003
  21
 1087.3400000000
  72
1
  10
 1576.9200000003
  20
 1087.3400000000
  11
 1576.9200000003
  21
 1075.8200000000
  72
1
  10
 1576.9200000003
  20
 1075.8200000000
  11
 1559.6400000003
  21
 1075.8200000000
  72
2
  10
 1559.6400000003
  20
 1070.0600000000
  40
 5.7600000000000
  50
 90.000000000000
  51
 270.00000000000
  73
1
  72
1
  10
 1559.6400000003
  20
 1064.3000000000
  11
 1576.9200000003
  21
 1064.3000000000
  72
1
  10
 1576.9200000003
  20
 1064.3000000000
  11
 1576.9200000003
  21
 1052.7800000000
  72
1
  10
 1576.9200000003
  20
 1052.7800000000
  11
 1559.6400000003
  21
 1052.7800000000
  72
2
  10
 1559.6400000003
  20
 1070.0600000000
  40
 17.280000000000
  50
 90.000000000000
  51
 270.00000000000
  73
0
  97
1
 330

  75
0
  76
1
  98
1
  10
0.0
  20
0.0
   0
LINE
   5
24B
 100
AcDbEntity
   8
LEVEL001
 370
50
 100
AcDbLine
   6
CONTINUOUS
  62
4
  10
 1268.0000000001
  20
 1140.0000000000
  30
0.0
  11
 1268.0000000001
  21
 48.000000000020
  31
0.0
   0
LINE
   5
24C
 100
AcDbEntity
   8
LEVEL001
 370
50
 100
AcDbLine
   6
CONTINUOUS
  62
4
  10
 1268.0000000001
  20
 1140.0000000000
  30
0.0
  11
 1268.0000000001
  21
 48.000000000009
  31
0.0
   0
LINE
   5
24D
 100
AcDbEntity
   8
LEVEL001
 370
50
 100
AcDbLine
   6
CONTINUOUS
  62
4
  10
 1618.0000000001
  20
 48.000000000009
  30
0.0
  11
 1618.0000000001
  21
 1140.0000000000
  31
0.0
   0
LINE
   5
24E
 100
AcDbEntity
   8
LEVEL001
 370
50
 100
AcDbLine
   6
CONTINUOUS
  62
4
  10
 1618.0000000001
  20
 1140.0000000000
  30
0.0
  11
 62.000000000102
  21
 1140.0000000000
  31
0.0
   0
LINE
   5
24F
 100
AcDbEntity
   8
LEVEL001
 370
50
 100
AcDbLine
   6
CONTINUOUS
  62
4
  10
 62.000000000102
  20
 1140.0000000000
  30
0.0
  11
 62.000000000102
  21
 48.000000000020
  31
0.0
   0
LINE
   5
250
 100
AcDbEntity
   8
LEVEL001
 370
50
 100
AcDbLine
   6
CONTINUOUS
  62
4
  10
 62.000000000102
  20
 48.000000000020
  30
0.0
  11
 1618.0000000001
  21
 48.000000000020
  31
0.0
   0
MTEXT
   5
252
 100
AcDbEntity
   8
LEVEL001
 370
20
  62
7
 100
AcDbMText
  10
 1386.8400000003
  20
 1093.1000000000
  30
0.0
  40
 12.000000000000
  41
0.0
  71
7
  72
1
   1
\T1.000000;ケージーパルテック株式会社
   7
GMM001
  44
 0.79999984000003
   0
MTEXT
   5
254
 100
AcDbEntity
   8
LEVEL001
 370
20
  62
8
 100
AcDbMText
  10
 1499.2000000001
  20
 194.66666666668
  30
0.0
  40
 11.200000000000
  41
0.0
  71
5
  72
1
   1
\T1.000000;作成日付：
   7
GMM002
  44
 0.79999984000003
   0
MTEXT
   5
256
 100
AcDbEntity
   8
LEVEL001
 370
20
  62
8
 100
AcDbMText
  10
 1499.2000000001
  20
 168.00000000001
  30
0.0
  40
 11.200000000000
  41
0.0
  71
5
  72
1
   1
\T1.000000;変更日付：
   7
GMM002
  44
 0.79999984000003
   0
MTEXT
   5
258
 100
AcDbEntity
   8
LEVEL001
 370
20
  62
8
 100
AcDbMText
  10
 1443.0000000001
  20
 248.00000000001
  30
0.0
  40
 15.000000000000
  41
0.0
  71
5
  72
1
   1
\T1.000000;三面図
   7
GMM002
  44
 0.79999984000003
   0
MTEXT
   5
25A
 100
AcDbEntity
   8
LEVEL001
 370
20
  62
8
 100
AcDbMText
  10
 1276.7858875373
  20
 312.89545107619
  30
0.0
  40
 12.000000000000
  41
0.0
  71
7
  72
1
   1
\T1.000000;※本製品は予告無しに変更する事があります。
   7
GMM002
  44
 0.79999984000003
   0
LINE
   5
25B
 100
AcDbEntity
   8
0
 370
20
 100
AcDbLine
   6
DOT
  62
2
  10
 1680.0000000000
  20
 1188.0000000000
  30
0.0
  11
0.0
  21
 1188.0000000000
  31
0.0
   0
LINE
   5
25C
 100
AcDbEntity
   8
0
 370
20
 100
AcDbLine
   6
DOT
  62
2
  10
0.0
  20
0.0
  30
0.0
  11
 1680.0000000000
  21
0.0
  31
0.0
   0
LINE
   5
25D
 100
AcDbEntity
   8
0
 370
20
 100
AcDbLine
   6
DOT
  62
2
  10
0.0
  20
 1188.0000000000
  30
0.0
  11
0.0
  21
0.0
  31
0.0
   0
MTEXT
   5
25F
 100
AcDbEntity
   8
LEVEL001
 370
20
  62
8
 100
AcDbMText
  10
 1293.2000000001
  20
 1012.0000000000
  30
0.0
  40
 12.000000000000
  41
0.0
  71
5
  72
1
   1
\T1.000000;商品名：
   7
GMM001
  44
 0.79999984000003
   0
MTEXT
   5
261
 100
AcDbEntity
   8
LEVEL001
 370
20
  62
8
 100
AcDbMText
  10
 1287.2000000001
  20
 932.00000000001
  30
0.0
  40
 12.000000000000
  41
0.0
  71
5
  72
1
   1
\T1.000000;形式：
   7
GMM001
  44
 0.79999984000003
   0
MTEXT
   5
263
 100
AcDbEntity
   8
LEVEL001
 370
20
  62
8
 100
AcDbMText
  10
 1287.2000000001
  20
 852.00000000001
  30
0.0
  40
 12.000000000000
  41
0.0
  71
5
  72
1
   1
\T1.000000;仕様：
   7
GMM001
  44
 0.79999984000003
   0
MTEXT
   5
265
 100
AcDbEntity
   8
LEVEL001
 370
20
  62
8
 100
AcDbMText
  10
 1299.2000000001
  20
 273.00000000001
  30
0.0
  40
 12.000000000000
  41
0.0
  71
5
  72
1
   1
\T1.000000;図面名称：
   7
GMM001
  44
 0.79999984000003
   0
MTEXT
   5
267
 100
AcDbEntity
   8
LEVEL001
 370
20
  62
8
 100
AcDbMText
  10
 1287.2000000001
  20
 193.00000000001
  30
0.0
  40
 12.000000000000
  41
0.0
  71
5
  72
1
   1
\T1.000000;縮尺：
   7
GMM001
  44
 0.79999984000003
   0
MTEXT
   5
269
 100
AcDbEntity
   8
LEVEL001
 370
20
  62
8
 100
AcDbMText
  10
 1305.2000000001
  20
 114.88614091451
  30
0.0
  40
 12.000000000000
  41
0.0
  71
5
  72
1
   1
\T1.000000;用紙サイズ：
   7
GMM001
  44
 0.79999984000003
   0
MTEXT
   5
26B
 100
AcDbEntity
   8
LEVEL001
 370
20
  62
8
 100
AcDbMText
  10
 1505.2000000001
  20
 113.00000000001
  30
0.0
  40
 12.000000000000
  41
0.0
  71
5
  72
1
   1
\T1.000000;ファイル名：
   7
GMM001
  44
 0.79999984000003
   0
MTEXT
   5
26D
 100
AcDbEntity
   8
LEVEL001
 370
20
  62
8
 100
AcDbMText
  10
 1368.0000000001
  20
 168.00000000001
  30
0.0
  40
 15.000000000000
  41
0.0
  71
5
  72
1
   1
\T1.000000;Ｓ＝１：４
   7
GMM001
  44
 0.79999984000003
   0
MTEXT
   5
26F
 100
AcDbEntity
   8
LEVEL001
 370
20
  62
8
 100
AcDbMText
  10
 1368.0000000001
  20
 88.000000000009
  30
0.0
  40
 15.000000000000
  41
0.0
  71
5
  72
1
   1
\T1.000000;Ａ３
   7
GMM001
  44
 0.79999984000003
   0
MTEXT
   5
271
 100
AcDbEntity
   8
LEVEL001
 370
20
  62
8
 100
AcDbMText
  10
 1573.2000000001
  20
 141.33333333334
  30
0.0
  40
 8.0000000000000
  41
0.0
  71
5
  72
1
   1
\T1.000000;平成　　年　　月　　日
   7
GMM001
  44
 0.79999984000003
   0
MTEXT
   5
273
 100
AcDbEntity
   8
LEVEL001
 370
20
  62
8
 100
AcDbMText
  10
 1573.2000000001
  20
 168.00000000001
  30
0.0
  40
 8.0000000000000
  41
0.0
  71
5
  72
1
   1
\T1.000000;平成　　年　　月　　日
   7
GMM001
  44
 0.79999984000003
   0
LINE
   5
274
 100
AcDbEntity
   8
0
 370
20
 100
AcDbLine
   6
DOT
  62
2
  10
 1680.0000000000
  20
 1188.0000000000
  30
0.0
  11
 1680.0000000000
  21
0.0
  31
0.0
   0
LINE
   5
275
 100
AcDbEntity
   8
0
 370
40
 100
AcDbLine
   6
CONTINUOUS
  62
3
  10
 665.00000000010
  20
 1140.0000000000
  30
0.0
  11
 665.00000000010
  21
 48.000000000020
  31
0.0
   0
LINE
   5
276
 100
AcDbEntity
   8
LEVEL001
 370
20
 100
AcDbLine
   6
CONTINUOUS
  62
7
  10
 1434.2611135295
  20
 755.00000000001
  30
0.0
  11
 1584.2611135295
  21
 755.00000000001
  31
0.0
   0
LINE
   5
277
 100
AcDbEntity
   8
LEVEL001
 370
20
 100
AcDbLine
   6
CONTINUOUS
  62
7
  10
 1434.2611135295
  20
 776.00000000001
  30
0.0
  11
 1434.2611135295
  21
 644.00000000001
  31
0.0
   0
LINE
   5
278
 100
AcDbEntity
   8
LEVEL001
 370
20
 100
AcDbLine
   6
CONTINUOUS
  62
7
  10
 1584.2611135295
  20
 776.00000000001
  30
0.0
  11
 1584.2611135295
  21
 644.00000000001
  31
0.0
   0
LINE
   5
279
 100
AcDbEntity
   8
LEVEL001
 370
20
 100
AcDbLine
   6
CONTINUOUS
  62
7
  10
 1284.2611135295
  20
 776.00000000001
  30
0.0
  11
 1284.2611135295
  21
 644.00000000001
  31
0.0
   0
LINE
   5
27A
 100
AcDbEntity
   8
LEVEL001
 370
20
 100
AcDbLine
   6
CONTINUOUS
  62
7
  10
 1284.2611135295
  20
 734.00000000001
  30
0.0
  11
 1584.2611135295
  21
 734.00000000001
  31
0.0
   0
LINE
   5
27B
 100
AcDbEntity
   8
LEVEL001
 370
20
 100
AcDbLine
   6
CONTINUOUS
  62
7
  10
 1284.2611135295
  20
 644.00000000001
  30
0.0
  11
 1584.2611135295
  21
 644.00000000001
  31
0.0
   0
MTEXT
   5
27D
 100
AcDbEntity
   8
LEVEL001
 370
20
  62
8
 100
AcDbMText
  10
 1359.2611135295
  20
 755.00000000001
  30
0.0
  40
 12.000000000000
  41
0.0
  71
5
  72
1
   1
\T1.000000;品番
   7
GMM001
  44
 0.79999984000003
   0
LINE
   5
27E
 100
AcDbEntity
   8
LEVEL001
 370
20
 100
AcDbLine
   6
CONTINUOUS
  62
7
  10
 1284.2611135295
  20
 776.00000000001
  30
0.0
  11
 1584.2611135295
  21
 776.00000000001
  31
0.0
   0
MTEXT
   5
280
 100
AcDbEntity
   8
LEVEL001
 370
20
  62
8
 100
AcDbMText
  10
 1305.5062713797
  20
 838.26225769669
  30
0.0
  40
 12.000000000000
  41
0.0
  71
1
  72
1
   1
{\T1.000000;材　質／ＳＵＳ３０４}\P{\T1.000000;仕上げ／ＨＬ}\P{\T1.000000;軸　径／%%c１６軸}
   7
GMM001
  44
 0.79999984000003
   0
LINE
   5
281
 100
AcDbEntity
   8
0
 370
20
 100
AcDbLine
   6
CONTINUOUS
  62
7
  10
 1359.2611135295
  20
 644.00000000001
  30
0.0
  11
 1359.2611135295
  21
 734.00000000001
  31
0.0
   0
MTEXT
   5
283
 100
AcDbEntity
   8
LEVEL001
 370
20
  62
8
 100
AcDbMText
  10
 1509.2611135295
  20
 744.50000000001
  30
0.0
  40
 12.000000000000
  41
0.0
  71
5
  72
1
   1
\T1.000000;１６軸
   7
GMM001
  44
 0.79999984000003
   0
MTEXT
   5
285
 100
AcDbEntity
   8
LEVEL001
 370
20
  62
8
 100
AcDbMText
  10
 1287.2799276686
  20
 624.92436335994
  30
0.0
  40
 12.000000000000
  41
0.0
  71
4
  72
1
   1
{\T1.000000;※首下寸法Ｈは座面から受下までの寸法です。}\P{\T1.000000;※ネジ切りはＭ１０です。}
   7
GMM001
  44
 0.79999984000003
   0
MTEXT
   5
287
 100
AcDbEntity
   8
LEVEL001
 370
20
  62
8
 100
AcDbMText
  10
 1509.2611135295
  20
 765.50000000001
  30
0.0
  40
 9.0000000000000
  41
0.0
  71
5
  72
1
   1
\W1.000000;\T1.000000;首下寸法Ｈ\W0.500000;\T1.000000;(m/m\W1.000000;\T1.000000;）
   7
GMM001
  44
 0.79999984000003
   0
LINE
   5
288
 100
AcDbEntity
   8
LEVEL004
 370
20
 100
AcDbLine
   6
CONTINUOUS
  62
1
  10
 970.29665718044
  20
 1033.7536066099
  30
0.0
  11
 970.29665718044
  21
 1012.7536066099
  31
0.0
   0
LINE
   5
289
 100
AcDbEntity
   8
LEVEL004
 370
20
 100
AcDbLine
   6
CONTINUOUS
  62
1
  10
 972.29665718044
  20
 1035.7536066099
  30
0.0
  11
 1048.2966571804
  21
 1035.7536066099
  31
0.0
   0
LINE
   5
28A
 100
AcDbEntity
   8
LEVEL004
 370
20
 100
AcDbLine
   6
CONTINUOUS
  62
1
  10
 1048.2966571804
  20
 1010.7536066099
  30
0.0
  11
 972.29665718044
  21
 1010.7536066099
  31
0.0
   0
ARC
   5
28B
 100
AcDbEntity
   8
LEVEL004
 370
20
   6
CONTINUOUS
  62
1
 100
AcDbCircle
  10
 972.29665718044
  20
 1033.7536066099
  30
0.0
  40
 2.0000000000000
 100
AcDbArc
  50
 90.000000000000
  51
 180.00000000000
   0
ARC
   5
28C
 100
AcDbEntity
   8
LEVEL004
 370
20
   6
CONTINUOUS
  62
1
 100
AcDbCircle
  10
 972.29665718044
  20
 1012.7536066099
  30
0.0
  40
 2.0000000000000
 100
AcDbArc
  50
 180.00000000000
  51
 270.00000000000
   0
CIRCLE
   5
28D
 100
AcDbEntity
   8
LEVEL004
 370
20
 100
AcDbCircle
   6
CONTINUOUS
  62
1
  10
 980.29665718044
  20
 1028.2536066099
  30
0.0
  40
 2.5000000000000
   0
CIRCLE
   5
28E
 100
AcDbEntity
   8
LEVEL004
 370
20
 100
AcDbCircle
   6
HIDDEN
  62
1
  10
 980.29665718044
  20
 1028.2536066099
  30
0.0
  40
 4.3000000000000
   0
LINE
   5
28F
 100
AcDbEntity
   8
LEVEL004
 370
20
 100
AcDbLine
   6
CONTINUOUS
  62
1
  10
 1050.2966571804
  20
 1033.7536066099
  30
0.0
  11
 1050.2966571804
  21
 1012.7536066099
  31
0.0
   0
ARC
   5
290
 100
AcDbEntity
   8
LEVEL004
 370
20
   6
CONTINUOUS
  62
1
 100
AcDbCircle
  10
 1048.2966571804
  20
 1033.7536066099
  30
0.0
  40
 2.0000000000000
 100
AcDbArc
  50
0.0
  51
 90.000000000000
   0
ARC
   5
291
 100
AcDbEntity
   8
LEVEL004
 370
20
   6
CONTINUOUS
  62
1
 100
AcDbCircle
  10
 1048.2966571804
  20
 1012.7536066099
  30
0.0
  40
 2.0000000000000
 100
AcDbArc
  50
 270.00000000000
  51
0.0
   0
CIRCLE
   5
292
 100
AcDbEntity
   8
LEVEL004
 370
20
 100
AcDbCircle
   6
CONTINUOUS
  62
1
  10
 1040.2966571804
  20
 1018.2536066099
  30
0.0
  40
 2.5000000000000
   0
CIRCLE
   5
293
 100
AcDbEntity
   8
LEVEL004
 370
20
 100
AcDbCircle
   6
HIDDEN
  62
1
  10
 1040.2966571804
  20
 1018.2536066099
  30
0.0
  40
 4.3000000000000
   0
CIRCLE
   5
294
 100
AcDbEntity
   8
LEVEL007
 370
20
 100
AcDbCircle
   6
CONTINUOUS
  62
1
  10
 1010.2966571804
  20
 1023.2536066099
  30
0.0
  40
 6.4000000000000
   0
LINE
   5
295
 100
AcDbEntity
   8
0
 370
20
 100
AcDbLine
   6
DASHDOT
  62
8
  10
 1040.2966571804
  20
 1011.7361591578
  30
0.0
  11
 1040.2966571804
  21
 1024.7710540621
  31
0.0
   0
LINE
   5
296
 100
AcDbEntity
   8
0
 370
20
 100
AcDbLine
   6
DASHDOT
  62
8
  10
 1046.9761377334
  20
 1018.2536066099
  30
0.0
  11
 1033.6171766275
  21
 1018.2536066099
  31
0.0
   0
DIMENSION
   5
297
 100
AcDbEntity
   8
0
 370
20
   6
CONTINUOUS
  62
8
 100
AcDbDimension
   2
*D1
  10
 1084.1728416606
  20
 1035.7536066099
  30
0.0
  11
 1084.1728416606
  21
 1023.2536066099
  31
0.0
  70
0
   3
GMM001
 100
AcDbAlignedDimension
  13
 1048.2966571804
  23
 1010.7536066099
  33
0.0
  14
 1048.2966571804
  24
 1035.7536066099
  34
0.0
  50
 90.000000000000
 100
AcDbRotatedDimension
   0
CIRCLE
   5
298
 100
AcDbEntity
   8
LEVEL002
 370
20
 100
AcDbCircle
   6
CONTINUOUS
  62
5
  10
 1010.2966571804
  20
 1023.2536066099
  30
0.0
  40
 6.0000000000000
   0
LINE
   5
299
 100
AcDbEntity
   8
LEVEL002
 370
20
 100
AcDbLine
   6
CONTINUOUS
  62
5
  10
 1010.7466571804
  20
 1026.4723019978
  30
0.0
  11
 1010.7466571804
  21
 1025.5517036488
  31
0.0
   0
LINE
   5
29A
 100
AcDbEntity
   8
LEVEL002
 370
20
 100
AcDbLine
   6
CONTINUOUS
  62
5
  10
 1010.7466571804
  20
 1020.9555095711
  30
0.0
  11
 1010.7466571804
  21
 1020.0349112220
  31
0.0
   0
LINE
   5
29B
 100
AcDbEntity
   8
LEVEL002
 370
20
 100
AcDbLine
   6
CONTINUOUS
  62
5
  10
 1009.8466571804
  20
 1026.4723019978
  30
0.0
  11
 1009.8466571804
  21
 1025.5517036488
  31
0.0
   0
LINE
   5
29C
 100
AcDbEntity
   8
LEVEL002
 370
20
 100
AcDbLine
   6
CONTINUOUS
  62
5
  10
 1009.8466571804
  20
 1020.9555095711
  30
0.0
  11
 1009.8466571804
  21
 1020.0349112220
  31
0.0
   0
LINE
   5
29D
 100
AcDbEntity
   8
LEVEL002
 370
20
 100
AcDbLine
   6
CONTINUOUS
  62
5
  10
 1007.0779617926
  20
 1022.8036066099
  30
0.0
  11
 1007.9985601416
  21
 1022.8036066099
  31
0.0
   0
LINE
   5
29E
 100
AcDbEntity
   8
LEVEL002
 370
20
 100
AcDbLine
   6
CONTINUOUS
  62
5
  10
 1012.5947542193
  20
 1022.8036066099
  30
0.0
  11
 1013.5153525683
  21
 1022.8036066099
  31
0.0
   0
LINE
   5
29F
 100
AcDbEntity
   8
LEVEL002
 370
20
 100
AcDbLine
   6
CONTINUOUS
  62
5
  10
 1007.0779617926
  20
 1023.7036066099
  30
0.0
  11
 1007.9985601416
  21
 1023.7036066099
  31
0.0
   0
LINE
   5
2A0
 100
AcDbEntity
   8
LEVEL002
 370
20
 100
AcDbLine
   6
CONTINUOUS
  62
5
  10
 1012.5947542193
  20
 1023.7036066099
  30
0.0
  11
 1013.5153525683
  21
 1023.7036066099
  31
0.0
   0
ARC
   5
2A1
 100
AcDbEntity
   8
LEVEL002
 370
20
   6
CONTINUOUS
  62
5
 100
AcDbCircle
  10
 1010.2966571804
  20
 1023.2536066099
  30
0.0
  40
 3.2500000000000
 100
AcDbArc
  50
 352.04116811846
  51
 7.9588318815447
   0
ARC
   5
2A2
 100
AcDbEntity
   8
LEVEL002
 370
20
   6
CONTINUOUS
  62
5
 100
AcDbCircle
  10
 1010.2966571804
  20
 1023.2536066099
  30
0.0
  40
 3.2500000000000
 100
AcDbArc
  50
 82.041168118449
  51
 97.958831881433
   0
ARC
   5
2A3
 100
AcDbEntity
   8
LEVEL002
 370
20
   6
CONTINUOUS
  62
5
 100
AcDbCircle
  10
 1010.2966571804
  20
 1023.2536066099
  30
0.0
  40
 3.2500000000000
 100
AcDbArc
  50
 172.04116811847
  51
 187.95883188153
   0
ARC
   5
2A4
 100
AcDbEntity
   8
LEVEL002
 370
20
   6
CONTINUOUS
  62
5
 100
AcDbCircle
  10
 1010.2966571804
  20
 1023.2536066099
  30
0.0
  40
 3.2500000000000
 100
AcDbArc
  50
 262.04116811854
  51
 277.95883188152
   0
ARC
   5
2A5
 100
AcDbEntity
   8
LEVEL002
 370
20
   6
CONTINUOUS
  62
5
 100
AcDbCircle
  10
 1012.5947542193
  20
 1020.9555095711
  30
0.0
  40
 1.8480970388563
 100
AcDbArc
  50
 89.999999999799
  51
 179.99999999998
   0
ARC
   5
2A6
 100
AcDbEntity
   8
LEVEL002
 370
20
   6
CONTINUOUS
  62
5
 100
AcDbCircle
  10
 1012.5947542193
  20
 1025.5517036488
  30
0.0
  40
 1.8480970388563
 100
AcDbArc
  50
 180.00000000000
  51
 270.00000000020
   0
ARC
   5
2A7
 100
AcDbEntity
   8
LEVEL002
 370
20
   6
CONTINUOUS
  62
5
 100
AcDbCircle
  10
 1007.9985601416
  20
 1020.9555095711
  30
0.0
  40
 1.8480970388563
 100
AcDbArc
  50
0.0
  51
 90.000000000201
   0
ARC
   5
2A8
 100
AcDbEntity
   8
LEVEL002
 370
20
   6
CONTINUOUS
  62
5
 100
AcDbCircle
  10
 1007.9985601416
  20
 1025.5517036488
  30
0.0
  40
 1.8480970388563
 100
AcDbArc
  50
 270.00000000002
  51
0.0
   0
LINE
   5
2A9
 100
AcDbEntity
   8
0
 370
20
 100
AcDbLine
   6
DASHDOT
  62
8
  10
 980.29665718044
  20
 1021.7361591578
  30
0.0
  11
 980.29665718044
  21
 1034.7710540621
  31
0.0
   0
LINE
   5
2AA
 100
AcDbEntity
   8
0
 370
20
 100
AcDbLine
   6
DASHDOT
  62
8
  10
 986.97613773337
  20
 1028.2536066099
  30
0.0
  11
 973.61717662750
  21
 1028.2536066099
  31
0.0
   0
LEADER
   5
2AB
 100
AcDbEntity
   8
0
 370
20
   6
CONTINUOUS
  62
8
 100
AcDbLeader
   3
GMM002
  73
0
  74
0
  75
0
  40
 10.000000000000
  41
 62.000000000000
  76
2
  10
 1043.7286575252
  20
 1015.6629747114
  30
0.0
  10
 1067.4967068791
  20
 986.14511406693
  30
0.0
  77
8
 340
2AC
 213
0.0
 223
-4.0000000000000
 233
0.0
   0
MTEXT
   5
2AC
 102
{ACAD_REACTORS
 330
2AB
 102
}
 100
AcDbEntity
   8
0
 370
20
  62
8
 100
AcDbMText
  10
 1067.4967068791
  20
 990.14511406693
  30
0.0
  40
 10.000000000000
  41
0.0
  71
7
  72
1
   1
\A1;下穴%%c５/皿%%c８
   7
GMM001
   0
LINE
   5
2AD
 100
AcDbEntity
   8
LEVEL004
 370
20
 100
AcDbLine
   6
CONTINUOUS
  62
1
  10
 367.29665718044
  20
 1031.2536066101
  30
0.0
  11
 367.29665718044
  21
 1015.2536066101
  31
0.0
   0
CIRCLE
   5
2AE
 100
AcDbEntity
   8
LEVEL004
 370
20
 100
AcDbCircle
   6
CONTINUOUS
  62
1
  10
 377.29665718044
  20
 1025.7536066101
  30
0.0
  40
 2.5000000000000
   0
LINE
   5
2AF
 100
AcDbEntity
   8
LEVEL004
 370
20
 100
AcDbLine
   6
CONTINUOUS
  62
1
  10
 369.29665718044
  20
 1033.2536066101
  30
0.0
  11
 445.29665718044
  21
 1033.2536066101
  31
0.0
   0
LINE
   5
2B0
 100
AcDbEntity
   8
LEVEL004
 370
20
 100
AcDbLine
   6
CONTINUOUS
  62
1
  10
 445.29665718044
  20
 1013.2536066101
  30
0.0
  11
 369.29665718044
  21
 1013.2536066101
  31
0.0
   0
ARC
   5
2B1
 100
AcDbEntity
   8
LEVEL004
 370
20
   6
CONTINUOUS
  62
1
 100
AcDbCircle
  10
 369.29665718044
  20
 1031.2536066101
  30
0.0
  40
 2.0000000000000
 100
AcDbArc
  50
 90.000000000000
  51
 180.00000000000
   0
ARC
   5
2B2
 100
AcDbEntity
   8
LEVEL004
 370
20
   6
CONTINUOUS
  62
1
 100
AcDbCircle
  10
 369.29665718044
  20
 1015.2536066101
  30
0.0
  40
 2.0000000000000
 100
AcDbArc
  50
 180.00000000000
  51
 270.00000000000
   0
CIRCLE
   5
2B3
 100
AcDbEntity
   8
LEVEL004
 370
20
 100
AcDbCircle
   6
HIDDEN
  62
1
  10
 377.29665718044
  20
 1025.7536066101
  30
0.0
  40
 4.3000000000000
   0
LINE
   5
2B4
 100
AcDbEntity
   8
LEVEL004
 370
20
 100
AcDbLine
   6
CONTINUOUS
  62
1
  10
 447.29665718044
  20
 1031.2536066101
  30
0.0
  11
 447.29665718044
  21
 1015.2536066101
  31
0.0
   0
CIRCLE
   5
2B5
 100
AcDbEntity
   8
LEVEL004
 370
20
 100
AcDbCircle
   6
CONTINUOUS
  62
1
  10
 437.29665718044
  20
 1020.7536066101
  30
0.0
  40
 2.5000000000000
   0
ARC
   5
2B6
 100
AcDbEntity
   8
LEVEL004
 370
20
   6
CONTINUOUS
  62
1
 100
AcDbCircle
  10
 445.29665718044
  20
 1031.2536066101
  30
0.0
  40
 2.0000000000000
 100
AcDbArc
  50
0.0
  51
 90.000000000000
   0
ARC
   5
2B7
 100
AcDbEntity
   8
LEVEL004
 370
20
   6
CONTINUOUS
  62
1
 100
AcDbCircle
  10
 445.29665718044
  20
 1015.2536066101
  30
0.0
  40
 2.0000000000000
 100
AcDbArc
  50
 270.00000000000
  51
0.0
   0
CIRCLE
   5
2B8
 100
AcDbEntity
   8
LEVEL004
 370
20
 100
AcDbCircle
   6
HIDDEN
  62
1
  10
 437.29665718044
  20
 1020.7536066101
  30
0.0
  40
 4.3000000000000
   0
CIRCLE
   5
2B9
 100
AcDbEntity
   8
LEVEL007
 370
20
 100
AcDbCircle
   6
CONTINUOUS
  62
1
  10
 407.29665718044
  20
 1023.2536066101
  30
0.0
  40
 6.4000000000000
   0
LINE
   5
2BA
 100
AcDbEntity
   8
0
 370
20
 100
AcDbLine
   6
DASHDOT
  62
8
  10
 437.29665718044
  20
 1015.3293661610
  30
0.0
  11
 437.29665718044
  21
 1026.1778470592
  31
0.0
   0
LINE
   5
2BB
 100
AcDbEntity
   8
0
 370
20
 100
AcDbLine
   6
DASHDOT
  62
8
  10
 442.75434918401
  20
 1020.7536066101
  30
0.0
  11
 431.83896517687
  21
 1020.7536066101
  31
0.0
   0
LINE
   5
2BC
 100
AcDbEntity
   8
0
 370
20
 100
AcDbLine
   6
DASHDOT
  62
8
  10
 377.29665718044
  20
 1020.0027073623
  30
0.0
  11
 377.29665718044
  21
 1031.5045058579
  31
0.0
   0
LINE
   5
2BD
 100
AcDbEntity
   8
0
 370
20
 100
AcDbLine
   6
DASHDOT
  62
8
  10
 383.65032810832
  20
 1025.7536066101
  30
0.0
  11
 370.94298625256
  21
 1025.7536066101
  31
0.0
   0
CIRCLE
   5
2BE
 100
AcDbEntity
   8
LEVEL002
 370
20
 100
AcDbCircle
   6
CONTINUOUS
  62
5
  10
 407.29665718044
  20
 1023.2536066101
  30
0.0
  40
 6.0000000000000
   0
LINE
   5
2BF
 100
AcDbEntity
   8
LEVEL002
 370
20
 100
AcDbLine
   6
CONTINUOUS
  62
5
  10
 407.74665718044
  20
 1026.4723019980
  30
0.0
  11
 407.74665718044
  21
 1025.5517036490
  31
0.0
   0
LINE
   5
2C0
 100
AcDbEntity
   8
LEVEL002
 370
20
 100
AcDbLine
   6
CONTINUOUS
  62
5
  10
 407.74665718044
  20
 1020.9555095713
  30
0.0
  11
 407.74665718044
  21
 1020.0349112222
  31
0.0
   0
LINE
   5
2C1
 100
AcDbEntity
   8
LEVEL002
 370
20
 100
AcDbLine
   6
CONTINUOUS
  62
5
  10
 406.84665718044
  20
 1026.4723019980
  30
0.0
  11
 406.84665718044
  21
 1025.5517036490
  31
0.0
   0
LINE
   5
2C2
 100
AcDbEntity
   8
LEVEL002
 370
20
 100
AcDbLine
   6
CONTINUOUS
  62
5
  10
 406.84665718044
  20
 1020.9555095713
  30
0.0
  11
 406.84665718044
  21
 1020.0349112222
  31
0.0
   0
LINE
   5
2C3
 100
AcDbEntity
   8
LEVEL002
 370
20
 100
AcDbLine
   6
CONTINUOUS
  62
5
  10
 404.07796179255
  20
 1022.8036066101
  30
0.0
  11
 404.99856014158
  21
 1022.8036066101
  31
0.0
   0
LINE
   5
2C4
 100
AcDbEntity
   8
LEVEL002
 370
20
 100
AcDbLine
   6
CONTINUOUS
  62
5
  10
 409.59475421930
  20
 1022.8036066101
  30
0.0
  11
 410.51535256832
  21
 1022.8036066101
  31
0.0
   0
LINE
   5
2C5
 100
AcDbEntity
   8
LEVEL002
 370
20
 100
AcDbLine
   6
CONTINUOUS
  62
5
  10
 404.07796179255
  20
 1023.7036066101
  30
0.0
  11
 404.99856014158
  21
 1023.7036066101
  31
0.0
   0
LINE
   5
2C6
 100
AcDbEntity
   8
LEVEL002
 370
20
 100
AcDbLine
   6
CONTINUOUS
  62
5
  10
 409.59475421930
  20
 1023.7036066101
  30
0.0
  11
 410.51535256832
  21
 1023.7036066101
  31
0.0
   0
ARC
   5
2C7
 100
AcDbEntity
   8
LEVEL002
 370
20
   6
CONTINUOUS
  62
5
 100
AcDbCircle
  10
 407.29665718044
  20
 1023.2536066101
  30
0.0
  40
 3.2500000000000
 100
AcDbArc
  50
 352.04116811846
  51
 7.9588318815447
   0
ARC
   5
2C8
 100
AcDbEntity
   8
LEVEL002
 370
20
   6
CONTINUOUS
  62
5
 100
AcDbCircle
  10
 407.29665718043
  20
 1023.2536066101
  30
0.0
  40
 3.2500000000000
 100
AcDbArc
  50
 82.041168118450
  51
 97.958831881434
   0
ARC
   5
2C9
 100
AcDbEntity
   8
LEVEL002
 370
20
   6
CONTINUOUS
  62
5
 100
AcDbCircle
  10
 407.29665718044
  20
 1023.2536066101
  30
0.0
  40
 3.2500000000000
 100
AcDbArc
  50
 172.04116811847
  51
 187.95883188153
   0
ARC
   5
2CA
 100
AcDbEntity
   8
LEVEL002
 370
20
   6
CONTINUOUS
  62
5
 100
AcDbCircle
  10
 407.29665718043
  20
 1023.2536066101
  30
0.0
  40
 3.2500000000000
 100
AcDbArc
  50
 262.04116811854
  51
 277.95883188152
   0
ARC
   5
2CB
 100
AcDbEntity
   8
LEVEL002
 370
20
   6
CONTINUOUS
  62
5
 100
AcDbCircle
  10
 409.59475421929
  20
 1020.9555095713
  30
0.0
  40
 1.8480970388563
 100
AcDbArc
  50
 89.999999999799
  51
 179.99999999998
   0
ARC
   5
2CC
 100
AcDbEntity
   8
LEVEL002
 370
20
   6
CONTINUOUS
  62
5
 100
AcDbCircle
  10
 409.59475421929
  20
 1025.5517036490
  30
0.0
  40
 1.8480970388563
 100
AcDbArc
  50
 180.00000000000
  51
 270.00000000020
   0
ARC
   5
2CD
 100
AcDbEntity
   8
LEVEL002
 370
20
   6
CONTINUOUS
  62
5
 100
AcDbCircle
  10
 404.99856014158
  20
 1020.9555095713
  30
0.0
  40
 1.8480970388563
 100
AcDbArc
  50
0.0
  51
 90.000000000201
   0
ARC
   5
2CE
 100
AcDbEntity
   8
LEVEL002
 370
20
   6
CONTINUOUS
  62
5
 100
AcDbCircle
  10
 404.99856014158
  20
 1025.5517036490
  30
0.0
  40
 1.8480970388563
 100
AcDbArc
  50
 270.00000000002
  51
0.0
   0
LEADER
   5
2CF
 100
AcDbEntity
   8
0
 370
20
   6
CONTINUOUS
  62
8
 100
AcDbLeader
   3
GMM002
  73
0
  74
0
  75
0
  40
 10.000000000000
  41
 62.000000000000
  76
2
  10
 440.72865752517
  20
 1018.1629747116
  30
0.0
  10
 464.49670687907
  20
 988.64511406713
  30
0.0
  77
8
 340
2D0
 213
0.0
 223
-4.0000000000000
 233
0.0
   0
MTEXT
   5
2D0
 102
{ACAD_REACTORS
 330
2CF
 102
}
 100
AcDbEntity
   8
0
 370
20
  62
8
 100
AcDbMText
  10
 464.49670687907
  20
 992.64511406713
  30
0.0
  40
 10.000000000000
  41
0.0
  71
7
  72
1
   1
\A1;下穴%%c５/皿%%c８
   7
GMM001
   0
LINE
   5
2D1
 100
AcDbEntity
   8
LEVEL004
 370
20
 100
AcDbLine
   6
CONTINUOUS
  62
1
  10
 367.29665718044
  20
 812.22197356779
  30
0.0
  11
 447.29665718044
  21
 812.22197356779
  31
0.0
   0
LINE
   5
2D2
 100
AcDbEntity
   8
LEVEL004
 370
20
 100
AcDbLine
   6
CONTINUOUS
  62
1
  10
 367.29665718044
  20
 814.72197356779
  30
0.0
  11
 447.29665718044
  21
 814.72197356779
  31
0.0
   0
LINE
   5
2D3
 100
AcDbEntity
   8
LEVEL004
 370
20
 100
AcDbLine
   6
CONTINUOUS
  62
1
  10
 367.29665718044
  20
 812.22197356779
  30
0.0
  11
 367.29665718044
  21
 814.72197356779
  31
0.0
   0
LINE
   5
2D4
 100
AcDbEntity
   8
LEVEL004
 370
20
 100
AcDbLine
   6
HIDDEN
  62
1
  10
 402.54665718044
  20
 812.97197356779
  30
0.0
  11
 412.04665718044
  21
 812.97197356779
  31
0.0
   0
LINE
   5
2D5
 100
AcDbEntity
   8
LEVEL004
 370
20
 100
AcDbLine
   6
HIDDEN
  62
1
  10
 402.54665718044
  20
 812.97197356779
  30
0.0
  11
 402.54665718044
  21
 812.22197356779
  31
0.0
   0
LINE
   5
2D6
 100
AcDbEntity
   8
LEVEL004
 370
20
 100
AcDbLine
   6
HIDDEN
  62
1
  10
 402.54665718044
  20
 812.97197356779
  30
0.0
  11
 400.79665718044
  21
 814.72197356779
  31
0.0
   0
LINE
   5
2D7
 100
AcDbEntity
   8
LEVEL004
 370
20
 100
AcDbLine
   6
HIDDEN
  62
1
  10
 379.79665718044
  20
 814.12197356779
  30
0.0
  11
 379.79665718044
  21
 814.72197356779
  31
0.0
   0
LINE
   5
2D8
 100
AcDbEntity
   8
LEVEL004
 370
20
 100
AcDbLine
   6
HIDDEN
  62
1
  10
 379.79665718044
  20
 814.12197356779
  30
0.0
  11
 381.69665718043
  21
 812.22197356779
  31
0.0
   0
LINE
   5
2D9
 100
AcDbEntity
   8
LEVEL004
 370
20
 100
AcDbLine
   6
HIDDEN
  62
1
  10
 374.79665718044
  20
 814.12197356779
  30
0.0
  11
 374.79665718044
  21
 814.72197356779
  31
0.0
   0
LINE
   5
2DA
 100
AcDbEntity
   8
LEVEL004
 370
20
 100
AcDbLine
   6
HIDDEN
  62
1
  10
 374.79665718044
  20
 814.12197356779
  30
0.0
  11
 372.89665718043
  21
 812.22197356779
  31
0.0
   0
LINE
   5
2DB
 100
AcDbEntity
   8
LEVEL004
 370
20
 100
AcDbLine
   6
HIDDEN
  62
1
  10
 374.79665718044
  20
 814.12197356779
  30
0.0
  11
 379.79665718044
  21
 814.12197356779
  31
0.0
   0
LINE
   5
2DC
 100
AcDbEntity
   8
LEVEL004
 370
20
 100
AcDbLine
   6
CONTINUOUS
  62
1
  10
 447.29665718044
  20
 812.22197356779
  30
0.0
  11
 447.29665718044
  21
 814.72197356779
  31
0.0
   0
LINE
   5
2DD
 100
AcDbEntity
   8
LEVEL004
 370
20
 100
AcDbLine
   6
HIDDEN
  62
1
  10
 439.79665718044
  20
 814.12197356779
  30
0.0
  11
 439.79665718044
  21
 814.72197356779
  31
0.0
   0
LINE
   5
2DE
 100
AcDbEntity
   8
LEVEL004
 370
20
 100
AcDbLine
   6
HIDDEN
  62
1
  10
 439.79665718044
  20
 814.02197356779
  30
0.0
  11
 434.79665718044
  21
 814.02197356779
  31
0.0
   0
LINE
   5
2DF
 100
AcDbEntity
   8
LEVEL004
 370
20
 100
AcDbLine
   6
HIDDEN
  62
1
  10
 439.79665718044
  20
 814.02197356779
  30
0.0
  11
 439.79665718044
  21
 814.72197356779
  31
0.0
   0
LINE
   5
2E0
 100
AcDbEntity
   8
LEVEL004
 370
20
 100
AcDbLine
   6
HIDDEN
  62
1
  10
 439.79665718044
  20
 814.02197356779
  30
0.0
  11
 441.59665718043
  21
 812.22197356779
  31
0.0
   0
LINE
   5
2E1
 100
AcDbEntity
   8
LEVEL004
 370
20
 100
AcDbLine
   6
HIDDEN
  62
1
  10
 434.79665718044
  20
 814.02197356779
  30
0.0
  11
 432.99665718043
  21
 812.22197356779
  31
0.0
   0
LINE
   5
2E2
 100
AcDbEntity
   8
LEVEL004
 370
20
 100
AcDbLine
   6
HIDDEN
  62
1
  10
 434.79665718044
  20
 814.12197356779
  30
0.0
  11
 434.79665718044
  21
 814.72197356779
  31
0.0
   0
LINE
   5
2E3
 100
AcDbEntity
   8
LEVEL004
 370
20
 100
AcDbLine
   6
HIDDEN
  62
1
  10
 434.79665718044
  20
 814.02197356779
  30
0.0
  11
 434.79665718044
  21
 814.72197356779
  31
0.0
   0
LINE
   5
2E4
 100
AcDbEntity
   8
LEVEL004
 370
20
 100
AcDbLine
   6
HIDDEN
  62
1
  10
 412.04665718044
  20
 812.97197356779
  30
0.0
  11
 412.04665718044
  21
 812.22197356779
  31
0.0
   0
LINE
   5
2E5
 100
AcDbEntity
   8
LEVEL004
 370
20
 100
AcDbLine
   6
HIDDEN
  62
1
  10
 412.04665718044
  20
 812.97197356779
  30
0.0
  11
 413.79665718044
  21
 814.72197356779
  31
0.0
   0
LINE
   5
2E6
 100
AcDbEntity
   8
LEVEL006
 370
20
 100
AcDbLine
   6
DASHDOT
  62
8
  10
 437.29665718044
  20
 811.22197356779
  30
0.0
  11
 437.29665718044
  21
 815.22197356779
  31
0.0
   0
LINE
   5
2E7
 100
AcDbEntity
   8
LEVEL006
 370
20
 100
AcDbLine
   6
DASHDOT
  62
8
  10
 437.29665718044
  20
 811.22197356779
  30
0.0
  11
 437.29665718044
  21
 815.22197356779
  31
0.0
   0
DIMENSION
   5
2E8
 100
AcDbEntity
   8
0
 370
20
   6
CONTINUOUS
  62
8
 100
AcDbDimension
   2
*D4
  10
 447.29665718044
  20
 834.72197356779
  30
0.0
  11
 407.29665718044
  21
 834.72197356779
  31
0.0
  70
0
   3
GMM001
 100
AcDbAlignedDimension
  13
 367.29665718044
  23
 814.72197356779
  33
0.0
  14
 447.29665718044
  24
 814.72197356779
  34
0.0
 100
AcDbRotatedDimension
   0
LINE
   5
2E9
 100
AcDbEntity
   8
LEVEL006
 370
20
 100
AcDbLine
   6
DASHDOT
  62
8
  10
 377.29665718044
  20
 811.22197356779
  30
0.0
  11
 377.29665718044
  21
 815.22197356779
  31
0.0
   0
LWPOLYLINE
   5
2EA
 100
AcDbEntity
   8
0
 370
20
   6
CONTINUOUS
  62
1
 100
AcDbPolyline
  90
4
  70
1
  10
 257.52068126983
  20
 814.72197356779
  10
 257.52068126983
  20
 812.22197356779
  10
 277.52068126983
  20
 812.22197356779
  10
 277.52068126983
  20
 814.72197356779
   0
LINE
   5
2EB
 100
AcDbEntity
   8
LEVEL004
 370
20
 100
AcDbLine
   6
HIDDEN
  62
1
  10
 262.77068126983
  20
 812.97197356779
  30
0.0
  11
 272.27068126983
  21
 812.97197356779
  31
0.0
   0
LINE
   5
2EC
 100
AcDbEntity
   8
LEVEL004
 370
20
 100
AcDbLine
   6
HIDDEN
  62
1
  10
 262.77068126983
  20
 812.97197356779
  30
0.0
  11
 262.77068126983
  21
 812.22197356779
  31
0.0
   0
LINE
   5
2ED
 100
AcDbEntity
   8
LEVEL004
 370
20
 100
AcDbLine
   6
HIDDEN
  62
1
  10
 262.77068126983
  20
 812.97197356779
  30
0.0
  11
 261.02068126983
  21
 814.72197356779
  31
0.0
   0
LINE
   5
2EE
 100
AcDbEntity
   8
LEVEL004
 370
20
 100
AcDbLine
   6
HIDDEN
  62
1
  10
 272.27068126983
  20
 812.97197356779
  30
0.0
  11
 272.27068126983
  21
 812.22197356779
  31
0.0
   0
LINE
   5
2EF
 100
AcDbEntity
   8
LEVEL004
 370
20
 100
AcDbLine
   6
HIDDEN
  62
1
  10
 272.27068126983
  20
 812.97197356779
  30
0.0
  11
 274.02068126983
  21
 814.72197356779
  31
0.0
   0
LINE
   5
2F0
 100
AcDbEntity
   8
LEVEL004
 370
20
 100
AcDbLine
   6
HIDDEN
  62
1
  10
 267.52068126983
  20
 814.12197356779
  30
0.0
  11
 267.52068126983
  21
 814.72197356779
  31
0.0
   0
LINE
   5
2F1
 100
AcDbEntity
   8
LEVEL004
 370
20
 100
AcDbLine
   6
HIDDEN
  62
1
  10
 267.52068126983
  20
 814.12197356779
  30
0.0
  11
 269.42068126983
  21
 812.22197356779
  31
0.0
   0
LINE
   5
2F2
 100
AcDbEntity
   8
LEVEL004
 370
20
 100
AcDbLine
   6
HIDDEN
  62
1
  10
 262.52068126983
  20
 814.12197356779
  30
0.0
  11
 262.52068126983
  21
 814.72197356779
  31
0.0
   0
LINE
   5
2F3
 100
AcDbEntity
   8
LEVEL004
 370
20
 100
AcDbLine
   6
HIDDEN
  62
1
  10
 262.52068126983
  20
 814.12197356779
  30
0.0
  11
 260.62068126983
  21
 812.22197356779
  31
0.0
   0
LINE
   5
2F4
 100
AcDbEntity
   8
LEVEL004
 370
20
 100
AcDbLine
   6
HIDDEN
  62
1
  10
 262.52068126983
  20
 814.12197356779
  30
0.0
  11
 267.52068126983
  21
 814.12197356779
  31
0.0
   0
LINE
   5
2F5
 100
AcDbEntity
   8
LEVEL004
 370
20
 100
AcDbLine
   6
HIDDEN
  62
1
  10
 272.52068126983
  20
 814.12197356779
  30
0.0
  11
 272.52068126983
  21
 814.72197356779
  31
0.0
   0
LINE
   5
2F6
 100
AcDbEntity
   8
LEVEL004
 370
20
 100
AcDbLine
   6
HIDDEN
  62
1
  10
 272.52068126983
  20
 814.12197356779
  30
0.0
  11
 274.42068126983
  21
 812.22197356779
  31
0.0
   0
LINE
   5
2F7
 100
AcDbEntity
   8
LEVEL004
 370
20
 100
AcDbLine
   6
HIDDEN
  62
1
  10
 267.52068126983
  20
 814.12197356779
  30
0.0
  11
 267.52068126983
  21
 814.72197356779
  31
0.0
   0
LINE
   5
2F8
 100
AcDbEntity
   8
LEVEL004
 370
20
 100
AcDbLine
   6
HIDDEN
  62
1
  10
 267.52068126983
  20
 814.12197356779
  30
0.0
  11
 265.62068126983
  21
 812.22197356779
  31
0.0
   0
LINE
   5
2F9
 100
AcDbEntity
   8
LEVEL004
 370
20
 100
AcDbLine
   6
HIDDEN
  62
1
  10
 267.52068126983
  20
 814.12197356779
  30
0.0
  11
 272.52068126983
  21
 814.12197356779
  31
0.0
   0
LINE
   5
2FA
 100
AcDbEntity
   8
LEVEL006
 370
20
 100
AcDbLine
   6
DASHDOT
  62
8
  10
 270.02068126983
  20
 811.22197356779
  30
0.0
  11
 270.02068126983
  21
 815.22197356779
  31
0.0
   0
LINE
   5
2FB
 100
AcDbEntity
   8
LEVEL006
 370
20
 100
AcDbLine
   6
DASHDOT
  62
8
  10
 265.02068126983
  20
 811.22197356779
  30
0.0
  11
 265.02068126983
  21
 815.22197356779
  31
0.0
   0
DIMENSION
   5
2FC
 100
AcDbEntity
   8
0
 370
20
   6
CONTINUOUS
  62
8
 100
AcDbDimension
   2
*D5
  10
 277.52068126983
  20
 834.72197356779
  30
0.0
  11
 267.52068126983
  21
 834.72197356779
  31
0.0
  70
0
   3
GMM001
 100
AcDbAlignedDimension
  13
 257.52068126983
  23
 814.72197356779
  33
0.0
  14
 277.52068126983
  24
 814.72197356779
  34
0.0
 100
AcDbRotatedDimension
   0
LINE
   5
2FD
 100
AcDbEntity
   8
LEVEL006
 370
20
 100
AcDbLine
   6
DASHDOT
  62
8
  10
 980.29665718044
  20
 811.22197356759
  30
0.0
  11
 980.29665718044
  21
 815.22197356759
  31
0.0
   0
LINE
   5
2FE
 100
AcDbEntity
   8
LEVEL004
 370
20
 100
AcDbLine
   6
CONTINUOUS
  62
1
  10
 970.29665718044
  20
 812.22197356759
  30
0.0
  11
 970.29665718044
  21
 814.72197356759
  31
0.0
   0
LINE
   5
2FF
 100
AcDbEntity
   8
LEVEL004
 370
20
 100
AcDbLine
   6
CONTINUOUS
  62
1
  10
 1050.2966571804
  20
 812.22197356759
  30
0.0
  11
 970.29665718044
  21
 812.22197356759
  31
0.0
   0
LINE
   5
300
 100
AcDbEntity
   8
LEVEL004
 370
20
 100
AcDbLine
   6
CONTINUOUS
  62
1
  10
 1050.2966571804
  20
 814.72197356759
  30
0.0
  11
 970.29665718044
  21
 814.72197356759
  31
0.0
   0
LINE
   5
301
 100
AcDbEntity
   8
LEVEL004
 370
20
 100
AcDbLine
   6
HIDDEN
  62
1
  10
 977.79665718044
  20
 814.02197356759
  30
0.0
  11
 982.79665718044
  21
 814.02197356759
  31
0.0
   0
LINE
   5
302
 100
AcDbEntity
   8
LEVEL004
 370
20
 100
AcDbLine
   6
HIDDEN
  62
1
  10
 982.79665718044
  20
 814.02197356759
  30
0.0
  11
 982.79665718044
  21
 814.72197356759
  31
0.0
   0
LINE
   5
303
 100
AcDbEntity
   8
LEVEL004
 370
20
 100
AcDbLine
   6
HIDDEN
  62
1
  10
 982.79665718044
  20
 814.02197356759
  30
0.0
  11
 984.59665718043
  21
 812.22197356759
  31
0.0
   0
LINE
   5
304
 100
AcDbEntity
   8
LEVEL004
 370
20
 100
AcDbLine
   6
HIDDEN
  62
1
  10
 977.79665718044
  20
 814.02197356759
  30
0.0
  11
 977.79665718044
  21
 814.72197356759
  31
0.0
   0
LINE
   5
305
 100
AcDbEntity
   8
LEVEL004
 370
20
 100
AcDbLine
   6
HIDDEN
  62
1
  10
 977.79665718044
  20
 814.02197356759
  30
0.0
  11
 975.99665718043
  21
 812.22197356759
  31
0.0
   0
DIMENSION
   5
306
 100
AcDbEntity
   8
0
 370
20
   6
CONTINUOUS
  62
8
 100
AcDbDimension
   2
*D6
  10
 1050.2966571804
  20
 835.84735734078
  30
0.0
  11
 1010.2966571804
  21
 835.84735734078
  31
0.0
  70
0
   3
GMM001
 100
AcDbAlignedDimension
  13
 970.29665718044
  23
 814.72197356759
  33
0.0
  14
 1050.2966571804
  24
 814.72197356759
  34
0.0
 100
AcDbRotatedDimension
   0
LINE
   5
307
 100
AcDbEntity
   8
LEVEL006
 370
20
 100
AcDbLine
   6
DASHDOT
  62
8
  10
 1040.2966571804
  20
 811.22197356759
  30
0.0
  11
 1040.2966571804
  21
 815.22197356759
  31
0.0
   0
LINE
   5
308
 100
AcDbEntity
   8
LEVEL004
 370
20
 100
AcDbLine
   6
CONTINUOUS
  62
1
  10
 1050.2966571804
  20
 812.22197356759
  30
0.0
  11
 1050.2966571804
  21
 814.72197356759
  31
0.0
   0
LINE
   5
309
 100
AcDbEntity
   8
LEVEL004
 370
20
 100
AcDbLine
   6
HIDDEN
  62
1
  10
 1042.7966571804
  20
 814.12197356759
  30
0.0
  11
 1044.6966571804
  21
 812.22197356759
  31
0.0
   0
LINE
   5
30A
 100
AcDbEntity
   8
LEVEL004
 370
20
 100
AcDbLine
   6
HIDDEN
  62
1
  10
 1037.7966571804
  20
 814.12197356759
  30
0.0
  11
 1037.7966571804
  21
 814.72197356759
  31
0.0
   0
LINE
   5
30B
 100
AcDbEntity
   8
LEVEL004
 370
20
 100
AcDbLine
   6
HIDDEN
  62
1
  10
 1042.7966571804
  20
 814.12197356759
  30
0.0
  11
 1037.7966571804
  21
 814.12197356759
  31
0.0
   0
LINE
   5
30C
 100
AcDbEntity
   8
LEVEL004
 370
20
 100
AcDbLine
   6
HIDDEN
  62
1
  10
 1037.7966571804
  20
 814.12197356759
  30
0.0
  11
 1035.8966571804
  21
 812.22197356759
  31
0.0
   0
LINE
   5
30D
 100
AcDbEntity
   8
LEVEL004
 370
20
 100
AcDbLine
   6
HIDDEN
  62
1
  10
 1042.7966571804
  20
 814.12197356759
  30
0.0
  11
 1042.7966571804
  21
 814.72197356759
  31
0.0
   0
LINE
   5
30E
 100
AcDbEntity
   8
LEVEL004
 370
20
 100
AcDbLine
   6
HIDDEN
  62
1
  10
 1015.0466571804
  20
 812.97197356759
  30
0.0
  11
 1005.5466571804
  21
 812.97197356759
  31
0.0
   0
LINE
   5
30F
 100
AcDbEntity
   8
LEVEL004
 370
20
 100
AcDbLine
   6
HIDDEN
  62
1
  10
 1005.5466571804
  20
 812.97197356759
  30
0.0
  11
 1005.5466571804
  21
 812.22197356759
  31
0.0
   0
LINE
   5
310
 100
AcDbEntity
   8
LEVEL004
 370
20
 100
AcDbLine
   6
HIDDEN
  62
1
  10
 1005.5466571804
  20
 812.97197356759
  30
0.0
  11
 1003.7966571804
  21
 814.72197356759
  31
0.0
   0
LINE
   5
311
 100
AcDbEntity
   8
LEVEL004
 370
20
 100
AcDbLine
   6
HIDDEN
  62
1
  10
 1015.0466571804
  20
 812.97197356759
  30
0.0
  11
 1015.0466571804
  21
 812.22197356759
  31
0.0
   0
LINE
   5
312
 100
AcDbEntity
   8
LEVEL004
 370
20
 100
AcDbLine
   6
HIDDEN
  62
1
  10
 1015.0466571804
  20
 812.97197356759
  30
0.0
  11
 1016.7966571804
  21
 814.72197356759
  31
0.0
   0
LWPOLYLINE
   5
313
 100
AcDbEntity
   8
0
 370
20
   6
CONTINUOUS
  62
1
 100
AcDbPolyline
  90
4
  70
1
  10
 858.02068126983
  20
 814.72197356759
  10
 858.02068126983
  20
 812.22197356759
  10
 883.02068126983
  20
 812.22197356759
  10
 883.02068126983
  20
 814.72197356759
   0
LINE
   5
314
 100
AcDbEntity
   8
LEVEL004
 370
20
 100
AcDbLine
   6
HIDDEN
  62
1
  10
 875.27068126983
  20
 812.97197356759
  30
0.0
  11
 865.77068126983
  21
 812.97197356759
  31
0.0
   0
LINE
   5
315
 100
AcDbEntity
   8
LEVEL004
 370
20
 100
AcDbLine
   6
HIDDEN
  62
1
  10
 865.77068126983
  20
 812.97197356759
  30
0.0
  11
 865.77068126983
  21
 812.22197356759
  31
0.0
   0
LINE
   5
316
 100
AcDbEntity
   8
LEVEL004
 370
20
 100
AcDbLine
   6
HIDDEN
  62
1
  10
 865.77068126983
  20
 812.97197356759
  30
0.0
  11
 864.02068126983
  21
 814.72197356759
  31
0.0
   0
LINE
   5
317
 100
AcDbEntity
   8
LEVEL004
 370
20
 100
AcDbLine
   6
HIDDEN
  62
1
  10
 863.02068126983
  20
 814.02197356759
  30
0.0
  11
 868.02068126983
  21
 814.02197356759
  31
0.0
   0
LINE
   5
318
 100
AcDbEntity
   8
LEVEL004
 370
20
 100
AcDbLine
   6
HIDDEN
  62
1
  10
 868.02068126983
  20
 814.02197356759
  30
0.0
  11
 868.02068126983
  21
 814.72197356759
  31
0.0
   0
LINE
   5
319
 100
AcDbEntity
   8
LEVEL004
 370
20
 100
AcDbLine
   6
HIDDEN
  62
1
  10
 868.02068126983
  20
 814.02197356759
  30
0.0
  11
 869.82068126983
  21
 812.22197356759
  31
0.0
   0
LINE
   5
31A
 100
AcDbEntity
   8
LEVEL004
 370
20
 100
AcDbLine
   6
HIDDEN
  62
1
  10
 863.02068126983
  20
 814.02197356759
  30
0.0
  11
 863.02068126983
  21
 814.72197356759
  31
0.0
   0
LINE
   5
31B
 100
AcDbEntity
   8
LEVEL004
 370
20
 100
AcDbLine
   6
HIDDEN
  62
1
  10
 863.02068126983
  20
 814.02197356759
  30
0.0
  11
 861.22068126984
  21
 812.22197356759
  31
0.0
   0
LINE
   5
31C
 100
AcDbEntity
   8
LEVEL004
 370
20
 100
AcDbLine
   6
HIDDEN
  62
1
  10
 875.27068126983
  20
 812.97197356759
  30
0.0
  11
 875.27068126983
  21
 812.22197356759
  31
0.0
   0
LINE
   5
31D
 100
AcDbEntity
   8
LEVEL004
 370
20
 100
AcDbLine
   6
HIDDEN
  62
1
  10
 875.27068126983
  20
 812.97197356759
  30
0.0
  11
 877.02068126983
  21
 814.72197356759
  31
0.0
   0
LINE
   5
31E
 100
AcDbEntity
   8
LEVEL004
 370
20
 100
AcDbLine
   6
HIDDEN
  62
1
  10
 873.02068126983
  20
 814.02197356759
  30
0.0
  11
 878.02068126983
  21
 814.02197356759
  31
0.0
   0
LINE
   5
31F
 100
AcDbEntity
   8
LEVEL004
 370
20
 100
AcDbLine
   6
HIDDEN
  62
1
  10
 878.02068126983
  20
 814.02197356759
  30
0.0
  11
 878.02068126983
  21
 814.72197356759
  31
0.0
   0
LINE
   5
320
 100
AcDbEntity
   8
LEVEL004
 370
20
 100
AcDbLine
   6
HIDDEN
  62
1
  10
 878.02068126983
  20
 814.02197356759
  30
0.0
  11
 879.82068126983
  21
 812.22197356759
  31
0.0
   0
LINE
   5
321
 100
AcDbEntity
   8
LEVEL004
 370
20
 100
AcDbLine
   6
HIDDEN
  62
1
  10
 873.02068126983
  20
 814.02197356759
  30
0.0
  11
 873.02068126983
  21
 814.72197356759
  31
0.0
   0
LINE
   5
322
 100
AcDbEntity
   8
LEVEL004
 370
20
 100
AcDbLine
   6
HIDDEN
  62
1
  10
 873.02068126983
  20
 814.02197356759
  30
0.0
  11
 871.22068126984
  21
 812.22197356759
  31
0.0
   0
DIMENSION
   5
323
 100
AcDbEntity
   8
0
 370
20
   6
CONTINUOUS
  62
8
 100
AcDbDimension
   2
*D7
  10
 883.02068126983
  20
 835.84735734078
  30
0.0
  11
 870.52068126983
  21
 835.84735734078
  31
0.0
  70
0
   3
GMM001
 100
AcDbAlignedDimension
  13
 858.02068126983
  23
 814.72197356759
  33
0.0
  14
 883.02068126983
  24
 814.72197356759
  34
0.0
 100
AcDbRotatedDimension
   0
LINE
   5
324
 100
AcDbEntity
   8
LEVEL006
 370
20
 100
AcDbLine
   6
DASHDOT
  62
8
  10
 875.52068126983
  20
 811.22197356759
  30
0.0
  11
 875.52068126983
  21
 815.22197356759
  31
0.0
   0
LINE
   5
325
 100
AcDbEntity
   8
LEVEL006
 370
20
 100
AcDbLine
   6
DASHDOT
  62
8
  10
 865.52068126983
  20
 811.22197356759
  30
0.0
  11
 865.52068126983
  21
 815.22197356759
  31
0.0
   0
LINE
   5
326
 100
AcDbEntity
   8
LEVEL001
 370
20
 100
AcDbLine
   6
DASHDOT
  62
8
  10
 267.52068126983
  20
 828.77755405934
  30
0.0
  11
 267.52068126983
  21
 700.69735382043
  31
0.0
   0
LINE
   5
327
 100
AcDbEntity
   8
LEVEL001
 370
20
 100
AcDbLine
   6
DASHDOT
  62
8
  10
 870.52068126983
  20
 828.77755405914
  30
0.0
  11
 870.52068126983
  21
 700.69735382022
  31
0.0
   0
LINE
   5
328
 100
AcDbEntity
   8
LEVEL001
 370
20
 100
AcDbLine
   6
DASHDOT
  62
8
  10
 407.29665718044
  20
 826.45307021333
  30
0.0
  11
 407.29665718044
  21
 700.69735382043
  31
0.0
   0
DIMENSION
   5
329
 100
AcDbEntity
   8
0
 370
20
   6
CONTINUOUS
  62
8
 100
AcDbDimension
   2
*D8
  10
 469.54512331723
  20
 814.72197356779
  30
0.0
  11
 469.54512331723
  21
 823.59741748534
  31
0.0
  70
128
   3
GMM003
 100
AcDbAlignedDimension
  13
 447.29665718044
  23
 812.22197356779
  33
0.0
  14
 447.29665718044
  24
 814.72197356779
  34
0.0
  50
 90.000000000000
 100
AcDbRotatedDimension
   0
DIMENSION
   5
32A
 100
AcDbEntity
   8
0
 370
20
   6
CONTINUOUS
  62
8
 100
AcDbDimension
   2
*D9
  10
 469.54512331723
  20
 1033.2536066101
  30
0.0
  11
 469.54512331723
  21
 1023.2536066101
  31
0.0
  70
0
   3
GMM001
 100
AcDbAlignedDimension
  13
 445.29665718044
  23
 1013.2536066101
  33
0.0
  14
 445.29665718044
  24
 1033.2536066101
  34
0.0
  50
 90.000000000000
 100
AcDbRotatedDimension
   0
LINE
   5
32B
 100
AcDbEntity
   8
LEVEL001
 370
20
 100
AcDbLine
   6
DASHDOT
  62
8
  10
 1010.2966571804
  20
 704.90009264146
  30
0.0
  11
 1010.2966571804
  21
 827.56857199118
  31
0.0
   0
DIMENSION
   5
32C
 100
AcDbEntity
   8
0
 370
20
   6
CONTINUOUS
  62
8
 100
AcDbDimension
   2
*D10
  10
 1072.5451233172
  20
 814.72197356779
  30
0.0
  11
 1072.5451233172
  21
 823.59741748534
  31
0.0
  70
128
   3
GMM003
 100
AcDbAlignedDimension
  13
 1050.2966571804
  23
 812.22197356779
  33
0.0
  14
 1050.2966571804
  24
 814.72197356779
  34
0.0
  50
 90.000000000000
 100
AcDbRotatedDimension
   0
LINE
   5
32D
 100
AcDbEntity
   8
LEVEL001
 370
20
 100
AcDbLine
   6
DASHDOT
  62
8
  10
 439.66321440579
  20
 1023.2536066101
  30
0.0
  11
 374.93009995509
  21
 1023.2536066101
  31
0.0
   0
LINE
   5
32E
 100
AcDbEntity
   8
LEVEL001
 370
20
 100
AcDbLine
   6
DASHDOT
  62
8
  10
 407.29665718044
  20
 988.57413207468
  30
0.0
  11
 407.29665718044
  21
 1055.1678026334
  31
0.0
   0
LINE
   5
32F
 100
AcDbEntity
   8
LEVEL001
 370
20
 100
AcDbLine
   6
DASHDOT
  62
8
  10
 1042.6632144058
  20
 1023.2536066099
  30
0.0
  11
 977.93009995509
  21
 1023.2536066099
  31
0.0
   0
LINE
   5
330
 100
AcDbEntity
   8
LEVEL001
 370
20
 100
AcDbLine
   6
DASHDOT
  62
8
  10
 1010.2966571804
  20
 988.57413207447
  30
0.0
  11
 1010.2966571804
  21
 1055.1678026332
  31
0.0
   0
DIMENSION
   5
331
 100
AcDbEntity
   8
0
 370
20
   6
CONTINUOUS
  62
8
 100
AcDbDimension
   2
*D11
  10
 447.29665718044
  20
 935.75360661013
  30
0.0
  11
 407.29665718044
  21
 935.75360661013
  31
0.0
  70
0
   3
GMM001
 100
AcDbAlignedDimension
  13
 367.29665718044
  23
 1015.2536066101
  33
0.0
  14
 447.29665718044
  24
 1015.2536066101
  34
0.0
 100
AcDbRotatedDimension
   0
DIMENSION
   5
332
 100
AcDbEntity
   8
0
 370
20
   6
CONTINUOUS
  62
8
 100
AcDbDimension
   2
*D12
  10
 437.29665718044
  20
 955.75360661013
  30
0.0
  11
 407.29665718044
  21
 955.75360661013
  31
0.0
  70
0
   3
GMM001
 100
AcDbAlignedDimension
  13
 377.29665718044
  23
 1020.0027073623
  33
0.0
  14
 437.29665718044
  24
 1015.3293661610
  34
0.0
 100
AcDbRotatedDimension
   0
DIMENSION
   5
333
 100
AcDbEntity
   8
0
 370
20
   6
CONTINUOUS
  62
8
 100
AcDbDimension
   2
*D13
  10
 1040.2966571804
  20
 955.75360661013
  30
0.0
  11
 1010.2966571804
  21
 955.75360661013
  31
0.0
  70
0
   3
GMM001
 100
AcDbAlignedDimension
  13
 980.29665718044
  23
 1021.7361591578
  33
0.0
  14
 1040.2966571804
  24
 1011.7361591578
  34
0.0
 100
AcDbRotatedDimension
   0
DIMENSION
   5
334
 100
AcDbEntity
   8
0
 370
20
   6
CONTINUOUS
  62
8
 100
AcDbDimension
   2
*D14
  10
 1050.2966571804
  20
 935.75360661013
  30
0.0
  11
 1010.2966571804
  21
 935.75360661013
  31
0.0
  70
0
   3
GMM001
 100
AcDbAlignedDimension
  13
 970.29665718044
  23
 1012.7536066099
  33
0.0
  14
 1050.2966571804
  24
 1012.7536066099
  34
0.0
 100
AcDbRotatedDimension
   0
MTEXT
   5
336
 100
AcDbEntity
   8
LEVEL001
 370
20
  62
8
 100
AcDbMText
  10
 1509.2611135295
  20
 732.50000000001
  30
0.0
  40
 10.000000000000
  41
0.0
  71
2
  72
1
   1
{\T1.000000;　４０}\P{\T1.000000;　６０}\P{\T1.000000;１００}\P{\T1.000000;１５０}\P{\T1.000000;２００}\P{\T1.000000;２５０}\P{\T1.000000;３００}
   7
GMM001
  44
 0.76999984600003
   0
MTEXT
   5
338
 100
AcDbEntity
   8
0
 370
20
  62
8
 100
AcDbMText
  10
-418.75647742605
  20
 1132.5945415873
  30
0.0
  40
 100.00000000000
  41
0.0
  71
4
  72
1
   1
\T1.000000;ＰＩＴＫ
   7
GMM001
  44
 0.79999984000003
   0
MTEXT
   5
33A
 100
AcDbEntity
   8
LEVEL001
 370
20
  62
8
 100
AcDbMText
  10
 63.200000000106
  20
 1120.0000000000
  30
0.0
  40
 12.000000000000
  41
0.0
  71
4
  72
1
   1
\T1.000000;　ＰＩＴＫ２０（１６軸）
   7
GMM001
  44
 0.79999984000003
   0
MTEXT
   5
33C
 100
AcDbEntity
   8
LEVEL001
 370
20
  62
8
 100
AcDbMText
  10
 666.20000000011
  20
 1120.0000000000
  30
0.0
  40
 12.000000000000
  41
0.0
  71
4
  72
1
   1
\T1.000000;　ＰＩＴＫ２５（１６軸）
   7
GMM001
  44
 0.79999984000003
   0
MTEXT
   5
33E
 100
AcDbEntity
   8
LEVEL001
 370
20
  62
8
 100
AcDbMText
  10
 1335.0000000001
  20
 978.00000000001
  30
0.0
  40
 18.000000000000
  41
0.0
  71
7
  72
1
   1
\T1.000000;手摺金具直型　Ｐタイプ
   7
GMM001
  44
 0.79999984000003
   0
MTEXT
   5
340
 100
AcDbEntity
   8
LEVEL001
 370
20
  62
8
 100
AcDbMText
  10
 1303.0000000001
  20
 900.00000000001
  30
0.0
  40
 14.000000000000
  41
0.0
  71
7
  72
1
   1
\W1.000000;\T1.000000;平受固定アンカー座\W0.500000;\T1.000000; \W1.000000;\T1.000000;ＰＩＴＫ（１６軸）
   7
GMM001
  44
 0.79999984000003
   0
MTEXT
   5
342
 100
AcDbEntity
   8
LEVEL001
 370
20
  62
8
 100
AcDbMText
  10
 1321.7611135295
  20
 689.00000000001
  30
0.0
  40
 12.000000000000
  41
0.0
  71
5
  72
1
   1
\T1.000000;ＰＩＴＫ２０
   7
GMM001
  44
 0.79999984000003
   0
MTEXT
   5
344
 100
AcDbEntity
   8
LEVEL001
 370
20
  62
8
 100
AcDbMText
  10
 1396.7611135295
  20
 689.00000000001
  30
0.0
  40
 12.000000000000
  41
0.0
  71
5
  72
1
   1
\T1.000000;ＰＩＴＫ２５
   7
GMM001
  44
 0.79999984000003
   0
MTEXT
   5
346
 100
AcDbEntity
   8
LEVEL001
 370
20
  62
8
 100
AcDbMText
  10
 1543.0000000001
  20
 88.000000000010
  30
0.0
  40
 10.000000000000
  41
0.0
  71
5
  72
1
   1
\W1.000000;\T1.000000;手摺金具－ＰＩＴＫ\W0.500000;\T1.000000;(\W1.000000;\T1.000000;１６軸\W0.500000;\T1.000000;)
   7
GMM001
  44
 0.79999984000003
   0
LINE
   5
347
 100
AcDbEntity
   8
0
 370
20
 100
AcDbLine
   6
CONTINUOUS
  62
7
  10
 259.52068126983
  20
 812.22197356779
  30
0.0
  11
 275.52068126983
  21
 812.22197356779
  31
0.0
   0
LINE
   5
348
 100
AcDbEntity
   8
0
 370
20
 100
AcDbLine
   6
CONTINUOUS
  62
7
  10
 259.52068126983
  20
 812.22197356779
  30
0.0
  11
 275.52068126983
  21
 812.22197356779
  31
0.0
   0
LINE
   5
349
 100
AcDbEntity
   8
LEVEL001
 370
20
 100
AcDbLine
   6
CONTINUOUS
  62
7
  10
 240.02068126983
  20
 710.72197356779
  30
0.0
  11
 295.02068126983
  21
 710.72197356779
  31
0.0
   0
LINE
   5
34A
 100
AcDbEntity
   8
LEVEL001
 370
20
 100
AcDbLine
   6
CONTINUOUS
  62
7
  10
 293.52068126983
  20
 712.22197356779
  30
0.0
  11
 241.52068126983
  21
 712.22197356779
  31
0.0
   0
LINE
   5
34B
 100
AcDbEntity
   8
LEVEL001
 370
20
 100
AcDbLine
   6
CONTINUOUS
  62
7
  10
 240.02068126983
  20
 708.72197356779
  30
0.0
  11
 295.02068126983
  21
 708.72197356779
  31
0.0
   0
LINE
   5
34C
 100
AcDbEntity
   8
LEVEL001
 370
20
 100
AcDbLine
   6
CONTINUOUS
  62
7
  10
 295.02068126983
  20
 710.72197356779
  30
0.0
  11
 293.52068126983
  21
 712.22197356779
  31
0.0
   0
LINE
   5
34D
 100
AcDbEntity
   8
LEVEL001
 370
20
 100
AcDbLine
   6
CONTINUOUS
  62
7
  10
 295.02068126983
  20
 708.72197356779
  30
0.0
  11
 295.02068126983
  21
 710.72197356779
  31
0.0
   0
LINE
   5
34E
 100
AcDbEntity
   8
LEVEL001
 370
20
 100
AcDbLine
   6
CONTINUOUS
  62
7
  10
 241.52068126983
  20
 712.22197356779
  30
0.0
  11
 240.02068126983
  21
 710.72197356779
  31
0.0
   0
LINE
   5
34F
 100
AcDbEntity
   8
LEVEL001
 370
20
 100
AcDbLine
   6
CONTINUOUS
  62
7
  10
 240.02068126983
  20
 710.72197356779
  30
0.0
  11
 240.02068126983
  21
 708.72197356779
  31
0.0
   0
LINE
   5
350
 100
AcDbEntity
   8
LEVEL001
 370
20
 100
AcDbLine
   6
CONTINUOUS
  62
7
  10
 259.52068126983
  20
 712.22197356779
  30
0.0
  11
 259.52068126983
  21
 812.22197356779
  31
0.0
   0
LINE
   5
351
 100
AcDbEntity
   8
LEVEL001
 370
20
 100
AcDbLine
   6
CONTINUOUS
  62
7
  10
 275.52068126983
  20
 812.22197356779
  30
0.0
  11
 275.52068126983
  21
 712.22197356779
  31
0.0
   0
LINE
   5
352
 100
AcDbEntity
   8
LEVEL001
 370
20
 100
AcDbLine
   6
CONTINUOUS
  62
7
  10
 259.52068126983
  20
 812.22197356779
  30
0.0
  11
 275.52068126983
  21
 812.22197356779
  31
0.0
   0
LINE
   5
353
 100
AcDbEntity
   8
LEVEL001
 370
20
 100
AcDbLine
   6
CONTINUOUS
  62
7
  10
 261.02068126983
  20
 812.22197356779
  30
0.0
  11
 274.02068126983
  21
 812.22197356779
  31
0.0
   0
LINE
   5
354
 100
AcDbEntity
   8
LEVEL004
 370
20
 100
AcDbLine
   6
CONTINUOUS
  62
7
  10
 260.07852264964
  20
 812.22197356779
  30
0.0
  11
 274.96283989002
  21
 812.22197356779
  31
0.0
   0
LINE
   5
355
 100
AcDbEntity
   8
LEVEL004
 370
20
 100
AcDbLine
   6
CONTINUOUS
  62
7
  10
 260.07852264963
  20
 812.22197356779
  30
0.0
  11
 274.96283989002
  21
 812.22197356779
  31
0.0
   0
LINE
   5
356
 100
AcDbEntity
   8
LEVEL004
 370
20
 100
AcDbLine
   6
CONTINUOUS
  62
7
  10
 260.07852264964
  20
 812.22197356779
  30
0.0
  11
 274.96283989002
  21
 812.22197356779
  31
0.0
   0
LINE
   5
357
 100
AcDbEntity
   8
LEVEL004
 370
20
 100
AcDbLine
   6
CONTINUOUS
  62
7
  10
 260.07852264964
  20
 812.22197356779
  30
0.0
  11
 274.96283989002
  21
 812.22197356779
  31
0.0
   0
LINE
   5
358
 100
AcDbEntity
   8
LEVEL004
 370
20
 100
AcDbLine
   6
CONTINUOUS
  62
7
  10
 260.79010967459
  20
 812.22197356779
  30
0.0
  11
 274.25125286507
  21
 812.22197356779
  31
0.0
   0
DIMENSION
   5
359
 100
AcDbEntity
   8
0
 370
20
   6
CONTINUOUS
  62
8
 100
AcDbDimension
   2
*D15
  10
 295.02068126983
  20
 678.72197356779
  30
0.0
  11
 267.52068126983
  21
 678.72197356779
  31
0.0
  70
0
   3
GMM001
 100
AcDbAlignedDimension
  13
 240.02068126983
  23
 708.72197356779
  33
0.0
  14
 295.02068126983
  24
 708.72197356779
  34
0.0
 100
AcDbRotatedDimension
   0
LINE
   5
35A
 100
AcDbEntity
   8
LEVEL001
 370
20
 100
AcDbLine
   6
HIDDEN
  62
2
  10
 263.22068126984
  20
 713.42197356779
  30
0.0
  11
 263.22068126984
  21
 743.22197356779
  31
0.0
   0
LINE
   5
35B
 100
AcDbEntity
   8
LEVEL001
 370
20
 100
AcDbLine
   6
HIDDEN
  62
2
  10
 263.22068126984
  20
 743.22197356779
  30
0.0
  11
 267.52068126983
  21
 745.22197356779
  31
0.0
   0
LINE
   5
35C
 100
AcDbEntity
   8
LEVEL001
 370
20
 100
AcDbLine
   6
HIDDEN
  62
2
  10
 263.22068126984
  20
 738.34197356779
  30
0.0
  11
 262.52068126983
  21
 737.22197356779
  31
0.0
   0
LINE
   5
35D
 100
AcDbEntity
   8
LEVEL001
 370
20
 100
AcDbLine
   6
HIDDEN
  62
2
  10
 262.52068126983
  20
 737.22197356779
  30
0.0
  11
 262.52068126983
  21
 712.72197356779
  31
0.0
   0
LINE
   5
35E
 100
AcDbEntity
   8
LEVEL001
 370
20
 100
AcDbLine
   6
HIDDEN
  62
2
  10
 271.82068126983
  20
 743.22197356779
  30
0.0
  11
 263.22068126984
  21
 743.22197356779
  31
0.0
   0
LINE
   5
35F
 100
AcDbEntity
   8
LEVEL001
 370
20
 100
AcDbLine
   6
HIDDEN
  62
2
  10
 272.52068126983
  20
 737.22197356779
  30
0.0
  11
 262.52068126983
  21
 737.22197356779
  31
0.0
   0
LINE
   5
360
 100
AcDbEntity
   8
LEVEL001
 370
20
 100
AcDbLine
   6
HIDDEN
  62
2
  10
 271.82068126983
  20
 713.42197356779
  30
0.0
  11
 263.22068126984
  21
 713.42197356779
  31
0.0
   0
LINE
   5
361
 100
AcDbEntity
   8
LEVEL001
 370
20
 100
AcDbLine
   6
HIDDEN
  62
2
  10
 263.22068126984
  20
 713.42197356779
  30
0.0
  11
 262.02068126983
  21
 712.22197356779
  31
0.0
   0
LINE
   5
362
 100
AcDbEntity
   8
LEVEL001
 370
20
 100
AcDbLine
   6
HIDDEN
  62
2
  10
 271.82068126983
  20
 738.34197356779
  30
0.0
  11
 263.22068126984
  21
 738.34197356779
  31
0.0
   0
LINE
   5
363
 100
AcDbEntity
   8
LEVEL001
 370
20
 100
AcDbLine
   6
HIDDEN
  62
2
  10
 271.82068126983
  20
 743.22197356779
  30
0.0
  11
 271.82068126983
  21
 713.42197356779
  31
0.0
   0
LINE
   5
364
 100
AcDbEntity
   8
LEVEL001
 370
20
 100
AcDbLine
   6
HIDDEN
  62
2
  10
 272.52068126983
  20
 712.72197356779
  30
0.0
  11
 272.52068126983
  21
 737.22197356779
  31
0.0
   0
LINE
   5
365
 100
AcDbEntity
   8
LEVEL001
 370
20
 100
AcDbLine
   6
HIDDEN
  62
2
  10
 271.82068126983
  20
 713.42197356779
  30
0.0
  11
 273.02068126983
  21
 712.22197356779
  31
0.0
   0
LINE
   5
366
 100
AcDbEntity
   8
LEVEL001
 370
20
 100
AcDbLine
   6
HIDDEN
  62
2
  10
 267.52068126983
  20
 745.22197356779
  30
0.0
  11
 271.82068126983
  21
 743.22197356779
  31
0.0
   0
LINE
   5
367
 100
AcDbEntity
   8
LEVEL001
 370
20
 100
AcDbLine
   6
HIDDEN
  62
2
  10
 272.52068126983
  20
 737.22197356779
  30
0.0
  11
 271.82068126983
  21
 738.34197356779
  31
0.0
   0
LINE
   5
368
 100
AcDbEntity
   8
LEVEL001
 370
20
 100
AcDbLine
   6
HIDDEN
  62
2
  10
 272.67068126988
  20
 712.22197356779
  30
0.0
  11
 272.67068126988
  21
 708.72197356779
  31
0.0
   0
LINE
   5
369
 100
AcDbEntity
   8
LEVEL001
 370
20
 100
AcDbLine
   6
HIDDEN
  62
2
  10
 262.37068126977
  20
 712.22197356779
  30
0.0
  11
 262.37068126977
  21
 708.72197356779
  31
0.0
   0
LEADER
   5
36A
 100
AcDbEntity
   8
0
 370
20
   6
CONTINUOUS
  62
8
 100
AcDbLeader
   3
GMM002
  73
0
  74
1
  75
0
  40
 10.000000000000
  41
 26.000000000000
  76
2
  10
 262.52068126983
  20
 735.95919540556
  30
0.0
  10
 222.18827316839
  20
 767.40416449580
  30
0.0
  77
8
 340
36B
 213
0.0
 223
-4.0000000000000
 233
0.0
   0
MTEXT
   5
36B
 102
{ACAD_REACTORS
 330
36A
 102
}
 100
AcDbEntity
   8
0
 370
20
  62
8
 100
AcDbMText
  10
 196.18827316839
  20
 771.40416449580
  30
0.0
  40
 10.000000000000
  41
0.0
  71
7
  72
1
   1
\A1;Ｍ１０
   7
GMM001
   0
DIMENSION
   5
36C
 100
AcDbEntity
   8
0
 370
20
   6
CONTINUOUS
  62
8
 100
AcDbDimension
   2
*D17
  10
 259.52068126983
  20
 767.40416449580
  30
0.0
  11
 254.82134163944
  21
 767.40416449580
  31
0.0
  70
128
   3
GMM004
 100
AcDbAlignedDimension
  13
 275.52068126983
  23
 767.40416449580
  33
0.0
  14
 259.52068126983
  24
 767.40416449580
  34
0.0
  50
 180.00000000000
 100
AcDbRotatedDimension
   0
LINE
   5
36D
 100
AcDbEntity
   8
0
 370
20
 100
AcDbLine
   6
CONTINUOUS
  62
7
  10
 862.52068126983
  20
 812.22197356759
  30
0.0
  11
 878.52068126983
  21
 812.22197356759
  31
0.0
   0
LINE
   5
36E
 100
AcDbEntity
   8
0
 370
20
 100
AcDbLine
   6
CONTINUOUS
  62
7
  10
 862.52068126983
  20
 812.22197356759
  30
0.0
  11
 878.52068126983
  21
 812.22197356759
  31
0.0
   0
LINE
   5
36F
 100
AcDbEntity
   8
LEVEL001
 370
20
 100
AcDbLine
   6
CONTINUOUS
  62
7
  10
 843.02068126983
  20
 710.72197356759
  30
0.0
  11
 898.02068126983
  21
 710.72197356759
  31
0.0
   0
LINE
   5
370
 100
AcDbEntity
   8
LEVEL001
 370
20
 100
AcDbLine
   6
CONTINUOUS
  62
7
  10
 896.52068126983
  20
 712.22197356759
  30
0.0
  11
 844.52068126983
  21
 712.22197356759
  31
0.0
   0
LINE
   5
371
 100
AcDbEntity
   8
LEVEL001
 370
20
 100
AcDbLine
   6
CONTINUOUS
  62
7
  10
 843.02068126983
  20
 708.72197356759
  30
0.0
  11
 898.02068126983
  21
 708.72197356759
  31
0.0
   0
LINE
   5
372
 100
AcDbEntity
   8
LEVEL001
 370
20
 100
AcDbLine
   6
CONTINUOUS
  62
7
  10
 898.02068126983
  20
 710.72197356759
  30
0.0
  11
 896.52068126983
  21
 712.22197356759
  31
0.0
   0
LINE
   5
373
 100
AcDbEntity
   8
LEVEL001
 370
20
 100
AcDbLine
   6
CONTINUOUS
  62
7
  10
 898.02068126983
  20
 708.72197356759
  30
0.0
  11
 898.02068126983
  21
 710.72197356759
  31
0.0
   0
LINE
   5
374
 100
AcDbEntity
   8
LEVEL001
 370
20
 100
AcDbLine
   6
CONTINUOUS
  62
7
  10
 844.52068126983
  20
 712.22197356759
  30
0.0
  11
 843.02068126983
  21
 710.72197356759
  31
0.0
   0
LINE
   5
375
 100
AcDbEntity
   8
LEVEL001
 370
20
 100
AcDbLine
   6
CONTINUOUS
  62
7
  10
 843.02068126983
  20
 710.72197356759
  30
0.0
  11
 843.02068126983
  21
 708.72197356759
  31
0.0
   0
LINE
   5
376
 100
AcDbEntity
   8
LEVEL001
 370
20
 100
AcDbLine
   6
CONTINUOUS
  62
7
  10
 862.52068126983
  20
 712.22197356759
  30
0.0
  11
 862.52068126983
  21
 812.22197356759
  31
0.0
   0
LINE
   5
377
 100
AcDbEntity
   8
LEVEL001
 370
20
 100
AcDbLine
   6
CONTINUOUS
  62
7
  10
 878.52068126983
  20
 812.22197356759
  30
0.0
  11
 878.52068126983
  21
 712.22197356759
  31
0.0
   0
LINE
   5
378
 100
AcDbEntity
   8
LEVEL001
 370
20
 100
AcDbLine
   6
CONTINUOUS
  62
7
  10
 862.52068126983
  20
 812.22197356759
  30
0.0
  11
 878.52068126983
  21
 812.22197356759
  31
0.0
   0
LINE
   5
379
 100
AcDbEntity
   8
LEVEL001
 370
20
 100
AcDbLine
   6
CONTINUOUS
  62
7
  10
 864.02068126983
  20
 812.22197356759
  30
0.0
  11
 877.02068126983
  21
 812.22197356759
  31
0.0
   0
LINE
   5
37A
 100
AcDbEntity
   8
LEVEL004
 370
20
 100
AcDbLine
   6
CONTINUOUS
  62
7
  10
 863.07852264964
  20
 812.22197356759
  30
0.0
  11
 877.96283989002
  21
 812.22197356759
  31
0.0
   0
LINE
   5
37B
 100
AcDbEntity
   8
LEVEL004
 370
20
 100
AcDbLine
   6
CONTINUOUS
  62
7
  10
 863.07852264963
  20
 812.22197356759
  30
0.0
  11
 877.96283989002
  21
 812.22197356759
  31
0.0
   0
LINE
   5
37C
 100
AcDbEntity
   8
LEVEL004
 370
20
 100
AcDbLine
   6
CONTINUOUS
  62
7
  10
 863.07852264964
  20
 812.22197356759
  30
0.0
  11
 877.96283989002
  21
 812.22197356759
  31
0.0
   0
LINE
   5
37D
 100
AcDbEntity
   8
LEVEL004
 370
20
 100
AcDbLine
   6
CONTINUOUS
  62
7
  10
 863.07852264964
  20
 812.22197356759
  30
0.0
  11
 877.96283989002
  21
 812.22197356759
  31
0.0
   0
LINE
   5
37E
 100
AcDbEntity
   8
LEVEL004
 370
20
 100
AcDbLine
   6
CONTINUOUS
  62
7
  10
 863.79010967459
  20
 812.22197356759
  30
0.0
  11
 877.25125286507
  21
 812.22197356759
  31
0.0
   0
DIMENSION
   5
37F
 100
AcDbEntity
   8
0
 370
20
   6
CONTINUOUS
  62
8
 100
AcDbDimension
   2
*D18
  10
 898.02068126983
  20
 678.72197356759
  30
0.0
  11
 870.52068126983
  21
 678.72197356759
  31
0.0
  70
0
   3
GMM001
 100
AcDbAlignedDimension
  13
 843.02068126983
  23
 708.72197356759
  33
0.0
  14
 898.02068126983
  24
 708.72197356759
  34
0.0
 100
AcDbRotatedDimension
   0
LINE
   5
380
 100
AcDbEntity
   8
LEVEL001
 370
20
 100
AcDbLine
   6
HIDDEN
  62
2
  10
 866.22068126984
  20
 713.42197356759
  30
0.0
  11
 866.22068126984
  21
 743.22197356759
  31
0.0
   0
LINE
   5
381
 100
AcDbEntity
   8
LEVEL001
 370
20
 100
AcDbLine
   6
HIDDEN
  62
2
  10
 866.22068126984
  20
 743.22197356759
  30
0.0
  11
 870.52068126983
  21
 745.22197356759
  31
0.0
   0
LINE
   5
382
 100
AcDbEntity
   8
LEVEL001
 370
20
 100
AcDbLine
   6
HIDDEN
  62
2
  10
 866.22068126984
  20
 738.34197356759
  30
0.0
  11
 865.52068126983
  21
 737.22197356759
  31
0.0
   0
LINE
   5
383
 100
AcDbEntity
   8
LEVEL001
 370
20
 100
AcDbLine
   6
HIDDEN
  62
2
  10
 865.52068126983
  20
 737.22197356759
  30
0.0
  11
 865.52068126983
  21
 712.72197356759
  31
0.0
   0
LINE
   5
384
 100
AcDbEntity
   8
LEVEL001
 370
20
 100
AcDbLine
   6
HIDDEN
  62
2
  10
 874.82068126983
  20
 743.22197356759
  30
0.0
  11
 866.22068126984
  21
 743.22197356759
  31
0.0
   0
LINE
   5
385
 100
AcDbEntity
   8
LEVEL001
 370
20
 100
AcDbLine
   6
HIDDEN
  62
2
  10
 875.52068126983
  20
 737.22197356759
  30
0.0
  11
 865.52068126983
  21
 737.22197356759
  31
0.0
   0
LINE
   5
386
 100
AcDbEntity
   8
LEVEL001
 370
20
 100
AcDbLine
   6
HIDDEN
  62
2
  10
 874.82068126983
  20
 713.42197356759
  30
0.0
  11
 866.22068126984
  21
 713.42197356759
  31
0.0
   0
LINE
   5
387
 100
AcDbEntity
   8
LEVEL001
 370
20
 100
AcDbLine
   6
HIDDEN
  62
2
  10
 866.22068126984
  20
 713.42197356759
  30
0.0
  11
 865.02068126983
  21
 712.22197356759
  31
0.0
   0
LINE
   5
388
 100
AcDbEntity
   8
LEVEL001
 370
20
 100
AcDbLine
   6
HIDDEN
  62
2
  10
 874.82068126983
  20
 738.34197356759
  30
0.0
  11
 866.22068126984
  21
 738.34197356759
  31
0.0
   0
LINE
   5
389
 100
AcDbEntity
   8
LEVEL001
 370
20
 100
AcDbLine
   6
HIDDEN
  62
2
  10
 874.82068126983
  20
 743.22197356759
  30
0.0
  11
 874.82068126983
  21
 713.42197356759
  31
0.0
   0
LINE
   5
38A
 100
AcDbEntity
   8
LEVEL001
 370
20
 100
AcDbLine
   6
HIDDEN
  62
2
  10
 875.52068126983
  20
 712.72197356759
  30
0.0
  11
 875.52068126983
  21
 737.22197356759
  31
0.0
   0
LINE
   5
38B
 100
AcDbEntity
   8
LEVEL001
 370
20
 100
AcDbLine
   6
HIDDEN
  62
2
  10
 874.82068126983
  20
 713.42197356759
  30
0.0
  11
 876.02068126983
  21
 712.22197356759
  31
0.0
   0
LINE
   5
38C
 100
AcDbEntity
   8
LEVEL001
 370
20
 100
AcDbLine
   6
HIDDEN
  62
2
  10
 870.52068126983
  20
 745.22197356759
  30
0.0
  11
 874.82068126983
  21
 743.22197356759
  31
0.0
   0
LINE
   5
38D
 100
AcDbEntity
   8
LEVEL001
 370
20
 100
AcDbLine
   6
HIDDEN
  62
2
  10
 875.52068126983
  20
 737.22197356759
  30
0.0
  11
 874.82068126983
  21
 738.34197356759
  31
0.0
   0
LINE
   5
38E
 100
AcDbEntity
   8
LEVEL001
 370
20
 100
AcDbLine
   6
HIDDEN
  62
2
  10
 875.67068126988
  20
 712.22197356759
  30
0.0
  11
 875.67068126988
  21
 708.72197356759
  31
0.0
   0
LINE
   5
38F
 100
AcDbEntity
   8
LEVEL001
 370
20
 100
AcDbLine
   6
HIDDEN
  62
2
  10
 865.37068126977
  20
 712.22197356759
  30
0.0
  11
 865.37068126977
  21
 708.72197356759
  31
0.0
   0
LEADER
   5
390
 100
AcDbEntity
   8
0
 370
20
   6
CONTINUOUS
  62
8
 100
AcDbLeader
   3
GMM002
  73
0
  74
1
  75
0
  40
 10.000000000000
  41
 26.000000000000
  76
2
  10
 865.52068126983
  20
 735.95919540535
  30
0.0
  10
 825.18827316839
  20
 767.40416449560
  30
0.0
  77
8
 340
391
 213
0.0
 223
-4.0000000000000
 233
0.0
   0
MTEXT
   5
391
 102
{ACAD_REACTORS
 330
390
 102
}
 100
AcDbEntity
   8
0
 370
20
  62
8
 100
AcDbMText
  10
 799.18827316839
  20
 771.40416449560
  30
0.0
  40
 10.000000000000
  41
0.0
  71
7
  72
1
   1
\A1;Ｍ１０
   7
GMM001
   0
DIMENSION
   5
392
 100
AcDbEntity
   8
0
 370
20
   6
CONTINUOUS
  62
8
 100
AcDbDimension
   2
*D20
  10
 862.52068126983
  20
 767.40416449560
  30
0.0
  11
 857.82134163944
  21
 767.40416449560
  31
0.0
  70
128
   3
GMM004
 100
AcDbAlignedDimension
  13
 878.52068126983
  23
 767.40416449560
  33
0.0
  14
 862.52068126983
  24
 767.40416449560
  34
0.0
  50
 180.00000000000
 100
AcDbRotatedDimension
   0
DIMENSION
   5
393
 100
AcDbEntity
   8
0
 370
20
   6
CONTINUOUS
  62
8
 100
AcDbDimension
   2
*D21
  10
 921.04794643453
  20
 712.22197356759
  30
0.0
  11
 921.04794643453
  21
 703.15667802999
  31
0.0
  70
128
   3
GMM005
 100
AcDbAlignedDimension
  13
 898.02068126983
  23
 708.72197356759
  33
0.0
  14
 896.52068126983
  24
 712.22197356759
  34
0.0
  50
 90.000000000000
 100
AcDbRotatedDimension
   0
DIMENSION
   5
394
 100
AcDbEntity
   8
0
 370
20
   6
CONTINUOUS
  62
8
 100
AcDbDimension
   2
*D22
  10
 921.04794643453
  20
 812.22197356759
  30
0.0
  11
 921.04794643453
  21
 762.22197356759
  31
0.0
  70
0
   1
\A1;H
   3
GMM006
 100
AcDbAlignedDimension
  13
 896.52068126983
  23
 712.22197356759
  33
0.0
  14
 883.02068126983
  24
 812.22197356759
  34
0.0
  50
 90.000000000000
 100
AcDbRotatedDimension
   0
DIMENSION
   5
395
 100
AcDbEntity
   8
0
 370
20
   6
CONTINUOUS
  62
8
 100
AcDbDimension
   2
*D23
  10
 318.04794643453
  20
 712.22197356779
  30
0.0
  11
 318.04794643453
  21
 703.15667803020
  31
0.0
  70
128
   3
GMM005
 100
AcDbAlignedDimension
  13
 295.02068126983
  23
 708.72197356779
  33
0.0
  14
 293.52068126983
  24
 712.22197356779
  34
0.0
  50
 90.000000000000
 100
AcDbRotatedDimension
   0
DIMENSION
   5
396
 100
AcDbEntity
   8
0
 370
20
   6
CONTINUOUS
  62
8
 100
AcDbDimension
   2
*D24
  10
 318.04794643453
  20
 812.22197356779
  30
0.0
  11
 318.04794643453
  21
 762.22197356779
  31
0.0
  70
0
   1
\A1;H
   3
GMM006
 100
AcDbAlignedDimension
  13
 293.52068126983
  23
 712.22197356779
  33
0.0
  14
 277.52068126983
  24
 812.22197356779
  34
0.0
  50
 90.000000000000
 100
AcDbRotatedDimension
   0
DIMENSION
   5
397
 100
AcDbEntity
   8
0
 370
20
   6
CONTINUOUS
  62
8
 100
AcDbDimension
   2
*D25
  10
 434.79665718044
  20
 972.31825668720
  30
0.0
  11
 407.29665718045
  21
 972.31825668720
  31
0.0
  70
0
   3
GMM001
 100
AcDbAlignedDimension
  13
 379.79665718046
  23
 1023.2536066101
  33
0.0
  14
 434.79665718044
  24
 1023.2536066101
  34
0.0
 100
AcDbRotatedDimension
   0
ARC
   5
398
 100
AcDbEntity
   8
LEVEL001
 370
20
   6
CONTINUOUS
  62
7
 100
AcDbCircle
  10
 407.29665718044
  20
 1023.2536066101
  30
0.0
  40
 26.000000000000
 100
AcDbArc
  50
 202.61986494804
  51
 337.38013505200
   0
ARC
   5
399
 100
AcDbEntity
   8
LEVEL001
 370
20
   6
CONTINUOUS
  62
7
 100
AcDbCircle
  10
 407.29665718044
  20
 1023.2536066101
  30
0.0
  40
 27.500000000000
 100
AcDbArc
  50
 201.32368626351
  51
 338.67631373652
   0
ARC
   5
39A
 100
AcDbEntity
   8
LEVEL001
 370
20
   6
HIDDEN
  62
7
 100
AcDbCircle
  10
 407.29665718044
  20
 1023.2536066101
  30
0.0
  40
 26.000000000000
 100
AcDbArc
  50
 337.38013505200
  51
 22.619864948082
   0
ARC
   5
39B
 100
AcDbEntity
   8
LEVEL001
 370
20
   6
HIDDEN
  62
7
 100
AcDbCircle
  10
 407.29665718044
  20
 1023.2536066101
  30
0.0
  40
 27.500000000000
 100
AcDbArc
  50
 338.67631373652
  51
 21.323686263522
   0
ARC
   5
39C
 100
AcDbEntity
   8
LEVEL001
 370
20
   6
HIDDEN
  62
7
 100
AcDbCircle
  10
 407.29665718046
  20
 1023.2536066102
  30
0.0
  40
 27.500000000000
 100
AcDbArc
  50
 158.67631373656
  51
 201.32368626356
   0
ARC
   5
39D
 100
AcDbEntity
   8
LEVEL001
 370
20
   6
HIDDEN
  62
7
 100
AcDbCircle
  10
 407.29665718045
  20
 1023.2536066101
  30
0.0
  40
 26.000000000000
 100
AcDbArc
  50
 157.38013505200
  51
 202.61986494808
   0
ARC
   5
39E
 100
AcDbEntity
   8
LEVEL001
 370
20
   6
CONTINUOUS
  62
7
 100
AcDbCircle
  10
 407.29665718044
  20
 1023.2536066101
  30
0.0
  40
 26.000000000000
 100
AcDbArc
  50
 22.619864948039
  51
 157.38013505196
   0
ARC
   5
39F
 100
AcDbEntity
   8
LEVEL001
 370
20
   6
CONTINUOUS
  62
7
 100
AcDbCircle
  10
 407.29665718044
  20
 1023.2536066101
  30
0.0
  40
 27.500000000000
 100
AcDbArc
  50
 21.323686263517
  51
 158.67631373648
   0
DIMENSION
   5
3A0
 100
AcDbEntity
   8
0
 370
20
   6
CONTINUOUS
  62
8
 100
AcDbDimension
   2
*D26
  10
 1037.7966571804
  20
 972.31825668700
  30
0.0
  11
 1010.2966571804
  21
 972.31825668700
  31
0.0
  70
0
   3
GMM001
 100
AcDbAlignedDimension
  13
 982.79665718046
  23
 1023.2536066099
  33
0.0
  14
 1037.7966571804
  24
 1023.2536066099
  34
0.0
 100
AcDbRotatedDimension
   0
ARC
   5
3A1
 100
AcDbEntity
   8
LEVEL001
 370
20
   6
HIDDEN
  62
7
 100
AcDbCircle
  10
 1010.2966571805
  20
 1023.2536066099
  30
0.0
  40
 27.500000000000
 100
AcDbArc
  50
 152.96430821064
  51
 207.03569178943
   0
ARC
   5
3A2
 100
AcDbEntity
   8
LEVEL001
 370
20
   6
HIDDEN
  62
7
 100
AcDbCircle
  10
 1010.2966571805
  20
 1023.2536066099
  30
0.0
  40
 26.000000000000
 100
AcDbArc
  50
 151.26434625513
  51
 208.73565374490
   0
ARC
   5
3A3
 100
AcDbEntity
   8
LEVEL001
 370
20
   6
CONTINUOUS
  62
7
 100
AcDbCircle
  10
 1010.2966571804
  20
 1023.2536066099
  30
0.0
  40
 26.000000000000
 100
AcDbArc
  50
 28.735653744913
  51
 151.26434625508
   0
ARC
   5
3A4
 100
AcDbEntity
   8
LEVEL001
 370
20
   6
CONTINUOUS
  62
7
 100
AcDbCircle
  10
 1010.2966571804
  20
 1023.2536066099
  30
0.0
  40
 27.500000000000
 100
AcDbArc
  50
 27.035691789418
  51
 152.96430821058
   0
ARC
   5
3A5
 100
AcDbEntity
   8
LEVEL001
 370
20
   6
CONTINUOUS
  62
7
 100
AcDbCircle
  10
 1010.2966571804
  20
 1023.2536066099
  30
0.0
  40
 26.000000000000
 100
AcDbArc
  50
 208.73565374488
  51
 331.26434625512
   0
ARC
   5
3A6
 100
AcDbEntity
   8
LEVEL001
 370
20
   6
CONTINUOUS
  62
7
 100
AcDbCircle
  10
 1010.2966571804
  20
 1023.2536066099
  30
0.0
  40
 27.500000000000
 100
AcDbArc
  50
 207.03569178942
  51
 332.96430821058
   0
ARC
   5
3A7
 100
AcDbEntity
   8
LEVEL001
 370
20
   6
HIDDEN
  62
7
 100
AcDbCircle
  10
 1010.2966571804
  20
 1023.2536066099
  30
0.0
  40
 26.000000000000
 100
AcDbArc
  50
 331.26434625511
  51
 28.735653744925
   0
ARC
   5
3A8
 100
AcDbEntity
   8
LEVEL001
 370
20
   6
HIDDEN
  62
7
 100
AcDbCircle
  10
 1010.2966571804
  20
 1023.2536066099
  30
0.0
  40
 27.500000000000
 100
AcDbArc
  50
 332.96430821059
  51
 27.035691789414
   0
LINE
   5
3A9
 100
AcDbEntity
   8
LEVEL001
 370
20
 100
AcDbLine
   6
CONTINUOUS
  62
7
  10
 399.29665718044
  20
 812.22197356779
  30
0.0
  11
 415.29665718044
  21
 812.22197356779
  31
0.0
   0
LINE
   5
3AA
 100
AcDbEntity
   8
LEVEL004
 370
20
 100
AcDbLine
   6
CONTINUOUS
  62
7
  10
 400.00486111293
  20
 812.22197356779
  30
0.0
  11
 414.58845324794
  21
 812.22197356779
  31
0.0
   0
LINE
   5
3AB
 100
AcDbEntity
   8
LEVEL004
 370
20
 100
AcDbLine
   6
CONTINUOUS
  62
7
  10
 414.58845324794
  20
 812.22197356779
  30
0.0
  11
 400.00486111293
  21
 812.22197356779
  31
0.0
   0
LINE
   5
3AC
 100
AcDbEntity
   8
LEVEL004
 370
20
 100
AcDbLine
   6
CONTINUOUS
  62
7
  10
 414.58845324794
  20
 812.22197356779
  30
0.0
  11
 400.00486111293
  21
 812.22197356779
  31
0.0
   0
LINE
   5
3AD
 100
AcDbEntity
   8
LEVEL004
 370
20
 100
AcDbLine
   6
CONTINUOUS
  62
7
  10
 414.58845324794
  20
 812.22197356779
  30
0.0
  11
 400.00486111293
  21
 812.22197356779
  31
0.0
   0
LINE
   5
3AE
 100
AcDbEntity
   8
LEVEL004
 370
20
 100
AcDbLine
   6
CONTINUOUS
  62
7
  10
 414.58845324794
  20
 812.22197356779
  30
0.0
  11
 400.00486111293
  21
 812.22197356779
  31
0.0
   0
LINE
   5
3AF
 100
AcDbEntity
   8
LEVEL001
 370
20
 100
AcDbLine
   6
CONTINUOUS
  62
7
  10
 434.79665718044
  20
 710.72197356779
  30
0.0
  11
 379.79665718044
  21
 710.72197356779
  31
0.0
   0
LINE
   5
3B0
 100
AcDbEntity
   8
LEVEL001
 370
20
 100
AcDbLine
   6
CONTINUOUS
  62
7
  10
 381.29665718044
  20
 712.22197356779
  30
0.0
  11
 433.29665718044
  21
 712.22197356779
  31
0.0
   0
LINE
   5
3B1
 100
AcDbEntity
   8
LEVEL001
 370
20
 100
AcDbLine
   6
CONTINUOUS
  62
7
  10
 433.29665718044
  20
 712.22197356779
  30
0.0
  11
 434.79665718044
  21
 710.72197356779
  31
0.0
   0
LINE
   5
3B2
 100
AcDbEntity
   8
LEVEL001
 370
20
 100
AcDbLine
   6
CONTINUOUS
  62
7
  10
 434.79665718044
  20
 708.72197356779
  30
0.0
  11
 379.79665718044
  21
 708.72197356779
  31
0.0
   0
LINE
   5
3B3
 100
AcDbEntity
   8
LEVEL001
 370
20
 100
AcDbLine
   6
CONTINUOUS
  62
7
  10
 434.79665718044
  20
 710.72197356779
  30
0.0
  11
 434.79665718044
  21
 708.72197356779
  31
0.0
   0
LINE
   5
3B4
 100
AcDbEntity
   8
LEVEL001
 370
20
 100
AcDbLine
   6
CONTINUOUS
  62
7
  10
 379.79665718044
  20
 710.72197356779
  30
0.0
  11
 381.29665718044
  21
 712.22197356779
  31
0.0
   0
LINE
   5
3B5
 100
AcDbEntity
   8
LEVEL001
 370
20
 100
AcDbLine
   6
CONTINUOUS
  62
7
  10
 379.79665718044
  20
 708.72197356779
  30
0.0
  11
 379.79665718044
  21
 710.72197356779
  31
0.0
   0
LINE
   5
3B6
 100
AcDbEntity
   8
LEVEL001
 370
20
 100
AcDbLine
   6
CONTINUOUS
  62
7
  10
 399.29665718044
  20
 812.22197356779
  30
0.0
  11
 399.29665718044
  21
 712.22197356779
  31
0.0
   0
LINE
   5
3B7
 100
AcDbEntity
   8
LEVEL001
 370
20
 100
AcDbLine
   6
CONTINUOUS
  62
7
  10
 415.29665718044
  20
 712.22197356779
  30
0.0
  11
 415.29665718044
  21
 812.22197356779
  31
0.0
   0
DIMENSION
   5
3B8
 100
AcDbEntity
   8
0
 370
20
   6
CONTINUOUS
  62
8
 100
AcDbDimension
   2
*D27
  10
 434.79665718044
  20
 678.72197356779
  30
0.0
  11
 407.29665718044
  21
 678.72197356779
  31
0.0
  70
0
   3
GMM001
 100
AcDbAlignedDimension
  13
 379.79665718044
  23
 708.72197356779
  33
0.0
  14
 434.79665718044
  24
 708.72197356779
  34
0.0
 100
AcDbRotatedDimension
   0
DIMENSION
   5
3B9
 100
AcDbEntity
   8
0
 370
20
   6
CONTINUOUS
  62
8
 100
AcDbDimension
   2
*D28
  10
 415.29665718044
  20
 767.40416449580
  30
0.0
  11
 423.30139174373
  21
 767.40416449580
  31
0.0
  70
128
   3
GMM004
 100
AcDbAlignedDimension
  13
 399.29665718044
  23
 767.40416449580
  33
0.0
  14
 415.29665718044
  24
 767.40416449580
  34
0.0
 100
AcDbRotatedDimension
   0
LINE
   5
3BA
 100
AcDbEntity
   8
LEVEL001
 370
20
 100
AcDbLine
   6
HIDDEN
  62
2
  10
 402.99665718044
  20
 713.42197356779
  30
0.0
  11
 402.99665718044
  21
 743.22197356779
  31
0.0
   0
LINE
   5
3BB
 100
AcDbEntity
   8
LEVEL001
 370
20
 100
AcDbLine
   6
HIDDEN
  62
2
  10
 402.99665718044
  20
 743.22197356779
  30
0.0
  11
 407.29665718044
  21
 745.22197356779
  31
0.0
   0
LINE
   5
3BC
 100
AcDbEntity
   8
LEVEL001
 370
20
 100
AcDbLine
   6
HIDDEN
  62
2
  10
 402.99665718044
  20
 738.34197356779
  30
0.0
  11
 402.29665718044
  21
 737.22197356779
  31
0.0
   0
LINE
   5
3BD
 100
AcDbEntity
   8
LEVEL001
 370
20
 100
AcDbLine
   6
HIDDEN
  62
2
  10
 402.29665718044
  20
 737.22197356779
  30
0.0
  11
 402.29665718044
  21
 712.72197356779
  31
0.0
   0
LINE
   5
3BE
 100
AcDbEntity
   8
LEVEL001
 370
20
 100
AcDbLine
   6
HIDDEN
  62
2
  10
 411.59665718043
  20
 743.22197356779
  30
0.0
  11
 402.99665718044
  21
 743.22197356779
  31
0.0
   0
LINE
   5
3BF
 100
AcDbEntity
   8
LEVEL001
 370
20
 100
AcDbLine
   6
HIDDEN
  62
2
  10
 412.29665718044
  20
 737.22197356779
  30
0.0
  11
 402.29665718044
  21
 737.22197356779
  31
0.0
   0
LINE
   5
3C0
 100
AcDbEntity
   8
LEVEL001
 370
20
 100
AcDbLine
   6
HIDDEN
  62
2
  10
 411.59665718043
  20
 713.42197356779
  30
0.0
  11
 402.99665718044
  21
 713.42197356779
  31
0.0
   0
LINE
   5
3C1
 100
AcDbEntity
   8
LEVEL001
 370
20
 100
AcDbLine
   6
HIDDEN
  62
2
  10
 402.99665718044
  20
 713.42197356779
  30
0.0
  11
 401.79665718044
  21
 712.22197356779
  31
0.0
   0
LINE
   5
3C2
 100
AcDbEntity
   8
LEVEL001
 370
20
 100
AcDbLine
   6
HIDDEN
  62
2
  10
 411.59665718043
  20
 738.34197356779
  30
0.0
  11
 402.99665718044
  21
 738.34197356779
  31
0.0
   0
LINE
   5
3C3
 100
AcDbEntity
   8
LEVEL001
 370
20
 100
AcDbLine
   6
HIDDEN
  62
2
  10
 411.59665718043
  20
 743.22197356779
  30
0.0
  11
 411.59665718043
  21
 713.42197356779
  31
0.0
   0
LINE
   5
3C4
 100
AcDbEntity
   8
LEVEL001
 370
20
 100
AcDbLine
   6
HIDDEN
  62
2
  10
 412.29665718044
  20
 712.72197356779
  30
0.0
  11
 412.29665718044
  21
 737.22197356779
  31
0.0
   0
LINE
   5
3C5
 100
AcDbEntity
   8
LEVEL001
 370
20
 100
AcDbLine
   6
HIDDEN
  62
2
  10
 411.59665718043
  20
 713.42197356779
  30
0.0
  11
 412.79665718044
  21
 712.22197356779
  31
0.0
   0
LINE
   5
3C6
 100
AcDbEntity
   8
LEVEL001
 370
20
 100
AcDbLine
   6
HIDDEN
  62
2
  10
 407.29665718044
  20
 745.22197356779
  30
0.0
  11
 411.59665718043
  21
 743.22197356779
  31
0.0
   0
LINE
   5
3C7
 100
AcDbEntity
   8
LEVEL001
 370
20
 100
AcDbLine
   6
HIDDEN
  62
2
  10
 412.29665718044
  20
 737.22197356779
  30
0.0
  11
 411.59665718043
  21
 738.34197356779
  31
0.0
   0
LINE
   5
3C8
 100
AcDbEntity
   8
LEVEL001
 370
20
 100
AcDbLine
   6
HIDDEN
  62
2
  10
 412.44665718048
  20
 712.22197356779
  30
0.0
  11
 412.44665718048
  21
 708.72197356779
  31
0.0
   0
LINE
   5
3C9
 100
AcDbEntity
   8
LEVEL001
 370
20
 100
AcDbLine
   6
HIDDEN
  62
2
  10
 402.14665718038
  20
 712.22197356779
  30
0.0
  11
 402.14665718038
  21
 708.72197356779
  31
0.0
   0
LINE
   5
3CA
 100
AcDbEntity
   8
LEVEL001
 370
20
 100
AcDbLine
   6
CONTINUOUS
  62
7
  10
 1002.2966571804
  20
 812.22197356759
  30
0.0
  11
 1018.2966571804
  21
 812.22197356759
  31
0.0
   0
LINE
   5
3CB
 100
AcDbEntity
   8
LEVEL004
 370
20
 100
AcDbLine
   6
CONTINUOUS
  62
7
  10
 1003.0048611129
  20
 812.22197356759
  30
0.0
  11
 1017.5884532479
  21
 812.22197356759
  31
0.0
   0
LINE
   5
3CC
 100
AcDbEntity
   8
LEVEL004
 370
20
 100
AcDbLine
   6
CONTINUOUS
  62
7
  10
 1017.5884532479
  20
 812.22197356759
  30
0.0
  11
 1003.0048611129
  21
 812.22197356759
  31
0.0
   0
LINE
   5
3CD
 100
AcDbEntity
   8
LEVEL004
 370
20
 100
AcDbLine
   6
CONTINUOUS
  62
7
  10
 1017.5884532479
  20
 812.22197356759
  30
0.0
  11
 1003.0048611129
  21
 812.22197356759
  31
0.0
   0
LINE
   5
3CE
 100
AcDbEntity
   8
LEVEL004
 370
20
 100
AcDbLine
   6
CONTINUOUS
  62
7
  10
 1017.5884532479
  20
 812.22197356759
  30
0.0
  11
 1003.0048611129
  21
 812.22197356759
  31
0.0
   0
LINE
   5
3CF
 100
AcDbEntity
   8
LEVEL004
 370
20
 100
AcDbLine
   6
CONTINUOUS
  62
7
  10
 1017.5884532479
  20
 812.22197356759
  30
0.0
  11
 1003.0048611129
  21
 812.22197356759
  31
0.0
   0
LINE
   5
3D0
 100
AcDbEntity
   8
LEVEL001
 370
20
 100
AcDbLine
   6
CONTINUOUS
  62
7
  10
 1037.7966571804
  20
 710.72197356759
  30
0.0
  11
 982.79665718044
  21
 710.72197356759
  31
0.0
   0
LINE
   5
3D1
 100
AcDbEntity
   8
LEVEL001
 370
20
 100
AcDbLine
   6
CONTINUOUS
  62
7
  10
 984.29665718044
  20
 712.22197356759
  30
0.0
  11
 1036.2966571804
  21
 712.22197356759
  31
0.0
   0
LINE
   5
3D2
 100
AcDbEntity
   8
LEVEL001
 370
20
 100
AcDbLine
   6
CONTINUOUS
  62
7
  10
 1036.2966571804
  20
 712.22197356759
  30
0.0
  11
 1037.7966571804
  21
 710.72197356759
  31
0.0
   0
LINE
   5
3D3
 100
AcDbEntity
   8
LEVEL001
 370
20
 100
AcDbLine
   6
CONTINUOUS
  62
7
  10
 1037.7966571804
  20
 708.72197356759
  30
0.0
  11
 982.79665718044
  21
 708.72197356759
  31
0.0
   0
LINE
   5
3D4
 100
AcDbEntity
   8
LEVEL001
 370
20
 100
AcDbLine
   6
CONTINUOUS
  62
7
  10
 1037.7966571804
  20
 710.72197356759
  30
0.0
  11
 1037.7966571804
  21
 708.72197356759
  31
0.0
   0
LINE
   5
3D5
 100
AcDbEntity
   8
LEVEL001
 370
20
 100
AcDbLine
   6
CONTINUOUS
  62
7
  10
 982.79665718044
  20
 710.72197356759
  30
0.0
  11
 984.29665718044
  21
 712.22197356759
  31
0.0
   0
LINE
   5
3D6
 100
AcDbEntity
   8
LEVEL001
 370
20
 100
AcDbLine
   6
CONTINUOUS
  62
7
  10
 982.79665718044
  20
 708.72197356759
  30
0.0
  11
 982.79665718044
  21
 710.72197356759
  31
0.0
   0
LINE
   5
3D7
 100
AcDbEntity
   8
LEVEL001
 370
20
 100
AcDbLine
   6
CONTINUOUS
  62
7
  10
 1002.2966571804
  20
 812.22197356759
  30
0.0
  11
 1002.2966571804
  21
 712.22197356759
  31
0.0
   0
LINE
   5
3D8
 100
AcDbEntity
   8
LEVEL001
 370
20
 100
AcDbLine
   6
CONTINUOUS
  62
7
  10
 1018.2966571804
  20
 712.22197356759
  30
0.0
  11
 1018.2966571804
  21
 812.22197356759
  31
0.0
   0
DIMENSION
   5
3D9
 100
AcDbEntity
   8
0
 370
20
   6
CONTINUOUS
  62
8
 100
AcDbDimension
   2
*D29
  10
 1037.7966571804
  20
 678.72197356759
  30
0.0
  11
 1010.2966571804
  21
 678.72197356759
  31
0.0
  70
0
   3
GMM001
 100
AcDbAlignedDimension
  13
 982.79665718044
  23
 708.72197356759
  33
0.0
  14
 1037.7966571804
  24
 708.72197356759
  34
0.0
 100
AcDbRotatedDimension
   0
DIMENSION
   5
3DA
 100
AcDbEntity
   8
0
 370
20
   6
CONTINUOUS
  62
8
 100
AcDbDimension
   2
*D30
  10
 1018.2966571804
  20
 767.40416449560
  30
0.0
  11
 1026.3013917437
  21
 767.40416449560
  31
0.0
  70
128
   3
GMM004
 100
AcDbAlignedDimension
  13
 1002.2966571804
  23
 767.40416449560
  33
0.0
  14
 1018.2966571804
  24
 767.40416449560
  34
0.0
 100
AcDbRotatedDimension
   0
LINE
   5
3DB
 100
AcDbEntity
   8
LEVEL001
 370
20
 100
AcDbLine
   6
HIDDEN
  62
2
  10
 1005.9966571804
  20
 713.42197356759
  30
0.0
  11
 1005.9966571804
  21
 743.22197356759
  31
0.0
   0
LINE
   5
3DC
 100
AcDbEntity
   8
LEVEL001
 370
20
 100
AcDbLine
   6
HIDDEN
  62
2
  10
 1005.9966571804
  20
 743.22197356759
  30
0.0
  11
 1010.2966571804
  21
 745.22197356759
  31
0.0
   0
LINE
   5
3DD
 100
AcDbEntity
   8
LEVEL001
 370
20
 100
AcDbLine
   6
HIDDEN
  62
2
  10
 1005.9966571804
  20
 738.34197356759
  30
0.0
  11
 1005.2966571804
  21
 737.22197356759
  31
0.0
   0
LINE
   5
3DE
 100
AcDbEntity
   8
LEVEL001
 370
20
 100
AcDbLine
   6
HIDDEN
  62
2
  10
 1005.2966571804
  20
 737.22197356759
  30
0.0
  11
 1005.2966571804
  21
 712.72197356759
  31
0.0
   0
LINE
   5
3DF
 100
AcDbEntity
   8
LEVEL001
 370
20
 100
AcDbLine
   6
HIDDEN
  62
2
  10
 1014.5966571804
  20
 743.22197356759
  30
0.0
  11
 1005.9966571804
  21
 743.22197356759
  31
0.0
   0
LINE
   5
3E0
 100
AcDbEntity
   8
LEVEL001
 370
20
 100
AcDbLine
   6
HIDDEN
  62
2
  10
 1015.2966571804
  20
 737.22197356759
  30
0.0
  11
 1005.2966571804
  21
 737.22197356759
  31
0.0
   0
LINE
   5
3E1
 100
AcDbEntity
   8
LEVEL001
 370
20
 100
AcDbLine
   6
HIDDEN
  62
2
  10
 1014.5966571804
  20
 713.42197356759
  30
0.0
  11
 1005.9966571804
  21
 713.42197356759
  31
0.0
   0
LINE
   5
3E2
 100
AcDbEntity
   8
LEVEL001
 370
20
 100
AcDbLine
   6
HIDDEN
  62
2
  10
 1005.9966571804
  20
 713.42197356759
  30
0.0
  11
 1004.7966571804
  21
 712.22197356759
  31
0.0
   0
LINE
   5
3E3
 100
AcDbEntity
   8
LEVEL001
 370
20
 100
AcDbLine
   6
HIDDEN
  62
2
  10
 1014.5966571804
  20
 738.34197356759
  30
0.0
  11
 1005.9966571804
  21
 738.34197356759
  31
0.0
   0
LINE
   5
3E4
 100
AcDbEntity
   8
LEVEL001
 370
20
 100
AcDbLine
   6
HIDDEN
  62
2
  10
 1014.5966571804
  20
 743.22197356759
  30
0.0
  11
 1014.5966571804
  21
 713.42197356759
  31
0.0
   0
LINE
   5
3E5
 100
AcDbEntity
   8
LEVEL001
 370
20
 100
AcDbLine
   6
HIDDEN
  62
2
  10
 1015.2966571804
  20
 712.72197356759
  30
0.0
  11
 1015.2966571804
  21
 737.22197356759
  31
0.0
   0
LINE
   5
3E6
 100
AcDbEntity
   8
LEVEL001
 370
20
 100
AcDbLine
   6
HIDDEN
  62
2
  10
 1014.5966571804
  20
 713.42197356759
  30
0.0
  11
 1015.7966571804
  21
 712.22197356759
  31
0.0
   0
LINE
   5
3E7
 100
AcDbEntity
   8
LEVEL001
 370
20
 100
AcDbLine
   6
HIDDEN
  62
2
  10
 1010.2966571804
  20
 745.22197356759
  30
0.0
  11
 1014.5966571804
  21
 743.22197356759
  31
0.0
   0
LINE
   5
3E8
 100
AcDbEntity
   8
LEVEL001
 370
20
 100
AcDbLine
   6
HIDDEN
  62
2
  10
 1015.2966571804
  20
 737.22197356759
  30
0.0
  11
 1014.5966571804
  21
 738.34197356759
  31
0.0
   0
LINE
   5
3E9
 100
AcDbEntity
   8
LEVEL001
 370
20
 100
AcDbLine
   6
HIDDEN
  62
2
  10
 1015.4466571805
  20
 712.22197356759
  30
0.0
  11
 1015.4466571805
  21
 708.72197356759
  31
0.0
   0
LINE
   5
3EA
 100
AcDbEntity
   8
LEVEL001
 370
20
 100
AcDbLine
   6
HIDDEN
  62
2
  10
 1005.1466571804
  20
 712.22197356759
  30
0.0
  11
 1005.1466571804
  21
 708.72197356759
  31
0.0
   0
DIMENSION
   5
3EB
 100
AcDbEntity
   8
0
 370
20
   6
CONTINUOUS
  62
8
 100
AcDbDimension
   2
*D31
  10
 1072.5451233172
  20
 712.22197356759
  30
0.0
  11
 1072.5451233172
  21
 703.15667802999
  31
0.0
  70
128
   3
GMM005
 100
AcDbAlignedDimension
  13
 1037.7966571804
  23
 708.72197356759
  33
0.0
  14
 1036.2966571804
  24
 712.22197356759
  34
0.0
  50
 90.000000000000
 100
AcDbRotatedDimension
   0
DIMENSION
   5
3EC
 100
AcDbEntity
   8
0
 370
20
   6
CONTINUOUS
  62
8
 100
AcDbDimension
   2
*D32
  10
 1072.5451233172
  20
 812.22197356759
  30
0.0
  11
 1072.5451233172
  21
 762.22197356759
  31
0.0
  70
0
   1
\A1;H
   3
GMM006
 100
AcDbAlignedDimension
  13
 1036.2966571804
  23
 712.22197356759
  33
0.0
  14
 1050.2966571804
  24
 812.22197356759
  34
0.0
  50
 90.000000000000
 100
AcDbRotatedDimension
   0
DIMENSION
   5
3ED
 100
AcDbEntity
   8
0
 370
20
   6
CONTINUOUS
  62
8
 100
AcDbDimension
   2
*D33
  10
 469.54512331723
  20
 712.22197356779
  30
0.0
  11
 469.54512331723
  21
 703.15667803020
  31
0.0
  70
128
   3
GMM005
 100
AcDbAlignedDimension
  13
 434.79665718044
  23
 708.72197356779
  33
0.0
  14
 433.29665718044
  24
 712.22197356779
  34
0.0
  50
 90.000000000000
 100
AcDbRotatedDimension
   0
DIMENSION
   5
3EE
 100
AcDbEntity
   8
0
 370
20
   6
CONTINUOUS
  62
8
 100
AcDbDimension
   2
*D34
  10
 469.54512331723
  20
 812.22197356779
  30
0.0
  11
 469.54512331723
  21
 762.22197356779
  31
0.0
  70
0
   1
\A1;H
   3
GMM006
 100
AcDbAlignedDimension
  13
 433.29665718044
  23
 712.22197356779
  33
0.0
  14
 446.16412617870
  24
 812.22197356779
  34
0.0
  50
 90.000000000000
 100
AcDbRotatedDimension
   0
MTEXT
   5
3F0
 100
AcDbEntity
   8
LEVEL001
 370
20
  62
8
 100
AcDbMText
  10
 1573.2000000001
  20
 194.66666666668
  30
0.0
  40
 8.0000000000000
  41
0.0
  71
5
  72
1
   1
\T1.000000;平成３１年　３月　１日
   7
GMM001
  44
 0.79999984000003
   0
ENDSEC
  0
SECTION
  2
OBJECTS
  0
DICTIONARY
  5
C
100
AcDbDictionary
  3
ACAD_GROUP
350
D
  3
ACAD_MLINESTYLE
350
1B
  3
DWGPROPS
350
1C
  0
DICTIONARY
  5
D
102
{ACAD_REACTORS
330
C
102
}
100
AcDbDictionary
  0
DICTIONARY
  5
1B
102
{ACAD_REACTORS
330
C
102
}
100
AcDbDictionary
  3
STANDARD
350
1D
  0
MLINESTYLE
  5
1D
102
{ACAD_REACTORS
330
1B
102
}
100
AcDbMlineStyle
  2
STANDARD
 70
     0
  3

 62
   256
 51
90.0
 52
90.0
 71
     2
 49
0.5
 62
   256
  6
BYLAYER
 49
-0.5
 62
   256
  6
BYLAYER
   0
XRECORD
   5
1C
 102
{ACAD_REACTORS
 330
C
 102
}
 330
C
 100
AcDbXrecord
 280
1
   1
DWGPROPS COOKIE
   2
 
   3
 
   4
haruna
   6
 
   7
PITK
   8
haruna
   9

 300
 = 
 301
 = 
 302
 = 
 303
 = 
 304
 = 
 305
 = 
 306
 = 
 307
 = 
 308
 = 
 309
 = 
  40
0.0
  41
 2458546.5000000
  42
 2458547.5000000
   1

  90
10
   0
ENDSEC
   0
EOF
